  0
SECTION
  2
HEADER
  9
$ACADVER
  1
AC1009
999
I-DEAS 8 Not Encoded
  9
$EXTMIN
 10
0.0
 20
0.0
  9
$EXTMAX
 10
4.2E+002
 20
2.97E+002
  9
$TEXTSIZE
 40
1.25E-001
  9
$LTSCALE
 40
1.0
  9
$CLAYER
  8
104
  9
$CECOLOR
 62
40
  9
$DIMASZ
 40
1.25E-001
  9
$DIMEXO
 40
6.25E-002
  9
$DIMDLI
 40
2.5E-001
  9
$DIMEXE
 40
1.25E-001
  9
$DIMTP
 40
5.0E-003
  9
$DIMTM
 40
-5.0E-003
  9
$DIMTXT
 40
3.0
  9
$DIMLIM
 70
0
  9
$DIMTIH
 70
1
  9
$DIMTOH
 70
1
  9
$DIMSE1
 70
0
  9
$DIMSE2
 70
0
  9
$DIMTAD
 70
0
  9
$DIMASO
 70
1
  9
$DIMALT
 70
0
  9
$DIMALTD
 70
0
  9
$DIMTOFL
 70
1
  9
$DIMTIX
 70
0
  9
$DIMSAH
 70
0
  9
$DIMTFAC
 40
1.0
  9
$DIMGAP
 40
6.25E-002
  9
$LUNITS
 70
2
  9
$LUPREC
 70
3
  9
$FILLETRAD
 40
2.0
  9
$AUNITS
 70
0
  9
$AUPREC
 70
1
  9
$CHAMFERA
 40
1.0E+001
  9
$CHAMFERB
 40
1.0E+001
  9
$ANGBASE
 50
0.0
  9
$ANGDIR
 70
0
  9
$PDMODE
 70
2
  9
$PDSIZE
 40
-1.0E-002
  9
$SPLINETYPE
 70
6
  0
ENDSEC
  0
SECTION
  2
TABLES
  0
TABLE
  2
LTYPE
 70
7
  0
LTYPE
  2
HIDDENNEW00
  3
_ 
 70
64
 72
65
 73
3
 40
4.5
 49
1.5
 49
-1.5
 49
1.5
  0
LTYPE
  2
HIDDENNEW01
  3
_ 
 70
64
 72
65
 73
3
 40
4.5
 49
1.5
 49
-1.5
 49
1.5
  0
LTYPE
  2
HIDDEN
  3
_ 
 70
64
 72
65
 73
3
 40
4.5
 49
1.5
 49
-1.5
 49
1.5
  0
LTYPE
  2
CENTERLINE
  3
_ 
 70
64
 72
65
 73
5
 40
3.0E+001
 49
1.2E+001
 49
-1.5
 49
3.0
 49
-1.5
 49
1.2E+001
  0
LTYPE
  2
PHANTOM
  3
_ 
 70
64
 72
65
 73
7
 40
2.95E+001
 49
9.5
 49
-1.5
 49
3.0
 49
-1.5
 49
3.0
 49
-1.5
 49
9.5
  0
LTYPE
  2
SHORT_DASH
  3
_ 
 70
64
 72
65
 73
3
 40
3.0
 49
7.5E-001
 49
-1.5
 49
7.5E-001
  0
LTYPE
  2
LONG_DASH
  3
_ 
 70
64
 72
65
 73
3
 40
9.0
 49
2.25
 49
-4.5
 49
2.25
  0
ENDTAB
  0
TABLE
  2
LAYER
 70
258
  0
LAYER
  2
MED-1
 70
0
 62
3
  6
HIDDENNEW00
  0
LAYER
  2
2
 70
0
 62
7
  6
CONTINUOUS
  0
LAYER
  2
3
 70
0
 62
7
  6
CONTINUOUS
  0
LAYER
  2
MED-4
 70
0
 62
2
  6
HIDDENNEW00
  0
LAYER
  2
5
 70
0
 62
7
  6
CONTINUOUS
  0
LAYER
  2
MED-6
 70
0
 62
6
  6
HIDDENNEW00
  0
LAYER
  2
7
 70
0
 62
7
  6
CONTINUOUS
  0
LAYER
  2
8
 70
0
 62
7
  6
CONTINUOUS
  0
LAYER
  2
9
 70
0
 62
7
  6
CONTINUOUS
  0
LAYER
  2
10
 70
0
 62
7
  6
CONTINUOUS
  0
LAYER
  2
MED-11
 70
0
 62
70
  6
HIDDENNEW00
  0
LAYER
  2
12
 70
0
 62
7
  6
CONTINUOUS
  0
LAYER
  2
13
 70
0
 62
7
  6
CONTINUOUS
  0
LAYER
  2
14
 70
0
 62
7
  6
CONTINUOUS
  0
LAYER
  2
15
 70
0
 62
7
  6
CONTINUOUS
  0
LAYER
  2
16
 70
0
 62
7
  6
CONTINUOUS
  0
LAYER
  2
17
 70
0
 62
7
  6
CONTINUOUS
  0
LAYER
  2
18
 70
0
 62
7
  6
CONTINUOUS
  0
LAYER
  2
19
 70
0
 62
7
  6
CONTINUOUS
  0
LAYER
  2
20
 70
0
 62
7
  6
CONTINUOUS
  0
LAYER
  2
21
 70
0
 62
7
  6
CONTINUOUS
  0
LAYER
  2
22
 70
0
 62
7
  6
CONTINUOUS
  0
LAYER
  2
23
 70
0
 62
7
  6
CONTINUOUS
  0
LAYER
  2
24
 70
0
 62
7
  6
CONTINUOUS
  0
LAYER
  2
25
 70
0
 62
7
  6
CONTINUOUS
  0
LAYER
  2
26
 70
0
 62
7
  6
CONTINUOUS
  0
LAYER
  2
27
 70
0
 62
7
  6
CONTINUOUS
  0
LAYER
  2
28
 70
0
 62
7
  6
CONTINUOUS
  0
LAYER
  2
29
 70
0
 62
7
  6
CONTINUOUS
  0
LAYER
  2
30
 70
0
 62
7
  6
CONTINUOUS
  0
LAYER
  2
31
 70
0
 62
7
  6
CONTINUOUS
  0
LAYER
  2
32
 70
0
 62
7
  6
CONTINUOUS
  0
LAYER
  2
33
 70
0
 62
7
  6
CONTINUOUS
  0
LAYER
  2
34
 70
0
 62
7
  6
CONTINUOUS
  0
LAYER
  2
35
 70
0
 62
7
  6
CONTINUOUS
  0
LAYER
  2
36
 70
0
 62
7
  6
CONTINUOUS
  0
LAYER
  2
37
 70
0
 62
7
  6
CONTINUOUS
  0
LAYER
  2
38
 70
0
 62
7
  6
CONTINUOUS
  0
LAYER
  2
39
 70
0
 62
7
  6
CONTINUOUS
  0
LAYER
  2
40
 70
0
 62
7
  6
CONTINUOUS
  0
LAYER
  2
41
 70
0
 62
7
  6
CONTINUOUS
  0
LAYER
  2
42
 70
0
 62
7
  6
CONTINUOUS
  0
LAYER
  2
43
 70
0
 62
7
  6
CONTINUOUS
  0
LAYER
  2
44
 70
0
 62
7
  6
CONTINUOUS
  0
LAYER
  2
45
 70
0
 62
7
  6
CONTINUOUS
  0
LAYER
  2
46
 70
0
 62
7
  6
CONTINUOUS
  0
LAYER
  2
47
 70
0
 62
7
  6
CONTINUOUS
  0
LAYER
  2
48
 70
0
 62
7
  6
CONTINUOUS
  0
LAYER
  2
49
 70
0
 62
7
  6
CONTINUOUS
  0
LAYER
  2
50
 70
0
 62
7
  6
CONTINUOUS
  0
LAYER
  2
51
 70
0
 62
7
  6
CONTINUOUS
  0
LAYER
  2
52
 70
0
 62
7
  6
CONTINUOUS
  0
LAYER
  2
53
 70
0
 62
7
  6
CONTINUOUS
  0
LAYER
  2
54
 70
0
 62
7
  6
CONTINUOUS
  0
LAYER
  2
55
 70
0
 62
7
  6
CONTINUOUS
  0
LAYER
  2
56
 70
0
 62
7
  6
CONTINUOUS
  0
LAYER
  2
57
 70
0
 62
7
  6
CONTINUOUS
  0
LAYER
  2
58
 70
0
 62
7
  6
CONTINUOUS
  0
LAYER
  2
59
 70
0
 62
7
  6
CONTINUOUS
  0
LAYER
  2
60
 70
0
 62
7
  6
CONTINUOUS
  0
LAYER
  2
61
 70
0
 62
7
  6
CONTINUOUS
  0
LAYER
  2
62
 70
0
 62
7
  6
CONTINUOUS
  0
LAYER
  2
63
 70
0
 62
7
  6
CONTINUOUS
  0
LAYER
  2
64
 70
0
 62
7
  6
CONTINUOUS
  0
LAYER
  2
65
 70
0
 62
7
  6
CONTINUOUS
  0
LAYER
  2
66
 70
0
 62
7
  6
CONTINUOUS
  0
LAYER
  2
67
 70
0
 62
7
  6
CONTINUOUS
  0
LAYER
  2
68
 70
0
 62
7
  6
CONTINUOUS
  0
LAYER
  2
69
 70
0
 62
7
  6
CONTINUOUS
  0
LAYER
  2
70
 70
0
 62
7
  6
CONTINUOUS
  0
LAYER
  2
71
 70
0
 62
7
  6
CONTINUOUS
  0
LAYER
  2
72
 70
0
 62
7
  6
CONTINUOUS
  0
LAYER
  2
73
 70
0
 62
7
  6
CONTINUOUS
  0
LAYER
  2
74
 70
0
 62
7
  6
CONTINUOUS
  0
LAYER
  2
75
 70
0
 62
7
  6
CONTINUOUS
  0
LAYER
  2
76
 70
0
 62
7
  6
CONTINUOUS
  0
LAYER
  2
77
 70
0
 62
7
  6
CONTINUOUS
  0
LAYER
  2
78
 70
0
 62
7
  6
CONTINUOUS
  0
LAYER
  2
79
 70
0
 62
7
  6
CONTINUOUS
  0
LAYER
  2
80
 70
0
 62
7
  6
CONTINUOUS
  0
LAYER
  2
81
 70
0
 62
7
  6
CONTINUOUS
  0
LAYER
  2
82
 70
0
 62
7
  6
CONTINUOUS
  0
LAYER
  2
83
 70
0
 62
7
  6
CONTINUOUS
  0
LAYER
  2
84
 70
0
 62
7
  6
CONTINUOUS
  0
LAYER
  2
85
 70
0
 62
7
  6
CONTINUOUS
  0
LAYER
  2
86
 70
0
 62
7
  6
CONTINUOUS
  0
LAYER
  2
87
 70
0
 62
7
  6
CONTINUOUS
  0
LAYER
  2
88
 70
0
 62
7
  6
CONTINUOUS
  0
LAYER
  2
89
 70
0
 62
7
  6
CONTINUOUS
  0
LAYER
  2
90
 70
0
 62
7
  6
CONTINUOUS
  0
LAYER
  2
91
 70
0
 62
7
  6
CONTINUOUS
  0
LAYER
  2
92
 70
0
 62
7
  6
CONTINUOUS
  0
LAYER
  2
93
 70
0
 62
7
  6
CONTINUOUS
  0
LAYER
  2
94
 70
0
 62
7
  6
CONTINUOUS
  0
LAYER
  2
95
 70
0
 62
7
  6
CONTINUOUS
  0
LAYER
  2
96
 70
0
 62
7
  6
CONTINUOUS
  0
LAYER
  2
97
 70
0
 62
7
  6
CONTINUOUS
  0
LAYER
  2
98
 70
0
 62
7
  6
CONTINUOUS
  0
LAYER
  2
99
 70
0
 62
7
  6
CONTINUOUS
  0
LAYER
  2
MED-0
 70
0
 62
230
  6
HIDDENNEW00
  0
LAYER
  2
M_ERR
 70
0
 62
1
  6
HIDDENNEW00
  0
LAYER
  2
102
 70
0
 62
7
  6
CONTINUOUS
  0
LAYER
  2
103
 70
0
 62
7
  6
CONTINUOUS
  0
LAYER
  2
104
 70
0
 62
7
  6
CONTINUOUS
  0
LAYER
  2
105
 70
0
 62
7
  6
CONTINUOUS
  0
LAYER
  2
106
 70
0
 62
7
  6
CONTINUOUS
  0
LAYER
  2
Drafting_Hidden_Entities
 70
1
 62
7
  6
CONTINUOUS
  0
ENDTAB
  0
TABLE
  2
STYLE
 70
1
  0
STYLE
  2
STANDARD
 70
64
 40
0.0
 41
1.0
 50
0.0
 71
0
 42
1.0
  3
monotxt.shx
  4

  0
ENDTAB
  0
TABLE
  2
VIEW
 70
0
  0
ENDTAB
  0
TABLE
  2
DIMSTYLE
 70
1
  0
DIMSTYLE
  2
DSTYLE1
 70
0
  3

  4

  5

  6

  7

 40
1.0
 41
3.5
 42
1.0
 43
3.8E-001
 44
1.0
 45
0.0
 46
0.0
 47
1.0E-001
 48
1.0E-001
 71
0
 72
0
 73
0
 74
0
 75
0
 76
0
 77
1
 78
11
140
3.5
141
9.0E-002
142
0.0
143
1.0
144
1.0
145
0.0
146
1.0
147
1.1655
170
0
171
2
172
0
173
0
174
0
175
0
176
0
177
0
178
0
  0
ENDTAB
  0
ENDSEC
  0
SECTION
  2
BLOCKS
  0
BLOCK
  2
*AH13
  3
*AH
 10
0.0
 20
0.0
 70
65
  0
LINE
  8
MED-1
  6
CONTINUOUS
 62
0
 10
0.0
 20
0.0
 11
1.0
 21
-1.666679E-001
  0
LINE
  8
MED-1
  6
CONTINUOUS
 62
0
 10
1.0
 20
-1.666679E-001
 11
1.0
 21
1.66668E-001
  0
LINE
  8
MED-1
  6
CONTINUOUS
 62
0
 10
1.0
 20
1.66668E-001
 11
0.0
 21
0.0
  0
ENDBLK
  0
BLOCK
  2
*D238
  3
*D
 10
0.0
 20
0.0
 70
65
  0
LINE
  8
MED-0
  6
CONTINUOUS
 62
4
 10
3.6430299E+002
 20
1.2956863E+002
 11
3.6430299E+002
 21
1.4441053E+002
  0
LINE
  8
MED-0
  6
CONTINUOUS
 62
4
 10
3.4430299E+002
 20
1.2956863E+002
 11
3.4430299E+002
 21
1.4441053E+002
  0
SOLID
  8
MED-1
  6
CONTINUOUS
 62
0
 10
3.6430299E+002
 20
1.4341053E+002
 11
3.6080299E+002
 21
1.4399387E+002
 12
3.6080299E+002
 22
1.4282719E+002
 13
3.6080299E+002
 23
1.4282719E+002
  0
SOLID
  8
MED-1
  6
CONTINUOUS
 62
0
 10
3.4430299E+002
 20
1.4341053E+002
 11
3.4780299E+002
 21
1.4282719E+002
 12
3.4780299E+002
 22
1.4399387E+002
 13
3.4780299E+002
 23
1.4399387E+002
  0
LINE
  8
MED-0
  6
CONTINUOUS
 62
4
 10
3.5447695E+002
 20
1.4341053E+002
 11
3.6430299E+002
 21
1.4341053E+002
  0
LINE
  8
MED-0
  6
CONTINUOUS
 62
4
 10
3.4430299E+002
 20
1.4341053E+002
 11
3.5447695E+002
 21
1.4341053E+002
  0
TEXT
  8
MED-0
  6
CONTINUOUS
 62
4
 10
3.5214362E+002
 20
1.4457603E+002
 40
3.5
  1
50
 41
6.6666667E-001
  0
ENDBLK
  0
BLOCK
  2
*D257
  3
*D
 10
0.0
 20
0.0
 70
65
  0
LINE
  8
MED-0
  6
CONTINUOUS
 62
4
 10
3.9430299E+002
 20
9.5840248E+001
 11
3.9430299E+002
 21
1.5075834E+002
  0
LINE
  8
MED-0
  6
CONTINUOUS
 62
4
 10
3.5430299E+002
 20
1.3756863E+002
 11
3.5430299E+002
 21
1.5075834E+002
  0
SOLID
  8
MED-1
  6
CONTINUOUS
 62
0
 10
3.9430299E+002
 20
1.4975834E+002
 11
3.9080299E+002
 21
1.5034168E+002
 12
3.9080299E+002
 22
1.49175E+002
 13
3.9080299E+002
 23
1.49175E+002
  0
SOLID
  8
MED-1
  6
CONTINUOUS
 62
0
 10
3.5430299E+002
 20
1.4975834E+002
 11
3.5780299E+002
 21
1.49175E+002
 12
3.5780299E+002
 22
1.5034168E+002
 13
3.5780299E+002
 23
1.5034168E+002
  0
LINE
  8
MED-0
  6
CONTINUOUS
 62
4
 10
3.7438076E+002
 20
1.4975834E+002
 11
3.9430299E+002
 21
1.4975834E+002
  0
LINE
  8
MED-0
  6
CONTINUOUS
 62
4
 10
3.5430299E+002
 20
1.4975834E+002
 11
3.7438076E+002
 21
1.4975834E+002
  0
TEXT
  8
MED-0
  6
CONTINUOUS
 62
4
 10
3.7088076E+002
 20
1.5092384E+002
 40
3.5
  1
100
 41
6.6666667E-001
  0
ENDBLK
  0
BLOCK
  2
*D266
  3
*D
 10
0.0
 20
0.0
 70
65
  0
LINE
  8
MED-0
  6
CONTINUOUS
 62
4
 10
3.2473787E+002
 20
1.1656863E+002
 11
3.0684862E+002
 21
1.1656863E+002
  0
LINE
  8
MED-0
  6
CONTINUOUS
 62
4
 10
3.3858761E+002
 20
1.2856863E+002
 11
3.0684862E+002
 21
1.2856863E+002
  0
SOLID
  8
MED-1
  6
CONTINUOUS
 62
0
 10
3.0784862E+002
 20
1.1656863E+002
 11
3.0843195E+002
 21
1.2006863E+002
 12
3.0726528E+002
 22
1.2006863E+002
 13
3.0726528E+002
 23
1.2006863E+002
  0
SOLID
  8
MED-1
  6
CONTINUOUS
 62
0
 10
3.0784862E+002
 20
1.2856863E+002
 11
3.0726528E+002
 21
1.2506863E+002
 12
3.0843195E+002
 22
1.2506863E+002
 13
3.0843195E+002
 23
1.2506863E+002
  0
LINE
  8
MED-0
  6
CONTINUOUS
 62
4
 10
3.0784862E+002
 20
1.1656863E+002
 11
3.0784862E+002
 21
1.2265942E+002
  0
LINE
  8
MED-0
  6
CONTINUOUS
 62
4
 10
3.0784862E+002
 20
1.2265942E+002
 11
3.0784862E+002
 21
1.2856863E+002
  0
TEXT
  8
MED-0
  6
CONTINUOUS
 62
4
 10
3.0668312E+002
 20
1.2032609E+002
 40
3.5
  1
30
 41
6.6666667E-001
 50
9.0E+001
  0
ENDBLK
  0
BLOCK
  2
*D275
  3
*D
 10
0.0
 20
0.0
 70
65
  0
LINE
  8
MED-0
  6
CONTINUOUS
 62
4
 10
3.3230299E+002
 20
9.7168632E+001
 11
3.3230299E+002
 21
8.5860588E+001
  0
LINE
  8
MED-0
  6
CONTINUOUS
 62
4
 10
3.7630298E+002
 20
9.7168632E+001
 11
3.7630298E+002
 21
8.5860588E+001
  0
SOLID
  8
MED-1
  6
CONTINUOUS
 62
0
 10
3.3230299E+002
 20
8.6860588E+001
 11
3.3580299E+002
 21
8.627725E+001
 12
3.3580299E+002
 22
8.7443925E+001
 13
3.3580299E+002
 23
8.7443925E+001
  0
SOLID
  8
MED-1
  6
CONTINUOUS
 62
0
 10
3.7630298E+002
 20
8.6860588E+001
 11
3.7280298E+002
 21
8.7443925E+001
 12
3.7280298E+002
 22
8.627725E+001
 13
3.7280298E+002
 23
8.627725E+001
  0
LINE
  8
MED-0
  6
CONTINUOUS
 62
4
 10
3.3230299E+002
 20
8.6860588E+001
 11
3.5438076E+002
 21
8.6860588E+001
  0
LINE
  8
MED-0
  6
CONTINUOUS
 62
4
 10
3.5438076E+002
 20
8.6860588E+001
 11
3.7630298E+002
 21
8.6860588E+001
  0
TEXT
  8
MED-0
  6
CONTINUOUS
 62
4
 10
3.5088076E+002
 20
8.8026088E+001
 40
3.5
  1
110
 41
6.6666667E-001
  0
ENDBLK
  0
BLOCK
  2
*D284
  3
*D
 10
0.0
 20
0.0
 70
65
  0
LINE
  8
MED-0
  6
CONTINUOUS
 62
4
 10
3.2630299E+002
 20
9.9568626E+001
 11
3.2630299E+002
 21
7.8999107E+001
  0
LINE
  8
MED-0
  6
CONTINUOUS
 62
4
 10
3.8230298E+002
 20
9.9568626E+001
 11
3.8230298E+002
 21
7.8999107E+001
  0
SOLID
  8
MED-1
  6
CONTINUOUS
 62
0
 10
3.2630299E+002
 20
7.9999107E+001
 11
3.2980299E+002
 21
7.9415769E+001
 12
3.2980299E+002
 22
8.0582445E+001
 13
3.2980299E+002
 23
8.0582445E+001
  0
SOLID
  8
MED-1
  6
CONTINUOUS
 62
0
 10
3.8230298E+002
 20
7.9999107E+001
 11
3.7880298E+002
 21
8.0582445E+001
 12
3.7880298E+002
 22
7.9415769E+001
 13
3.7880298E+002
 23
7.9415769E+001
  0
LINE
  8
MED-0
  6
CONTINUOUS
 62
4
 10
3.2630299E+002
 20
7.9999107E+001
 11
3.5674326E+002
 21
7.9999107E+001
  0
LINE
  8
MED-0
  6
CONTINUOUS
 62
4
 10
3.5674326E+002
 20
7.9999107E+001
 11
3.8230298E+002
 21
7.9999107E+001
  0
TEXT
  8
MED-0
  6
CONTINUOUS
 62
4
 10
3.5090993E+002
 20
8.1164607E+001
 40
3.5
  1
(
 41
6.6666667E-001
  0
TEXT
  8
MED-0
  6
CONTINUOUS
 62
4
 10
3.5324326E+002
 20
8.1164607E+001
 40
3.5
  1
140
 41
6.6666667E-001
  0
TEXT
  8
MED-0
  6
CONTINUOUS
 62
4
 10
3.6024326E+002
 20
8.1164607E+001
 40
3.5
  1
)
 41
6.6666667E-001
  0
ENDBLK
  0
BLOCK
  2
*D406
  3
*D
 10
0.0
 20
0.0
 70
65
  0
LINE
  8
MED-0
  6
CONTINUOUS
 62
4
 10
1.065132E+002
 20
9.8567331E+001
 11
1.065132E+002
 21
8.2298792E+001
  0
LINE
  8
MED-0
  6
CONTINUOUS
 62
4
 10
8.6513203E+001
 20
9.8567331E+001
 11
8.6513203E+001
 21
8.2298792E+001
  0
SOLID
  8
MED-1
  6
CONTINUOUS
 62
0
 10
1.065132E+002
 20
8.3298792E+001
 11
1.030132E+002
 21
8.3882129E+001
 12
1.030132E+002
 22
8.2715454E+001
 13
1.030132E+002
 23
8.2715454E+001
  0
SOLID
  8
MED-1
  6
CONTINUOUS
 62
0
 10
8.6513203E+001
 20
8.3298792E+001
 11
9.0013203E+001
 21
8.2715454E+001
 12
9.0013203E+001
 22
8.3882129E+001
 13
9.0013203E+001
 23
8.3882129E+001
  0
LINE
  8
MED-0
  6
CONTINUOUS
 62
4
 10
9.6687157E+001
 20
8.3298792E+001
 11
1.065132E+002
 21
8.3298792E+001
  0
LINE
  8
MED-0
  6
CONTINUOUS
 62
4
 10
8.6513203E+001
 20
8.3298792E+001
 11
9.6687157E+001
 21
8.3298792E+001
  0
TEXT
  8
MED-0
  6
CONTINUOUS
 62
4
 10
9.4353823E+001
 20
8.4464292E+001
 40
3.5
  1
50
 41
6.6666667E-001
  0
ENDBLK
  0
BLOCK
  2
*D415
  3
*D
 10
0.0
 20
0.0
 70
65
  0
LINE
  8
MED-0
  6
CONTINUOUS
 62
4
 10
1.365132E+002
 20
8.8838937E+001
 11
1.365132E+002
 21
7.816311E+001
  0
LINE
  8
MED-0
  6
CONTINUOUS
 62
4
 10
9.6513199E+001
 20
9.1628122E+001
 11
9.6513199E+001
 21
7.816311E+001
  0
SOLID
  8
MED-1
  6
CONTINUOUS
 62
0
 10
1.365132E+002
 20
7.916311E+001
 11
1.330132E+002
 21
7.9746448E+001
 12
1.330132E+002
 22
7.8579773E+001
 13
1.330132E+002
 23
7.8579773E+001
  0
SOLID
  8
MED-1
  6
CONTINUOUS
 62
0
 10
9.6513199E+001
 20
7.916311E+001
 11
1.000132E+002
 21
7.8579773E+001
 12
1.000132E+002
 22
7.9746448E+001
 13
1.000132E+002
 23
7.9746448E+001
  0
LINE
  8
MED-0
  6
CONTINUOUS
 62
4
 10
1.1659098E+002
 20
7.916311E+001
 11
1.365132E+002
 21
7.916311E+001
  0
LINE
  8
MED-0
  6
CONTINUOUS
 62
4
 10
9.6513199E+001
 20
7.916311E+001
 11
1.1659098E+002
 21
7.916311E+001
  0
TEXT
  8
MED-0
  6
CONTINUOUS
 62
4
 10
1.1309098E+002
 20
8.032861E+001
 40
3.5
  1
100
 41
6.6666667E-001
  0
ENDBLK
  0
BLOCK
  2
*D425
  3
*D
 10
0.0
 20
0.0
 70
65
  0
LINE
  8
MED-0
  6
CONTINUOUS
 62
4
 10
6.6948079E+001
 20
1.1156733E+002
 11
4.9058827E+001
 21
1.1156733E+002
  0
LINE
  8
MED-0
  6
CONTINUOUS
 62
4
 10
8.0797821E+001
 20
9.9567331E+001
 11
4.9058827E+001
 21
9.9567331E+001
  0
SOLID
  8
MED-1
  6
CONTINUOUS
 62
0
 10
5.0058827E+001
 20
1.1156733E+002
 11
4.9475489E+001
 21
1.0806733E+002
 12
5.0642165E+001
 22
1.0806733E+002
 13
5.0642165E+001
 23
1.0806733E+002
  0
SOLID
  8
MED-1
  6
CONTINUOUS
 62
0
 10
5.0058827E+001
 20
9.9567331E+001
 11
5.0642165E+001
 21
1.0306733E+002
 12
4.9475489E+001
 22
1.0306733E+002
 13
4.9475489E+001
 23
1.0306733E+002
  0
LINE
  8
MED-0
  6
CONTINUOUS
 62
4
 10
5.0058827E+001
 20
1.0547653E+002
 11
5.0058827E+001
 21
1.1156733E+002
  0
LINE
  8
MED-0
  6
CONTINUOUS
 62
4
 10
5.0058827E+001
 20
9.9567331E+001
 11
5.0058827E+001
 21
1.0547653E+002
  0
TEXT
  8
MED-0
  6
CONTINUOUS
 62
4
 10
4.8893327E+001
 20
1.031432E+002
 40
3.5
  1
30
 41
6.6666667E-001
 50
9.0E+001
  0
ENDBLK
  0
BLOCK
  2
*D434
  3
*D
 10
0.0
 20
0.0
 70
65
  0
LINE
  8
MED-0
  6
CONTINUOUS
 62
4
 10
7.4513199E+001
 20
1.3096734E+002
 11
7.4513199E+001
 21
1.3940923E+002
  0
LINE
  8
MED-0
  6
CONTINUOUS
 62
4
 10
1.185132E+002
 20
1.3096734E+002
 11
1.185132E+002
 21
1.3940923E+002
  0
SOLID
  8
MED-1
  6
CONTINUOUS
 62
0
 10
7.4513199E+001
 20
1.3840923E+002
 11
7.8013199E+001
 21
1.378259E+002
 12
7.8013199E+001
 22
1.3899257E+002
 13
7.8013199E+001
 23
1.3899257E+002
  0
SOLID
  8
MED-1
  6
CONTINUOUS
 62
0
 10
1.185132E+002
 20
1.3840923E+002
 11
1.150132E+002
 21
1.3899257E+002
 12
1.150132E+002
 22
1.378259E+002
 13
1.150132E+002
 23
1.378259E+002
  0
LINE
  8
MED-0
  6
CONTINUOUS
 62
4
 10
7.4513199E+001
 20
1.3840923E+002
 11
9.6590979E+001
 21
1.3840923E+002
  0
LINE
  8
MED-0
  6
CONTINUOUS
 62
4
 10
9.6590979E+001
 20
1.3840923E+002
 11
1.185132E+002
 21
1.3840923E+002
  0
TEXT
  8
MED-0
  6
CONTINUOUS
 62
4
 10
9.3090979E+001
 20
1.3957473E+002
 40
3.5
  1
110
 41
6.6666667E-001
  0
ENDBLK
  0
BLOCK
  2
*D443
  3
*D
 10
0.0
 20
0.0
 70
65
  0
LINE
  8
MED-0
  6
CONTINUOUS
 62
4
 10
6.8513203E+001
 20
1.2856733E+002
 11
6.8513203E+001
 21
1.4575704E+002
  0
LINE
  8
MED-0
  6
CONTINUOUS
 62
4
 10
1.245132E+002
 20
1.2856733E+002
 11
1.245132E+002
 21
1.4575704E+002
  0
SOLID
  8
MED-1
  6
CONTINUOUS
 62
0
 10
6.8513203E+001
 20
1.4475704E+002
 11
7.2013203E+001
 21
1.4417371E+002
 12
7.2013203E+001
 22
1.4534038E+002
 13
7.2013203E+001
 23
1.4534038E+002
  0
SOLID
  8
MED-1
  6
CONTINUOUS
 62
0
 10
1.245132E+002
 20
1.4475704E+002
 11
1.210132E+002
 21
1.4534038E+002
 12
1.210132E+002
 22
1.4417371E+002
 13
1.210132E+002
 23
1.4417371E+002
  0
LINE
  8
MED-0
  6
CONTINUOUS
 62
4
 10
6.8513203E+001
 20
1.4475704E+002
 11
9.8953479E+001
 21
1.4475704E+002
  0
LINE
  8
MED-0
  6
CONTINUOUS
 62
4
 10
9.8953479E+001
 20
1.4475704E+002
 11
1.245132E+002
 21
1.4475704E+002
  0
TEXT
  8
MED-0
  6
CONTINUOUS
 62
4
 10
9.3120146E+001
 20
1.4592254E+002
 40
3.5
  1
(
 41
6.6666667E-001
  0
TEXT
  8
MED-0
  6
CONTINUOUS
 62
4
 10
9.5453479E+001
 20
1.4592254E+002
 40
3.5
  1
140
 41
6.6666667E-001
  0
TEXT
  8
MED-0
  6
CONTINUOUS
 62
4
 10
1.0245348E+002
 20
1.4592254E+002
 40
3.5
  1
)
 41
6.6666667E-001
  0
ENDBLK
  0
BLOCK
  2
*D566
  3
*D
 10
0.0
 20
0.0
 70
65
  0
LINE
  8
MED-0
  6
CONTINUOUS
 62
4
 10
3.8652349E+002
 20
2.0260322E+002
 11
3.9546064E+002
 21
2.0260322E+002
  0
LINE
  8
MED-0
  6
CONTINUOUS
 62
4
 10
3.8652349E+002
 20
2.1659453E+002
 11
3.9546064E+002
 21
2.1659453E+002
  0
SOLID
  8
MED-1
  6
CONTINUOUS
 62
0
 10
3.9446064E+002
 20
2.0260322E+002
 11
3.9504398E+002
 21
2.0610322E+002
 12
3.938773E+002
 22
2.0610322E+002
 13
3.938773E+002
 23
2.0610322E+002
  0
SOLID
  8
MED-1
  6
CONTINUOUS
 62
0
 10
3.9446064E+002
 20
2.1659453E+002
 11
3.938773E+002
 21
2.1309453E+002
 12
3.9504398E+002
 22
2.1309453E+002
 13
3.9504398E+002
 23
2.1309453E+002
  0
LINE
  8
MED-0
  6
CONTINUOUS
 62
4
 10
3.9446064E+002
 20
2.0260322E+002
 11
3.9446064E+002
 21
2.0892321E+002
  0
LINE
  8
MED-0
  6
CONTINUOUS
 62
4
 10
3.9446064E+002
 20
2.0892321E+002
 11
3.9446064E+002
 21
2.1659453E+002
  0
TEXT
  8
MED-0
  6
CONTINUOUS
 62
4
 10
3.9329514E+002
 20
2.0658987E+002
 40
3.5
  1
14
 41
6.6666667E-001
 50
9.0E+001
  0
ENDBLK
  0
BLOCK
  2
*D575
  3
*D
 10
0.0
 20
0.0
 70
65
  0
LINE
  8
MED-0
  6
CONTINUOUS
 62
4
 10
3.8652349E+002
 20
1.7660322E+002
 11
3.9546064E+002
 21
1.7660322E+002
  0
LINE
  8
MED-0
  6
CONTINUOUS
 62
4
 10
3.8974673E+002
 20
1.8960322E+002
 11
3.9546064E+002
 21
1.8960322E+002
  0
SOLID
  8
MED-1
  6
CONTINUOUS
 62
0
 10
3.9446064E+002
 20
1.7660322E+002
 11
3.9504398E+002
 21
1.8010322E+002
 12
3.938773E+002
 22
1.8010322E+002
 13
3.938773E+002
 23
1.8010322E+002
  0
SOLID
  8
MED-1
  6
CONTINUOUS
 62
0
 10
3.9446064E+002
 20
1.8960322E+002
 11
3.938773E+002
 21
1.8610322E+002
 12
3.9504398E+002
 22
1.8610322E+002
 13
3.9504398E+002
 23
1.8610322E+002
  0
LINE
  8
MED-0
  6
CONTINUOUS
 62
4
 10
3.9446064E+002
 20
1.7660322E+002
 11
3.9446064E+002
 21
1.8354352E+002
  0
LINE
  8
MED-0
  6
CONTINUOUS
 62
4
 10
3.9446064E+002
 20
1.8354352E+002
 11
3.9446064E+002
 21
1.8960322E+002
  0
TEXT
  8
MED-0
  6
CONTINUOUS
 62
4
 10
3.9329514E+002
 20
1.8121019E+002
 40
3.5
  1
13
 41
6.6666667E-001
 50
9.0E+001
  0
ENDBLK
  0
BLOCK
  2
*D584
  3
*D
 10
0.0
 20
0.0
 70
65
  0
LINE
  8
MED-0
  6
CONTINUOUS
 62
4
 10
3.8652349E+002
 20
1.8960322E+002
 11
3.9546064E+002
 21
1.8960322E+002
  0
LINE
  8
MED-0
  6
CONTINUOUS
 62
4
 10
3.9062579E+002
 20
2.0260322E+002
 11
3.9546064E+002
 21
2.0260322E+002
  0
SOLID
  8
MED-1
  6
CONTINUOUS
 62
0
 10
3.9446064E+002
 20
1.8960322E+002
 11
3.9504398E+002
 21
1.9310322E+002
 12
3.938773E+002
 22
1.9310322E+002
 13
3.938773E+002
 23
1.9310322E+002
  0
SOLID
  8
MED-1
  6
CONTINUOUS
 62
0
 10
3.9446064E+002
 20
2.0260322E+002
 11
3.938773E+002
 21
1.9910322E+002
 12
3.9504398E+002
 22
1.9910322E+002
 13
3.9504398E+002
 23
1.9910322E+002
  0
LINE
  8
MED-0
  6
CONTINUOUS
 62
4
 10
3.9446064E+002
 20
1.8960322E+002
 11
3.9446064E+002
 21
1.9625051E+002
  0
LINE
  8
MED-0
  6
CONTINUOUS
 62
4
 10
3.9446064E+002
 20
1.9625051E+002
 11
3.9446064E+002
 21
2.0260322E+002
  0
TEXT
  8
MED-0
  6
CONTINUOUS
 62
4
 10
3.9329514E+002
 20
1.9391718E+002
 40
3.5
  1
13
 41
6.6666667E-001
 50
9.0E+001
  0
ENDBLK
  0
BLOCK
  2
*D593
  3
*D
 10
0.0
 20
0.0
 70
65
  0
LINE
  8
MED-0
  6
CONTINUOUS
 62
4
 10
3.6900103E+002
 20
1.9660322E+002
 11
3.846423E+002
 21
1.9660322E+002
  0
LINE
  8
MED-0
  6
CONTINUOUS
 62
4
 10
3.7310085E+002
 20
2.1659453E+002
 11
3.846423E+002
 21
2.1659453E+002
  0
SOLID
  8
MED-1
  6
CONTINUOUS
 62
0
 10
3.836423E+002
 20
1.9660322E+002
 11
3.8422563E+002
 21
2.0010322E+002
 12
3.8305896E+002
 22
2.0010322E+002
 13
3.8305896E+002
 23
2.0010322E+002
  0
SOLID
  8
MED-1
  6
CONTINUOUS
 62
0
 10
3.836423E+002
 20
2.1659453E+002
 11
3.8305896E+002
 21
2.1309453E+002
 12
3.8422563E+002
 22
2.1309453E+002
 13
3.8422563E+002
 23
2.1309453E+002
  0
LINE
  8
MED-0
  6
CONTINUOUS
 62
4
 10
3.836423E+002
 20
1.9660322E+002
 11
3.836423E+002
 21
2.0652109E+002
  0
LINE
  8
MED-0
  6
CONTINUOUS
 62
4
 10
3.836423E+002
 20
2.0652109E+002
 11
3.836423E+002
 21
2.1659453E+002
  0
TEXT
  8
MED-0
  6
CONTINUOUS
 62
4
 10
3.824768E+002
 20
2.0418776E+002
 40
3.5
  1
20
 41
6.6666667E-001
 50
9.0E+001
  0
ENDBLK
  0
BLOCK
  2
*D602
  3
*D
 10
0.0
 20
0.0
 70
65
  0
LINE
  8
MED-0
  6
CONTINUOUS
 62
4
 10
3.6900103E+002
 20
1.8360322E+002
 11
3.846423E+002
 21
1.8360322E+002
  0
LINE
  8
MED-0
  6
CONTINUOUS
 62
4
 10
3.7387028E+002
 20
1.9660322E+002
 11
3.846423E+002
 21
1.9660322E+002
  0
SOLID
  8
MED-1
  6
CONTINUOUS
 62
0
 10
3.836423E+002
 20
1.8360322E+002
 11
3.8422563E+002
 21
1.8710322E+002
 12
3.8305896E+002
 22
1.8710322E+002
 13
3.8305896E+002
 23
1.8710322E+002
  0
SOLID
  8
MED-1
  6
CONTINUOUS
 62
0
 10
3.836423E+002
 20
1.9660322E+002
 11
3.8305896E+002
 21
1.9310322E+002
 12
3.8422563E+002
 22
1.9310322E+002
 13
3.8422563E+002
 23
1.9310322E+002
  0
LINE
  8
MED-0
  6
CONTINUOUS
 62
4
 10
3.836423E+002
 20
1.8360322E+002
 11
3.836423E+002
 21
1.9040548E+002
  0
LINE
  8
MED-0
  6
CONTINUOUS
 62
4
 10
3.836423E+002
 20
1.9040548E+002
 11
3.836423E+002
 21
1.9660322E+002
  0
TEXT
  8
MED-0
  6
CONTINUOUS
 62
4
 10
3.824768E+002
 20
1.8807214E+002
 40
3.5
  1
13
 41
6.6666667E-001
 50
9.0E+001
  0
ENDBLK
  0
BLOCK
  2
*D611
  3
*D
 10
0.0
 20
0.0
 70
65
  0
LINE
  8
MED-0
  6
CONTINUOUS
 62
4
 10
3.6900103E+002
 20
1.7060322E+002
 11
3.846423E+002
 21
1.7060322E+002
  0
LINE
  8
MED-0
  6
CONTINUOUS
 62
4
 10
3.7233141E+002
 20
1.8360322E+002
 11
3.846423E+002
 21
1.8360322E+002
  0
SOLID
  8
MED-1
  6
CONTINUOUS
 62
0
 10
3.836423E+002
 20
1.7060322E+002
 11
3.8422563E+002
 21
1.7410322E+002
 12
3.8305896E+002
 22
1.7410322E+002
 13
3.8305896E+002
 23
1.7410322E+002
  0
SOLID
  8
MED-1
  6
CONTINUOUS
 62
0
 10
3.836423E+002
 20
1.8360322E+002
 11
3.8305896E+002
 21
1.8010322E+002
 12
3.8422563E+002
 22
1.8010322E+002
 13
3.8422563E+002
 23
1.8010322E+002
  0
LINE
  8
MED-0
  6
CONTINUOUS
 62
4
 10
3.836423E+002
 20
1.7060322E+002
 11
3.836423E+002
 21
1.7500101E+002
  0
LINE
  8
MED-0
  6
CONTINUOUS
 62
4
 10
3.836423E+002
 20
1.7500101E+002
 11
3.836423E+002
 21
1.8360322E+002
  0
TEXT
  8
MED-0
  6
CONTINUOUS
 62
4
 10
3.824768E+002
 20
1.7266768E+002
 40
3.5
  1
13
 41
6.6666667E-001
 50
9.0E+001
  0
ENDBLK
  0
BLOCK
  2
*D912
  3
*D
 10
0.0
 20
0.0
 70
65
  0
LINE
  8
MED-0
  6
CONTINUOUS
 62
4
 10
1.6000198E+002
 20
2.298164E+002
 11
1.6893912E+002
 21
2.298164E+002
  0
LINE
  8
MED-0
  6
CONTINUOUS
 62
4
 10
1.6000198E+002
 20
2.158251E+002
 11
1.6893912E+002
 21
2.158251E+002
  0
SOLID
  8
MED-1
  6
CONTINUOUS
 62
0
 10
1.6793912E+002
 20
2.298164E+002
 11
1.6735579E+002
 21
2.263164E+002
 12
1.6852246E+002
 22
2.263164E+002
 13
1.6852246E+002
 23
2.263164E+002
  0
SOLID
  8
MED-1
  6
CONTINUOUS
 62
0
 10
1.6793912E+002
 20
2.158251E+002
 11
1.6852246E+002
 21
2.193251E+002
 12
1.6735579E+002
 22
2.193251E+002
 13
1.6735579E+002
 23
2.193251E+002
  0
LINE
  8
MED-0
  6
CONTINUOUS
 62
4
 10
1.6793912E+002
 20
2.234964E+002
 11
1.6793912E+002
 21
2.298164E+002
  0
LINE
  8
MED-0
  6
CONTINUOUS
 62
4
 10
1.6793912E+002
 20
2.158251E+002
 11
1.6793912E+002
 21
2.234964E+002
  0
TEXT
  8
MED-0
  6
CONTINUOUS
 62
4
 10
1.6677362E+002
 20
2.2116306E+002
 40
3.5
  1
14
 41
6.6666667E-001
 50
9.0E+001
  0
ENDBLK
  0
BLOCK
  2
*D921
  3
*D
 10
0.0
 20
0.0
 70
65
  0
LINE
  8
MED-0
  6
CONTINUOUS
 62
4
 10
1.6000198E+002
 20
2.5581638E+002
 11
1.6893912E+002
 21
2.5581638E+002
  0
LINE
  8
MED-0
  6
CONTINUOUS
 62
4
 10
1.6322521E+002
 20
2.4281638E+002
 11
1.6893912E+002
 21
2.4281638E+002
  0
SOLID
  8
MED-1
  6
CONTINUOUS
 62
0
 10
1.6793912E+002
 20
2.5581638E+002
 11
1.6735579E+002
 21
2.5231638E+002
 12
1.6852246E+002
 22
2.5231638E+002
 13
1.6852246E+002
 23
2.5231638E+002
  0
SOLID
  8
MED-1
  6
CONTINUOUS
 62
0
 10
1.6793912E+002
 20
2.4281638E+002
 11
1.6852246E+002
 21
2.4631638E+002
 12
1.6735579E+002
 22
2.4631638E+002
 13
1.6735579E+002
 23
2.4631638E+002
  0
LINE
  8
MED-0
  6
CONTINUOUS
 62
4
 10
1.6793912E+002
 20
2.488761E+002
 11
1.6793912E+002
 21
2.5581638E+002
  0
LINE
  8
MED-0
  6
CONTINUOUS
 62
4
 10
1.6793912E+002
 20
2.4281638E+002
 11
1.6793912E+002
 21
2.488761E+002
  0
TEXT
  8
MED-0
  6
CONTINUOUS
 62
4
 10
1.6677362E+002
 20
2.4654276E+002
 40
3.5
  1
13
 41
6.6666667E-001
 50
9.0E+001
  0
ENDBLK
  0
BLOCK
  2
*D930
  3
*D
 10
0.0
 20
0.0
 70
65
  0
LINE
  8
MED-0
  6
CONTINUOUS
 62
4
 10
1.6000198E+002
 20
2.4281638E+002
 11
1.6893912E+002
 21
2.4281638E+002
  0
LINE
  8
MED-0
  6
CONTINUOUS
 62
4
 10
1.6410427E+002
 20
2.298164E+002
 11
1.6893912E+002
 21
2.298164E+002
  0
SOLID
  8
MED-1
  6
CONTINUOUS
 62
0
 10
1.6793912E+002
 20
2.4281638E+002
 11
1.6735579E+002
 21
2.3931638E+002
 12
1.6852246E+002
 22
2.3931638E+002
 13
1.6852246E+002
 23
2.3931638E+002
  0
SOLID
  8
MED-1
  6
CONTINUOUS
 62
0
 10
1.6793912E+002
 20
2.298164E+002
 11
1.6852246E+002
 21
2.333164E+002
 12
1.6735579E+002
 22
2.333164E+002
 13
1.6735579E+002
 23
2.333164E+002
  0
LINE
  8
MED-0
  6
CONTINUOUS
 62
4
 10
1.6793912E+002
 20
2.3616911E+002
 11
1.6793912E+002
 21
2.4281638E+002
  0
LINE
  8
MED-0
  6
CONTINUOUS
 62
4
 10
1.6793912E+002
 20
2.298164E+002
 11
1.6793912E+002
 21
2.3616911E+002
  0
TEXT
  8
MED-0
  6
CONTINUOUS
 62
4
 10
1.6677362E+002
 20
2.3383578E+002
 40
3.5
  1
13
 41
6.6666667E-001
 50
9.0E+001
  0
ENDBLK
  0
BLOCK
  2
*D939
  3
*D
 10
0.0
 20
0.0
 70
65
  0
LINE
  8
MED-0
  6
CONTINUOUS
 62
4
 10
9.9513607E+001
 20
2.158251E+002
 11
1.6893912E+002
 21
2.158251E+002
  0
LINE
  8
MED-0
  6
CONTINUOUS
 62
4
 10
1.2375065E+002
 20
1.8582313E+002
 11
1.6893912E+002
 21
1.8582313E+002
  0
SOLID
  8
MED-1
  6
CONTINUOUS
 62
0
 10
1.6793912E+002
 20
2.158251E+002
 11
1.6735578E+002
 21
2.123251E+002
 12
1.6852245E+002
 22
2.123251E+002
 13
1.6852245E+002
 23
2.123251E+002
  0
SOLID
  8
MED-1
  6
CONTINUOUS
 62
0
 10
1.6793912E+002
 20
1.8582313E+002
 11
1.6852245E+002
 21
1.8932313E+002
 12
1.6735578E+002
 22
1.8932313E+002
 13
1.6735578E+002
 23
1.8932313E+002
  0
LINE
  8
MED-0
  6
CONTINUOUS
 62
4
 10
1.6793912E+002
 20
2.0090188E+002
 11
1.6793912E+002
 21
2.158251E+002
  0
LINE
  8
MED-0
  6
CONTINUOUS
 62
4
 10
1.6793912E+002
 20
1.8582313E+002
 11
1.6793912E+002
 21
2.0090188E+002
  0
TEXT
  8
MED-0
  6
CONTINUOUS
 62
4
 10
1.6677362E+002
 20
1.9856855E+002
 40
3.5
  1
30
 41
6.6666667E-001
 50
9.0E+001
  0
ENDBLK
  0
BLOCK
  2
*D948
  3
*D
 10
0.0
 20
0.0
 70
65
  0
LINE
  8
MED-0
  6
CONTINUOUS
 62
4
 10
1.4247951E+002
 20
2.358164E+002
 11
1.5812078E+002
 21
2.358164E+002
  0
LINE
  8
MED-0
  6
CONTINUOUS
 62
4
 10
1.4657933E+002
 20
2.158251E+002
 11
1.5812078E+002
 21
2.158251E+002
  0
SOLID
  8
MED-1
  6
CONTINUOUS
 62
0
 10
1.5712078E+002
 20
2.358164E+002
 11
1.5653744E+002
 21
2.323164E+002
 12
1.5770412E+002
 22
2.323164E+002
 13
1.5770412E+002
 23
2.323164E+002
  0
SOLID
  8
MED-1
  6
CONTINUOUS
 62
0
 10
1.5712078E+002
 20
2.158251E+002
 11
1.5770412E+002
 21
2.193251E+002
 12
1.5653744E+002
 22
2.193251E+002
 13
1.5653744E+002
 23
2.193251E+002
  0
LINE
  8
MED-0
  6
CONTINUOUS
 62
4
 10
1.5712078E+002
 20
2.2589853E+002
 11
1.5712078E+002
 21
2.358164E+002
  0
LINE
  8
MED-0
  6
CONTINUOUS
 62
4
 10
1.5712078E+002
 20
2.158251E+002
 11
1.5712078E+002
 21
2.2589853E+002
  0
TEXT
  8
MED-0
  6
CONTINUOUS
 62
4
 10
1.5595528E+002
 20
2.2356519E+002
 40
3.5
  1
20
 41
6.6666667E-001
 50
9.0E+001
  0
ENDBLK
  0
BLOCK
  2
*D957
  3
*D
 10
0.0
 20
0.0
 70
65
  0
LINE
  8
MED-0
  6
CONTINUOUS
 62
4
 10
1.4247951E+002
 20
2.4881638E+002
 11
1.5812078E+002
 21
2.4881638E+002
  0
LINE
  8
MED-0
  6
CONTINUOUS
 62
4
 10
1.4734876E+002
 20
2.358164E+002
 11
1.5812078E+002
 21
2.358164E+002
  0
SOLID
  8
MED-1
  6
CONTINUOUS
 62
0
 10
1.5712078E+002
 20
2.4881638E+002
 11
1.5653744E+002
 21
2.4531638E+002
 12
1.5770412E+002
 22
2.4531638E+002
 13
1.5770412E+002
 23
2.4531638E+002
  0
SOLID
  8
MED-1
  6
CONTINUOUS
 62
0
 10
1.5712078E+002
 20
2.358164E+002
 11
1.5770412E+002
 21
2.393164E+002
 12
1.5653744E+002
 22
2.393164E+002
 13
1.5653744E+002
 23
2.393164E+002
  0
LINE
  8
MED-0
  6
CONTINUOUS
 62
4
 10
1.5712078E+002
 20
2.4201413E+002
 11
1.5712078E+002
 21
2.4881638E+002
  0
LINE
  8
MED-0
  6
CONTINUOUS
 62
4
 10
1.5712078E+002
 20
2.358164E+002
 11
1.5712078E+002
 21
2.4201413E+002
  0
TEXT
  8
MED-0
  6
CONTINUOUS
 62
4
 10
1.5595528E+002
 20
2.396808E+002
 40
3.5
  1
13
 41
6.6666667E-001
 50
9.0E+001
  0
ENDBLK
  0
BLOCK
  2
*D966
  3
*D
 10
0.0
 20
0.0
 70
65
  0
LINE
  8
MED-0
  6
CONTINUOUS
 62
4
 10
1.4247951E+002
 20
2.6181638E+002
 11
1.5812078E+002
 21
2.6181638E+002
  0
LINE
  8
MED-0
  6
CONTINUOUS
 62
4
 10
1.458099E+002
 20
2.4881638E+002
 11
1.5812078E+002
 21
2.4881638E+002
  0
SOLID
  8
MED-1
  6
CONTINUOUS
 62
0
 10
1.5712078E+002
 20
2.6181638E+002
 11
1.5653744E+002
 21
2.5831638E+002
 12
1.5770412E+002
 22
2.5831638E+002
 13
1.5770412E+002
 23
2.5831638E+002
  0
SOLID
  8
MED-1
  6
CONTINUOUS
 62
0
 10
1.5712078E+002
 20
2.4881638E+002
 11
1.5770412E+002
 21
2.5231638E+002
 12
1.5653744E+002
 22
2.5231638E+002
 13
1.5653744E+002
 23
2.5231638E+002
  0
LINE
  8
MED-0
  6
CONTINUOUS
 62
4
 10
1.5712078E+002
 20
2.5741861E+002
 11
1.5712078E+002
 21
2.6181638E+002
  0
LINE
  8
MED-0
  6
CONTINUOUS
 62
4
 10
1.5712078E+002
 20
2.4881638E+002
 11
1.5712078E+002
 21
2.5741861E+002
  0
TEXT
  8
MED-0
  6
CONTINUOUS
 62
4
 10
1.5595528E+002
 20
2.5508528E+002
 40
3.5
  1
13
 41
6.6666667E-001
 50
9.0E+001
  0
ENDBLK
  0
ENDSEC
  0
SECTION
  2
ENTITIES
  0
TEXT
  8
103
  6
CONTINUOUS
 62
40
 10
4.1047591E+002
 20
1.4794766E+001
 40
7.0
  1
TV 100
 41
5.625E-001
 72
1
 11
3.9866341E+002
 21
1.1294766E+001
 73
2
  0
TEXT
  8
103
  6
CONTINUOUS
 62
150
 10
1.632931E+002
 20
9.7782927E+001
 40
3.5
  1
Befestigungseinheit / TV-Z / M 1:2
 41
6.6838237E-001
 11
1.632931E+002
 21
9.6032927E+001
 73
2
  0
LINE
  8
104
  6
CONTINUOUS
 62
40
 10
3.0479449E+002
 20
3.9070494E+001
 11
2.632944E+002
 21
3.9070494E+001
  0
LINE
  8
104
  6
CONTINUOUS
 62
40
 10
2.6329473E+002
 20
1.2320494E+001
 11
2.6329474E+002
 21
1.0820494E+001
  0
LINE
  8
104
  6
CONTINUOUS
 62
40
 10
2.6329474E+002
 20
1.0820494E+001
 11
3.0431631E+002
 21
1.1536528E+001
  0
ARC
  8
104
  6
CONTINUOUS
 62
40
 10
3.0429449E+002
 20
1.2786343E+001
 40
1.2500048
 50
2.7100005E+002
 51
3.5999977E+002
  0
LINE
  8
104
  6
CONTINUOUS
 62
40
 10
3.0554449E+002
 20
1.2786338E+001
 11
3.0554449E+002
 21
3.9070494E+001
  0
LINE
  8
104
  6
CONTINUOUS
 62
40
 10
3.0554449E+002
 20
3.9070494E+001
 11
3.0479449E+002
 21
3.9070494E+001
  0
LINE
  8
104
  6
CONTINUOUS
 62
40
 10
3.0479449E+002
 20
3.9070494E+001
 11
3.0479449E+002
 21
3.9820494E+001
  0
LINE
  8
104
  6
CONTINUOUS
 62
40
 10
3.0479449E+002
 20
3.9820494E+001
 11
2.632945E+002
 21
3.9820494E+001
  0
LINE
  8
104
  6
CONTINUOUS
 62
40
 10
2.632945E+002
 20
3.9820494E+001
 11
2.632943E+002
 21
3.8320494E+001
  0
LINE
  8
99
  6
CONTINUOUS
 62
1
 10
2.876445E+002
 20
3.9820494E+001
 11
2.8244449E+002
 21
3.9820494E+001
  0
LINE
  8
99
  6
CONTINUOUS
 62
1
 10
2.9864449E+002
 20
3.9820494E+001
 11
2.9344449E+002
 21
3.9820494E+001
  0
LINE
  8
104
  6
CONTINUOUS
 62
40
 10
2.6329474E+002
 20
1.1470481E+001
 11
2.632943E+002
 21
3.8320494E+001
  0
LINE
  8
104
  6
CONTINUOUS
 62
40
 10
2.4862758E+002
 20
1.1557975E+001
 11
2.4862758E+002
 21
3.9070494E+001
  0
LINE
  8
104
  6
CONTINUOUS
 62
40
 10
2.4862758E+002
 20
3.9070494E+001
 11
1.7062759E+002
 21
3.9070494E+001
  0
LINE
  8
104
  6
CONTINUOUS
 62
40
 10
1.7062759E+002
 20
3.9070494E+001
 11
1.7062759E+002
 21
1.1557975E+001
  0
LINE
  8
104
  6
CONTINUOUS
 62
40
 10
1.6987759E+002
 20
1.1557975E+001
 11
1.6987759E+002
 21
3.9070494E+001
  0
LINE
  8
104
  6
CONTINUOUS
 62
40
 10
1.6987759E+002
 20
3.9070494E+001
 11
1.621276E+002
 21
3.9070494E+001
  0
LINE
  8
104
  6
CONTINUOUS
 62
40
 10
1.621276E+002
 20
3.9070494E+001
 11
1.621276E+002
 21
1.2070494E+001
  0
ARC
  8
104
  6
CONTINUOUS
 62
40
 10
1.633776E+002
 20
1.2070492E+001
 40
1.2499978
 50
1.799999E+002
 51
2.700001E+002
  0
LINE
  8
104
  6
CONTINUOUS
 62
40
 10
1.633776E+002
 20
1.0820494E+001
 11
2.5587758E+002
 21
1.0820494E+001
  0
ARC
  8
104
  6
CONTINUOUS
 62
40
 10
2.5587759E+002
 20
1.2070489E+001
 40
1.2499946
 50
2.6999975E+002
 51
3.6000025E+002
  0
LINE
  8
104
  6
CONTINUOUS
 62
40
 10
2.5712758E+002
 20
1.2070494E+001
 11
2.5712758E+002
 21
3.9070494E+001
  0
LINE
  8
104
  6
CONTINUOUS
 62
40
 10
2.5712758E+002
 20
3.9070494E+001
 11
2.4937758E+002
 21
3.9070494E+001
  0
LINE
  8
104
  6
CONTINUOUS
 62
40
 10
2.4937758E+002
 20
3.9070494E+001
 11
2.4937758E+002
 21
1.1557975E+001
  0
LINE
  8
104
  6
CONTINUOUS
 62
40
 10
2.5637757E+002
 20
3.9070494E+001
 11
2.5637757E+002
 21
3.9820494E+001
  0
LINE
  8
104
  6
CONTINUOUS
 62
40
 10
2.5637757E+002
 20
3.9820494E+001
 11
1.628776E+002
 21
3.9820494E+001
  0
LINE
  8
104
  6
CONTINUOUS
 62
40
 10
1.628776E+002
 20
3.9820494E+001
 11
1.628776E+002
 21
3.9070494E+001
  0
LINE
  8
99
  6
CONTINUOUS
 62
1
 10
1.6323977E+002
 20
3.9070494E+001
 11
1.6323977E+002
 21
3.9820494E+001
  0
LINE
  8
99
  6
CONTINUOUS
 62
1
 10
2.5601541E+002
 20
3.9070494E+001
 11
2.5601541E+002
 21
3.9820494E+001
  0
LINE
  8
99
  6
CONTINUOUS
 62
1
 10
2.5675887E+002
 20
3.9070494E+001
 11
2.5675887E+002
 21
1.2807975E+001
  0
ARC
  8
99
  6
CONTINUOUS
 62
1
 10
2.5550887E+002
 20
1.2807975E+001
 40
1.25
 50
2.7E+002
 51
3.6E+002
  0
LINE
  8
99
  6
CONTINUOUS
 62
1
 10
2.5550887E+002
 20
1.1557975E+001
 11
1.6369631E+002
 21
1.1557975E+001
  0
ARC
  8
99
  6
CONTINUOUS
 62
1
 10
1.636963E+002
 20
1.275797E+001
 40
1.1999958
 50
1.7999994E+002
 51
2.7000015E+002
  0
LINE
  8
99
  6
CONTINUOUS
 62
1
 10
1.6249631E+002
 20
1.2757972E+001
 11
1.6249631E+002
 21
3.9070494E+001
  0
LINE
  8
104
  6
CONTINUOUS
 62
40
 10
1.621276E+002
 20
4.8858802E+001
 11
1.624444E+002
 21
8.5160964E+001
  0
ARC
  8
104
  6
CONTINUOUS
 62
40
 10
1.6844419E+002
 20
8.51086E+001
 40
6.0000112
 50
9.0000112E+001
 51
1.7949995E+002
  0
LINE
  8
104
  6
CONTINUOUS
 62
40
 10
1.6844417E+002
 20
9.1108611E+001
 11
1.698776E+002
 21
9.1108596E+001
  0
LINE
  8
104
  6
CONTINUOUS
 62
40
 10
1.698776E+002
 20
9.1108596E+001
 11
1.698776E+002
 21
9.0358611E+001
  0
LINE
  8
104
  6
CONTINUOUS
 62
40
 10
1.698776E+002
 20
9.0358611E+001
 11
1.706276E+002
 21
9.0358611E+001
  0
LINE
  8
104
  6
CONTINUOUS
 62
40
 10
1.706276E+002
 20
9.0358611E+001
 11
1.706276E+002
 21
9.1108596E+001
  0
LINE
  8
104
  6
CONTINUOUS
 62
40
 10
1.706276E+002
 20
9.1108596E+001
 11
2.4862759E+002
 21
9.1108596E+001
  0
LINE
  8
104
  6
CONTINUOUS
 62
40
 10
2.4862759E+002
 20
9.1108596E+001
 11
2.4862759E+002
 21
9.0358611E+001
  0
LINE
  8
104
  6
CONTINUOUS
 62
40
 10
2.4862759E+002
 20
9.0358611E+001
 11
2.4937759E+002
 21
9.0358611E+001
  0
LINE
  8
104
  6
CONTINUOUS
 62
40
 10
2.4937759E+002
 20
9.0358611E+001
 11
2.4937759E+002
 21
9.1108596E+001
  0
LINE
  8
104
  6
CONTINUOUS
 62
40
 10
2.4937759E+002
 20
9.1108596E+001
 11
2.5081101E+002
 21
9.1108611E+001
  0
ARC
  8
104
  6
CONTINUOUS
 62
40
 10
2.50811E+002
 20
8.5108604E+001
 40
6.0000071
 50
5.0000718E-001
 51
8.9999927E+001
  0
LINE
  8
104
  6
CONTINUOUS
 62
40
 10
2.5681078E+002
 20
8.5160964E+001
 11
2.5712758E+002
 21
4.8858786E+001
  0
LINE
  8
104
  6
CONTINUOUS
 62
40
 10
2.5712758E+002
 20
4.8858786E+001
 11
1.621276E+002
 21
4.8858802E+001
  0
LINE
  8
104
  6
CONTINUOUS
 62
40
 10
7.1770376E+001
 20
2.0389877E+001
 11
7.3321158E+001
 21
2.3075881E+001
  0
ARC
  8
104
  6
CONTINUOUS
 62
40
 10
7.4206599E+001
 20
2.2580794E+001
 40
1.0144543
 50
1.2079807E+002
 51
1.5078861E+002
  0
ARC
  8
104
  6
CONTINUOUS
 62
40
 10
7.4188136E+001
 20
2.2610077E+001
 40
9.7984777E-001
 50
9.005557E+001
 51
1.2074744E+002
  0
ARC
  8
104
  6
CONTINUOUS
 62
40
 10
7.4186235E+001
 20
2.2610077E+001
 40
9.7984782E-001
 50
5.9252563E+001
 51
8.994443E+001
  0
ARC
  8
104
  6
CONTINUOUS
 62
40
 10
7.4167772E+001
 20
2.2580794E+001
 40
1.0144544
 50
2.9211392E+001
 51
5.920193E+001
  0
LINE
  8
104
  6
CONTINUOUS
 62
40
 10
7.5053213E+001
 20
2.3075881E+001
 11
7.6603987E+001
 21
2.0389877E+001
  0
LINE
  8
104
  6
CONTINUOUS
 62
40
 10
3.1770407E+001
 20
2.0389877E+001
 11
3.3321188E+001
 21
2.3075881E+001
  0
ARC
  8
104
  6
CONTINUOUS
 62
40
 10
3.4206635E+001
 20
2.2580792E+001
 40
1.0144604
 50
1.2079843E+002
 51
1.5078868E+002
  0
ARC
  8
104
  6
CONTINUOUS
 62
40
 10
3.4188157E+001
 20
2.26101E+001
 40
9.7982494E-001
 50
9.0055641E+001
 51
1.2074781E+002
  0
ARC
  8
104
  6
CONTINUOUS
 62
40
 10
3.4186255E+001
 20
2.2610114E+001
 40
9.7981078E-001
 50
5.9251967E+001
 51
8.9944427E+001
  0
ARC
  8
104
  6
CONTINUOUS
 62
40
 10
3.4167784E+001
 20
2.2580819E+001
 40
1.0144317
 50
2.9210458E+001
 51
5.9201268E+001
  0
LINE
  8
104
  6
CONTINUOUS
 62
40
 10
3.5053213E+001
 20
2.3075881E+001
 11
3.6603995E+001
 21
2.0389877E+001
  0
LINE
  8
106
  6
CENTERLINE
 62
1
 10
3.4187216E+001
 20
2.4887435E+001
 11
3.4187216E+001
 21
1.680844E+001
  0
LINE
  8
106
  6
CENTERLINE
 62
1
 10
7.4187185E+001
 20
2.4695083E+001
 11
7.4187185E+001
 21
1.680844E+001
  0
LINE
  8
104
  6
CONTINUOUS
 62
40
 10
1.2937216E+001
 20
1.8424789E+001
 11
4.1687185E+001
 21
1.8424789E+001
  0
LINE
  8
104
  6
CONTINUOUS
 62
40
 10
4.1687185E+001
 20
1.8424789E+001
 11
4.1687185E+001
 21
1.8162963E+001
  0
LINE
  8
104
  6
CONTINUOUS
 62
40
 10
4.1687185E+001
 20
1.8162963E+001
 11
6.6687185E+001
 21
1.8162963E+001
  0
LINE
  8
104
  6
CONTINUOUS
 62
40
 10
6.6687185E+001
 20
1.8162963E+001
 11
6.6687185E+001
 21
1.8424789E+001
  0
LINE
  8
104
  6
CONTINUOUS
 62
40
 10
6.6687185E+001
 20
1.8424789E+001
 11
9.5437178E+001
 21
1.8424789E+001
  0
LINE
  8
104
  6
CONTINUOUS
 62
40
 10
9.5437178E+001
 20
2.0389877E+001
 11
6.6687185E+001
 21
2.0389877E+001
  0
LINE
  8
104
  6
CONTINUOUS
 62
40
 10
6.6687185E+001
 20
2.0389877E+001
 11
6.6687185E+001
 21
2.0128051E+001
  0
LINE
  8
104
  6
CONTINUOUS
 62
40
 10
6.6687185E+001
 20
2.0128051E+001
 11
4.1687185E+001
 21
2.0128051E+001
  0
LINE
  8
104
  6
CONTINUOUS
 62
40
 10
4.1687185E+001
 20
2.0128051E+001
 11
4.1687185E+001
 21
2.0389877E+001
  0
LINE
  8
104
  6
CONTINUOUS
 62
40
 10
4.1687185E+001
 20
2.0389877E+001
 11
1.2937216E+001
 21
2.0389877E+001
  0
LINE
  8
104
  6
CONTINUOUS
 62
40
 10
4.1687185E+001
 20
2.0128051E+001
 11
4.1687185E+001
 21
1.8424789E+001
  0
LINE
  8
104
  6
CONTINUOUS
 62
40
 10
6.6687185E+001
 20
2.0128051E+001
 11
6.6687185E+001
 21
1.8424789E+001
  0
LINE
  8
106
  6
CENTERLINE
 62
1
 10
8.9187178E+001
 20
3.8112014E+001
 11
8.9187178E+001
 21
3.4649581E+001
  0
LINE
  8
106
  6
CENTERLINE
 62
1
 10
1.7385489E+001
 20
3.6270202E+001
 11
2.0896017E+001
 21
3.6270202E+001
  0
LINE
  8
106
  6
CENTERLINE
 62
1
 10
1.7385489E+001
 20
2.9770217E+001
 11
2.0896017E+001
 21
2.9770217E+001
  0
LINE
  8
106
  6
CENTERLINE
 62
1
 10
1.7385489E+001
 20
2.3270217E+001
 11
2.0896017E+001
 21
2.3270217E+001
  0
LINE
  8
106
  6
CENTERLINE
 62
1
 10
2.4885489E+001
 20
2.6270217E+001
 11
2.8396017E+001
 21
2.6270217E+001
  0
LINE
  8
106
  6
CENTERLINE
 62
1
 10
2.4885489E+001
 20
3.2770202E+001
 11
2.8396017E+001
 21
3.2770202E+001
  0
LINE
  8
106
  6
CENTERLINE
 62
1
 10
2.4885489E+001
 20
3.9270202E+001
 11
2.8396017E+001
 21
3.9270202E+001
  0
LINE
  8
106
  6
CENTERLINE
 62
1
 10
7.9885451E+001
 20
3.9270202E+001
 11
8.3395979E+001
 21
3.9270202E+001
  0
LINE
  8
106
  6
CENTERLINE
 62
1
 10
7.9885451E+001
 20
3.2770202E+001
 11
8.3395979E+001
 21
3.2770202E+001
  0
LINE
  8
106
  6
CENTERLINE
 62
1
 10
7.9885451E+001
 20
2.6270217E+001
 11
8.3395979E+001
 21
2.6270217E+001
  0
LINE
  8
106
  6
CENTERLINE
 62
1
 10
8.7385451E+001
 20
2.3270217E+001
 11
9.0895979E+001
 21
2.3270217E+001
  0
LINE
  8
106
  6
CENTERLINE
 62
1
 10
8.7385451E+001
 20
2.9770217E+001
 11
9.0895979E+001
 21
2.9770217E+001
  0
LINE
  8
106
  6
CENTERLINE
 62
1
 10
8.7385451E+001
 20
3.6270202E+001
 11
9.0895979E+001
 21
3.6270202E+001
  0
LINE
  8
106
  6
CENTERLINE
 62
1
 10
8.9187178E+001
 20
3.1612014E+001
 11
8.9187178E+001
 21
2.8149581E+001
  0
LINE
  8
106
  6
CENTERLINE
 62
1
 10
8.9187178E+001
 20
2.5112029E+001
 11
8.9187178E+001
 21
2.1649596E+001
  0
LINE
  8
106
  6
CENTERLINE
 62
1
 10
8.1687178E+001
 20
2.8112029E+001
 11
8.1687178E+001
 21
2.4649581E+001
  0
LINE
  8
106
  6
CENTERLINE
 62
1
 10
8.1687178E+001
 20
3.4612014E+001
 11
8.1687178E+001
 21
3.1149581E+001
  0
LINE
  8
106
  6
CENTERLINE
 62
1
 10
8.1687178E+001
 20
4.1112014E+001
 11
8.1687178E+001
 21
3.7649581E+001
  0
LINE
  8
106
  6
CENTERLINE
 62
1
 10
1.9187216E+001
 20
3.1612014E+001
 11
1.9187216E+001
 21
2.8149581E+001
  0
LINE
  8
106
  6
CENTERLINE
 62
1
 10
1.9187216E+001
 20
2.5112029E+001
 11
1.9187216E+001
 21
2.1649596E+001
  0
LINE
  8
106
  6
CENTERLINE
 62
1
 10
2.6687216E+001
 20
2.8112029E+001
 11
2.6687216E+001
 21
2.4649581E+001
  0
LINE
  8
106
  6
CENTERLINE
 62
1
 10
2.6687216E+001
 20
3.4612014E+001
 11
2.6687216E+001
 21
3.1149581E+001
  0
LINE
  8
106
  6
CENTERLINE
 62
1
 10
2.6687216E+001
 20
4.1112014E+001
 11
2.6687216E+001
 21
3.7649581E+001
  0
CIRCLE
  8
104
  6
CONTINUOUS
 62
40
 10
2.6687216E+001
 20
2.6270217E+001
 40
1.375
  0
LINE
  8
106
  6
CENTERLINE
 62
1
 10
5.4187185E+001
 20
4.4315536E+001
 11
5.4187185E+001
 21
1.6039016E+001
  0
LINE
  8
106
  6
CENTERLINE
 62
1
 10
1.7385489E+001
 20
3.6270202E+001
 11
2.0896017E+001
 21
3.6270202E+001
  0
LINE
  8
106
  6
CENTERLINE
 62
1
 10
1.9187216E+001
 20
3.8112014E+001
 11
1.9187216E+001
 21
3.4649581E+001
  0
CIRCLE
  8
104
  6
CONTINUOUS
 62
40
 10
2.6687216E+001
 20
3.2770202E+001
 40
1.375
  0
CIRCLE
  8
104
  6
CONTINUOUS
 62
40
 10
2.6687216E+001
 20
3.9270202E+001
 40
1.375
  0
CIRCLE
  8
104
  6
CONTINUOUS
 62
40
 10
8.1687178E+001
 20
3.9270202E+001
 40
1.375
  0
CIRCLE
  8
104
  6
CONTINUOUS
 62
40
 10
8.1687178E+001
 20
3.2770202E+001
 40
1.375
  0
CIRCLE
  8
104
  6
CONTINUOUS
 62
40
 10
8.1687178E+001
 20
2.6270217E+001
 40
1.375
  0
CIRCLE
  8
104
  6
CONTINUOUS
 62
40
 10
8.9187178E+001
 20
3.6270202E+001
 40
1.375
  0
CIRCLE
  8
104
  6
CONTINUOUS
 62
40
 10
8.9187178E+001
 20
2.9770217E+001
 40
1.375
  0
CIRCLE
  8
104
  6
CONTINUOUS
 62
40
 10
8.9187178E+001
 20
2.3270217E+001
 40
1.375
  0
CIRCLE
  8
104
  6
CONTINUOUS
 62
40
 10
1.9187216E+001
 20
2.3270217E+001
 40
1.375
  0
CIRCLE
  8
104
  6
CONTINUOUS
 62
40
 10
1.9187216E+001
 20
2.9770217E+001
 40
1.375
  0
LINE
  8
104
  6
CONTINUOUS
 62
40
 10
1.2937216E+001
 20
1.7770232E+001
 11
1.2937216E+001
 21
4.2770202E+001
  0
LINE
  8
104
  6
CONTINUOUS
 62
40
 10
1.2937216E+001
 20
4.2770202E+001
 11
4.0187185E+001
 21
4.2770202E+001
  0
ARC
  8
104
  6
CONTINUOUS
 62
40
 10
4.0187185E+001
 20
4.1270201E+001
 40
1.5000003
 50
1.26511E-005
 51
8.9999987E+001
  0
LINE
  8
104
  6
CONTINUOUS
 62
40
 10
4.1687185E+001
 20
4.1270202E+001
 11
4.1687185E+001
 21
2.9270217E+001
  0
ARC
  8
104
  6
CONTINUOUS
 62
40
 10
4.318719E+001
 20
2.9270222E+001
 40
1.5000046
 50
1.8000018E+002
 51
2.6999982E+002
  0
LINE
  8
104
  6
CONTINUOUS
 62
40
 10
4.3187185E+001
 20
2.7770217E+001
 11
6.5187185E+001
 21
2.7770217E+001
  0
ARC
  8
104
  6
CONTINUOUS
 62
40
 10
6.51872E+001
 20
2.9270202E+001
 40
1.4999853
 50
2.6999944E+002
 51
3.6000056E+002
  0
LINE
  8
104
  6
CONTINUOUS
 62
40
 10
6.6687185E+001
 20
2.9270217E+001
 11
6.6687185E+001
 21
4.1270202E+001
  0
ARC
  8
104
  6
CONTINUOUS
 62
40
 10
6.8187205E+001
 20
4.1270182E+001
 40
1.5000196
 50
9.0000748E+001
 51
1.7999925E+002
  0
LINE
  8
104
  6
CONTINUOUS
 62
40
 10
6.8187185E+001
 20
4.2770202E+001
 11
9.5437178E+001
 21
4.2770202E+001
  0
LINE
  8
104
  6
CONTINUOUS
 62
40
 10
9.5437178E+001
 20
4.2770202E+001
 11
9.5437178E+001
 21
1.7770232E+001
  0
LINE
  8
104
  6
CONTINUOUS
 62
40
 10
9.5437178E+001
 20
1.7770232E+001
 11
1.2937216E+001
 21
1.7770232E+001
  0
CIRCLE
  8
104
  6
CONTINUOUS
 62
40
 10
1.9187216E+001
 20
3.6270202E+001
 40
1.375
  0
LINE
  8
99
  6
CONTINUOUS
 62
1
 10
4.6258591E+002
 20
1.5144629E+001
 11
4.6291092E+002
 21
1.5469626E+001
  0
LINE
  8
99
  6
CONTINUOUS
 62
1
 10
4.6291092E+002
 20
1.5469626E+001
 11
4.6291092E+002
 21
1.5969626E+001
  0
LINE
  8
99
  6
CONTINUOUS
 62
1
 10
4.6291092E+002
 20
1.5969626E+001
 11
4.6281091E+002
 21
1.5969626E+001
  0
LINE
  8
99
  6
CONTINUOUS
 62
1
 10
4.6281091E+002
 20
1.5969626E+001
 11
4.6281091E+002
 21
1.6200675E+001
  0
ARC
  8
99
  6
CONTINUOUS
 62
1
 10
4.6271087E+002
 20
1.7969703E+001
 40
2.4992264E-001
 50
8.9991155E+001
 51
1.2997853E+002
  0
LINE
  8
99
  6
CONTINUOUS
 62
1
 10
4.6271091E+002
 20
1.8219626E+001
 11
4.6363592E+002
 21
1.8219626E+001
  0
LINE
  8
99
  6
CONTINUOUS
 62
1
 10
4.6363592E+002
 20
1.8219626E+001
 11
4.6363592E+002
 21
2.0219618E+001
  0
LINE
  8
99
  6
CONTINUOUS
 62
1
 10
4.6363592E+002
 20
2.0219618E+001
 11
4.6118808E+002
 21
2.0219618E+001
  0
LINE
  8
99
  6
CONTINUOUS
 62
1
 10
4.6118808E+002
 20
2.0219618E+001
 11
4.6038592E+002
 21
2.0219618E+001
  0
LINE
  8
99
  6
CONTINUOUS
 62
1
 10
4.6038592E+002
 20
2.0219618E+001
 11
4.5713592E+002
 21
2.0219618E+001
  0
LINE
  8
99
  6
CONTINUOUS
 62
1
 10
4.5713592E+002
 20
2.0219618E+001
 11
4.5713592E+002
 21
1.8219626E+001
  0
LINE
  8
99
  6
CONTINUOUS
 62
1
 10
4.5713592E+002
 20
1.8219626E+001
 11
4.5838592E+002
 21
1.8219626E+001
  0
LINE
  8
99
  6
CONTINUOUS
 62
1
 10
4.5838592E+002
 20
1.8219626E+001
 11
4.5838592E+002
 21
1.8088523E+001
  0
LINE
  8
99
  6
CONTINUOUS
 62
1
 10
4.5838592E+002
 20
1.6123435E+001
 11
4.5838589E+002
 21
1.5144614E+001
  0
LINE
  8
99
  6
CONTINUOUS
 62
1
 10
4.6271091E+002
 20
1.8219626E+001
 11
4.6038592E+002
 21
1.8219626E+001
  0
LINE
  8
99
  6
CONTINUOUS
 62
1
 10
4.6281091E+002
 20
1.5969626E+001
 11
4.6038592E+002
 21
1.5969626E+001
  0
LINE
  8
99
  6
CONTINUOUS
 62
1
 10
4.6291092E+002
 20
1.5469626E+001
 11
4.6038592E+002
 21
1.5469626E+001
  0
LINE
  8
99
  6
CONTINUOUS
 62
1
 10
4.6258591E+002
 20
1.5144629E+001
 11
4.6038592E+002
 21
1.5144629E+001
  0
LINE
  8
99
  6
CONTINUOUS
 62
1
 10
4.6038592E+002
 20
1.8219626E+001
 11
4.5838592E+002
 21
1.8219626E+001
  0
LINE
  8
99
  6
CONTINUOUS
 62
1
 10
4.6038592E+002
 20
1.5969626E+001
 11
4.5838592E+002
 21
1.5969626E+001
  0
LINE
  8
99
  6
CONTINUOUS
 62
1
 10
4.6038592E+002
 20
1.5469626E+001
 11
4.5838592E+002
 21
1.5469626E+001
  0
LINE
  8
99
  6
CONTINUOUS
 62
1
 10
4.6038592E+002
 20
1.5144629E+001
 11
4.5838592E+002
 21
1.5144629E+001
  0
ARC
  8
104
  6
CONTINUOUS
 62
40
 10
4.5171088E+002
 20
1.7753746E+001
 40
2.4983072E-001
 50
8.9994203E+001
 51
1.2012888E+002
  0
LINE
  8
104
  6
CONTINUOUS
 62
40
 10
4.5171091E+002
 20
1.8003577E+001
 11
4.5263589E+002
 21
1.8003577E+001
  0
LINE
  8
104
  6
CONTINUOUS
 62
40
 10
4.5263589E+002
 20
1.8003577E+001
 11
4.5263589E+002
 21
2.0003592E+001
  0
LINE
  8
104
  6
CONTINUOUS
 62
40
 10
4.5263589E+002
 20
2.0003592E+001
 11
4.5018805E+002
 21
2.0003562E+001
  0
LINE
  8
104
  6
CONTINUOUS
 62
40
 10
4.5018805E+002
 20
2.0003562E+001
 11
4.4938589E+002
 21
2.0003562E+001
  0
LINE
  8
104
  6
CONTINUOUS
 62
40
 10
4.4938589E+002
 20
2.0003562E+001
 11
4.4613589E+002
 21
2.0003546E+001
  0
LINE
  8
104
  6
CONTINUOUS
 62
40
 10
4.4613589E+002
 20
2.0003546E+001
 11
4.4613589E+002
 21
1.8003546E+001
  0
LINE
  8
104
  6
CONTINUOUS
 62
40
 10
4.4613589E+002
 20
1.8003546E+001
 11
4.4738592E+002
 21
1.8003546E+001
  0
LINE
  8
104
  6
CONTINUOUS
 62
40
 10
4.4738592E+002
 20
1.8003546E+001
 11
4.4738592E+002
 21
1.7896521E+001
  0
LINE
  8
104
  6
CONTINUOUS
 62
40
 10
4.4738592E+002
 20
1.5931433E+001
 11
4.4738595E+002
 21
1.3003546E+001
  0
LINE
  8
104
  6
CONTINUOUS
 62
40
 10
4.4738595E+002
 20
1.3003546E+001
 11
4.4938595E+002
 21
1.3003562E+001
  0
LINE
  8
104
  6
CONTINUOUS
 62
40
 10
4.4938595E+002
 20
1.3003562E+001
 11
4.5088595E+002
 21
1.3003577E+001
  0
LINE
  8
104
  6
CONTINUOUS
 62
40
 10
4.5088595E+002
 20
1.3003577E+001
 11
4.5133594E+002
 21
1.3003577E+001
  0
LINE
  8
104
  6
CONTINUOUS
 62
40
 10
4.5133594E+002
 20
1.3003577E+001
 11
4.5158594E+002
 21
1.3253577E+001
  0
LINE
  8
104
  6
CONTINUOUS
 62
40
 10
4.5158594E+002
 20
1.3253577E+001
 11
4.5158594E+002
 21
1.492858E+001
  0
LINE
  8
104
  6
CONTINUOUS
 62
40
 10
4.5158594E+002
 20
1.492858E+001
 11
4.5191092E+002
 21
1.5253577E+001
  0
LINE
  8
104
  6
CONTINUOUS
 62
40
 10
4.5191092E+002
 20
1.5253577E+001
 11
4.5191092E+002
 21
1.5753577E+001
  0
LINE
  8
104
  6
CONTINUOUS
 62
40
 10
4.5191092E+002
 20
1.5753577E+001
 11
4.5181091E+002
 21
1.5753577E+001
  0
LINE
  8
104
  6
CONTINUOUS
 62
40
 10
4.5181091E+002
 20
1.5753577E+001
 11
4.5181091E+002
 21
1.6008673E+001
  0
LINE
  8
99
  6
CONTINUOUS
 62
1
 10
4.5171091E+002
 20
1.8003577E+001
 11
4.4938589E+002
 21
1.8003562E+001
  0
LINE
  8
99
  6
CONTINUOUS
 62
1
 10
4.5181091E+002
 20
1.5753577E+001
 11
4.4938592E+002
 21
1.5753562E+001
  0
LINE
  8
99
  6
CONTINUOUS
 62
1
 10
4.5191092E+002
 20
1.5253577E+001
 11
4.4938592E+002
 21
1.5253562E+001
  0
LINE
  8
99
  6
CONTINUOUS
 62
1
 10
4.5158594E+002
 20
1.492858E+001
 11
4.4938592E+002
 21
1.4928565E+001
  0
LINE
  8
99
  6
CONTINUOUS
 62
1
 10
4.5158594E+002
 20
1.3253577E+001
 11
4.4938595E+002
 21
1.3253562E+001
  0
LINE
  8
99
  6
CONTINUOUS
 62
1
 10
4.4938589E+002
 20
1.8003562E+001
 11
4.4738592E+002
 21
1.8003546E+001
  0
LINE
  8
99
  6
CONTINUOUS
 62
1
 10
4.4938592E+002
 20
1.5753562E+001
 11
4.4738592E+002
 21
1.5753546E+001
  0
LINE
  8
99
  6
CONTINUOUS
 62
1
 10
4.4938592E+002
 20
1.5253562E+001
 11
4.4738592E+002
 21
1.5253546E+001
  0
LINE
  8
99
  6
CONTINUOUS
 62
1
 10
4.4938592E+002
 20
1.4928565E+001
 11
4.4738592E+002
 21
1.492855E+001
  0
LINE
  8
99
  6
CONTINUOUS
 62
1
 10
4.4938595E+002
 20
1.3253562E+001
 11
4.4738595E+002
 21
1.3253546E+001
  0
LINE
  8
106
  6
CENTERLINE
 62
1
 10
4.4938589E+002
 20
2.0467223E+001
 11
4.4938592E+002
 21
1.2539496E+001
  0
LINE
  8
104
  6
CONTINUOUS
 62
40
 10
4.2938592E+002
 20
2.140322E+001
 11
4.3314129E+002
 21
1.7647895E+001
  0
LINE
  8
106
  6
CENTERLINE
 62
1
 10
4.4938592E+002
 20
1.8652884E+001
 11
4.4938592E+002
 21
1.7931433E+001
  0
LINE
  8
106
  6
CENTERLINE
 62
1
 10
4.4938592E+002
 20
1.5966345E+001
 11
4.4938592E+002
 21
1.5582343E+001
  0
LINE
  8
105
  6
HIDDEN
 62
1
 10
4.2738592E+002
 20
2.5582328E+001
 11
4.2938592E+002
 21
2.5582328E+001
  0
LINE
  8
106
  6
CENTERLINE
 62
1
 10
4.2603943E+002
 20
2.1082328E+001
 11
4.3046365E+002
 21
2.1082328E+001
  0
LINE
  8
106
  6
CENTERLINE
 62
1
 10
4.2603943E+002
 20
2.4082328E+001
 11
4.3046365E+002
 21
2.4082328E+001
  0
LINE
  8
106
  6
CENTERLINE
 62
1
 10
4.2603943E+002
 20
2.7582328E+001
 11
4.3046365E+002
 21
2.7582328E+001
  0
LINE
  8
106
  6
CENTERLINE
 62
1
 10
4.2603943E+002
 20
3.0582328E+001
 11
4.3046365E+002
 21
3.0582328E+001
  0
LINE
  8
106
  6
CENTERLINE
 62
1
 10
4.2603943E+002
 20
3.4082328E+001
 11
4.3046365E+002
 21
3.4082328E+001
  0
LINE
  8
104
  6
CONTINUOUS
 62
40
 10
4.2738592E+002
 20
4.0582312E+001
 11
4.2738592E+002
 21
1.8635154E+001
  0
ARC
  8
104
  6
CONTINUOUS
 62
40
 10
4.3038594E+002
 20
1.863517E+001
 40
3.0000151
 50
1.8000031E+002
 51
2.7099991E+002
  0
LINE
  8
104
  6
CONTINUOUS
 62
40
 10
4.3043829E+002
 20
1.5635611E+001
 11
4.6488592E+002
 21
1.6236899E+001
  0
LINE
  8
104
  6
CONTINUOUS
 62
40
 10
4.6488592E+002
 20
1.6236899E+001
 11
4.6488592E+002
 21
1.8201987E+001
  0
LINE
  8
104
  6
CONTINUOUS
 62
40
 10
4.6488592E+002
 20
1.8201987E+001
 11
4.3040341E+002
 21
1.7600089E+001
  0
ARC
  8
104
  6
CONTINUOUS
 62
40
 10
4.3038596E+002
 20
1.8599942E+001
 40
1.0000059
 50
1.8000035E+002
 51
2.7099986E+002
  0
LINE
  8
104
  6
CONTINUOUS
 62
40
 10
4.2938595E+002
 20
1.8599936E+001
 11
4.2938592E+002
 21
4.0582312E+001
  0
LINE
  8
104
  6
CONTINUOUS
 62
40
 10
4.2938592E+002
 20
4.0582312E+001
 11
4.2738592E+002
 21
4.0582312E+001
  0
LINE
  8
106
  6
CENTERLINE
 62
1
 10
4.2603943E+002
 20
3.7082328E+001
 11
4.3046365E+002
 21
3.7082328E+001
  0
DIMENSION
  8
MED-0
  6
CONTINUOUS
 62
4
  2
*D238
  3
DSTYLE1
 10
3.4430299E+002
 20
1.4341053E+002
 11
3.5447695E+002
 21
1.4632603E+002
 70
128
 13
3.6430299E+002
 23
1.2856863E+002
 14
3.4430299E+002
 24
1.2856863E+002
 40
3.0
 50
1.8E+002
  0
DIMENSION
  8
MED-0
  6
CONTINUOUS
 62
4
  2
*D257
  3
DSTYLE1
 10
3.5430299E+002
 20
1.4975834E+002
 11
3.7438076E+002
 21
1.5267384E+002
 70
128
 13
3.9430299E+002
 23
9.4840248E+001
 14
3.5430299E+002
 24
1.3656863E+002
 40
3.0
 50
1.8E+002
  0
DIMENSION
  8
MED-0
  6
CONTINUOUS
 62
4
  2
*D266
  3
DSTYLE1
 10
3.0784862E+002
 20
1.2856863E+002
 11
3.0493312E+002
 21
1.2265942E+002
 70
128
 13
3.2573787E+002
 23
1.1656863E+002
 14
3.3958761E+002
 24
1.2856863E+002
 40
3.0
 50
9.0E+001
  0
DIMENSION
  8
MED-0
  6
CONTINUOUS
 62
4
  2
*D275
  3
DSTYLE1
 10
3.7630298E+002
 20
8.6860588E+001
 11
3.5438076E+002
 21
8.9776088E+001
 70
128
 13
3.3230299E+002
 23
9.8168632E+001
 14
3.7630298E+002
 24
9.8168632E+001
 40
3.0
 50
0.0
  0
DIMENSION
  8
MED-0
  6
CONTINUOUS
 62
4
  1
(<>)
  2
*D284
  3
DSTYLE1
 10
3.8230298E+002
 20
7.9999107E+001
 11
3.5674326E+002
 21
8.2914607E+001
 70
128
 13
3.2630299E+002
 23
1.0056863E+002
 14
3.8230298E+002
 24
1.0056863E+002
 40
3.0
 50
0.0
  0
LINE
  8
106
  6
CENTERLINE
 62
1
 10
2.6928097E+002
 20
1.4379235E+002
 11
2.6928097E+002
 21
7.4435737E+001
  0
LINE
  8
106
  6
CENTERLINE
 62
1
 10
2.6928097E+002
 20
7.4435737E+001
 11
4.1397781E+002
 21
7.4435737E+001
  0
LINE
  8
99
  6
CONTINUOUS
 62
1
 10
3.9430299E+002
 20
1.167207E+002
 11
3.9430299E+002
 21
7.4435737E+001
  0
LINE
  8
99
  6
CONTINUOUS
 62
1
 10
3.1630299E+002
 20
1.1656863E+002
 11
2.6928098E+002
 21
1.1656863E+002
  0
CIRCLE
  8
105
  6
HIDDEN
 62
1
 10
3.4430299E+002
 20
1.2856863E+002
 40
2.479996
  0
CIRCLE
  8
105
  6
HIDDEN
 62
1
 10
3.6430299E+002
 20
1.2856863E+002
 40
2.479996
  0
CIRCLE
  8
105
  6
HIDDEN
 62
1
 10
3.5430299E+002
 20
1.2856863E+002
 40
3.399994
  0
LINE
  8
MED-11
  6
SHORT_DASH
 62
40
 10
3.4430299E+002
 20
1.2533495E+002
 11
3.4430299E+002
 21
1.3156733E+002
  0
LINE
  8
MED-11
  6
SHORT_DASH
 62
40
 10
3.6430299E+002
 20
1.2533495E+002
 11
3.6430299E+002
 21
1.3156733E+002
  0
CIRCLE
  8
105
  6
HIDDEN
 62
1
 10
3.4430299E+002
 20
1.2856863E+002
 40
1.320007
  0
CIRCLE
  8
105
  6
HIDDEN
 62
1
 10
3.6430299E+002
 20
1.2856863E+002
 40
1.319992
  0
ARC
  8
105
  6
HIDDEN
 62
1
 10
3.6930298E+002
 20
1.3556863E+002
 40
1.0000002
 50
1.26959E-005
 51
8.9999987E+001
  0
LINE
  8
105
  6
HIDDEN
 62
1
 10
3.6930298E+002
 20
1.3656863E+002
 11
3.3930299E+002
 21
1.3656863E+002
  0
ARC
  8
105
  6
HIDDEN
 62
1
 10
3.39303E+002
 20
1.3556862E+002
 40
1.0000061
 50
9.0000349E+001
 51
1.7999965E+002
  0
LINE
  8
105
  6
HIDDEN
 62
1
 10
3.3830299E+002
 20
1.3556863E+002
 11
3.3830299E+002
 21
1.2156863E+002
  0
ARC
  8
105
  6
HIDDEN
 62
1
 10
3.3930299E+002
 20
1.2156863E+002
 40
1.0000013
 50
1.8000007E+002
 51
2.6999993E+002
  0
LINE
  8
105
  6
HIDDEN
 62
1
 10
3.3930299E+002
 20
1.2056863E+002
 11
3.6930298E+002
 21
1.2056863E+002
  0
ARC
  8
105
  6
HIDDEN
 62
1
 10
3.6930298E+002
 20
1.2156862E+002
 40
9.9999539E-001
 50
2.6999974E+002
 51
3.6000026E+002
  0
LINE
  8
105
  6
HIDDEN
 62
1
 10
3.7030298E+002
 20
1.2156863E+002
 11
3.7030298E+002
 21
1.3556863E+002
  0
LINE
  8
106
  6
CENTERLINE
 62
1
 10
3.376833E+002
 20
1.2856863E+002
 11
3.7084573E+002
 21
1.2856863E+002
  0
LINE
  8
99
  6
CONTINUOUS
 62
1
 10
3.7630298E+002
 20
1.1054331E+002
 11
3.7630298E+002
 21
1.0658753E+002
  0
LINE
  8
99
  6
CONTINUOUS
 62
1
 10
3.7630298E+002
 20
1.0534332E+002
 11
3.7630298E+002
 21
1.0138754E+002
  0
LINE
  8
99
  6
CONTINUOUS
 62
1
 10
3.7630298E+002
 20
1.0014332E+002
 11
3.7630298E+002
 21
9.6187522E+001
  0
LINE
  8
99
  6
CONTINUOUS
 62
1
 10
3.8230298E+002
 20
1.1294332E+002
 11
3.8230298E+002
 21
1.0898753E+002
  0
LINE
  8
99
  6
CONTINUOUS
 62
1
 10
3.8230298E+002
 20
1.0774332E+002
 11
3.8230298E+002
 21
1.0378753E+002
  0
LINE
  8
99
  6
CONTINUOUS
 62
1
 10
3.8230298E+002
 20
1.0254331E+002
 11
3.8230298E+002
 21
9.8587532E+001
  0
LINE
  8
99
  6
CONTINUOUS
 62
1
 10
3.8427768E+002
 20
1.0056863E+002
 11
3.8032188E+002
 21
1.0056863E+002
  0
LINE
  8
99
  6
CONTINUOUS
 62
1
 10
3.8427768E+002
 20
1.0576862E+002
 11
3.8032188E+002
 21
1.0576862E+002
  0
LINE
  8
99
  6
CONTINUOUS
 62
1
 10
3.8427768E+002
 20
1.1096864E+002
 11
3.8032188E+002
 21
1.1096864E+002
  0
LINE
  8
99
  6
CONTINUOUS
 62
1
 10
3.7827768E+002
 20
1.0856863E+002
 11
3.7432188E+002
 21
1.0856863E+002
  0
LINE
  8
99
  6
CONTINUOUS
 62
1
 10
3.7827768E+002
 20
1.0336863E+002
 11
3.7432188E+002
 21
1.0336863E+002
  0
LINE
  8
99
  6
CONTINUOUS
 62
1
 10
3.7827768E+002
 20
9.8168632E+001
 11
3.7432188E+002
 21
9.8168632E+001
  0
LINE
  8
99
  6
CONTINUOUS
 62
1
 10
3.3427768E+002
 20
9.8168632E+001
 11
3.303219E+002
 21
9.8168632E+001
  0
LINE
  8
99
  6
CONTINUOUS
 62
1
 10
3.2630299E+002
 20
1.0254331E+002
 11
3.2630299E+002
 21
9.8587532E+001
  0
LINE
  8
99
  6
CONTINUOUS
 62
1
 10
3.2630299E+002
 20
1.0774332E+002
 11
3.2630299E+002
 21
1.0378753E+002
  0
LINE
  8
99
  6
CONTINUOUS
 62
1
 10
3.2630299E+002
 20
1.1294332E+002
 11
3.2630299E+002
 21
1.0898753E+002
  0
LINE
  8
99
  6
CONTINUOUS
 62
1
 10
3.3230299E+002
 20
1.1054331E+002
 11
3.3230299E+002
 21
1.0658753E+002
  0
LINE
  8
99
  6
CONTINUOUS
 62
1
 10
3.3230299E+002
 20
1.0534332E+002
 11
3.3230299E+002
 21
1.0138754E+002
  0
LINE
  8
99
  6
CONTINUOUS
 62
1
 10
3.3230299E+002
 20
1.0014332E+002
 11
3.3230299E+002
 21
9.6187522E+001
  0
LINE
  8
99
  6
CONTINUOUS
 62
1
 10
3.2827768E+002
 20
1.0056863E+002
 11
3.243219E+002
 21
1.0056863E+002
  0
LINE
  8
99
  6
CONTINUOUS
 62
1
 10
3.2827768E+002
 20
1.0576862E+002
 11
3.243219E+002
 21
1.0576862E+002
  0
LINE
  8
99
  6
CONTINUOUS
 62
1
 10
3.2827768E+002
 20
1.1096864E+002
 11
3.243219E+002
 21
1.1096864E+002
  0
LINE
  8
99
  6
CONTINUOUS
 62
1
 10
3.3427768E+002
 20
1.0856863E+002
 11
3.303219E+002
 21
1.0856863E+002
  0
LINE
  8
99
  6
CONTINUOUS
 62
1
 10
3.3427768E+002
 20
1.0336863E+002
 11
3.303219E+002
 21
1.0336863E+002
  0
LINE
  8
99
  6
CONTINUOUS
 62
1
 10
3.3703892E+002
 20
9.395861E+001
 11
3.3930299E+002
 21
9.395861E+001
  0
ARC
  8
99
  6
CONTINUOUS
 62
1
 10
3.39303E+002
 20
9.6458605E+001
 40
2.4999953
 50
2.6999989E+002
 51
3.6000011E+002
  0
LINE
  8
99
  6
CONTINUOUS
 62
1
 10
3.4180299E+002
 20
9.645861E+001
 11
3.4180299E+002
 21
1.0645861E+002
  0
ARC
  8
99
  6
CONTINUOUS
 62
1
 10
3.44303E+002
 20
1.064586E+002
 40
2.5000074
 50
9.0000171E+001
 51
1.7999983E+002
  0
LINE
  8
99
  6
CONTINUOUS
 62
1
 10
3.4430299E+002
 20
1.0895861E+002
 11
3.6430299E+002
 21
1.0895861E+002
  0
ARC
  8
99
  6
CONTINUOUS
 62
1
 10
3.6430299E+002
 20
1.0645861E+002
 40
2.4999997
 50
3.5999999E+002
 51
4.5000001E+002
  0
LINE
  8
99
  6
CONTINUOUS
 62
1
 10
3.6680299E+002
 20
1.0645861E+002
 11
3.6680299E+002
 21
9.645861E+001
  0
ARC
  8
99
  6
CONTINUOUS
 62
1
 10
3.6930299E+002
 20
9.6458613E+001
 40
2.5000029
 50
1.8000007E+002
 51
2.6999993E+002
  0
LINE
  8
99
  6
CONTINUOUS
 62
1
 10
3.6930299E+002
 20
9.395861E+001
 11
3.7272125E+002
 21
9.395861E+001
  0
CIRCLE
  8
99
  6
CONTINUOUS
 62
1
 10
3.3230299E+002
 20
1.0856863E+002
 40
1.100006
  0
LINE
  8
99
  6
CONTINUOUS
 62
1
 10
3.2486162E+002
 20
1.0056863E+002
 11
3.2767003E+002
 21
1.0056863E+002
  0
CIRCLE
  8
99
  6
CONTINUOUS
 62
1
 10
3.3230299E+002
 20
1.0336863E+002
 40
1.100006
  0
CIRCLE
  8
99
  6
CONTINUOUS
 62
1
 10
3.3230299E+002
 20
9.8168632E+001
 40
1.100006
  0
CIRCLE
  8
99
  6
CONTINUOUS
 62
1
 10
3.7630298E+002
 20
9.8168632E+001
 40
1.100006
  0
CIRCLE
  8
99
  6
CONTINUOUS
 62
1
 10
3.7630298E+002
 20
1.0336863E+002
 40
1.100006
  0
CIRCLE
  8
99
  6
CONTINUOUS
 62
1
 10
3.7630298E+002
 20
1.0856863E+002
 40
1.100006
  0
CIRCLE
  8
99
  6
CONTINUOUS
 62
1
 10
3.8230298E+002
 20
1.0056863E+002
 40
1.100006
  0
CIRCLE
  8
99
  6
CONTINUOUS
 62
1
 10
3.8230298E+002
 20
1.0576862E+002
 40
1.100006
  0
CIRCLE
  8
99
  6
CONTINUOUS
 62
1
 10
3.8230298E+002
 20
1.1096864E+002
 40
1.100006
  0
CIRCLE
  8
99
  6
CONTINUOUS
 62
1
 10
3.2630299E+002
 20
1.1096864E+002
 40
1.100006
  0
CIRCLE
  8
99
  6
CONTINUOUS
 62
1
 10
3.2630299E+002
 20
1.0576862E+002
 40
1.100006
  0
CIRCLE
  8
99
  6
CONTINUOUS
 62
1
 10
3.2630299E+002
 20
1.0056863E+002
 40
1.100006
  0
LINE
  8
99
  6
CONTINUOUS
 62
1
 10
3.8550299E+002
 20
9.395861E+001
 11
3.8550299E+002
 21
1.1596864E+002
  0
LINE
  8
99
  6
CONTINUOUS
 62
1
 10
3.8550299E+002
 20
1.1596864E+002
 11
3.23103E+002
 21
1.1596864E+002
  0
LINE
  8
99
  6
CONTINUOUS
 62
1
 10
3.23103E+002
 20
1.1596864E+002
 11
3.23103E+002
 21
9.395861E+001
  0
LINE
  8
99
  6
CONTINUOUS
 62
1
 10
3.2250299E+002
 20
9.395861E+001
 11
3.2250299E+002
 21
1.1596864E+002
  0
LINE
  8
99
  6
CONTINUOUS
 62
1
 10
3.2250299E+002
 20
1.1596864E+002
 11
3.1630299E+002
 21
1.1596864E+002
  0
LINE
  8
99
  6
CONTINUOUS
 62
1
 10
3.1630299E+002
 20
1.1596864E+002
 11
3.1630299E+002
 21
9.4368629E+001
  0
ARC
  8
99
  6
CONTINUOUS
 62
1
 10
3.17303E+002
 20
9.4368634E+001
 40
1.0000055
 50
1.8000031E+002
 51
2.6999969E+002
  0
LINE
  8
99
  6
CONTINUOUS
 62
1
 10
3.1730299E+002
 20
9.3368629E+001
 11
3.9130298E+002
 21
9.3368629E+001
  0
ARC
  8
99
  6
CONTINUOUS
 62
1
 10
3.9130298E+002
 20
9.4368624E+001
 40
9.9999467E-001
 50
2.6999969E+002
 51
3.6000031E+002
  0
LINE
  8
99
  6
CONTINUOUS
 62
1
 10
3.9230298E+002
 20
9.4368629E+001
 11
3.9230298E+002
 21
1.1596864E+002
  0
LINE
  8
99
  6
CONTINUOUS
 62
1
 10
3.9230298E+002
 20
1.1596864E+002
 11
3.8610298E+002
 21
1.1596864E+002
  0
LINE
  8
99
  6
CONTINUOUS
 62
1
 10
3.8610298E+002
 20
1.1596864E+002
 11
3.8610298E+002
 21
9.395861E+001
  0
LINE
  8
106
  6
CENTERLINE
 62
1
 10
3.5430299E+002
 20
9.2193763E+001
 11
3.5430299E+002
 21
1.3993204E+002
  0
LINE
  8
99
  6
CONTINUOUS
 62
1
 10
3.9170297E+002
 20
1.1596864E+002
 11
3.9170297E+002
 21
1.1656863E+002
  0
LINE
  8
99
  6
CONTINUOUS
 62
1
 10
3.9170297E+002
 20
1.1656863E+002
 11
3.16903E+002
 21
1.1656863E+002
  0
LINE
  8
99
  6
CONTINUOUS
 62
1
 10
3.16903E+002
 20
1.1656863E+002
 11
3.16903E+002
 21
1.1596864E+002
  0
LINE
  8
99
  6
CONTINUOUS
 62
1
 10
3.1719273E+002
 20
1.1596864E+002
 11
3.1719273E+002
 21
1.1656863E+002
  0
LINE
  8
99
  6
CONTINUOUS
 62
1
 10
3.9141325E+002
 20
1.1596864E+002
 11
3.9141325E+002
 21
1.1656863E+002
  0
LINE
  8
99
  6
CONTINUOUS
 62
1
 10
3.9200802E+002
 20
1.1596864E+002
 11
3.9200801E+002
 21
9.495861E+001
  0
ARC
  8
99
  6
CONTINUOUS
 62
1
 10
3.9100801E+002
 20
9.4958611E+001
 40
1.000001
 50
2.7000006E+002
 51
3.5999994E+002
  0
LINE
  8
99
  6
CONTINUOUS
 62
1
 10
3.9100801E+002
 20
9.395861E+001
 11
3.1755797E+002
 21
9.395861E+001
  0
ARC
  8
99
  6
CONTINUOUS
 62
1
 10
3.1755796E+002
 20
9.4918613E+001
 40
9.6000339E-001
 50
1.799998E+002
 51
2.7000016E+002
  0
LINE
  8
99
  6
CONTINUOUS
 62
1
 10
3.1659796E+002
 20
9.4918617E+001
 11
3.1659796E+002
 21
1.1596864E+002
  0
LINE
  8
99
  6
CONTINUOUS
 62
1
 10
3.8550299E+002
 20
1.3857865E+002
 11
3.8550299E+002
 21
1.1656863E+002
  0
LINE
  8
99
  6
CONTINUOUS
 62
1
 10
3.8550299E+002
 20
1.1656863E+002
 11
3.23103E+002
 21
1.1656863E+002
  0
LINE
  8
99
  6
CONTINUOUS
 62
1
 10
3.23103E+002
 20
1.1656863E+002
 11
3.23103E+002
 21
1.3857865E+002
  0
LINE
  8
99
  6
CONTINUOUS
 62
1
 10
3.2250299E+002
 20
1.3857865E+002
 11
3.2250299E+002
 21
1.1656863E+002
  0
LINE
  8
99
  6
CONTINUOUS
 62
1
 10
3.2250299E+002
 20
1.1656863E+002
 11
3.1630299E+002
 21
1.1656863E+002
  0
LINE
  8
99
  6
CONTINUOUS
 62
1
 10
3.1630299E+002
 20
1.1656863E+002
 11
3.1630299E+002
 21
1.3816863E+002
  0
ARC
  8
99
  6
CONTINUOUS
 62
1
 10
3.1730299E+002
 20
1.3816863E+002
 40
9.9999876E-001
 50
8.9999929E+001
 51
1.8000007E+002
  0
LINE
  8
99
  6
CONTINUOUS
 62
1
 10
3.1730299E+002
 20
1.3916863E+002
 11
3.9130298E+002
 21
1.3916863E+002
  0
ARC
  8
99
  6
CONTINUOUS
 62
1
 10
3.9130299E+002
 20
1.3816864E+002
 40
9.9998794E-001
 50
3.5999931E+002
 51
4.5000069E+002
  0
LINE
  8
99
  6
CONTINUOUS
 62
1
 10
3.9230298E+002
 20
1.3816863E+002
 11
3.9230298E+002
 21
1.1656863E+002
  0
LINE
  8
99
  6
CONTINUOUS
 62
1
 10
3.9230298E+002
 20
1.1656863E+002
 11
3.8610298E+002
 21
1.1656863E+002
  0
LINE
  8
99
  6
CONTINUOUS
 62
1
 10
3.8610298E+002
 20
1.1656863E+002
 11
3.8610298E+002
 21
1.3857865E+002
  0
LINE
  8
99
  6
CONTINUOUS
 62
1
 10
3.9170297E+002
 20
1.1656863E+002
 11
3.9170297E+002
 21
1.1596864E+002
  0
LINE
  8
99
  6
CONTINUOUS
 62
1
 10
3.9170297E+002
 20
1.1596864E+002
 11
3.16903E+002
 21
1.1596864E+002
  0
LINE
  8
99
  6
CONTINUOUS
 62
1
 10
3.16903E+002
 20
1.1596864E+002
 11
3.16903E+002
 21
1.1656863E+002
  0
LINE
  8
99
  6
CONTINUOUS
 62
1
 10
3.1719273E+002
 20
1.1656863E+002
 11
3.1719273E+002
 21
1.1596864E+002
  0
LINE
  8
99
  6
CONTINUOUS
 62
1
 10
3.9141325E+002
 20
1.1656863E+002
 11
3.9141325E+002
 21
1.1596864E+002
  0
LINE
  8
99
  6
CONTINUOUS
 62
1
 10
3.9200802E+002
 20
1.1656863E+002
 11
3.9200801E+002
 21
1.3757865E+002
  0
ARC
  8
99
  6
CONTINUOUS
 62
1
 10
3.9100801E+002
 20
1.3757865E+002
 40
9.999995E-001
 50
3.5999997E+002
 51
4.5000003E+002
  0
LINE
  8
99
  6
CONTINUOUS
 62
1
 10
3.9100801E+002
 20
1.3857865E+002
 11
3.1755797E+002
 21
1.3857865E+002
  0
ARC
  8
99
  6
CONTINUOUS
 62
1
 10
3.1755796E+002
 20
1.3761865E+002
 40
9.6000046E-001
 50
8.9999669E+001
 51
1.8000039E+002
  0
LINE
  8
99
  6
CONTINUOUS
 62
1
 10
3.1659796E+002
 20
1.3761864E+002
 11
3.1659796E+002
 21
1.1656863E+002
  0
TEXT
  8
103
  6
CONTINUOUS
 62
150
 10
3.0835074E+002
 20
1.4390232E+002
 40
3.5
  1
M 1:2.5
 41
6.4285716E-001
 72
1
 11
3.0047574E+002
 21
1.4215232E+002
 73
2
  0
DIMENSION
  8
MED-0
  6
CONTINUOUS
 62
4
  2
*D406
  3
DSTYLE1
 10
8.6513203E+001
 20
8.3298792E+001
 11
9.6687157E+001
 21
8.6214292E+001
 70
128
 13
1.065132E+002
 23
9.9567331E+001
 14
8.6513203E+001
 24
9.9567331E+001
 40
3.0
 50
1.8E+002
  0
DIMENSION
  8
MED-0
  6
CONTINUOUS
 62
4
  2
*D415
  3
DSTYLE1
 10
9.6513199E+001
 20
7.916311E+001
 11
1.1659098E+002
 21
8.207861E+001
 70
128
 13
1.365132E+002
 23
8.9838937E+001
 14
9.6513199E+001
 24
9.2628122E+001
 40
3.0
 50
1.8E+002
  0
DIMENSION
  8
MED-0
  6
CONTINUOUS
 62
4
  2
*D425
  3
DSTYLE1
 10
5.0058827E+001
 20
9.9567331E+001
 11
4.7143327E+001
 21
1.0547653E+002
 70
128
 13
6.7948079E+001
 23
1.1156733E+002
 14
8.1797821E+001
 24
9.9567331E+001
 40
3.0
 50
-9.0E+001
  0
DIMENSION
  8
MED-0
  6
CONTINUOUS
 62
4
  2
*D434
  3
DSTYLE1
 10
1.185132E+002
 20
1.3840923E+002
 11
9.6590979E+001
 21
1.4132473E+002
 70
128
 13
7.4513199E+001
 23
1.2996734E+002
 14
1.185132E+002
 24
1.2996734E+002
 40
3.0
 50
0.0
  0
DIMENSION
  8
MED-0
  6
CONTINUOUS
 62
4
  1
(<>)
  2
*D443
  3
DSTYLE1
 10
1.245132E+002
 20
1.4475704E+002
 11
9.8953479E+001
 21
1.4767254E+002
 70
128
 13
6.8513203E+001
 23
1.2756733E+002
 14
1.245132E+002
 24
1.2756733E+002
 40
3.0
 50
0.0
  0
LINE
  8
99
  6
CONTINUOUS
 62
1
 10
1.185132E+002
 20
1.1759265E+002
 11
1.185132E+002
 21
1.2154842E+002
  0
LINE
  8
99
  6
CONTINUOUS
 62
1
 10
1.185132E+002
 20
1.2279264E+002
 11
1.185132E+002
 21
1.2674844E+002
  0
LINE
  8
99
  6
CONTINUOUS
 62
1
 10
1.185132E+002
 20
1.2799264E+002
 11
1.185132E+002
 21
1.3194843E+002
  0
LINE
  8
99
  6
CONTINUOUS
 62
1
 10
1.245132E+002
 20
1.1519264E+002
 11
1.245132E+002
 21
1.1914843E+002
  0
LINE
  8
99
  6
CONTINUOUS
 62
1
 10
1.245132E+002
 20
1.2039265E+002
 11
1.245132E+002
 21
1.2434843E+002
  0
LINE
  8
99
  6
CONTINUOUS
 62
1
 10
1.245132E+002
 20
1.2559265E+002
 11
1.245132E+002
 21
1.2954843E+002
  0
LINE
  8
99
  6
CONTINUOUS
 62
1
 10
1.2648789E+002
 20
1.2756733E+002
 11
1.225321E+002
 21
1.2756733E+002
  0
LINE
  8
99
  6
CONTINUOUS
 62
1
 10
1.2648789E+002
 20
1.2236733E+002
 11
1.225321E+002
 21
1.2236733E+002
  0
LINE
  8
99
  6
CONTINUOUS
 62
1
 10
1.2648789E+002
 20
1.1716734E+002
 11
1.225321E+002
 21
1.1716734E+002
  0
LINE
  8
99
  6
CONTINUOUS
 62
1
 10
1.2048789E+002
 20
1.1956733E+002
 11
1.165321E+002
 21
1.1956733E+002
  0
LINE
  8
99
  6
CONTINUOUS
 62
1
 10
1.2048789E+002
 20
1.2476733E+002
 11
1.165321E+002
 21
1.2476733E+002
  0
LINE
  8
99
  6
CONTINUOUS
 62
1
 10
1.2048789E+002
 20
1.2996734E+002
 11
1.165321E+002
 21
1.2996734E+002
  0
LINE
  8
99
  6
CONTINUOUS
 62
1
 10
7.6487889E+001
 20
1.2996734E+002
 11
7.2532101E+001
 21
1.2996734E+002
  0
LINE
  8
99
  6
CONTINUOUS
 62
1
 10
6.8513203E+001
 20
1.2559265E+002
 11
6.8513203E+001
 21
1.2954843E+002
  0
LINE
  8
99
  6
CONTINUOUS
 62
1
 10
6.8513203E+001
 20
1.2039265E+002
 11
6.8513203E+001
 21
1.2434843E+002
  0
LINE
  8
99
  6
CONTINUOUS
 62
1
 10
6.8513203E+001
 20
1.1519264E+002
 11
6.8513203E+001
 21
1.1914843E+002
  0
LINE
  8
99
  6
CONTINUOUS
 62
1
 10
7.4513199E+001
 20
1.1759265E+002
 11
7.4513199E+001
 21
1.2154842E+002
  0
LINE
  8
99
  6
CONTINUOUS
 62
1
 10
7.4513199E+001
 20
1.2279264E+002
 11
7.4513199E+001
 21
1.2674844E+002
  0
LINE
  8
99
  6
CONTINUOUS
 62
1
 10
7.4513199E+001
 20
1.2799264E+002
 11
7.4513199E+001
 21
1.3194843E+002
  0
LINE
  8
99
  6
CONTINUOUS
 62
1
 10
7.0487893E+001
 20
1.2756733E+002
 11
6.6532101E+001
 21
1.2756733E+002
  0
LINE
  8
99
  6
CONTINUOUS
 62
1
 10
7.0487893E+001
 20
1.2236733E+002
 11
6.6532101E+001
 21
1.2236733E+002
  0
LINE
  8
99
  6
CONTINUOUS
 62
1
 10
7.0487893E+001
 20
1.1716734E+002
 11
6.6532101E+001
 21
1.1716734E+002
  0
LINE
  8
99
  6
CONTINUOUS
 62
1
 10
7.6487889E+001
 20
1.1956733E+002
 11
7.2532101E+001
 21
1.1956733E+002
  0
LINE
  8
99
  6
CONTINUOUS
 62
1
 10
7.6487889E+001
 20
1.2476733E+002
 11
7.2532101E+001
 21
1.2476733E+002
  0
LINE
  8
99
  6
CONTINUOUS
 62
1
 10
7.9249131E+001
 20
1.3417735E+002
 11
8.1513203E+001
 21
1.3417735E+002
  0
ARC
  8
99
  6
CONTINUOUS
 62
1
 10
8.15132E+001
 20
1.3167734E+002
 40
2.5000032
 50
7.42578E-005
 51
8.9999926E+001
  0
LINE
  8
99
  6
CONTINUOUS
 62
1
 10
8.4013203E+001
 20
1.3167735E+002
 11
8.4013203E+001
 21
1.2167735E+002
  0
ARC
  8
99
  6
CONTINUOUS
 62
1
 10
8.6513197E+001
 20
1.2167734E+002
 40
2.499994
 50
1.7999986E+002
 51
2.7000014E+002
  0
LINE
  8
99
  6
CONTINUOUS
 62
1
 10
8.6513203E+001
 20
1.1917735E+002
 11
1.065132E+002
 21
1.1917735E+002
  0
ARC
  8
99
  6
CONTINUOUS
 62
1
 10
1.065132E+002
 20
1.2167734E+002
 40
2.4999951
 50
2.6999989E+002
 51
3.6000011E+002
  0
LINE
  8
99
  6
CONTINUOUS
 62
1
 10
1.090132E+002
 20
1.2167735E+002
 11
1.090132E+002
 21
1.3167735E+002
  0
ARC
  8
99
  6
CONTINUOUS
 62
1
 10
1.115132E+002
 20
1.3167734E+002
 40
2.5000022
 50
9.000005E+001
 51
1.7999995E+002
  0
LINE
  8
99
  6
CONTINUOUS
 62
1
 10
1.115132E+002
 20
1.3417735E+002
 11
1.1493147E+002
 21
1.3417735E+002
  0
CIRCLE
  8
99
  6
CONTINUOUS
 62
1
 10
7.4513199E+001
 20
1.1956733E+002
 40
1.1000023
  0
LINE
  8
99
  6
CONTINUOUS
 62
1
 10
6.707182E+001
 20
1.2756733E+002
 11
6.9880242E+001
 21
1.2756733E+002
  0
CIRCLE
  8
99
  6
CONTINUOUS
 62
1
 10
7.4513199E+001
 20
1.2476733E+002
 40
1.1000023
  0
CIRCLE
  8
99
  6
CONTINUOUS
 62
1
 10
7.4513199E+001
 20
1.2996734E+002
 40
1.1000023
  0
CIRCLE
  8
99
  6
CONTINUOUS
 62
1
 10
1.185132E+002
 20
1.2996734E+002
 40
1.099999
  0
CIRCLE
  8
99
  6
CONTINUOUS
 62
1
 10
1.185132E+002
 20
1.2476733E+002
 40
1.099999
  0
CIRCLE
  8
99
  6
CONTINUOUS
 62
1
 10
1.185132E+002
 20
1.1956733E+002
 40
1.099999
  0
CIRCLE
  8
99
  6
CONTINUOUS
 62
1
 10
1.245132E+002
 20
1.2756733E+002
 40
1.099999
  0
CIRCLE
  8
99
  6
CONTINUOUS
 62
1
 10
1.245132E+002
 20
1.2236733E+002
 40
1.099999
  0
CIRCLE
  8
99
  6
CONTINUOUS
 62
1
 10
1.245132E+002
 20
1.1716734E+002
 40
1.099999
  0
CIRCLE
  8
99
  6
CONTINUOUS
 62
1
 10
6.8513203E+001
 20
1.1716734E+002
 40
1.0999984
  0
CIRCLE
  8
99
  6
CONTINUOUS
 62
1
 10
6.8513203E+001
 20
1.2236733E+002
 40
1.0999984
  0
CIRCLE
  8
99
  6
CONTINUOUS
 62
1
 10
6.8513203E+001
 20
1.2756733E+002
 40
1.0999984
  0
LINE
  8
99
  6
CONTINUOUS
 62
1
 10
1.365132E+002
 20
1.117194E+002
 11
1.3651319E+002
 21
7.0034448E+001
  0
LINE
  8
106
  6
CENTERLINE
 62
1
 10
1.149119E+001
 20
1.4276296E+002
 11
1.149119E+001
 21
7.0034448E+001
  0
LINE
  8
106
  6
CENTERLINE
 62
1
 10
1.149119E+001
 20
7.0034448E+001
 11
1.5122167E+002
 21
7.0034448E+001
  0
LINE
  8
99
  6
CONTINUOUS
 62
1
 10
5.8513207E+001
 20
1.1156733E+002
 11
1.149119E+001
 21
1.1156733E+002
  0
CIRCLE
  8
105
  6
HIDDEN
 62
1
 10
8.6513203E+001
 20
9.9567331E+001
 40
2.4799957
  0
CIRCLE
  8
105
  6
HIDDEN
 62
1
 10
1.065132E+002
 20
9.9567331E+001
 40
2.479996
  0
CIRCLE
  8
105
  6
HIDDEN
 62
1
 10
9.6513199E+001
 20
9.9567331E+001
 40
3.4000016
  0
LINE
  8
MED-11
  6
SHORT_DASH
 62
40
 10
8.6513203E+001
 20
1.0280102E+002
 11
8.6513203E+001
 21
9.6568628E+001
  0
LINE
  8
MED-11
  6
SHORT_DASH
 62
40
 10
1.065132E+002
 20
1.0280102E+002
 11
1.065132E+002
 21
9.6568628E+001
  0
CIRCLE
  8
105
  6
HIDDEN
 62
1
 10
8.6513203E+001
 20
9.9567331E+001
 40
1.3199996
  0
CIRCLE
  8
105
  6
HIDDEN
 62
1
 10
1.065132E+002
 20
9.9567331E+001
 40
1.32
  0
ARC
  8
105
  6
HIDDEN
 62
1
 10
1.115132E+002
 20
9.2567333E+001
 40
1.0000022
 50
2.6999973E+002
 51
3.5999987E+002
  0
LINE
  8
105
  6
HIDDEN
 62
1
 10
1.1151319E+002
 20
9.1567331E+001
 11
8.1513199E+001
 21
9.1567331E+001
  0
ARC
  8
105
  6
HIDDEN
 62
1
 10
8.15132E+001
 20
9.2567332E+001
 40
1.0000011
 50
1.8000006E+002
 51
2.6999994E+002
  0
LINE
  8
105
  6
HIDDEN
 62
1
 10
8.0513199E+001
 20
9.2567331E+001
 11
8.0513199E+001
 21
1.0656733E+002
  0
ARC
  8
105
  6
HIDDEN
 62
1
 10
8.1513203E+001
 20
1.0656733E+002
 40
1.0000034
 50
9.0000194E+001
 51
1.7999981E+002
  0
LINE
  8
105
  6
HIDDEN
 62
1
 10
8.1513199E+001
 20
1.0756733E+002
 11
1.115132E+002
 21
1.0756733E+002
  0
ARC
  8
105
  6
HIDDEN
 62
1
 10
1.115132E+002
 20
1.0656733E+002
 40
1.000001
 50
5.85352E-005
 51
8.9999941E+001
  0
LINE
  8
105
  6
HIDDEN
 62
1
 10
1.125132E+002
 20
1.0656733E+002
 11
1.125132E+002
 21
9.2567331E+001
  0
LINE
  8
106
  6
CENTERLINE
 62
1
 10
7.9893513E+001
 20
9.9567331E+001
 11
1.1305595E+002
 21
9.9567331E+001
  0
LINE
  8
99
  6
CONTINUOUS
 62
1
 10
1.277132E+002
 20
1.3417735E+002
 11
1.277132E+002
 21
1.1216734E+002
  0
LINE
  8
99
  6
CONTINUOUS
 62
1
 10
1.277132E+002
 20
1.1216734E+002
 11
6.5313199E+001
 21
1.1216734E+002
  0
LINE
  8
99
  6
CONTINUOUS
 62
1
 10
6.5313199E+001
 20
1.1216734E+002
 11
6.5313199E+001
 21
1.3417735E+002
  0
LINE
  8
99
  6
CONTINUOUS
 62
1
 10
6.47132E+001
 20
1.3417735E+002
 11
6.47132E+001
 21
1.1216734E+002
  0
LINE
  8
99
  6
CONTINUOUS
 62
1
 10
6.47132E+001
 20
1.1216734E+002
 11
5.8513207E+001
 21
1.1216734E+002
  0
LINE
  8
99
  6
CONTINUOUS
 62
1
 10
5.8513207E+001
 20
1.1216734E+002
 11
5.8513207E+001
 21
1.3376733E+002
  0
ARC
  8
99
  6
CONTINUOUS
 62
1
 10
5.9513208E+001
 20
1.3376733E+002
 40
1.0000012
 50
9.000007E+001
 51
1.7999993E+002
  0
LINE
  8
99
  6
CONTINUOUS
 62
1
 10
5.9513207E+001
 20
1.3476733E+002
 11
1.335132E+002
 21
1.3476733E+002
  0
ARC
  8
99
  6
CONTINUOUS
 62
1
 10
1.335132E+002
 20
1.3376733E+002
 40
1.0000004
 50
2.13566E-005
 51
8.9999979E+001
  0
LINE
  8
99
  6
CONTINUOUS
 62
1
 10
1.345132E+002
 20
1.3376733E+002
 11
1.345132E+002
 21
1.1216734E+002
  0
LINE
  8
99
  6
CONTINUOUS
 62
1
 10
1.345132E+002
 20
1.1216734E+002
 11
1.283132E+002
 21
1.1216734E+002
  0
LINE
  8
99
  6
CONTINUOUS
 62
1
 10
1.283132E+002
 20
1.1216734E+002
 11
1.283132E+002
 21
1.3417735E+002
  0
LINE
  8
106
  6
CENTERLINE
 62
1
 10
9.6513199E+001
 20
1.3594219E+002
 11
9.6513199E+001
 21
8.8203912E+001
  0
LINE
  8
99
  6
CONTINUOUS
 62
1
 10
1.3391319E+002
 20
1.1216734E+002
 11
1.3391319E+002
 21
1.1156733E+002
  0
LINE
  8
99
  6
CONTINUOUS
 62
1
 10
1.3391319E+002
 20
1.1156733E+002
 11
5.9113205E+001
 21
1.1156733E+002
  0
LINE
  8
99
  6
CONTINUOUS
 62
1
 10
5.9113205E+001
 20
1.1156733E+002
 11
5.9113205E+001
 21
1.1216734E+002
  0
LINE
  8
99
  6
CONTINUOUS
 62
1
 10
5.9402939E+001
 20
1.1216734E+002
 11
5.9402939E+001
 21
1.1156733E+002
  0
LINE
  8
99
  6
CONTINUOUS
 62
1
 10
1.3362346E+002
 20
1.1216734E+002
 11
1.3362346E+002
 21
1.1156733E+002
  0
LINE
  8
99
  6
CONTINUOUS
 62
1
 10
1.3421823E+002
 20
1.1216734E+002
 11
1.3421822E+002
 21
1.3317735E+002
  0
ARC
  8
99
  6
CONTINUOUS
 62
1
 10
1.3321822E+002
 20
1.3317734E+002
 40
1.0000042
 50
2.41718E-004
 51
8.9999758E+001
  0
LINE
  8
99
  6
CONTINUOUS
 62
1
 10
1.3321822E+002
 20
1.3417735E+002
 11
5.976817E+001
 21
1.3417735E+002
  0
ARC
  8
99
  6
CONTINUOUS
 62
1
 10
5.9768167E+001
 20
1.3321735E+002
 40
9.5999634E-001
 50
8.9999835E+001
 51
1.7999974E+002
  0
LINE
  8
99
  6
CONTINUOUS
 62
1
 10
5.8808171E+001
 20
1.3321736E+002
 11
5.8808171E+001
 21
1.1216734E+002
  0
LINE
  8
99
  6
CONTINUOUS
 62
1
 10
1.277132E+002
 20
8.9557321E+001
 11
1.277132E+002
 21
1.1156733E+002
  0
LINE
  8
99
  6
CONTINUOUS
 62
1
 10
1.277132E+002
 20
1.1156733E+002
 11
6.5313199E+001
 21
1.1156733E+002
  0
LINE
  8
99
  6
CONTINUOUS
 62
1
 10
6.5313199E+001
 20
1.1156733E+002
 11
6.5313199E+001
 21
8.9557321E+001
  0
LINE
  8
99
  6
CONTINUOUS
 62
1
 10
6.47132E+001
 20
8.9557321E+001
 11
6.47132E+001
 21
1.1156733E+002
  0
LINE
  8
99
  6
CONTINUOUS
 62
1
 10
6.47132E+001
 20
1.1156733E+002
 11
5.8513207E+001
 21
1.1156733E+002
  0
LINE
  8
99
  6
CONTINUOUS
 62
1
 10
5.8513207E+001
 20
1.1156733E+002
 11
5.8513207E+001
 21
8.996734E+001
  0
ARC
  8
99
  6
CONTINUOUS
 62
1
 10
5.9513207E+001
 20
8.996734E+001
 40
1.0000003
 50
1.8000002E+002
 51
2.6999998E+002
  0
LINE
  8
99
  6
CONTINUOUS
 62
1
 10
5.9513207E+001
 20
8.896734E+001
 11
1.335132E+002
 21
8.896734E+001
  0
ARC
  8
99
  6
CONTINUOUS
 62
1
 10
1.335132E+002
 20
8.996734E+001
 40
9.9999945E-001
 50
2.6999997E+002
 51
3.6000003E+002
  0
LINE
  8
99
  6
CONTINUOUS
 62
1
 10
1.345132E+002
 20
8.996734E+001
 11
1.345132E+002
 21
1.1156733E+002
  0
LINE
  8
99
  6
CONTINUOUS
 62
1
 10
1.345132E+002
 20
1.1156733E+002
 11
1.283132E+002
 21
1.1156733E+002
  0
LINE
  8
99
  6
CONTINUOUS
 62
1
 10
1.283132E+002
 20
1.1156733E+002
 11
1.283132E+002
 21
8.9557321E+001
  0
LINE
  8
99
  6
CONTINUOUS
 62
1
 10
1.3391319E+002
 20
1.1156733E+002
 11
1.3391319E+002
 21
1.1216734E+002
  0
LINE
  8
99
  6
CONTINUOUS
 62
1
 10
1.3391319E+002
 20
1.1216734E+002
 11
5.9113205E+001
 21
1.1216734E+002
  0
LINE
  8
99
  6
CONTINUOUS
 62
1
 10
5.9113205E+001
 20
1.1216734E+002
 11
5.9113205E+001
 21
1.1156733E+002
  0
LINE
  8
99
  6
CONTINUOUS
 62
1
 10
5.9402939E+001
 20
1.1156733E+002
 11
5.9402939E+001
 21
1.1216734E+002
  0
LINE
  8
99
  6
CONTINUOUS
 62
1
 10
1.3362346E+002
 20
1.1156733E+002
 11
1.3362346E+002
 21
1.1216734E+002
  0
LINE
  8
99
  6
CONTINUOUS
 62
1
 10
1.3421823E+002
 20
1.1156733E+002
 11
1.3421822E+002
 21
9.0557321E+001
  0
ARC
  8
99
  6
CONTINUOUS
 62
1
 10
1.3321822E+002
 20
9.0557325E+001
 40
1.0000036
 50
2.7000021E+002
 51
3.5999979E+002
  0
LINE
  8
99
  6
CONTINUOUS
 62
1
 10
1.3321822E+002
 20
8.9557321E+001
 11
5.976817E+001
 21
8.9557321E+001
  0
ARC
  8
99
  6
CONTINUOUS
 62
1
 10
5.9768168E+001
 20
9.0517318E+001
 40
9.5999695E-001
 50
1.8000033E+002
 51
2.7000013E+002
  0
LINE
  8
99
  6
CONTINUOUS
 62
1
 10
5.8808171E+001
 20
9.0517313E+001
 11
5.8808171E+001
 21
1.1156733E+002
  0
TEXT
  8
103
  6
CONTINUOUS
 62
150
 10
5.2513425E+001
 20
1.4504128E+002
 40
3.5
  1
M 1:2.5
 41
6.4285716E-001
 72
1
 11
4.4638424E+001
 21
1.4329128E+002
 73
2
  0
TEXT
  8
103
  6
CONTINUOUS
 62
150
 10
2.5371283E+002
 20
2.8797714E+002
 40
3.5
  1
Türverriegelung TV mit Befestigungseinheit TV-Z / M 1:1
 41
6.7090911E-001
 11
2.5371283E+002
 21
2.8622714E+002
 73
2
  0
DIMENSION
  8
MED-0
  6
CONTINUOUS
 62
4
  2
*D566
  3
DSTYLE1
 10
3.9446064E+002
 20
2.1659453E+002
 11
3.9154514E+002
 21
2.0892321E+002
 70
128
 13
3.8552349E+002
 23
2.0260322E+002
 14
3.8552349E+002
 24
2.1659453E+002
 40
3.0
 50
9.0E+001
  0
DIMENSION
  8
MED-0
  6
CONTINUOUS
 62
4
  2
*D575
  3
DSTYLE1
 10
3.9446064E+002
 20
1.8960322E+002
 11
3.9154514E+002
 21
1.8354352E+002
 70
128
 13
3.8552349E+002
 23
1.7660322E+002
 14
3.8874673E+002
 24
1.8960322E+002
 40
3.0
 50
9.0E+001
  0
DIMENSION
  8
MED-0
  6
CONTINUOUS
 62
4
  2
*D584
  3
DSTYLE1
 10
3.9446064E+002
 20
2.0260322E+002
 11
3.9154514E+002
 21
1.9625051E+002
 70
128
 13
3.8552349E+002
 23
1.8960322E+002
 14
3.8962579E+002
 24
2.0260322E+002
 40
3.0
 50
9.0E+001
  0
DIMENSION
  8
MED-0
  6
CONTINUOUS
 62
4
  2
*D593
  3
DSTYLE1
 10
3.836423E+002
 20
2.1659453E+002
 11
3.807268E+002
 21
2.0652109E+002
 70
128
 13
3.6800103E+002
 23
1.9660322E+002
 14
3.7210085E+002
 24
2.1659453E+002
 40
3.0
 50
9.0E+001
  0
DIMENSION
  8
MED-0
  6
CONTINUOUS
 62
4
  2
*D602
  3
DSTYLE1
 10
3.836423E+002
 20
1.9660322E+002
 11
3.807268E+002
 21
1.9040548E+002
 70
128
 13
3.6800103E+002
 23
1.8360322E+002
 14
3.7287028E+002
 24
1.9660322E+002
 40
3.0
 50
9.0E+001
  0
DIMENSION
  8
MED-0
  6
CONTINUOUS
 62
4
  2
*D611
  3
DSTYLE1
 10
3.836423E+002
 20
1.8360322E+002
 11
3.807268E+002
 21
1.7500101E+002
 70
128
 13
3.6800103E+002
 23
1.7060322E+002
 14
3.7133141E+002
 24
1.8360322E+002
 40
3.0
 50
9.0E+001
  0
LINE
  8
106
  6
CENTERLINE
 62
1
 10
3.5348345E+002
 20
1.7060322E+002
 11
3.2539927E+002
 21
1.7060322E+002
  0
LINE
  8
105
  6
HIDDEN
 62
1
 10
3.3726354E+002
 20
1.6810322E+002
 11
3.3226359E+002
 21
1.6810322E+002
  0
LINE
  8
105
  6
HIDDEN
 62
1
 10
3.3726354E+002
 20
1.6880322E+002
 11
3.3226359E+002
 21
1.6880322E+002
  0
LINE
  8
105
  6
HIDDEN
 62
1
 10
3.372635E+002
 20
1.7240323E+002
 11
3.3226359E+002
 21
1.7240323E+002
  0
LINE
  8
105
  6
HIDDEN
 62
1
 10
3.3726348E+002
 20
1.7310322E+002
 11
3.3226359E+002
 21
1.7310322E+002
  0
LINE
  8
105
  6
HIDDEN
 62
1
 10
3.3226359E+002
 20
1.7485322E+002
 11
3.3226359E+002
 21
1.6635322E+002
  0
LINE
  8
105
  6
HIDDEN
 62
1
 10
3.3226359E+002
 20
1.6635322E+002
 11
3.2776359E+002
 21
1.6635322E+002
  0
ARC
  8
105
  6
HIDDEN
 62
1
 10
3.2776359E+002
 20
1.6685322E+002
 40
5.0000147E-001
 50
1.8000017E+002
 51
2.6999983E+002
  0
LINE
  8
105
  6
HIDDEN
 62
1
 10
3.2726359E+002
 20
1.6685322E+002
 11
3.2726359E+002
 21
1.7435322E+002
  0
ARC
  8
105
  6
HIDDEN
 62
1
 10
3.277636E+002
 20
1.7435321E+002
 40
5.0000951E-001
 50
9.000109E+001
 51
1.7999891E+002
  0
LINE
  8
105
  6
HIDDEN
 62
1
 10
3.2776359E+002
 20
1.7485322E+002
 11
3.3226359E+002
 21
1.7485322E+002
  0
LINE
  8
99
  6
CONTINUOUS
 62
1
 10
3.3726354E+002
 20
1.6810322E+002
 11
3.5186358E+002
 21
1.6810322E+002
  0
LINE
  8
99
  6
CONTINUOUS
 62
1
 10
3.5186358E+002
 20
1.6810322E+002
 11
3.5226357E+002
 21
1.6810322E+002
  0
LINE
  8
99
  6
CONTINUOUS
 62
1
 10
3.5226357E+002
 20
1.6810322E+002
 11
3.5226357E+002
 21
1.7310322E+002
  0
LINE
  8
99
  6
CONTINUOUS
 62
1
 10
3.5226357E+002
 20
1.7310322E+002
 11
3.5186358E+002
 21
1.7310322E+002
  0
LINE
  8
99
  6
CONTINUOUS
 62
1
 10
3.5186358E+002
 20
1.7310322E+002
 11
3.3726348E+002
 21
1.7310322E+002
  0
LINE
  8
99
  6
CONTINUOUS
 62
1
 10
3.5226357E+002
 20
1.6880322E+002
 11
3.3726354E+002
 21
1.6880322E+002
  0
LINE
  8
99
  6
CONTINUOUS
 62
1
 10
3.5226357E+002
 20
1.7240323E+002
 11
3.372635E+002
 21
1.7240323E+002
  0
LINE
  8
105
  6
HIDDEN
 62
1
 10
2.9076359E+002
 20
2.2880507E+002
 11
2.9076359E+002
 21
2.3380502E+002
  0
LINE
  8
105
  6
HIDDEN
 62
1
 10
2.911636E+002
 20
2.2880507E+002
 11
2.911636E+002
 21
2.3380502E+002
  0
LINE
  8
105
  6
HIDDEN
 62
1
 10
2.9536359E+002
 20
2.2880511E+002
 11
2.9536359E+002
 21
2.3380502E+002
  0
LINE
  8
105
  6
HIDDEN
 62
1
 10
2.9576359E+002
 20
2.2880513E+002
 11
2.9576359E+002
 21
2.3380502E+002
  0
LINE
  8
105
  6
HIDDEN
 62
1
 10
2.9751359E+002
 20
2.3380502E+002
 11
2.8901359E+002
 21
2.3380502E+002
  0
LINE
  8
105
  6
HIDDEN
 62
1
 10
2.8901359E+002
 20
2.3380502E+002
 11
2.8901359E+002
 21
2.3830502E+002
  0
ARC
  8
105
  6
HIDDEN
 62
1
 10
2.895136E+002
 20
2.3830501E+002
 40
5.0000635E-001
 50
9.0000728E+001
 51
1.7999927E+002
  0
LINE
  8
105
  6
HIDDEN
 62
1
 10
2.8951359E+002
 20
2.3880502E+002
 11
2.9701359E+002
 21
2.3880502E+002
  0
ARC
  8
105
  6
HIDDEN
 62
1
 10
2.9701359E+002
 20
2.3830502E+002
 40
5.0000082E-001
 50
9.44597E-005
 51
8.9999906E+001
  0
LINE
  8
105
  6
HIDDEN
 62
1
 10
2.9751359E+002
 20
2.3830502E+002
 11
2.9751359E+002
 21
2.3380502E+002
  0
LINE
  8
105
  6
HIDDEN
 62
1
 10
2.9076359E+002
 20
2.2880507E+002
 11
2.9076359E+002
 21
2.0420503E+002
  0
LINE
  8
105
  6
HIDDEN
 62
1
 10
2.9076359E+002
 20
2.0420503E+002
 11
2.911636E+002
 21
2.0380502E+002
  0
LINE
  8
105
  6
HIDDEN
 62
1
 10
2.911636E+002
 20
2.0380502E+002
 11
2.9536359E+002
 21
2.0380502E+002
  0
LINE
  8
105
  6
HIDDEN
 62
1
 10
2.9536359E+002
 20
2.0380502E+002
 11
2.9576359E+002
 21
2.0420503E+002
  0
LINE
  8
105
  6
HIDDEN
 62
1
 10
2.9576359E+002
 20
2.0420503E+002
 11
2.9576359E+002
 21
2.2880513E+002
  0
LINE
  8
105
  6
HIDDEN
 62
1
 10
2.9076359E+002
 20
2.0420503E+002
 11
2.9576359E+002
 21
2.0420503E+002
  0
LINE
  8
105
  6
HIDDEN
 62
1
 10
2.911636E+002
 20
2.0380502E+002
 11
2.911636E+002
 21
2.2880507E+002
  0
LINE
  8
105
  6
HIDDEN
 62
1
 10
2.9536359E+002
 20
2.0380502E+002
 11
2.9536359E+002
 21
2.2880511E+002
  0
LINE
  8
105
  6
HIDDEN
 62
1
 10
2.6876359E+002
 20
2.2842105E+002
 11
2.6876359E+002
 21
2.3342102E+002
  0
LINE
  8
105
  6
HIDDEN
 62
1
 10
2.691636E+002
 20
2.2842106E+002
 11
2.691636E+002
 21
2.3342102E+002
  0
LINE
  8
105
  6
HIDDEN
 62
1
 10
2.7336359E+002
 20
2.2842111E+002
 11
2.7336359E+002
 21
2.3342102E+002
  0
LINE
  8
105
  6
HIDDEN
 62
1
 10
2.7376359E+002
 20
2.2842111E+002
 11
2.7376359E+002
 21
2.3342102E+002
  0
LINE
  8
105
  6
HIDDEN
 62
1
 10
2.7551359E+002
 20
2.3342102E+002
 11
2.6701359E+002
 21
2.3342102E+002
  0
LINE
  8
105
  6
HIDDEN
 62
1
 10
2.6701359E+002
 20
2.3342102E+002
 11
2.6701359E+002
 21
2.3792102E+002
  0
ARC
  8
105
  6
HIDDEN
 62
1
 10
2.6751359E+002
 20
2.3792102E+002
 40
5.0000246E-001
 50
9.0000282E+001
 51
1.7999972E+002
  0
LINE
  8
105
  6
HIDDEN
 62
1
 10
2.6751359E+002
 20
2.3842102E+002
 11
2.7501359E+002
 21
2.3842102E+002
  0
ARC
  8
105
  6
HIDDEN
 62
1
 10
2.7501358E+002
 20
2.3792101E+002
 40
5.000053E-001
 50
6.07635E-004
 51
8.9999392E+001
  0
LINE
  8
105
  6
HIDDEN
 62
1
 10
2.7551359E+002
 20
2.3792102E+002
 11
2.7551359E+002
 21
2.3342102E+002
  0
LINE
  8
105
  6
HIDDEN
 62
1
 10
2.6876359E+002
 20
2.2842105E+002
 11
2.6876359E+002
 21
2.0382101E+002
  0
LINE
  8
105
  6
HIDDEN
 62
1
 10
2.6876359E+002
 20
2.0382101E+002
 11
2.691636E+002
 21
2.0342102E+002
  0
LINE
  8
105
  6
HIDDEN
 62
1
 10
2.691636E+002
 20
2.0342102E+002
 11
2.7336359E+002
 21
2.0342102E+002
  0
LINE
  8
105
  6
HIDDEN
 62
1
 10
2.7336359E+002
 20
2.0342102E+002
 11
2.7376359E+002
 21
2.0382101E+002
  0
LINE
  8
105
  6
HIDDEN
 62
1
 10
2.7376359E+002
 20
2.0382101E+002
 11
2.7376359E+002
 21
2.2842111E+002
  0
LINE
  8
105
  6
HIDDEN
 62
1
 10
2.6876359E+002
 20
2.0382101E+002
 11
2.7376359E+002
 21
2.0382101E+002
  0
LINE
  8
105
  6
HIDDEN
 62
1
 10
2.691636E+002
 20
2.0342102E+002
 11
2.691636E+002
 21
2.2842106E+002
  0
LINE
  8
105
  6
HIDDEN
 62
1
 10
2.7336359E+002
 20
2.0342102E+002
 11
2.7336359E+002
 21
2.2842111E+002
  0
LINE
  8
105
  6
HIDDEN
 62
1
 10
2.8887859E+002
 20
2.0882849E+002
 11
2.8887859E+002
 21
2.0420503E+002
  0
LINE
  8
105
  6
HIDDEN
 62
1
 10
2.8887859E+002
 20
2.0420503E+002
 11
2.976486E+002
 21
2.0420503E+002
  0
LINE
  8
105
  6
HIDDEN
 62
1
 10
2.976486E+002
 20
2.0420503E+002
 11
2.976486E+002
 21
2.0898156E+002
  0
LINE
  8
105
  6
HIDDEN
 62
1
 10
2.976486E+002
 20
2.0898156E+002
 11
2.8887859E+002
 21
2.0882849E+002
  0
LINE
  8
105
  6
HIDDEN
 62
1
 10
2.6687859E+002
 20
2.0844447E+002
 11
2.6687859E+002
 21
2.0382101E+002
  0
LINE
  8
105
  6
HIDDEN
 62
1
 10
2.6687859E+002
 20
2.0382101E+002
 11
2.756486E+002
 21
2.0382101E+002
  0
LINE
  8
105
  6
HIDDEN
 62
1
 10
2.756486E+002
 20
2.0382101E+002
 11
2.756486E+002
 21
2.0859755E+002
  0
LINE
  8
105
  6
HIDDEN
 62
1
 10
2.756486E+002
 20
2.0859755E+002
 11
2.6687859E+002
 21
2.0844447E+002
  0
LINE
  8
105
  6
HIDDEN
 62
1
 10
3.3326356E+002
 20
1.8820321E+002
 11
3.3226357E+002
 21
1.8820321E+002
  0
LINE
  8
105
  6
HIDDEN
 62
1
 10
3.3226357E+002
 20
1.8820321E+002
 11
3.3226357E+002
 21
1.7900322E+002
  0
LINE
  8
105
  6
HIDDEN
 62
1
 10
3.3226357E+002
 20
1.7900322E+002
 11
3.3326357E+002
 21
1.7900322E+002
  0
LINE
  8
105
  6
HIDDEN
 62
1
 10
3.3326357E+002
 20
1.7900322E+002
 11
3.3326356E+002
 21
1.8820321E+002
  0
LINE
  8
105
  6
HIDDEN
 62
1
 10
3.3326357E+002
 20
1.8324966E+002
 11
3.3226357E+002
 21
1.8224966E+002
  0
LINE
  8
105
  6
HIDDEN
 62
1
 10
3.3326356E+002
 20
1.8395677E+002
 11
3.3226357E+002
 21
1.8295677E+002
  0
LINE
  8
105
  6
HIDDEN
 62
1
 10
3.3726353E+002
 20
1.8110322E+002
 11
3.3226357E+002
 21
1.8110322E+002
  0
LINE
  8
105
  6
HIDDEN
 62
1
 10
3.3726351E+002
 20
1.8180322E+002
 11
3.3226357E+002
 21
1.8180322E+002
  0
LINE
  8
105
  6
HIDDEN
 62
1
 10
3.3726347E+002
 20
1.8540323E+002
 11
3.3226357E+002
 21
1.8540323E+002
  0
LINE
  8
105
  6
HIDDEN
 62
1
 10
3.3726347E+002
 20
1.8610322E+002
 11
3.3226357E+002
 21
1.8610322E+002
  0
LINE
  8
105
  6
HIDDEN
 62
1
 10
3.3226357E+002
 20
1.8785322E+002
 11
3.3226357E+002
 21
1.7935322E+002
  0
LINE
  8
105
  6
HIDDEN
 62
1
 10
3.3226357E+002
 20
1.7935322E+002
 11
3.2776357E+002
 21
1.7935322E+002
  0
ARC
  8
105
  6
HIDDEN
 62
1
 10
3.2776358E+002
 20
1.7985323E+002
 40
5.0000811E-001
 50
1.8000093E+002
 51
2.6999907E+002
  0
LINE
  8
105
  6
HIDDEN
 62
1
 10
3.2726357E+002
 20
1.7985322E+002
 11
3.2726357E+002
 21
1.8735322E+002
  0
ARC
  8
105
  6
HIDDEN
 62
1
 10
3.2776358E+002
 20
1.8735321E+002
 40
5.0000909E-001
 50
9.0001041E+001
 51
1.7999896E+002
  0
LINE
  8
105
  6
HIDDEN
 62
1
 10
3.2776357E+002
 20
1.8785322E+002
 11
3.3226357E+002
 21
1.8785322E+002
  0
LINE
  8
99
  6
CONTINUOUS
 62
1
 10
3.3726353E+002
 20
1.8110322E+002
 11
3.5186356E+002
 21
1.8110322E+002
  0
LINE
  8
99
  6
CONTINUOUS
 62
1
 10
3.5186356E+002
 20
1.8110322E+002
 11
3.5226356E+002
 21
1.8110322E+002
  0
LINE
  8
99
  6
CONTINUOUS
 62
1
 10
3.5226356E+002
 20
1.8110322E+002
 11
3.5226356E+002
 21
1.8610322E+002
  0
LINE
  8
99
  6
CONTINUOUS
 62
1
 10
3.5226356E+002
 20
1.8610322E+002
 11
3.5186356E+002
 21
1.8610322E+002
  0
LINE
  8
99
  6
CONTINUOUS
 62
1
 10
3.5186356E+002
 20
1.8610322E+002
 11
3.3726347E+002
 21
1.8610322E+002
  0
LINE
  8
99
  6
CONTINUOUS
 62
1
 10
3.5226356E+002
 20
1.8180322E+002
 11
3.3726351E+002
 21
1.8180322E+002
  0
LINE
  8
99
  6
CONTINUOUS
 62
1
 10
3.5226356E+002
 20
1.8540323E+002
 11
3.3726347E+002
 21
1.8540323E+002
  0
LINE
  8
105
  6
HIDDEN
 62
1
 10
3.3326357E+002
 20
1.7520321E+002
 11
3.3226359E+002
 21
1.7520321E+002
  0
LINE
  8
105
  6
HIDDEN
 62
1
 10
3.3226359E+002
 20
1.7520321E+002
 11
3.3226359E+002
 21
1.6600322E+002
  0
LINE
  8
105
  6
HIDDEN
 62
1
 10
3.3226359E+002
 20
1.6600322E+002
 11
3.3326359E+002
 21
1.6600322E+002
  0
LINE
  8
105
  6
HIDDEN
 62
1
 10
3.3326359E+002
 20
1.6600322E+002
 11
3.3326357E+002
 21
1.7520321E+002
  0
LINE
  8
105
  6
HIDDEN
 62
1
 10
3.3326359E+002
 20
1.7024966E+002
 11
3.3226359E+002
 21
1.6924966E+002
  0
LINE
  8
105
  6
HIDDEN
 62
1
 10
3.3326359E+002
 20
1.7095677E+002
 11
3.3226359E+002
 21
1.6995677E+002
  0
ARC
  8
99
  6
CONTINUOUS
 62
1
 10
3.3071004E+002
 20
2.0732174E+002
 40
6.5783306
 50
1.2307992E+001
 51
2.3033369E+001
  0
ARC
  8
99
  6
CONTINUOUS
 62
1
 10
3.3180301E+002
 20
2.0755806E+002
 40
5.4601024
 50
1.8614059E-001
 51
1.2329976E+001
  0
LINE
  8
99
  6
CONTINUOUS
 62
1
 10
3.3726308E+002
 20
2.075758E+002
 11
3.3726359E+002
 21
1.6360322E+002
  0
LINE
  8
99
  6
CONTINUOUS
 62
1
 10
3.3726359E+002
 20
1.6360322E+002
 11
3.3676316E+002
 21
1.6360322E+002
  0
LINE
  8
105
  6
HIDDEN
 62
1
 10
3.3326359E+002
 20
2.0196142E+002
 11
3.2575289E+002
 21
2.0947212E+002
  0
LINE
  8
106
  6
CENTERLINE
 62
1
 10
2.9326359E+002
 20
2.0209581E+002
 11
2.9326359E+002
 21
2.1360322E+002
  0
LINE
  8
105
  6
HIDDEN
 62
1
 10
3.3726359E+002
 20
1.9360322E+002
 11
3.3326359E+002
 21
1.9360322E+002
  0
LINE
  8
106
  6
CENTERLINE
 62
1
 10
3.399566E+002
 20
2.0260322E+002
 11
3.3110815E+002
 21
2.0260322E+002
  0
LINE
  8
106
  6
CENTERLINE
 62
1
 10
3.399566E+002
 20
1.9660322E+002
 11
3.3110815E+002
 21
1.9660322E+002
  0
LINE
  8
106
  6
CENTERLINE
 62
1
 10
3.399566E+002
 20
1.8960322E+002
 11
3.3110815E+002
 21
1.8960322E+002
  0
LINE
  8
106
  6
CENTERLINE
 62
1
 10
3.2492986E+002
 20
1.8360322E+002
 11
3.5299709E+002
 21
1.8360322E+002
  0
LINE
  8
106
  6
CENTERLINE
 62
1
 10
3.399566E+002
 20
1.7660322E+002
 11
3.3110815E+002
 21
1.7660322E+002
  0
LINE
  8
105
  6
HIDDEN
 62
1
 10
3.3676316E+002
 20
1.6360322E+002
 11
3.3326359E+002
 21
1.6360322E+002
  0
LINE
  8
105
  6
HIDDEN
 62
1
 10
3.3326359E+002
 20
1.6360322E+002
 11
3.3326353E+002
 21
2.0756801E+002
  0
ARC
  8
105
  6
HIDDEN
 62
1
 10
3.3126354E+002
 20
2.0756801E+002
 40
1.9999917
 50
3.5999979E+002
 51
4.5100045E+002
  0
LINE
  8
105
  6
HIDDEN
 62
1
 10
3.3122862E+002
 20
2.095677E+002
 11
2.6226359E+002
 21
2.0836392E+002
  0
LINE
  8
105
  6
HIDDEN
 62
1
 10
2.6226359E+002
 20
2.0836392E+002
 11
2.6226359E+002
 21
2.122941E+002
  0
LINE
  8
105
  6
HIDDEN
 62
1
 10
2.6226359E+002
 20
2.122941E+002
 11
3.3126359E+002
 21
2.1349852E+002
  0
ARC
  8
105
  6
HIDDEN
 62
1
 10
3.3127164E+002
 20
2.0746102E+002
 40
6.0375023
 50
5.6850362E+001
 51
9.0076392E+001
  0
ARC
  8
105
  6
HIDDEN
 62
1
 10
3.3137064E+002
 20
2.0761228E+002
 40
5.8567192
 50
2.294623E+001
 51
5.6852062E+001
  0
LINE
  8
105
  6
HIDDEN
 62
1
 10
2.7646359E+002
 20
2.1660322E+002
 11
2.7646359E+002
 21
2.1254196E+002
  0
LINE
  8
105
  6
HIDDEN
 62
1
 10
2.7646359E+002
 20
2.1254196E+002
 11
2.8806358E+002
 21
2.1274444E+002
  0
LINE
  8
105
  6
HIDDEN
 62
1
 10
2.8806358E+002
 20
2.1274444E+002
 11
2.8806358E+002
 21
2.1659453E+002
  0
LINE
  8
105
  6
HIDDEN
 62
1
 10
2.9846359E+002
 20
2.1660322E+002
 11
2.9846359E+002
 21
2.1292598E+002
  0
LINE
  8
105
  6
HIDDEN
 62
1
 10
2.9846359E+002
 20
2.1292598E+002
 11
3.3676399E+002
 21
2.1359453E+002
  0
LINE
  8
105
  6
HIDDEN
 62
1
 10
2.7646359E+002
 20
2.1652647E+002
 11
2.7646359E+002
 21
2.1254196E+002
  0
LINE
  8
105
  6
HIDDEN
 62
1
 10
2.7646359E+002
 20
2.1254196E+002
 11
2.8806358E+002
 21
2.1274444E+002
  0
LINE
  8
105
  6
HIDDEN
 62
1
 10
2.8806358E+002
 20
2.1274444E+002
 11
2.8806358E+002
 21
2.1652647E+002
  0
LINE
  8
105
  6
HIDDEN
 62
1
 10
2.9846359E+002
 20
2.1652647E+002
 11
2.9846359E+002
 21
2.1292598E+002
  0
LINE
  8
105
  6
HIDDEN
 62
1
 10
2.9846359E+002
 20
2.1292598E+002
 11
3.3676399E+002
 21
2.1359453E+002
  0
LINE
  8
105
  6
HIDDEN
 62
1
 10
3.3676313E+002
 20
1.6159453E+002
 11
2.5624614E+002
 21
1.6299995E+002
  0
ARC
  8
105
  6
HIDDEN
 62
1
 10
2.5626359E+002
 20
1.6399979E+002
 40
9.9999074E-001
 50
1.7999946E+002
 51
2.6900032E+002
  0
LINE
  8
105
  6
HIDDEN
 62
1
 10
2.552636E+002
 20
1.639998E+002
 11
2.552636E+002
 21
2.1118922E+002
  0
ARC
  8
105
  6
HIDDEN
 62
1
 10
2.5626359E+002
 20
2.1118922E+002
 40
9.999982E-001
 50
9.1000105E+001
 51
1.8000012E+002
  0
LINE
  8
105
  6
HIDDEN
 62
1
 10
2.5624614E+002
 20
2.1218907E+002
 11
2.6606358E+002
 21
2.1236042E+002
  0
LINE
  8
105
  6
HIDDEN
 62
1
 10
2.6606358E+002
 20
2.1236042E+002
 11
2.6606358E+002
 21
2.1652647E+002
  0
LINE
  8
104
  6
CONTINUOUS
 62
40
 10
3.3676313E+002
 20
1.6159453E+002
 11
3.367631E+002
 21
1.5859453E+002
  0
LINE
  8
104
  6
CONTINUOUS
 62
40
 10
3.367631E+002
 20
1.5859453E+002
 11
2.5471996E+002
 21
1.6002659E+002
  0
ARC
  8
104
  6
CONTINUOUS
 62
40
 10
2.5476358E+002
 20
1.6252621E+002
 40
2.4999961
 50
1.7999992E+002
 51
2.6900023E+002
  0
LINE
  8
104
  6
CONTINUOUS
 62
40
 10
2.5226358E+002
 20
1.6252621E+002
 11
2.5226358E+002
 21
2.1509453E+002
  0
LINE
  8
104
  6
CONTINUOUS
 62
40
 10
2.5226358E+002
 20
2.1509453E+002
 11
2.5376358E+002
 21
2.1509453E+002
  0
LINE
  8
104
  6
CONTINUOUS
 62
40
 10
2.5376358E+002
 20
2.1509453E+002
 11
2.5376358E+002
 21
2.1659453E+002
  0
LINE
  8
104
  6
CONTINUOUS
 62
40
 10
2.5376358E+002
 20
2.1659453E+002
 11
2.6606358E+002
 21
2.1659453E+002
  0
LINE
  8
99
  6
CONTINUOUS
 62
1
 10
2.8806358E+002
 20
2.1659453E+002
 11
2.7646359E+002
 21
2.1659453E+002
  0
LINE
  8
99
  6
CONTINUOUS
 62
1
 10
3.3676399E+002
 20
2.1359453E+002
 11
3.3676359E+002
 21
2.1659453E+002
  0
LINE
  8
99
  6
CONTINUOUS
 62
1
 10
3.3676359E+002
 20
2.1659453E+002
 11
2.9846359E+002
 21
2.1659453E+002
  0
LINE
  8
106
  6
CENTERLINE
 62
1
 10
2.5090887E+002
 20
1.8759453E+002
 11
3.3860436E+002
 21
1.8759453E+002
  0
LINE
  8
99
  6
CONTINUOUS
 62
1
 10
2.8806358E+002
 20
2.1659453E+002
 11
2.9846359E+002
 21
2.1659453E+002
  0
LINE
  8
99
  6
CONTINUOUS
 62
1
 10
2.6606358E+002
 20
2.1659453E+002
 11
2.7646359E+002
 21
2.1659453E+002
  0
LINE
  8
106
  6
CENTERLINE
 62
1
 10
2.7126359E+002
 20
2.1811842E+002
 11
2.7126359E+002
 21
2.1088803E+002
  0
LINE
  8
99
  6
CONTINUOUS
 62
1
 10
3.367631E+002
 20
1.598945E+002
 11
3.3676399E+002
 21
2.1359453E+002
  0
LINE
  8
MED-1
  6
CONTINUOUS
 62
40
 10
3.6137972E+002
 20
2.1128543E+002
 11
3.3726319E+002
 21
2.1128543E+002
  0
LINE
  8
99
  6
CONTINUOUS
 62
1
 10
3.8795155E+002
 20
2.3767613E+002
 11
3.8795155E+002
 21
2.3467613E+002
  0
LINE
  8
99
  6
CONTINUOUS
 62
1
 10
3.8795155E+002
 20
2.3467613E+002
 11
4.0295155E+002
 21
2.3467613E+002
  0
LINE
  8
99
  6
CONTINUOUS
 62
1
 10
4.0295155E+002
 20
2.3467613E+002
 11
4.0295155E+002
 21
2.2867613E+002
  0
LINE
  8
99
  6
CONTINUOUS
 62
1
 10
4.0295155E+002
 20
2.2867613E+002
 11
3.8795155E+002
 21
2.2867612E+002
  0
LINE
  8
99
  6
CONTINUOUS
 62
1
 10
3.8795155E+002
 20
2.2867612E+002
 11
3.8795155E+002
 21
2.256761E+002
  0
LINE
  8
99
  6
CONTINUOUS
 62
1
 10
3.8795155E+002
 20
2.256761E+002
 11
3.8195153E+002
 21
2.316761E+002
  0
LINE
  8
99
  6
CONTINUOUS
 62
1
 10
3.8195153E+002
 20
2.316761E+002
 11
3.8795155E+002
 21
2.3767613E+002
  0
LINE
  8
99
  6
CONTINUOUS
 62
1
 10
3.3726359E+002
 20
2.4959649E+002
 11
3.6226167E+002
 21
2.4959649E+002
  0
LINE
  8
99
  6
CONTINUOUS
 62
1
 10
3.6226167E+002
 20
2.4959649E+002
 11
3.6286166E+002
 21
2.4899649E+002
  0
LINE
  8
99
  6
CONTINUOUS
 62
1
 10
3.6286166E+002
 20
2.4899649E+002
 11
3.6286166E+002
 21
2.4419647E+002
  0
LINE
  8
99
  6
CONTINUOUS
 62
1
 10
3.6286166E+002
 20
2.4419647E+002
 11
3.6226167E+002
 21
2.4359649E+002
  0
LINE
  8
99
  6
CONTINUOUS
 62
1
 10
3.6226167E+002
 20
2.4359649E+002
 11
3.3726359E+002
 21
2.4359649E+002
  0
LINE
  8
99
  6
CONTINUOUS
 62
1
 10
3.6226167E+002
 20
2.4959649E+002
 11
3.6226167E+002
 21
2.4359649E+002
  0
LINE
  8
99
  6
CONTINUOUS
 62
1
 10
3.3726359E+002
 20
2.4419647E+002
 11
3.6286166E+002
 21
2.4419647E+002
  0
LINE
  8
99
  6
CONTINUOUS
 62
1
 10
3.3726359E+002
 20
2.4899649E+002
 11
3.6286166E+002
 21
2.4899649E+002
  0
LINE
  8
106
  6
CENTERLINE
 62
1
 10
3.1731638E+002
 20
2.4659649E+002
 11
3.6386689E+002
 21
2.4659649E+002
  0
LINE
  8
105
  6
HIDDEN
 62
1
 10
3.3726359E+002
 20
2.4899649E+002
 11
3.2286167E+002
 21
2.4899649E+002
  0
LINE
  8
105
  6
HIDDEN
 62
1
 10
3.6226167E+002
 20
2.4359649E+002
 11
3.6226167E+002
 21
2.4959649E+002
  0
LINE
  8
105
  6
HIDDEN
 62
1
 10
3.2286167E+002
 20
2.4359649E+002
 11
3.2286167E+002
 21
2.4959649E+002
  0
LINE
  8
105
  6
HIDDEN
 62
1
 10
3.6286166E+002
 20
2.4419647E+002
 11
3.2286167E+002
 21
2.4419647E+002
  0
LINE
  8
105
  6
HIDDEN
 62
1
 10
3.2286167E+002
 20
2.4419647E+002
 11
3.3726359E+002
 21
2.4419647E+002
  0
ARC
  8
105
  6
HIDDEN
 62
1
 10
3.3608189E+002
 20
2.4826436E+002
 40
1.8283008E+001
 50
2.0350865E+002
 51
2.1009544E+002
  0
ARC
  8
105
  6
HIDDEN
 62
1
 10
3.3365215E+002
 20
2.4720404E+002
 40
1.5631988E+001
 50
1.961861E+002
 51
2.0349721E+002
  0
ARC
  8
105
  6
HIDDEN
 62
1
 10
3.3162471E+002
 20
2.4663477E+002
 40
1.3526241E+001
 50
1.8016212E+002
 51
1.9626429E+002
  0
ARC
  8
105
  6
HIDDEN
 62
1
 10
3.3162471E+002
 20
2.4655822E+002
 40
1.3526241E+001
 50
1.6373571E+002
 51
1.7983788E+002
  0
ARC
  8
105
  6
HIDDEN
 62
1
 10
3.3365215E+002
 20
2.4598895E+002
 40
1.5631988E+001
 50
1.5650279E+002
 51
1.638139E+002
  0
ARC
  8
105
  6
HIDDEN
 62
1
 10
3.3608189E+002
 20
2.4492863E+002
 40
1.8283008E+001
 50
1.4990456E+002
 51
1.5649135E+002
  0
LINE
  8
105
  6
HIDDEN
 62
1
 10
3.3726359E+002
 20
2.4959649E+002
 11
3.2286167E+002
 21
2.4959649E+002
  0
LINE
  8
105
  6
HIDDEN
 62
1
 10
3.2286167E+002
 20
2.4959649E+002
 11
3.2026359E+002
 21
2.5409649E+002
  0
LINE
  8
105
  6
HIDDEN
 62
1
 10
3.2026359E+002
 20
2.5409649E+002
 11
3.2026359E+002
 21
2.3909649E+002
  0
LINE
  8
105
  6
HIDDEN
 62
1
 10
3.2026359E+002
 20
2.3909649E+002
 11
3.2286167E+002
 21
2.4359649E+002
  0
LINE
  8
105
  6
HIDDEN
 62
1
 10
3.2286167E+002
 20
2.4359649E+002
 11
3.3726359E+002
 21
2.4359649E+002
  0
LINE
  8
105
  6
HIDDEN
 62
1
 10
3.0762441E+002
 20
2.5631768E+002
 11
3.0763175E+002
 21
2.5589721E+002
  0
ARC
  8
105
  6
HIDDEN
 62
1
 10
3.086316E+002
 20
2.5591466E+002
 40
1.0000022
 50
1.8099977E+002
 51
2.8599965E+002
  0
LINE
  8
105
  6
HIDDEN
 62
1
 10
3.0890724E+002
 20
2.549534E+002
 11
3.1476702E+002
 21
2.5663366E+002
  0
ARC
  8
105
  6
HIDDEN
 62
1
 10
3.1407793E+002
 20
2.5903682E+002
 40
2.5000009
 50
2.8599986E+002
 51
3.6100046E+002
  0
LINE
  8
105
  6
HIDDEN
 62
1
 10
3.1657755E+002
 20
2.5908047E+002
 11
3.1657021E+002
 21
2.5950094E+002
  0
LINE
  8
105
  6
HIDDEN
 62
1
 10
3.0796661E+002
 20
2.3671422E+002
 11
3.0795927E+002
 21
2.3713469E+002
  0
ARC
  8
105
  6
HIDDEN
 62
1
 10
3.0895912E+002
 20
2.3715214E+002
 40
1.0000013
 50
7.5999774E+001
 51
1.8099992E+002
  0
LINE
  8
105
  6
HIDDEN
 62
1
 10
3.0920104E+002
 20
2.3812243E+002
 11
3.1511591E+002
 21
2.366477E+002
  0
ARC
  8
105
  6
HIDDEN
 62
1
 10
3.1451111E+002
 20
2.3422196E+002
 40
2.5000058
 50
1.0000995
 51
7.6000052E+001
  0
LINE
  8
105
  6
HIDDEN
 62
1
 10
3.1701074E+002
 20
2.3426559E+002
 11
3.1701808E+002
 21
2.3384514E+002
  0
LINE
  8
105
  6
HIDDEN
 62
1
 10
3.1701808E+002
 20
2.3384514E+002
 11
3.1657021E+002
 21
2.5950094E+002
  0
LINE
  8
105
  6
HIDDEN
 62
1
 10
3.1296648E+002
 20
2.3676497E+002
 11
3.129082E+002
 21
2.4010422E+002
  0
LINE
  8
105
  6
HIDDEN
 62
1
 10
3.129082E+002
 20
2.4010422E+002
 11
3.0790896E+002
 21
2.4001693E+002
  0
LINE
  8
105
  6
HIDDEN
 62
1
 10
3.0790896E+002
 20
2.4001693E+002
 11
3.0782169E+002
 21
2.4501617E+002
  0
LINE
  8
105
  6
HIDDEN
 62
1
 10
3.0782169E+002
 20
2.4501617E+002
 11
3.1282093E+002
 21
2.4510345E+002
  0
LINE
  8
105
  6
HIDDEN
 62
1
 10
3.1282093E+002
 20
2.4510345E+002
 11
3.1276856E+002
 21
2.4810299E+002
  0
LINE
  8
105
  6
HIDDEN
 62
1
 10
3.1276856E+002
 20
2.4810299E+002
 11
3.0776933E+002
 21
2.4801571E+002
  0
LINE
  8
105
  6
HIDDEN
 62
1
 10
3.0776933E+002
 20
2.4801571E+002
 11
3.0768206E+002
 21
2.5301495E+002
  0
LINE
  8
105
  6
HIDDEN
 62
1
 10
3.0768206E+002
 20
2.5301495E+002
 11
3.126813E+002
 21
2.5310223E+002
  0
LINE
  8
105
  6
HIDDEN
 62
1
 10
3.126813E+002
 20
2.5310223E+002
 11
3.1262301E+002
 21
2.5644146E+002
  0
ARC
  8
105
  6
HIDDEN
 62
1
 10
3.1407059E+002
 20
2.5945729E+002
 40
2.5000034
 50
2.8599993E+002
 51
3.6100043E+002
  0
LINE
  8
105
  6
HIDDEN
 62
1
 10
3.1657021E+002
 20
2.5950094E+002
 11
3.1654978E+002
 21
2.606709E+002
  0
ARC
  8
105
  6
HIDDEN
 62
1
 10
3.1405017E+002
 20
2.6062728E+002
 40
2.4999918
 50
9.9970449E-001
 51
9.1000043E+001
  0
LINE
  8
105
  6
HIDDEN
 62
1
 10
3.1400654E+002
 20
2.6312689E+002
 11
3.1350662E+002
 21
2.6311816E+002
  0
ARC
  8
105
  6
HIDDEN
 62
1
 10
3.1352407E+002
 20
2.621183E+002
 40
1.0000123
 50
9.1000029E+001
 51
1.8099945E+002
  0
LINE
  8
105
  6
HIDDEN
 62
1
 10
3.1252421E+002
 20
2.6210086E+002
 11
3.1258531E+002
 21
2.5860138E+002
  0
ARC
  8
105
  6
HIDDEN
 62
1
 10
3.1208539E+002
 20
2.5859265E+002
 40
4.9998637E-001
 50
2.7099865E+002
 51
3.6100007E+002
  0
ARC
  8
105
  6
HIDDEN
 62
1
 10
3.1208538E+002
 20
2.5859267E+002
 40
5.0000276E-001
 50
1.8100222E+002
 51
2.7099983E+002
  0
LINE
  8
105
  6
HIDDEN
 62
1
 10
3.1158546E+002
 20
2.5858392E+002
 11
3.1157237E+002
 21
2.5933383E+002
  0
ARC
  8
105
  6
HIDDEN
 62
1
 10
3.1137241E+002
 20
2.5933035E+002
 40
1.9998376E-001
 50
9.9736494E-001
 51
9.1004968E+001
  0
LINE
  8
105
  6
HIDDEN
 62
1
 10
3.113689E+002
 20
2.595303E+002
 11
3.0966917E+002
 21
2.5950061E+002
  0
LINE
  8
105
  6
HIDDEN
 62
1
 10
3.0966917E+002
 20
2.5950061E+002
 11
3.0929223E+002
 21
2.6008093E+002
  0
ARC
  8
105
  6
HIDDEN
 62
1
 10
3.091245E+002
 20
2.59972E+002
 40
2.0000002E-001
 50
3.300144E+001
 51
1.3600026E+002
  0
LINE
  8
105
  6
HIDDEN
 62
1
 10
3.0898063E+002
 20
2.6011093E+002
 11
3.075888E+002
 21
2.5835733E+002
  0
LINE
  8
105
  6
HIDDEN
 62
1
 10
3.075888E+002
 20
2.5835733E+002
 11
3.0762441E+002
 21
2.5631768E+002
  0
ARC
  8
105
  6
HIDDEN
 62
1
 10
3.0862427E+002
 20
2.5633514E+002
 40
1.0000088
 50
1.8100025E+002
 51
2.8599921E+002
  0
LINE
  8
105
  6
HIDDEN
 62
1
 10
3.088999E+002
 20
2.5537387E+002
 11
3.1475968E+002
 21
2.5705413E+002
  0
ARC
  8
105
  6
HIDDEN
 62
1
 10
3.1451847E+002
 20
2.338015E+002
 40
2.4999883
 50
1.000138
 51
7.6000365E+001
  0
LINE
  8
105
  6
HIDDEN
 62
1
 10
3.1701808E+002
 20
2.3384514E+002
 11
3.1703849E+002
 21
2.3267517E+002
  0
ARC
  8
105
  6
HIDDEN
 62
1
 10
3.1453888E+002
 20
2.3263152E+002
 40
2.4999898
 50
2.71E+002
 51
3.6100044E+002
  0
LINE
  8
105
  6
HIDDEN
 62
1
 10
3.1458251E+002
 20
2.3013191E+002
 11
3.1408259E+002
 21
2.3012318E+002
  0
ARC
  8
105
  6
HIDDEN
 62
1
 10
3.1406514E+002
 20
2.3112304E+002
 40
1.0000067
 50
1.8100057E+002
 51
2.7099978E+002
  0
LINE
  8
105
  6
HIDDEN
 62
1
 10
3.1306529E+002
 20
2.3110557E+002
 11
3.1300419E+002
 21
2.3460505E+002
  0
ARC
  8
105
  6
HIDDEN
 62
1
 10
3.1250427E+002
 20
2.3459633E+002
 40
4.9999297E-001
 50
9.9938092E-001
 51
9.1000918E+001
  0
ARC
  8
105
  6
HIDDEN
 62
1
 10
3.1250426E+002
 20
2.3459633E+002
 40
4.9999843E-001
 50
9.1000005E+001
 51
1.8100041E+002
  0
LINE
  8
105
  6
HIDDEN
 62
1
 10
3.1200434E+002
 20
2.345876E+002
 11
3.1201743E+002
 21
2.3383771E+002
  0
ARC
  8
105
  6
HIDDEN
 62
1
 10
3.1181748E+002
 20
2.338342E+002
 40
1.9998827E-001
 50
2.7099865E+002
 51
3.6100368E+002
  0
LINE
  8
105
  6
HIDDEN
 62
1
 10
3.1182096E+002
 20
2.3363424E+002
 11
3.1012121E+002
 21
2.3360458E+002
  0
LINE
  8
105
  6
HIDDEN
 62
1
 10
3.1012121E+002
 20
2.3360458E+002
 11
3.0976476E+002
 21
2.3301146E+002
  0
ARC
  8
105
  6
HIDDEN
 62
1
 10
3.0959334E+002
 20
2.3311447E+002
 40
2.0000107E-001
 50
2.259988E+002
 51
3.2899677E+002
  0
LINE
  8
105
  6
HIDDEN
 62
1
 10
3.094544E+002
 20
2.3297061E+002
 11
3.0800222E+002
 21
2.3467456E+002
  0
LINE
  8
105
  6
HIDDEN
 62
1
 10
3.0800222E+002
 20
2.3467456E+002
 11
3.0796661E+002
 21
2.3671422E+002
  0
ARC
  8
105
  6
HIDDEN
 62
1
 10
3.0896646E+002
 20
2.3673168E+002
 40
1.0000035
 50
7.5999866E+001
 51
1.8100069E+002
  0
LINE
  8
105
  6
HIDDEN
 62
1
 10
3.0920838E+002
 20
2.3770198E+002
 11
3.1512325E+002
 21
2.3622723E+002
  0
LINE
  8
106
  6
CENTERLINE
 62
1
 10
2.5129353E+002
 20
2.4660309E+002
 11
3.4079435E+002
 21
2.4659451E+002
  0
LINE
  8
105
  6
HIDDEN
 62
1
 10
3.1303904E+002
 20
2.326085E+002
 11
3.1204433E+002
 21
2.3360322E+002
  0
LINE
  8
105
  6
HIDDEN
 62
1
 10
3.1204433E+002
 20
2.3360322E+002
 11
3.0997453E+002
 21
2.3360322E+002
  0
LINE
  8
105
  6
HIDDEN
 62
1
 10
3.0997453E+002
 20
2.3360322E+002
 11
3.1026254E+002
 21
2.1710322E+002
  0
LINE
  8
105
  6
HIDDEN
 62
1
 10
3.1026254E+002
 20
2.1710322E+002
 11
3.133149E+002
 21
2.1710322E+002
  0
LINE
  8
105
  6
HIDDEN
 62
1
 10
3.133149E+002
 20
2.1710322E+002
 11
3.1303904E+002
 21
2.326085E+002
  0
LINE
  8
105
  6
HIDDEN
 62
1
 10
3.3135595E+002
 20
2.6860321E+002
 11
3.1394138E+002
 21
2.6860321E+002
  0
ARC
  8
105
  6
HIDDEN
 62
1
 10
3.1394139E+002
 20
2.671032E+002
 40
1.5000034
 50
9.0000234E+001
 51
1.809616E+002
  0
LINE
  8
105
  6
HIDDEN
 62
1
 10
3.124416E+002
 20
2.6707803E+002
 11
3.1255045E+002
 21
2.6059808E+002
  0
LINE
  8
105
  6
HIDDEN
 62
1
 10
3.1255045E+002
 20
2.6059808E+002
 11
3.115556E+002
 21
2.5960321E+002
  0
LINE
  8
105
  6
HIDDEN
 62
1
 10
3.115556E+002
 20
2.5960321E+002
 11
3.095207E+002
 21
2.5960321E+002
  0
LINE
  8
105
  6
HIDDEN
 62
1
 10
3.095207E+002
 20
2.5960321E+002
 11
3.0938934E+002
 21
2.671293E+002
  0
ARC
  8
105
  6
HIDDEN
 62
1
 10
3.0788956E+002
 20
2.6710311E+002
 40
1.5000093
 50
1.000556
 51
8.9999671E+001
  0
LINE
  8
105
  6
HIDDEN
 62
1
 10
3.0788957E+002
 20
2.6860312E+002
 11
2.5734802E+002
 21
2.6860321E+002
  0
ARC
  8
105
  6
HIDDEN
 62
1
 10
2.5734803E+002
 20
2.6710321E+002
 40
1.5000019
 50
9.0000148E+001
 51
1.7940076E+002
  0
LINE
  8
105
  6
HIDDEN
 62
1
 10
2.5584811E+002
 20
2.6711889E+002
 11
2.5532003E+002
 21
2.1659453E+002
  0
LINE
  8
106
  6
CENTERLINE
 62
1
 10
2.9326359E+002
 20
2.4163321E+002
 11
2.9326359E+002
 21
2.1408154E+002
  0
LINE
  8
106
  6
CENTERLINE
 62
1
 10
2.7126357E+002
 20
2.3932046E+002
 11
2.7126357E+002
 21
2.0132487E+002
  0
LINE
  8
106
  6
CENTERLINE
 62
1
 10
2.8226359E+002
 20
2.7754114E+002
 11
2.8226359E+002
 21
2.1265931E+002
  0
ARC
  8
104
  6
CONTINUOUS
 62
40
 10
2.5568033E+002
 20
2.6910323E+002
 40
2.499981
 50
8.999923E+001
 51
1.7900022E+002
  0
LINE
  8
104
  6
CONTINUOUS
 62
40
 10
2.5568036E+002
 20
2.7160321E+002
 11
3.2884683E+002
 21
2.7160321E+002
  0
ARC
  8
104
  6
CONTINUOUS
 62
40
 10
3.2884683E+002
 20
2.691032E+002
 40
2.5000051
 50
1.0003197
 51
9.0000205E+001
  0
LINE
  8
104
  6
CONTINUOUS
 62
40
 10
3.3134646E+002
 20
2.6914685E+002
 11
3.322636E+002
 21
2.1660322E+002
  0
LINE
  8
104
  6
CONTINUOUS
 62
40
 10
3.322636E+002
 20
2.1660322E+002
 11
2.5226358E+002
 21
2.1660322E+002
  0
LINE
  8
104
  6
CONTINUOUS
 62
40
 10
2.5226358E+002
 20
2.1660322E+002
 11
2.5318073E+002
 21
2.6914685E+002
  0
LINE
  8
99
  6
CONTINUOUS
 62
1
 10
2.5240567E+002
 20
2.2474449E+002
 11
2.527713E+002
 21
2.4569052E+002
  0
LINE
  8
105
  6
HIDDEN
 62
1
 10
3.3208224E+002
 20
2.2669366E+002
 11
3.2271996E+002
 21
2.2685708E+002
  0
ARC
  8
105
  6
HIDDEN
 62
1
 10
3.2276358E+002
 20
2.293567E+002
 40
2.4999929
 50
1.7999985E+002
 51
2.690003E+002
  0
LINE
  8
105
  6
HIDDEN
 62
1
 10
3.2026359E+002
 20
2.293567E+002
 11
3.2026359E+002
 21
2.6384973E+002
  0
ARC
  8
105
  6
HIDDEN
 62
1
 10
3.2276361E+002
 20
2.6384972E+002
 40
2.5000185
 50
9.1000279E+001
 51
1.799999E+002
  0
LINE
  8
105
  6
HIDDEN
 62
1
 10
3.2271996E+002
 20
2.6634936E+002
 11
3.3138741E+002
 21
2.6650064E+002
  0
LINE
  8
104
  6
CONTINUOUS
 62
40
 10
3.3726359E+002
 20
2.6283014E+002
 11
3.3726359E+002
 21
2.3605757E+002
  0
LINE
  8
99
  6
CONTINUOUS
 62
1
 10
3.3726359E+002
 20
2.3037631E+002
 11
3.3726359E+002
 21
2.3605757E+002
  0
LINE
  8
99
  6
CONTINUOUS
 62
1
 10
3.3726359E+002
 20
2.624992E+002
 11
3.3726359E+002
 21
2.6283014E+002
  0
LINE
  8
104
  6
CONTINUOUS
 62
40
 10
3.3726359E+002
 20
2.3037631E+002
 11
3.3726377E+002
 21
2.2660322E+002
  0
LINE
  8
104
  6
CONTINUOUS
 62
40
 10
3.3726377E+002
 20
2.2660322E+002
 11
3.3208224E+002
 21
2.2669366E+002
  0
LINE
  8
104
  6
CONTINUOUS
 62
40
 10
3.3138741E+002
 20
2.6650064E+002
 11
3.3726359E+002
 21
2.6660321E+002
  0
LINE
  8
104
  6
CONTINUOUS
 62
40
 10
3.3726359E+002
 20
2.6660321E+002
 11
3.3726359E+002
 21
2.6283014E+002
  0
LINE
  8
105
  6
HIDDEN
 62
1
 10
2.7476356E+002
 20
2.3910321E+002
 11
2.7476357E+002
 21
2.5410321E+002
  0
LINE
  8
105
  6
HIDDEN
 62
1
 10
3.2026359E+002
 20
2.5410321E+002
 11
2.7476357E+002
 21
2.5410321E+002
  0
LINE
  8
105
  6
HIDDEN
 62
1
 10
2.7476357E+002
 20
2.5410321E+002
 11
2.7176356E+002
 21
2.5110321E+002
  0
LINE
  8
105
  6
HIDDEN
 62
1
 10
2.7176356E+002
 20
2.5110321E+002
 11
2.7176357E+002
 21
2.4210321E+002
  0
LINE
  8
105
  6
HIDDEN
 62
1
 10
2.7176357E+002
 20
2.4210321E+002
 11
2.7476356E+002
 21
2.3910321E+002
  0
LINE
  8
105
  6
HIDDEN
 62
1
 10
2.7476356E+002
 20
2.3910321E+002
 11
3.2026359E+002
 21
2.3910321E+002
  0
ARC
  8
105
  6
HIDDEN
 62
1
 10
3.0326356E+002
 20
2.4960321E+002
 40
9.9999348E-001
 50
3.5999963E+002
 51
4.5000037E+002
  0
LINE
  8
105
  6
HIDDEN
 62
1
 10
3.0426356E+002
 20
2.4960321E+002
 11
3.0426356E+002
 21
2.4360321E+002
  0
ARC
  8
105
  6
HIDDEN
 62
1
 10
3.0326357E+002
 20
2.4360319E+002
 40
9.9998378E-001
 50
2.6999907E+002
 51
3.6000093E+002
  0
LINE
  8
105
  6
HIDDEN
 62
1
 10
3.0326356E+002
 20
2.4260321E+002
 11
2.9026356E+002
 21
2.4260321E+002
  0
ARC
  8
105
  6
HIDDEN
 62
1
 10
2.9026356E+002
 20
2.4360321E+002
 40
9.9999748E-001
 50
1.7999986E+002
 51
2.7000014E+002
  0
LINE
  8
105
  6
HIDDEN
 62
1
 10
2.8926356E+002
 20
2.4360321E+002
 11
2.8926356E+002
 21
2.4960321E+002
  0
ARC
  8
105
  6
HIDDEN
 62
1
 10
2.9026357E+002
 20
2.496032E+002
 40
1.0000072
 50
9.000041E+001
 51
1.7999959E+002
  0
LINE
  8
105
  6
HIDDEN
 62
1
 10
2.9026356E+002
 20
2.5060321E+002
 11
3.0326356E+002
 21
2.5060321E+002
  0
LINE
  8
MED-1
  6
CONTINUOUS
 62
40
 10
1.2587157E+002
 20
2.10516E+002
 11
1.1105117E+002
 21
2.10516E+002
  0
LINE
  8
MED-1
  6
CONTINUOUS
 62
40
 10
1.1105117E+002
 20
2.10516E+002
 11
1.1105117E+002
 21
2.0581638E+002
  0
TEXT
  8
103
  6
CONTINUOUS
 62
150
 10
2.7216657E+001
 20
2.8720771E+002
 40
3.5
  1
Türverriegelung TV mit Befestigungseinheit TV-Z / M 1:1
 41
6.7090911E-001
 11
2.7216657E+001
 21
2.8545771E+002
 73
2
  0
LINE
  8
99
  6
CONTINUOUS
 62
1
 10
1.4510143E+002
 20
1.6435641E+002
 11
1.4510143E+002
 21
1.6135641E+002
  0
LINE
  8
99
  6
CONTINUOUS
 62
1
 10
1.4510143E+002
 20
1.6135641E+002
 11
1.3010143E+002
 21
1.6135641E+002
  0
LINE
  8
99
  6
CONTINUOUS
 62
1
 10
1.3010143E+002
 20
1.6135641E+002
 11
1.3010143E+002
 21
1.5535641E+002
  0
LINE
  8
99
  6
CONTINUOUS
 62
1
 10
1.3010143E+002
 20
1.5535641E+002
 11
1.4510143E+002
 21
1.5535639E+002
  0
LINE
  8
99
  6
CONTINUOUS
 62
1
 10
1.4510143E+002
 20
1.5535639E+002
 11
1.4510143E+002
 21
1.5235638E+002
  0
LINE
  8
99
  6
CONTINUOUS
 62
1
 10
1.4510143E+002
 20
1.5235638E+002
 11
1.5110144E+002
 21
1.5835638E+002
  0
LINE
  8
99
  6
CONTINUOUS
 62
1
 10
1.5110144E+002
 20
1.5835638E+002
 11
1.4510143E+002
 21
1.6435641E+002
  0
DIMENSION
  8
MED-0
  6
CONTINUOUS
 62
4
  2
*D912
  3
DSTYLE1
 10
1.6793912E+002
 20
2.158251E+002
 11
1.6502362E+002
 21
2.234964E+002
 70
128
 13
1.5900198E+002
 23
2.298164E+002
 14
1.5900198E+002
 24
2.158251E+002
 40
3.0
 50
-9.0E+001
  0
DIMENSION
  8
MED-0
  6
CONTINUOUS
 62
4
  2
*D921
  3
DSTYLE1
 10
1.6793912E+002
 20
2.4281638E+002
 11
1.6502362E+002
 21
2.488761E+002
 70
128
 13
1.5900198E+002
 23
2.5581638E+002
 14
1.6222521E+002
 24
2.4281638E+002
 40
3.0
 50
-9.0E+001
  0
DIMENSION
  8
MED-0
  6
CONTINUOUS
 62
4
  2
*D930
  3
DSTYLE1
 10
1.6793912E+002
 20
2.298164E+002
 11
1.6502362E+002
 21
2.3616911E+002
 70
128
 13
1.5900198E+002
 23
2.4281638E+002
 14
1.6310427E+002
 24
2.298164E+002
 40
3.0
 50
-9.0E+001
  0
DIMENSION
  8
MED-0
  6
CONTINUOUS
 62
4
  2
*D939
  3
DSTYLE1
 10
1.6793912E+002
 20
1.8582313E+002
 11
1.6502362E+002
 21
2.0090188E+002
 70
128
 13
9.8513607E+001
 23
2.158251E+002
 14
1.2275065E+002
 24
1.8582313E+002
 40
3.0
 50
-9.0E+001
  0
DIMENSION
  8
MED-0
  6
CONTINUOUS
 62
4
  2
*D948
  3
DSTYLE1
 10
1.5712078E+002
 20
2.158251E+002
 11
1.5420528E+002
 21
2.2589853E+002
 70
128
 13
1.4147951E+002
 23
2.358164E+002
 14
1.4557933E+002
 24
2.158251E+002
 40
3.0
 50
-9.0E+001
  0
DIMENSION
  8
MED-0
  6
CONTINUOUS
 62
4
  2
*D957
  3
DSTYLE1
 10
1.5712078E+002
 20
2.358164E+002
 11
1.5420528E+002
 21
2.4201413E+002
 70
128
 13
1.4147951E+002
 23
2.4881638E+002
 14
1.4634876E+002
 24
2.358164E+002
 40
3.0
 50
-9.0E+001
  0
DIMENSION
  8
MED-0
  6
CONTINUOUS
 62
4
  2
*D966
  3
DSTYLE1
 10
1.5712078E+002
 20
2.4881638E+002
 11
1.5420528E+002
 21
2.5741861E+002
 70
128
 13
1.4147951E+002
 23
2.6181638E+002
 14
1.448099E+002
 24
2.4881638E+002
 40
3.0
 50
-9.0E+001
  0
LINE
  8
105
  6
HIDDEN
 62
1
 10
1.110511E+002
 20
2.4631638E+002
 11
1.0605114E+002
 21
2.4631638E+002
  0
LINE
  8
105
  6
HIDDEN
 62
1
 10
1.110511E+002
 20
2.4701639E+002
 11
1.0605114E+002
 21
2.4701639E+002
  0
LINE
  8
105
  6
HIDDEN
 62
1
 10
1.1105105E+002
 20
2.506164E+002
 11
1.0605114E+002
 21
2.506164E+002
  0
LINE
  8
105
  6
HIDDEN
 62
1
 10
1.1105104E+002
 20
2.5131638E+002
 11
1.0605114E+002
 21
2.5131638E+002
  0
LINE
  8
105
  6
HIDDEN
 62
1
 10
1.0605114E+002
 20
2.5306638E+002
 11
1.0605114E+002
 21
2.4456638E+002
  0
LINE
  8
105
  6
HIDDEN
 62
1
 10
1.0605114E+002
 20
2.4456638E+002
 11
1.0155114E+002
 21
2.4456638E+002
  0
ARC
  8
105
  6
HIDDEN
 62
1
 10
1.0155113E+002
 20
2.4506637E+002
 40
4.999875E-001
 50
1.7999857E+002
 51
2.7000143E+002
  0
LINE
  8
105
  6
HIDDEN
 62
1
 10
1.0105114E+002
 20
2.4506638E+002
 11
1.0105114E+002
 21
2.5256638E+002
  0
ARC
  8
105
  6
HIDDEN
 62
1
 10
1.0155116E+002
 20
2.5256637E+002
 40
5.0001341E-001
 50
9.0001537E+001
 51
1.7999846E+002
  0
LINE
  8
105
  6
HIDDEN
 62
1
 10
1.0155114E+002
 20
2.5306638E+002
 11
1.0605114E+002
 21
2.5306638E+002
  0
LINE
  8
99
  6
CONTINUOUS
 62
1
 10
1.110511E+002
 20
2.4631638E+002
 11
1.2565114E+002
 21
2.4631638E+002
  0
LINE
  8
99
  6
CONTINUOUS
 62
1
 10
1.2565114E+002
 20
2.4631638E+002
 11
1.2605114E+002
 21
2.4631638E+002
  0
LINE
  8
99
  6
CONTINUOUS
 62
1
 10
1.2605114E+002
 20
2.4631638E+002
 11
1.2605114E+002
 21
2.5131638E+002
  0
LINE
  8
99
  6
CONTINUOUS
 62
1
 10
1.2605114E+002
 20
2.5131638E+002
 11
1.2565114E+002
 21
2.5131638E+002
  0
LINE
  8
99
  6
CONTINUOUS
 62
1
 10
1.2565114E+002
 20
2.5131638E+002
 11
1.1105104E+002
 21
2.5131638E+002
  0
LINE
  8
99
  6
CONTINUOUS
 62
1
 10
1.2605114E+002
 20
2.4701639E+002
 11
1.110511E+002
 21
2.4701639E+002
  0
LINE
  8
99
  6
CONTINUOUS
 62
1
 10
1.2605114E+002
 20
2.506164E+002
 11
1.1105105E+002
 21
2.506164E+002
  0
LINE
  8
106
  6
CENTERLINE
 62
1
 10
1.275115E+002
 20
2.6181638E+002
 11
9.9812023E+001
 21
2.6181638E+002
  0
LINE
  8
105
  6
HIDDEN
 62
1
 10
1.1105112E+002
 20
2.5931638E+002
 11
1.0605116E+002
 21
2.5931638E+002
  0
LINE
  8
105
  6
HIDDEN
 62
1
 10
1.1105111E+002
 20
2.6001639E+002
 11
1.0605116E+002
 21
2.6001639E+002
  0
LINE
  8
105
  6
HIDDEN
 62
1
 10
1.1105107E+002
 20
2.636164E+002
 11
1.0605116E+002
 21
2.636164E+002
  0
LINE
  8
105
  6
HIDDEN
 62
1
 10
1.1105106E+002
 20
2.6431638E+002
 11
1.0605116E+002
 21
2.6431638E+002
  0
LINE
  8
105
  6
HIDDEN
 62
1
 10
1.0605116E+002
 20
2.6606638E+002
 11
1.0605116E+002
 21
2.5756638E+002
  0
LINE
  8
105
  6
HIDDEN
 62
1
 10
1.0605116E+002
 20
2.5756638E+002
 11
1.0155116E+002
 21
2.5756638E+002
  0
ARC
  8
105
  6
HIDDEN
 62
1
 10
1.0155115E+002
 20
2.5806637E+002
 40
4.999905E-001
 50
1.7999891E+002
 51
2.7000109E+002
  0
LINE
  8
105
  6
HIDDEN
 62
1
 10
1.0105116E+002
 20
2.5806638E+002
 11
1.0105116E+002
 21
2.6556638E+002
  0
ARC
  8
105
  6
HIDDEN
 62
1
 10
1.0155117E+002
 20
2.6556637E+002
 40
5.0000863E-001
 50
9.0000989E+001
 51
1.7999901E+002
  0
LINE
  8
105
  6
HIDDEN
 62
1
 10
1.0155116E+002
 20
2.6606638E+002
 11
1.0605116E+002
 21
2.6606638E+002
  0
LINE
  8
99
  6
CONTINUOUS
 62
1
 10
1.1105112E+002
 20
2.5931638E+002
 11
1.2565116E+002
 21
2.5931638E+002
  0
LINE
  8
99
  6
CONTINUOUS
 62
1
 10
1.2565116E+002
 20
2.5931638E+002
 11
1.2605116E+002
 21
2.5931638E+002
  0
LINE
  8
99
  6
CONTINUOUS
 62
1
 10
1.2605116E+002
 20
2.5931638E+002
 11
1.2605116E+002
 21
2.6431638E+002
  0
LINE
  8
99
  6
CONTINUOUS
 62
1
 10
1.2605116E+002
 20
2.6431638E+002
 11
1.2565116E+002
 21
2.6431638E+002
  0
LINE
  8
99
  6
CONTINUOUS
 62
1
 10
1.2565116E+002
 20
2.6431638E+002
 11
1.1105106E+002
 21
2.6431638E+002
  0
LINE
  8
99
  6
CONTINUOUS
 62
1
 10
1.2605116E+002
 20
2.6001639E+002
 11
1.1105111E+002
 21
2.6001639E+002
  0
LINE
  8
99
  6
CONTINUOUS
 62
1
 10
1.2605116E+002
 20
2.636164E+002
 11
1.1105107E+002
 21
2.636164E+002
  0
LINE
  8
105
  6
HIDDEN
 62
1
 10
6.4551174E+001
 20
2.0361456E+002
 11
6.4551174E+001
 21
1.986146E+002
  0
LINE
  8
105
  6
HIDDEN
 62
1
 10
6.4951172E+001
 20
2.0361456E+002
 11
6.4951172E+001
 21
1.986146E+002
  0
LINE
  8
105
  6
HIDDEN
 62
1
 10
6.9151172E+001
 20
2.0361449E+002
 11
6.9151172E+001
 21
1.986146E+002
  0
LINE
  8
105
  6
HIDDEN
 62
1
 10
6.9551174E+001
 20
2.0361449E+002
 11
6.9551174E+001
 21
1.986146E+002
  0
LINE
  8
105
  6
HIDDEN
 62
1
 10
7.1301174E+001
 20
1.986146E+002
 11
6.2801174E+001
 21
1.986146E+002
  0
LINE
  8
105
  6
HIDDEN
 62
1
 10
6.2801174E+001
 20
1.986146E+002
 11
6.2801174E+001
 21
1.941146E+002
  0
ARC
  8
105
  6
HIDDEN
 62
1
 10
6.3301173E+001
 20
1.941146E+002
 40
4.9999908E-001
 50
1.7999989E+002
 51
2.7000011E+002
  0
LINE
  8
105
  6
HIDDEN
 62
1
 10
6.3301174E+001
 20
1.936146E+002
 11
7.0801174E+001
 21
1.936146E+002
  0
ARC
  8
105
  6
HIDDEN
 62
1
 10
7.0801176E+001
 20
1.941146E+002
 40
4.9999761E-001
 50
2.6999973E+002
 51
3.6000027E+002
  0
LINE
  8
105
  6
HIDDEN
 62
1
 10
7.1301174E+001
 20
1.941146E+002
 11
7.1301174E+001
 21
1.986146E+002
  0
LINE
  8
105
  6
HIDDEN
 62
1
 10
6.4551174E+001
 20
2.0361456E+002
 11
6.4551174E+001
 21
2.2821459E+002
  0
LINE
  8
105
  6
HIDDEN
 62
1
 10
6.4551174E+001
 20
2.2821459E+002
 11
6.4951172E+001
 21
2.286146E+002
  0
LINE
  8
105
  6
HIDDEN
 62
1
 10
6.4951172E+001
 20
2.286146E+002
 11
6.9151172E+001
 21
2.286146E+002
  0
LINE
  8
105
  6
HIDDEN
 62
1
 10
6.9151172E+001
 20
2.286146E+002
 11
6.9551174E+001
 21
2.2821459E+002
  0
LINE
  8
105
  6
HIDDEN
 62
1
 10
6.9551174E+001
 20
2.2821459E+002
 11
6.9551174E+001
 21
2.0361449E+002
  0
LINE
  8
105
  6
HIDDEN
 62
1
 10
6.4551174E+001
 20
2.2821459E+002
 11
6.9551174E+001
 21
2.2821459E+002
  0
LINE
  8
105
  6
HIDDEN
 62
1
 10
6.4951172E+001
 20
2.286146E+002
 11
6.4951172E+001
 21
2.0361456E+002
  0
LINE
  8
105
  6
HIDDEN
 62
1
 10
6.9151172E+001
 20
2.286146E+002
 11
6.9151172E+001
 21
2.0361449E+002
  0
LINE
  8
105
  6
HIDDEN
 62
1
 10
4.2551174E+001
 20
2.0399856E+002
 11
4.2551174E+001
 21
1.989986E+002
  0
LINE
  8
105
  6
HIDDEN
 62
1
 10
4.2951174E+001
 20
2.0399856E+002
 11
4.2951174E+001
 21
1.989986E+002
  0
LINE
  8
105
  6
HIDDEN
 62
1
 10
4.7151172E+001
 20
2.0399851E+002
 11
4.7151172E+001
 21
1.989986E+002
  0
LINE
  8
105
  6
HIDDEN
 62
1
 10
4.7551174E+001
 20
2.0399851E+002
 11
4.7551174E+001
 21
1.989986E+002
  0
LINE
  8
105
  6
HIDDEN
 62
1
 10
4.9301174E+001
 20
1.989986E+002
 11
4.0801174E+001
 21
1.989986E+002
  0
LINE
  8
105
  6
HIDDEN
 62
1
 10
4.0801174E+001
 20
1.989986E+002
 11
4.0801174E+001
 21
1.944986E+002
  0
ARC
  8
105
  6
HIDDEN
 62
1
 10
4.1301172E+001
 20
1.944986E+002
 40
4.9999774E-001
 50
1.7999974E+002
 51
2.7000026E+002
  0
LINE
  8
105
  6
HIDDEN
 62
1
 10
4.1301174E+001
 20
1.939986E+002
 11
4.8801174E+001
 21
1.939986E+002
  0
ARC
  8
105
  6
HIDDEN
 62
1
 10
4.8801176E+001
 20
1.944986E+002
 40
4.9999778E-001
 50
2.6999975E+002
 51
3.6000025E+002
  0
LINE
  8
105
  6
HIDDEN
 62
1
 10
4.9301174E+001
 20
1.944986E+002
 11
4.9301174E+001
 21
1.989986E+002
  0
LINE
  8
105
  6
HIDDEN
 62
1
 10
4.2551174E+001
 20
2.0399856E+002
 11
4.2551174E+001
 21
2.2859861E+002
  0
LINE
  8
105
  6
HIDDEN
 62
1
 10
4.2551174E+001
 20
2.2859861E+002
 11
4.2951174E+001
 21
2.289986E+002
  0
LINE
  8
105
  6
HIDDEN
 62
1
 10
4.2951174E+001
 20
2.289986E+002
 11
4.7151172E+001
 21
2.289986E+002
  0
LINE
  8
105
  6
HIDDEN
 62
1
 10
4.7151172E+001
 20
2.289986E+002
 11
4.7551174E+001
 21
2.2859861E+002
  0
LINE
  8
105
  6
HIDDEN
 62
1
 10
4.7551174E+001
 20
2.2859861E+002
 11
4.7551174E+001
 21
2.0399851E+002
  0
LINE
  8
105
  6
HIDDEN
 62
1
 10
4.2551174E+001
 20
2.2859861E+002
 11
4.7551174E+001
 21
2.2859861E+002
  0
LINE
  8
105
  6
HIDDEN
 62
1
 10
4.2951174E+001
 20
2.289986E+002
 11
4.2951174E+001
 21
2.0399856E+002
  0
LINE
  8
105
  6
HIDDEN
 62
1
 10
4.7151172E+001
 20
2.289986E+002
 11
4.7151172E+001
 21
2.0399851E+002
  0
LINE
  8
105
  6
HIDDEN
 62
1
 10
6.2666172E+001
 20
2.2359113E+002
 11
6.2666172E+001
 21
2.2821459E+002
  0
LINE
  8
105
  6
HIDDEN
 62
1
 10
6.2666172E+001
 20
2.2821459E+002
 11
7.1436172E+001
 21
2.2821459E+002
  0
LINE
  8
105
  6
HIDDEN
 62
1
 10
7.1436172E+001
 20
2.2821459E+002
 11
7.1436172E+001
 21
2.2343806E+002
  0
LINE
  8
105
  6
HIDDEN
 62
1
 10
7.1436172E+001
 20
2.2343806E+002
 11
6.2666172E+001
 21
2.2359113E+002
  0
LINE
  8
105
  6
HIDDEN
 62
1
 10
4.0666174E+001
 20
2.2397515E+002
 11
4.0666174E+001
 21
2.2859861E+002
  0
LINE
  8
105
  6
HIDDEN
 62
1
 10
4.0666174E+001
 20
2.2859861E+002
 11
4.9436172E+001
 21
2.2859861E+002
  0
LINE
  8
105
  6
HIDDEN
 62
1
 10
4.9436172E+001
 20
2.2859861E+002
 11
4.9436172E+001
 21
2.2382206E+002
  0
LINE
  8
105
  6
HIDDEN
 62
1
 10
4.9436172E+001
 20
2.2382206E+002
 11
4.0666174E+001
 21
2.2397515E+002
  0
LINE
  8
105
  6
HIDDEN
 62
1
 10
1.0705114E+002
 20
2.4421638E+002
 11
1.0605114E+002
 21
2.4421638E+002
  0
LINE
  8
105
  6
HIDDEN
 62
1
 10
1.0605114E+002
 20
2.4421638E+002
 11
1.0605114E+002
 21
2.5341639E+002
  0
LINE
  8
105
  6
HIDDEN
 62
1
 10
1.0605114E+002
 20
2.5341639E+002
 11
1.0705115E+002
 21
2.5341639E+002
  0
LINE
  8
105
  6
HIDDEN
 62
1
 10
1.0705115E+002
 20
2.5341639E+002
 11
1.0705114E+002
 21
2.4421638E+002
  0
LINE
  8
105
  6
HIDDEN
 62
1
 10
1.0705114E+002
 20
2.4916993E+002
 11
1.0605114E+002
 21
2.5016993E+002
  0
LINE
  8
105
  6
HIDDEN
 62
1
 10
1.0705114E+002
 20
2.4846284E+002
 11
1.0605114E+002
 21
2.4946284E+002
  0
LINE
  8
105
  6
HIDDEN
 62
1
 10
1.0705115E+002
 20
2.5721638E+002
 11
1.0605116E+002
 21
2.5721638E+002
  0
LINE
  8
105
  6
HIDDEN
 62
1
 10
1.0605116E+002
 20
2.5721638E+002
 11
1.0605116E+002
 21
2.6641639E+002
  0
LINE
  8
105
  6
HIDDEN
 62
1
 10
1.0605116E+002
 20
2.6641639E+002
 11
1.0705117E+002
 21
2.6641639E+002
  0
LINE
  8
105
  6
HIDDEN
 62
1
 10
1.0705117E+002
 20
2.6641639E+002
 11
1.0705115E+002
 21
2.5721638E+002
  0
LINE
  8
105
  6
HIDDEN
 62
1
 10
1.0705116E+002
 20
2.6216993E+002
 11
1.0605116E+002
 21
2.6316993E+002
  0
LINE
  8
105
  6
HIDDEN
 62
1
 10
1.0705116E+002
 20
2.6146284E+002
 11
1.0605116E+002
 21
2.6246284E+002
  0
ARC
  8
99
  6
CONTINUOUS
 62
1
 10
1.0449734E+002
 20
2.2509793E+002
 40
6.5786117
 50
3.3696704E+002
 51
3.4769201E+002
  0
ARC
  8
99
  6
CONTINUOUS
 62
1
 10
1.0559032E+002
 20
2.2486161E+002
 40
5.46038
 50
3.4767002E+002
 51
3.5981333E+002
  0
LINE
  8
99
  6
CONTINUOUS
 62
1
 10
1.1105067E+002
 20
2.2484382E+002
 11
1.1105117E+002
 21
2.6881638E+002
  0
LINE
  8
99
  6
CONTINUOUS
 62
1
 10
1.1105117E+002
 20
2.6881638E+002
 11
1.1055074E+002
 21
2.6881638E+002
  0
LINE
  8
105
  6
HIDDEN
 62
1
 10
1.0705117E+002
 20
2.3045818E+002
 11
9.9540474E+001
 21
2.2294749E+002
  0
LINE
  8
106
  6
CENTERLINE
 62
1
 10
6.7051174E+001
 20
2.3032381E+002
 11
6.7051174E+001
 21
2.188164E+002
  0
LINE
  8
105
  6
HIDDEN
 62
1
 10
1.1105117E+002
 20
2.388164E+002
 11
1.0705117E+002
 21
2.388164E+002
  0
LINE
  8
106
  6
CENTERLINE
 62
1
 10
1.1374418E+002
 20
2.298164E+002
 11
1.0489573E+002
 21
2.298164E+002
  0
LINE
  8
106
  6
CENTERLINE
 62
1
 10
1.1374418E+002
 20
2.358164E+002
 11
1.0489573E+002
 21
2.358164E+002
  0
LINE
  8
106
  6
CENTERLINE
 62
1
 10
1.1374418E+002
 20
2.4281638E+002
 11
1.0489573E+002
 21
2.4281638E+002
  0
LINE
  8
106
  6
CENTERLINE
 62
1
 10
9.8717438E+001
 20
2.4881638E+002
 11
1.2678468E+002
 21
2.4881638E+002
  0
LINE
  8
106
  6
CENTERLINE
 62
1
 10
1.1374418E+002
 20
2.5581638E+002
 11
1.0489573E+002
 21
2.5581638E+002
  0
LINE
  8
105
  6
HIDDEN
 62
1
 10
1.1055074E+002
 20
2.6881638E+002
 11
1.0705117E+002
 21
2.6881638E+002
  0
LINE
  8
105
  6
HIDDEN
 62
1
 10
1.0705117E+002
 20
2.6881638E+002
 11
1.0705111E+002
 21
2.248516E+002
  0
ARC
  8
105
  6
HIDDEN
 62
1
 10
1.0505112E+002
 20
2.2485159E+002
 40
1.9999925
 50
2.6899958E+002
 51
3.6000021E+002
  0
LINE
  8
105
  6
HIDDEN
 62
1
 10
1.050162E+002
 20
2.228519E+002
 11
3.6051174E+001
 21
2.240557E+002
  0
LINE
  8
105
  6
HIDDEN
 62
1
 10
3.6051174E+001
 20
2.240557E+002
 11
3.6051174E+001
 21
2.2012551E+002
  0
LINE
  8
105
  6
HIDDEN
 62
1
 10
3.6051174E+001
 20
2.2012551E+002
 11
1.0505117E+002
 21
2.189211E+002
  0
ARC
  8
105
  6
HIDDEN
 62
1
 10
1.0505921E+002
 20
2.2495864E+002
 40
6.0375436
 50
2.6992363E+002
 51
3.0314947E+002
  0
ARC
  8
105
  6
HIDDEN
 62
1
 10
1.0515826E+002
 20
2.2480731E+002
 40
5.8566859
 50
3.0314777E+002
 51
3.3705369E+002
  0
LINE
  8
105
  6
HIDDEN
 62
1
 10
5.0251171E+001
 20
2.158164E+002
 11
5.0251171E+001
 21
2.1987765E+002
  0
LINE
  8
105
  6
HIDDEN
 62
1
 10
5.0251171E+001
 20
2.1987765E+002
 11
6.1851162E+001
 21
2.1967518E+002
  0
LINE
  8
105
  6
HIDDEN
 62
1
 10
6.1851162E+001
 20
2.1967518E+002
 11
6.1851162E+001
 21
2.158251E+002
  0
LINE
  8
105
  6
HIDDEN
 62
1
 10
7.2251171E+001
 20
2.158164E+002
 11
7.2251171E+001
 21
2.1949364E+002
  0
LINE
  8
105
  6
HIDDEN
 62
1
 10
7.2251171E+001
 20
2.1949364E+002
 11
1.1055157E+002
 21
2.188251E+002
  0
LINE
  8
105
  6
HIDDEN
 62
1
 10
5.0251171E+001
 20
2.1589315E+002
 11
5.0251171E+001
 21
2.1987766E+002
  0
LINE
  8
105
  6
HIDDEN
 62
1
 10
5.0251171E+001
 20
2.1987766E+002
 11
6.1851162E+001
 21
2.1967518E+002
  0
LINE
  8
105
  6
HIDDEN
 62
1
 10
6.1851162E+001
 20
2.1967518E+002
 11
6.1851162E+001
 21
2.1589315E+002
  0
LINE
  8
105
  6
HIDDEN
 62
1
 10
7.2251171E+001
 20
2.1589315E+002
 11
7.2251171E+001
 21
2.1949364E+002
  0
LINE
  8
105
  6
HIDDEN
 62
1
 10
7.2251171E+001
 20
2.1949364E+002
 11
1.1055157E+002
 21
2.188251E+002
  0
LINE
  8
105
  6
HIDDEN
 62
1
 10
1.1055071E+002
 20
2.7082508E+002
 11
3.003372E+001
 21
2.6941965E+002
  0
ARC
  8
105
  6
HIDDEN
 62
1
 10
3.0051185E+001
 20
2.6841979E+002
 40
1.0000128
 50
9.1000711E+001
 51
1.7999924E+002
  0
LINE
  8
105
  6
HIDDEN
 62
1
 10
2.9051172E+001
 20
2.6841981E+002
 11
2.905117E+001
 21
2.212304E+002
  0
ARC
  8
105
  6
HIDDEN
 62
1
 10
3.0051165E+001
 20
2.2123039E+002
 40
9.9999462E-001
 50
1.7999974E+002
 51
2.6900031E+002
  0
LINE
  8
105
  6
HIDDEN
 62
1
 10
3.0033718E+001
 20
2.2023055E+002
 11
3.9851162E+001
 21
2.2005918E+002
  0
LINE
  8
105
  6
HIDDEN
 62
1
 10
3.9851162E+001
 20
2.2005918E+002
 11
3.9851162E+001
 21
2.1589315E+002
  0
LINE
  8
104
  6
CONTINUOUS
 62
40
 10
1.1055071E+002
 20
2.7082508E+002
 11
1.1055068E+002
 21
2.7382508E+002
  0
LINE
  8
104
  6
CONTINUOUS
 62
40
 10
1.1055068E+002
 20
2.7382508E+002
 11
2.8507534E+001
 21
2.7239301E+002
  0
ARC
  8
104
  6
CONTINUOUS
 62
40
 10
2.8551147E+001
 20
2.698934E+002
 40
2.4999879
 50
9.0999587E+001
 51
1.799999E+002
  0
LINE
  8
104
  6
CONTINUOUS
 62
40
 10
2.6051159E+001
 20
2.6989341E+002
 11
2.6051159E+001
 21
2.173251E+002
  0
LINE
  8
104
  6
CONTINUOUS
 62
40
 10
2.6051159E+001
 20
2.173251E+002
 11
2.7551159E+001
 21
2.173251E+002
  0
LINE
  8
104
  6
CONTINUOUS
 62
40
 10
2.7551159E+001
 20
2.173251E+002
 11
2.7551159E+001
 21
2.158251E+002
  0
LINE
  8
104
  6
CONTINUOUS
 62
40
 10
2.7551159E+001
 20
2.158251E+002
 11
3.9851162E+001
 21
2.158251E+002
  0
LINE
  8
99
  6
CONTINUOUS
 62
1
 10
6.1851162E+001
 20
2.158251E+002
 11
5.0251171E+001
 21
2.158251E+002
  0
LINE
  8
99
  6
CONTINUOUS
 62
1
 10
1.1055157E+002
 20
2.188251E+002
 11
1.1055117E+002
 21
2.158251E+002
  0
LINE
  8
99
  6
CONTINUOUS
 62
1
 10
1.1055117E+002
 20
2.158251E+002
 11
7.2251171E+001
 21
2.158251E+002
  0
LINE
  8
106
  6
CENTERLINE
 62
1
 10
2.4984955E+001
 20
2.4482508E+002
 11
1.1239195E+002
 21
2.4482508E+002
  0
LINE
  8
99
  6
CONTINUOUS
 62
1
 10
6.1851162E+001
 20
2.158251E+002
 11
7.2251171E+001
 21
2.158251E+002
  0
LINE
  8
99
  6
CONTINUOUS
 62
1
 10
3.9851162E+001
 20
2.158251E+002
 11
5.0251171E+001
 21
2.158251E+002
  0
LINE
  8
106
  6
CENTERLINE
 62
1
 10
4.5051174E+001
 20
2.143012E+002
 11
4.5051174E+001
 21
2.2153159E+002
  0
LINE
  8
99
  6
CONTINUOUS
 62
1
 10
1.1055068E+002
 20
2.7252512E+002
 11
1.1055157E+002
 21
2.188251E+002
  0
LINE
  8
99
  6
CONTINUOUS
 62
1
 10
1.1105117E+002
 20
1.8282313E+002
 11
1.3604924E+002
 21
1.8282313E+002
  0
LINE
  8
99
  6
CONTINUOUS
 62
1
 10
1.3604924E+002
 20
1.8282313E+002
 11
1.3664924E+002
 21
1.8342312E+002
  0
LINE
  8
99
  6
CONTINUOUS
 62
1
 10
1.3664924E+002
 20
1.8342312E+002
 11
1.3664924E+002
 21
1.8822312E+002
  0
LINE
  8
99
  6
CONTINUOUS
 62
1
 10
1.3664924E+002
 20
1.8822312E+002
 11
1.3604924E+002
 21
1.8882313E+002
  0
LINE
  8
99
  6
CONTINUOUS
 62
1
 10
1.3604924E+002
 20
1.8882313E+002
 11
1.1105117E+002
 21
1.8882313E+002
  0
LINE
  8
99
  6
CONTINUOUS
 62
1
 10
1.3604924E+002
 20
1.8282313E+002
 11
1.3604924E+002
 21
1.8882313E+002
  0
LINE
  8
99
  6
CONTINUOUS
 62
1
 10
1.1105117E+002
 20
1.8822312E+002
 11
1.3664924E+002
 21
1.8822312E+002
  0
LINE
  8
99
  6
CONTINUOUS
 62
1
 10
1.1105117E+002
 20
1.8342312E+002
 11
1.3664924E+002
 21
1.8342312E+002
  0
LINE
  8
106
  6
CENTERLINE
 62
1
 10
9.1103954E+001
 20
1.8582313E+002
 11
1.3765446E+002
 21
1.8582313E+002
  0
LINE
  8
105
  6
HIDDEN
 62
1
 10
1.1105117E+002
 20
1.8342312E+002
 11
9.6649242E+001
 21
1.8342312E+002
  0
LINE
  8
105
  6
HIDDEN
 62
1
 10
1.3604924E+002
 20
1.8882313E+002
 11
1.3604924E+002
 21
1.8282313E+002
  0
LINE
  8
105
  6
HIDDEN
 62
1
 10
9.6649242E+001
 20
1.8882313E+002
 11
9.6649242E+001
 21
1.8282313E+002
  0
LINE
  8
105
  6
HIDDEN
 62
1
 10
1.3664924E+002
 20
1.8822312E+002
 11
9.6649242E+001
 21
1.8822312E+002
  0
LINE
  8
105
  6
HIDDEN
 62
1
 10
9.6649242E+001
 20
1.8822312E+002
 11
1.1105117E+002
 21
1.8822312E+002
  0
ARC
  8
105
  6
HIDDEN
 62
1
 10
1.0986946E+002
 20
1.8415526E+002
 40
1.8283002E+001
 50
1.4990454E+002
 51
1.5649133E+002
  0
ARC
  8
105
  6
HIDDEN
 62
1
 10
1.0743972E+002
 20
1.8521558E+002
 40
1.5631979E+001
 50
1.5650277E+002
 51
1.6381389E+002
  0
ARC
  8
105
  6
HIDDEN
 62
1
 10
1.0541228E+002
 20
1.8578485E+002
 40
1.352623E+001
 50
1.637357E+002
 51
1.7983788E+002
  0
ARC
  8
105
  6
HIDDEN
 62
1
 10
1.0541228E+002
 20
1.858614E+002
 40
1.352623E+001
 50
1.8016212E+002
 51
1.962643E+002
  0
ARC
  8
105
  6
HIDDEN
 62
1
 10
1.0743972E+002
 20
1.8643067E+002
 40
1.5631979E+001
 50
1.9618611E+002
 51
2.0349723E+002
  0
ARC
  8
105
  6
HIDDEN
 62
1
 10
1.0986946E+002
 20
1.8749099E+002
 40
1.8283002E+001
 50
2.0350867E+002
 51
2.1009546E+002
  0
LINE
  8
105
  6
HIDDEN
 62
1
 10
1.1105117E+002
 20
1.8282313E+002
 11
9.6649242E+001
 21
1.8282313E+002
  0
LINE
  8
105
  6
HIDDEN
 62
1
 10
9.6649242E+001
 20
1.8282313E+002
 11
9.4051166E+001
 21
1.7832313E+002
  0
LINE
  8
105
  6
HIDDEN
 62
1
 10
9.4051166E+001
 20
1.7832313E+002
 11
9.4051166E+001
 21
1.9332313E+002
  0
LINE
  8
105
  6
HIDDEN
 62
1
 10
9.4051166E+001
 20
1.9332313E+002
 11
9.6649242E+001
 21
1.8882313E+002
  0
LINE
  8
105
  6
HIDDEN
 62
1
 10
9.6649242E+001
 20
1.8882313E+002
 11
1.1105117E+002
 21
1.8882313E+002
  0
LINE
  8
105
  6
HIDDEN
 62
1
 10
8.1411983E+001
 20
1.7610194E+002
 11
8.1419323E+001
 21
1.7652241E+002
  0
ARC
  8
105
  6
HIDDEN
 62
1
 10
8.241917E+001
 20
1.7650495E+002
 40
9.9999922E-001
 50
7.3999878E+001
 51
1.7899966E+002
  0
LINE
  8
105
  6
HIDDEN
 62
1
 10
8.2694809E+001
 20
1.7746621E+002
 11
8.8554603E+001
 21
1.7578594E+002
  0
ARC
  8
105
  6
HIDDEN
 62
1
 10
8.7865517E+001
 20
1.7338279E+002
 40
2.4999915
 50
3.5899968E+002
 51
4.3400011E+002
  0
LINE
  8
105
  6
HIDDEN
 62
1
 10
9.0365127E+001
 20
1.7333915E+002
 11
9.0357788E+001
 21
1.7291868E+002
  0
LINE
  8
105
  6
HIDDEN
 62
1
 10
8.1754188E+001
 20
1.9570539E+002
 11
8.1746853E+001
 21
1.9528493E+002
  0
ARC
  8
105
  6
HIDDEN
 62
1
 10
8.2746705E+001
 20
1.9526747E+002
 40
1.0000049
 50
1.7899959E+002
 51
2.8399955E+002
  0
LINE
  8
105
  6
HIDDEN
 62
1
 10
8.298862E+001
 20
1.9429717E+002
 11
8.8903488E+001
 21
1.9577192E+002
  0
ARC
  8
105
  6
HIDDEN
 62
1
 10
8.8298679E+001
 20
1.9819766E+002
 40
2.500007
 50
2.8400005E+002
 51
3.5899955E+002
  0
LINE
  8
105
  6
HIDDEN
 62
1
 10
9.0798305E+001
 20
1.9815401E+002
 11
9.0805645E+001
 21
1.9857449E+002
  0
LINE
  8
105
  6
HIDDEN
 62
1
 10
9.0805645E+001
 20
1.9857449E+002
 11
9.0357788E+001
 21
1.7291868E+002
  0
LINE
  8
105
  6
HIDDEN
 62
1
 10
8.6754066E+001
 20
1.9565464E+002
 11
8.6695774E+001
 21
1.9231541E+002
  0
LINE
  8
105
  6
HIDDEN
 62
1
 10
8.6695774E+001
 20
1.9231541E+002
 11
8.1696537E+001
 21
1.9240267E+002
  0
LINE
  8
105
  6
HIDDEN
 62
1
 10
8.1696537E+001
 20
1.9240267E+002
 11
8.1609268E+001
 21
1.8740343E+002
  0
LINE
  8
105
  6
HIDDEN
 62
1
 10
8.1609268E+001
 20
1.8740343E+002
 11
8.6608505E+001
 21
1.8731617E+002
  0
LINE
  8
105
  6
HIDDEN
 62
1
 10
8.6608505E+001
 20
1.8731617E+002
 11
8.6556145E+001
 21
1.8431663E+002
  0
LINE
  8
105
  6
HIDDEN
 62
1
 10
8.6556145E+001
 20
1.8431663E+002
 11
8.1556907E+001
 21
1.8440389E+002
  0
LINE
  8
105
  6
HIDDEN
 62
1
 10
8.1556907E+001
 20
1.8440389E+002
 11
8.1469639E+001
 21
1.7940465E+002
  0
LINE
  8
105
  6
HIDDEN
 62
1
 10
8.1469639E+001
 20
1.7940465E+002
 11
8.6468876E+001
 21
1.7931739E+002
  0
LINE
  8
105
  6
HIDDEN
 62
1
 10
8.6468876E+001
 20
1.7931739E+002
 11
8.6410583E+001
 21
1.7597816E+002
  0
ARC
  8
105
  6
HIDDEN
 62
1
 10
8.7858169E+001
 20
1.7296232E+002
 40
2.4999997
 50
3.5899983E+002
 51
4.3399996E+002
  0
LINE
  8
105
  6
HIDDEN
 62
1
 10
9.0357788E+001
 20
1.7291868E+002
 11
9.0337364E+001
 21
1.7174871E+002
  0
ARC
  8
105
  6
HIDDEN
 62
1
 10
8.7837745E+001
 20
1.7179235E+002
 40
2.4999994
 50
2.6899988E+002
 51
3.589998E+002
  0
LINE
  8
105
  6
HIDDEN
 62
1
 10
8.7794109E+001
 20
1.6929273E+002
 11
8.7294185E+001
 21
1.6930146E+002
  0
ARC
  8
105
  6
HIDDEN
 62
1
 10
8.7311646E+001
 20
1.7030132E+002
 40
1.0000075
 50
1.7900027E+002
 51
2.6899957E+002
  0
LINE
  8
105
  6
HIDDEN
 62
1
 10
8.631179E+001
 20
1.7031876E+002
 11
8.6372879E+001
 21
1.7381823E+002
  0
ARC
  8
105
  6
HIDDEN
 62
1
 10
8.5872955E+001
 20
1.7382696E+002
 40
5.0000017E-001
 50
3.5899979E+002
 51
4.4899976E+002
  0
ARC
  8
105
  6
HIDDEN
 62
1
 10
8.5872955E+001
 20
1.7382696E+002
 40
4.9999967E-001
 50
8.899977E+001
 51
1.7899985E+002
  0
LINE
  8
105
  6
HIDDEN
 62
1
 10
8.5373031E+001
 20
1.7383569E+002
 11
8.5359943E+001
 21
1.7308579E+002
  0
ARC
  8
105
  6
HIDDEN
 62
1
 10
8.5159967E+001
 20
1.730893E+002
 40
2.0000639E-001
 50
2.6900163E+002
 51
3.5899615E+002
  0
LINE
  8
105
  6
HIDDEN
 62
1
 10
8.5156482E+001
 20
1.7288932E+002
 11
8.3456741E+001
 21
1.7291898E+002
  0
LINE
  8
105
  6
HIDDEN
 62
1
 10
8.3456741E+001
 20
1.7291898E+002
 11
8.3079803E+001
 21
1.7233868E+002
  0
ARC
  8
105
  6
HIDDEN
 62
1
 10
8.2912081E+001
 20
1.7244762E+002
 40
1.9999941E-001
 50
2.2399906E+002
 51
3.2699405E+002
  0
LINE
  8
105
  6
HIDDEN
 62
1
 10
8.2768211E+001
 20
1.7230869E+002
 11
8.1376377E+001
 21
1.7406228E+002
  0
LINE
  8
105
  6
HIDDEN
 62
1
 10
8.1376377E+001
 20
1.7406228E+002
 11
8.1411983E+001
 21
1.7610194E+002
  0
ARC
  8
105
  6
HIDDEN
 62
1
 10
8.2411827E+001
 20
1.7608448E+002
 40
9.9999627E-001
 50
7.3999657E+001
 51
1.7899982E+002
  0
LINE
  8
105
  6
HIDDEN
 62
1
 10
8.2687469E+001
 20
1.7704574E+002
 11
8.8547264E+001
 21
1.7536547E+002
  0
ARC
  8
105
  6
HIDDEN
 62
1
 10
8.8306024E+001
 20
1.9861812E+002
 40
2.5000019
 50
2.8399997E+002
 51
3.5900001E+002
  0
LINE
  8
105
  6
HIDDEN
 62
1
 10
9.0805645E+001
 20
1.9857449E+002
 11
9.0826069E+001
 21
1.9974445E+002
  0
ARC
  8
105
  6
HIDDEN
 62
1
 10
8.8326457E+001
 20
1.9978808E+002
 40
2.4999925
 50
3.5899999E+002
 51
4.4900012E+002
  0
LINE
  8
105
  6
HIDDEN
 62
1
 10
8.8370083E+001
 20
2.022877E+002
 11
8.7870159E+001
 21
2.0229642E+002
  0
ARC
  8
105
  6
HIDDEN
 62
1
 10
8.7852709E+001
 20
2.0129657E+002
 40
1.000002
 50
8.9000141E+001
 51
1.7899964E+002
  0
LINE
  8
105
  6
HIDDEN
 62
1
 10
8.6852859E+001
 20
2.0131403E+002
 11
8.6791771E+001
 21
1.9781457E+002
  0
ARC
  8
105
  6
HIDDEN
 62
1
 10
8.6291844E+001
 20
1.978233E+002
 40
5.0000303E-001
 50
2.6900015E+002
 51
3.5899947E+002
  0
ARC
  8
105
  6
HIDDEN
 62
1
 10
8.6291848E+001
 20
1.978233E+002
 40
5.0000104E-001
 50
1.7899989E+002
 51
2.6899966E+002
  0
LINE
  8
105
  6
HIDDEN
 62
1
 10
8.5791923E+001
 20
1.9783202E+002
 11
8.5805012E+001
 21
1.985819E+002
  0
ARC
  8
105
  6
HIDDEN
 62
1
 10
8.5605042E+001
 20
1.9858539E+002
 40
1.9999954E-001
 50
3.5899957E+002
 51
4.4899926E+002
  0
LINE
  8
105
  6
HIDDEN
 62
1
 10
8.5608536E+001
 20
1.9878536E+002
 11
8.3908794E+001
 21
1.9881504E+002
  0
LINE
  8
105
  6
HIDDEN
 62
1
 10
8.3908794E+001
 20
1.9881504E+002
 11
8.3552337E+001
 21
1.9940815E+002
  0
ARC
  8
105
  6
HIDDEN
 62
1
 10
8.3380914E+001
 20
1.9930513E+002
 40
1.9999663E-001
 50
3.100402E+001
 51
1.3399985E+002
  0
LINE
  8
105
  6
HIDDEN
 62
1
 10
8.3241985E+001
 20
1.99449E+002
 11
8.1789795E+001
 21
1.9774505E+002
  0
LINE
  8
105
  6
HIDDEN
 62
1
 10
8.1789795E+001
 20
1.9774505E+002
 11
8.1754188E+001
 21
1.9570539E+002
  0
ARC
  8
105
  6
HIDDEN
 62
1
 10
8.2754036E+001
 20
1.9568794E+002
 40
9.9999994E-001
 50
1.7900008E+002
 51
2.839999E+002
  0
LINE
  8
105
  6
HIDDEN
 62
1
 10
8.2995956E+001
 20
1.9471764E+002
 11
8.8910827E+001
 21
1.9619237E+002
  0
LINE
  8
106
  6
CENTERLINE
 62
1
 10
2.4744533E+001
 20
1.8581647E+002
 11
1.1458192E+002
 21
1.858251E+002
  0
LINE
  8
105
  6
HIDDEN
 62
1
 10
8.6826622E+001
 20
1.998111E+002
 11
8.5831917E+001
 21
1.988164E+002
  0
LINE
  8
105
  6
HIDDEN
 62
1
 10
8.5831917E+001
 20
1.988164E+002
 11
8.3762108E+001
 21
1.988164E+002
  0
LINE
  8
105
  6
HIDDEN
 62
1
 10
8.3762108E+001
 20
1.988164E+002
 11
8.4050117E+001
 21
2.153164E+002
  0
LINE
  8
105
  6
HIDDEN
 62
1
 10
8.4050117E+001
 20
2.153164E+002
 11
8.7102485E+001
 21
2.153164E+002
  0
LINE
  8
105
  6
HIDDEN
 62
1
 10
8.7102485E+001
 20
2.153164E+002
 11
8.6826622E+001
 21
1.998111E+002
  0
LINE
  8
105
  6
HIDDEN
 62
1
 10
1.0514353E+002
 20
1.638164E+002
 11
8.7728962E+001
 21
1.638164E+002
  0
ARC
  8
105
  6
HIDDEN
 62
1
 10
8.7728961E+001
 20
1.653164E+002
 40
1.5000006
 50
1.7903771E+002
 51
2.7000004E+002
  0
LINE
  8
105
  6
HIDDEN
 62
1
 10
8.6229172E+001
 20
1.6534159E+002
 11
8.6338024E+001
 21
1.7182154E+002
  0
LINE
  8
105
  6
HIDDEN
 62
1
 10
8.6338024E+001
 20
1.7182154E+002
 11
8.5343177E+001
 21
1.728164E+002
  0
LINE
  8
105
  6
HIDDEN
 62
1
 10
8.5343177E+001
 20
1.728164E+002
 11
8.3308277E+001
 21
1.728164E+002
  0
LINE
  8
105
  6
HIDDEN
 62
1
 10
8.3308277E+001
 20
1.728164E+002
 11
8.317691E+001
 21
1.652903E+002
  0
ARC
  8
105
  6
HIDDEN
 62
1
 10
8.1677145E+001
 20
1.6531648E+002
 40
1.4999941
 50
2.6999979E+002
 51
3.5900002E+002
  0
LINE
  8
105
  6
HIDDEN
 62
1
 10
8.1677139E+001
 20
1.6381649E+002
 11
3.1135601E+001
 21
1.638164E+002
  0
ARC
  8
105
  6
HIDDEN
 62
1
 10
3.1135603E+001
 20
1.653164E+002
 40
1.5000036
 50
1.8059873E+002
 51
2.6999993E+002
  0
LINE
  8
105
  6
HIDDEN
 62
1
 10
2.9635681E+001
 20
1.6530073E+002
 11
2.9107611E+001
 21
2.158251E+002
  0
LINE
  8
106
  6
CENTERLINE
 62
1
 10
6.7051174E+001
 20
1.9078638E+002
 11
6.7051174E+001
 21
2.1833807E+002
  0
LINE
  8
106
  6
CENTERLINE
 62
1
 10
4.5051159E+001
 20
1.9309916E+002
 11
4.5051159E+001
 21
2.3109473E+002
  0
LINE
  8
106
  6
CENTERLINE
 62
1
 10
5.6051174E+001
 20
1.5487846E+002
 11
5.6051174E+001
 21
2.1976029E+002
  0
ARC
  8
104
  6
CONTINUOUS
 62
40
 10
2.9467905E+001
 20
1.6331638E+002
 40
2.4999826
 50
1.8099981E+002
 51
2.7000073E+002
  0
LINE
  8
104
  6
CONTINUOUS
 62
40
 10
2.9467937E+001
 20
1.608164E+002
 11
1.0263441E+002
 21
1.608164E+002
  0
ARC
  8
104
  6
CONTINUOUS
 62
40
 10
1.0263441E+002
 20
1.6331641E+002
 40
2.5000091
 50
2.6999987E+002
 51
3.5899993E+002
  0
LINE
  8
104
  6
CONTINUOUS
 62
40
 10
1.0513404E+002
 20
1.6327277E+002
 11
1.0605119E+002
 21
2.158164E+002
  0
LINE
  8
104
  6
CONTINUOUS
 62
40
 10
1.0605119E+002
 20
2.158164E+002
 11
2.6051159E+001
 21
2.158164E+002
  0
LINE
  8
104
  6
CONTINUOUS
 62
40
 10
2.6051159E+001
 20
2.158164E+002
 11
2.6968303E+001
 21
1.6327276E+002
  0
LINE
  8
99
  6
CONTINUOUS
 62
1
 10
2.6193248E+001
 20
2.0767513E+002
 11
2.655888E+001
 21
1.8672907E+002
  0
LINE
  8
105
  6
HIDDEN
 62
1
 10
1.0586982E+002
 20
2.0572594E+002
 11
9.6507538E+001
 21
2.0556252E+002
  0
ARC
  8
105
  6
HIDDEN
 62
1
 10
9.6551177E+001
 20
2.030629E+002
 40
2.5000066
 50
9.1000183E+001
 51
1.7999982E+002
  0
LINE
  8
105
  6
HIDDEN
 62
1
 10
9.405117E+001
 20
2.030629E+002
 11
9.4051166E+001
 21
1.6856988E+002
  0
ARC
  8
105
  6
HIDDEN
 62
1
 10
9.6551162E+001
 20
1.6856987E+002
 40
2.4999956
 50
1.7999991E+002
 51
2.6900007E+002
  0
LINE
  8
105
  6
HIDDEN
 62
1
 10
9.6507534E+001
 20
1.6607026E+002
 11
1.0517499E+002
 21
1.6591897E+002
  0
LINE
  8
99
  6
CONTINUOUS
 62
1
 10
1.1105117E+002
 20
1.6958948E+002
 11
1.1105117E+002
 21
1.9636205E+002
  0
LINE
  8
99
  6
CONTINUOUS
 62
1
 10
1.1105117E+002
 20
2.020433E+002
 11
1.1105117E+002
 21
1.9636205E+002
  0
LINE
  8
99
  6
CONTINUOUS
 62
1
 10
1.1105117E+002
 20
1.699204E+002
 11
1.1105117E+002
 21
1.6958948E+002
  0
LINE
  8
104
  6
CONTINUOUS
 62
40
 10
1.1105117E+002
 20
2.020433E+002
 11
1.1105135E+002
 21
2.058164E+002
  0
LINE
  8
104
  6
CONTINUOUS
 62
40
 10
1.1105135E+002
 20
2.058164E+002
 11
1.0586982E+002
 21
2.0572594E+002
  0
LINE
  8
104
  6
CONTINUOUS
 62
40
 10
1.0517499E+002
 20
1.6591897E+002
 11
1.1105117E+002
 21
1.658164E+002
  0
LINE
  8
104
  6
CONTINUOUS
 62
40
 10
1.1105117E+002
 20
1.658164E+002
 11
1.1105117E+002
 21
1.6958948E+002
  0
LINE
  8
105
  6
HIDDEN
 62
1
 10
4.8551143E+001
 20
1.933164E+002
 11
4.8551151E+001
 21
1.783164E+002
  0
LINE
  8
105
  6
HIDDEN
 62
1
 10
9.405117E+001
 20
1.783164E+002
 11
4.8551151E+001
 21
1.783164E+002
  0
LINE
  8
105
  6
HIDDEN
 62
1
 10
4.8551151E+001
 20
1.783164E+002
 11
4.5551143E+001
 21
1.813164E+002
  0
LINE
  8
105
  6
HIDDEN
 62
1
 10
4.5551143E+001
 20
1.813164E+002
 11
4.5551151E+001
 21
1.903164E+002
  0
LINE
  8
105
  6
HIDDEN
 62
1
 10
4.5551151E+001
 20
1.903164E+002
 11
4.8551143E+001
 21
1.933164E+002
  0
LINE
  8
105
  6
HIDDEN
 62
1
 10
4.8551143E+001
 20
1.933164E+002
 11
9.405117E+001
 21
1.933164E+002
  0
ARC
  8
105
  6
HIDDEN
 62
1
 10
7.7051133E+001
 20
1.828164E+002
 40
9.9999904E-001
 50
2.6999994E+002
 51
3.6000006E+002
  0
LINE
  8
105
  6
HIDDEN
 62
1
 10
7.8051132E+001
 20
1.828164E+002
 11
7.8051132E+001
 21
1.888164E+002
  0
ARC
  8
105
  6
HIDDEN
 62
1
 10
7.7051138E+001
 20
1.888164E+002
 40
9.9999432E-001
 50
3.5999967E+002
 51
4.5000033E+002
  0
LINE
  8
105
  6
HIDDEN
 62
1
 10
7.7051132E+001
 20
1.898164E+002
 11
6.4051136E+001
 21
1.898164E+002
  0
ARC
  8
105
  6
HIDDEN
 62
1
 10
6.405113E+001
 20
1.888164E+002
 40
9.9999375E-001
 50
8.9999642E+001
 51
1.8000036E+002
  0
LINE
  8
105
  6
HIDDEN
 62
1
 10
6.3051136E+001
 20
1.888164E+002
 11
6.3051136E+001
 21
1.828164E+002
  0
ARC
  8
105
  6
HIDDEN
 62
1
 10
6.4051134E+001
 20
1.828164E+002
 40
9.9999847E-001
 50
1.7999991E+002
 51
2.7000009E+002
  0
LINE
  8
105
  6
HIDDEN
 62
1
 10
6.4051136E+001
 20
1.818164E+002
 11
7.7051132E+001
 21
1.818164E+002
  0
LINE
  8
98
  6
CONTINUOUS
 62
1
 10
5.0
 20
5.0
 11
4.15E+002
 21
5.0
  0
LINE
  8
98
  6
CONTINUOUS
 62
1
 10
4.15E+002
 20
5.0
 11
4.15E+002
 21
2.92E+002
  0
LINE
  8
98
  6
CONTINUOUS
 62
1
 10
4.15E+002
 20
2.92E+002
 11
5.0
 21
2.92E+002
  0
LINE
  8
98
  6
CONTINUOUS
 62
1
 10
5.0
 20
2.92E+002
 11
5.0
 21
5.0
  0
LINE
  8
99
  6
CONTINUOUS
 62
1
 10
1.3990398E+002
 20
1.6798031E+001
 11
1.4022899E+002
 21
1.7123028E+001
  0
LINE
  8
99
  6
CONTINUOUS
 62
1
 10
1.4022899E+002
 20
1.7123028E+001
 11
1.4022899E+002
 21
1.7623028E+001
  0
LINE
  8
99
  6
CONTINUOUS
 62
1
 10
1.4022899E+002
 20
1.7623028E+001
 11
1.4012898E+002
 21
1.7623028E+001
  0
LINE
  8
99
  6
CONTINUOUS
 62
1
 10
1.4012898E+002
 20
1.7623028E+001
 11
1.4012898E+002
 21
1.7854077E+001
  0
ARC
  8
99
  6
CONTINUOUS
 62
1
 10
1.4002894E+002
 20
1.9623108E+001
 40
2.4992046E-001
 50
8.9991001E+001
 51
1.2997875E+002
  0
LINE
  8
99
  6
CONTINUOUS
 62
1
 10
1.4002898E+002
 20
1.9873028E+001
 11
1.4095399E+002
 21
1.9873028E+001
  0
LINE
  8
99
  6
CONTINUOUS
 62
1
 10
1.4095399E+002
 20
1.9873028E+001
 11
1.4095399E+002
 21
2.1873021E+001
  0
LINE
  8
99
  6
CONTINUOUS
 62
1
 10
1.4095399E+002
 20
2.1873021E+001
 11
1.3850615E+002
 21
2.1873021E+001
  0
LINE
  8
99
  6
CONTINUOUS
 62
1
 10
1.3850615E+002
 20
2.1873021E+001
 11
1.3770399E+002
 21
2.1873021E+001
  0
LINE
  8
99
  6
CONTINUOUS
 62
1
 10
1.3770399E+002
 20
2.1873021E+001
 11
1.3445399E+002
 21
2.1873021E+001
  0
LINE
  8
99
  6
CONTINUOUS
 62
1
 10
1.3445399E+002
 20
2.1873021E+001
 11
1.3445399E+002
 21
1.9873028E+001
  0
LINE
  8
99
  6
CONTINUOUS
 62
1
 10
1.3445399E+002
 20
1.9873028E+001
 11
1.3570399E+002
 21
1.9873028E+001
  0
LINE
  8
99
  6
CONTINUOUS
 62
1
 10
1.3570399E+002
 20
1.9873028E+001
 11
1.3570399E+002
 21
1.9741925E+001
  0
LINE
  8
99
  6
CONTINUOUS
 62
1
 10
1.3570399E+002
 20
1.7776837E+001
 11
1.3570396E+002
 21
1.6798016E+001
  0
LINE
  8
99
  6
CONTINUOUS
 62
1
 10
1.4002898E+002
 20
1.9873028E+001
 11
1.3770399E+002
 21
1.9873028E+001
  0
LINE
  8
99
  6
CONTINUOUS
 62
1
 10
1.4012898E+002
 20
1.7623028E+001
 11
1.3770399E+002
 21
1.7623028E+001
  0
LINE
  8
99
  6
CONTINUOUS
 62
1
 10
1.4022899E+002
 20
1.7123028E+001
 11
1.3770399E+002
 21
1.7123028E+001
  0
LINE
  8
99
  6
CONTINUOUS
 62
1
 10
1.3990398E+002
 20
1.6798031E+001
 11
1.3770399E+002
 21
1.6798031E+001
  0
LINE
  8
99
  6
CONTINUOUS
 62
1
 10
1.3770399E+002
 20
1.9873028E+001
 11
1.3570399E+002
 21
1.9873028E+001
  0
LINE
  8
99
  6
CONTINUOUS
 62
1
 10
1.3770399E+002
 20
1.7623028E+001
 11
1.3570399E+002
 21
1.7623028E+001
  0
LINE
  8
99
  6
CONTINUOUS
 62
1
 10
1.3770399E+002
 20
1.7123028E+001
 11
1.3570399E+002
 21
1.7123028E+001
  0
LINE
  8
99
  6
CONTINUOUS
 62
1
 10
1.3770399E+002
 20
1.6798031E+001
 11
1.3570399E+002
 21
1.6798031E+001
  0
ARC
  8
104
  6
CONTINUOUS
 62
40
 10
1.2902895E+002
 20
1.9407148E+001
 40
2.4983126E-001
 50
8.9994236E+001
 51
1.2012885E+002
  0
LINE
  8
104
  6
CONTINUOUS
 62
40
 10
1.2902898E+002
 20
1.9656979E+001
 11
1.2995396E+002
 21
1.9656979E+001
  0
LINE
  8
104
  6
CONTINUOUS
 62
40
 10
1.2995396E+002
 20
1.9656979E+001
 11
1.2995396E+002
 21
2.1656994E+001
  0
LINE
  8
104
  6
CONTINUOUS
 62
40
 10
1.2995396E+002
 20
2.1656994E+001
 11
1.2750612E+002
 21
2.1656964E+001
  0
LINE
  8
104
  6
CONTINUOUS
 62
40
 10
1.2750612E+002
 20
2.1656964E+001
 11
1.2670396E+002
 21
2.1656964E+001
  0
LINE
  8
104
  6
CONTINUOUS
 62
40
 10
1.2670396E+002
 20
2.1656964E+001
 11
1.2345396E+002
 21
2.1656949E+001
  0
LINE
  8
104
  6
CONTINUOUS
 62
40
 10
1.2345396E+002
 20
2.1656949E+001
 11
1.2345396E+002
 21
1.9656949E+001
  0
LINE
  8
104
  6
CONTINUOUS
 62
40
 10
1.2345396E+002
 20
1.9656949E+001
 11
1.2470399E+002
 21
1.9656949E+001
  0
LINE
  8
104
  6
CONTINUOUS
 62
40
 10
1.2470399E+002
 20
1.9656949E+001
 11
1.2470399E+002
 21
1.9549923E+001
  0
LINE
  8
104
  6
CONTINUOUS
 62
40
 10
1.2470399E+002
 20
1.7584836E+001
 11
1.2470402E+002
 21
1.4656949E+001
  0
LINE
  8
104
  6
CONTINUOUS
 62
40
 10
1.2470402E+002
 20
1.4656949E+001
 11
1.2670402E+002
 21
1.4656964E+001
  0
LINE
  8
104
  6
CONTINUOUS
 62
40
 10
1.2670402E+002
 20
1.4656964E+001
 11
1.2820402E+002
 21
1.4656979E+001
  0
LINE
  8
104
  6
CONTINUOUS
 62
40
 10
1.2820402E+002
 20
1.4656979E+001
 11
1.2865401E+002
 21
1.4656979E+001
  0
LINE
  8
104
  6
CONTINUOUS
 62
40
 10
1.2865401E+002
 20
1.4656979E+001
 11
1.2890401E+002
 21
1.4906979E+001
  0
LINE
  8
104
  6
CONTINUOUS
 62
40
 10
1.2890401E+002
 20
1.4906979E+001
 11
1.2890401E+002
 21
1.6581982E+001
  0
LINE
  8
104
  6
CONTINUOUS
 62
40
 10
1.2890401E+002
 20
1.6581982E+001
 11
1.2922899E+002
 21
1.6906979E+001
  0
LINE
  8
104
  6
CONTINUOUS
 62
40
 10
1.2922899E+002
 20
1.6906979E+001
 11
1.2922899E+002
 21
1.7406979E+001
  0
LINE
  8
104
  6
CONTINUOUS
 62
40
 10
1.2922899E+002
 20
1.7406979E+001
 11
1.2912898E+002
 21
1.7406979E+001
  0
LINE
  8
104
  6
CONTINUOUS
 62
40
 10
1.2912898E+002
 20
1.7406979E+001
 11
1.2912898E+002
 21
1.7662076E+001
  0
LINE
  8
99
  6
CONTINUOUS
 62
1
 10
1.2902898E+002
 20
1.9656979E+001
 11
1.2670396E+002
 21
1.9656964E+001
  0
LINE
  8
99
  6
CONTINUOUS
 62
1
 10
1.2912898E+002
 20
1.7406979E+001
 11
1.2670399E+002
 21
1.7406964E+001
  0
LINE
  8
99
  6
CONTINUOUS
 62
1
 10
1.2922899E+002
 20
1.6906979E+001
 11
1.2670399E+002
 21
1.6906964E+001
  0
LINE
  8
99
  6
CONTINUOUS
 62
1
 10
1.2890401E+002
 20
1.6581982E+001
 11
1.2670399E+002
 21
1.6581967E+001
  0
LINE
  8
99
  6
CONTINUOUS
 62
1
 10
1.2890401E+002
 20
1.4906979E+001
 11
1.2670402E+002
 21
1.4906964E+001
  0
LINE
  8
99
  6
CONTINUOUS
 62
1
 10
1.2670396E+002
 20
1.9656964E+001
 11
1.2470399E+002
 21
1.9656949E+001
  0
LINE
  8
99
  6
CONTINUOUS
 62
1
 10
1.2670399E+002
 20
1.7406964E+001
 11
1.2470399E+002
 21
1.7406949E+001
  0
LINE
  8
99
  6
CONTINUOUS
 62
1
 10
1.2670399E+002
 20
1.6906964E+001
 11
1.2470399E+002
 21
1.6906949E+001
  0
LINE
  8
99
  6
CONTINUOUS
 62
1
 10
1.2670399E+002
 20
1.6581967E+001
 11
1.2470399E+002
 21
1.6581952E+001
  0
LINE
  8
99
  6
CONTINUOUS
 62
1
 10
1.2670402E+002
 20
1.4906964E+001
 11
1.2470402E+002
 21
1.4906949E+001
  0
LINE
  8
106
  6
CENTERLINE
 62
1
 10
1.2670396E+002
 20
2.2120625E+001
 11
1.2670399E+002
 21
1.4192898E+001
  0
LINE
  8
104
  6
CONTINUOUS
 62
40
 10
1.0670399E+002
 20
2.3056622E+001
 11
1.1045937E+002
 21
1.9301297E+001
  0
LINE
  8
106
  6
CENTERLINE
 62
1
 10
1.2670399E+002
 20
2.0306286E+001
 11
1.2670399E+002
 21
1.9584836E+001
  0
LINE
  8
106
  6
CENTERLINE
 62
1
 10
1.2670399E+002
 20
1.7619748E+001
 11
1.2670399E+002
 21
1.7235745E+001
  0
LINE
  8
105
  6
HIDDEN
 62
1
 10
1.0470399E+002
 20
2.723573E+001
 11
1.0670399E+002
 21
2.723573E+001
  0
LINE
  8
106
  6
CENTERLINE
 62
1
 10
1.033575E+002
 20
2.273573E+001
 11
1.0778172E+002
 21
2.273573E+001
  0
LINE
  8
106
  6
CENTERLINE
 62
1
 10
1.033575E+002
 20
2.573573E+001
 11
1.0778172E+002
 21
2.573573E+001
  0
LINE
  8
106
  6
CENTERLINE
 62
1
 10
1.033575E+002
 20
2.923573E+001
 11
1.0778172E+002
 21
2.923573E+001
  0
LINE
  8
106
  6
CENTERLINE
 62
1
 10
1.033575E+002
 20
3.223573E+001
 11
1.0778172E+002
 21
3.223573E+001
  0
LINE
  8
106
  6
CENTERLINE
 62
1
 10
1.033575E+002
 20
3.573573E+001
 11
1.0778172E+002
 21
3.573573E+001
  0
LINE
  8
104
  6
CONTINUOUS
 62
40
 10
1.0470399E+002
 20
4.2235714E+001
 11
1.0470399E+002
 21
2.0288556E+001
  0
ARC
  8
104
  6
CONTINUOUS
 62
40
 10
1.0770401E+002
 20
2.0288572E+001
 40
3.0000151
 50
1.8000031E+002
 51
2.7099991E+002
  0
LINE
  8
104
  6
CONTINUOUS
 62
40
 10
1.0775636E+002
 20
1.7289013E+001
 11
1.4220399E+002
 21
1.7890301E+001
  0
LINE
  8
104
  6
CONTINUOUS
 62
40
 10
1.4220399E+002
 20
1.7890301E+001
 11
1.4220399E+002
 21
1.9855389E+001
  0
LINE
  8
104
  6
CONTINUOUS
 62
40
 10
1.4220399E+002
 20
1.9855389E+001
 11
1.0772148E+002
 21
1.9253491E+001
  0
ARC
  8
104
  6
CONTINUOUS
 62
40
 10
1.0770403E+002
 20
2.0253345E+001
 40
1.000006
 50
1.8000036E+002
 51
2.7099986E+002
  0
LINE
  8
104
  6
CONTINUOUS
 62
40
 10
1.0670402E+002
 20
2.0253338E+001
 11
1.0670399E+002
 21
4.2235714E+001
  0
LINE
  8
104
  6
CONTINUOUS
 62
40
 10
1.0670399E+002
 20
4.2235714E+001
 11
1.0470399E+002
 21
4.2235714E+001
  0
LINE
  8
106
  6
CENTERLINE
 62
1
 10
1.033575E+002
 20
3.873573E+001
 11
1.0778172E+002
 21
3.873573E+001
  0
POINT
  8
MED-11
  6
CONTINUOUS
 62
150
 10
1.3990398E+002
 20
1.6798031E+001
  0
TEXT
  8
103
  6
CONTINUOUS
 62
150
 10
8.2534011E+001
 20
5.7148941E+001
 40
3.5
  1
Befestigungsblech
 41
6.6176473E-001
 72
1
 11
6.284651E+001
 21
5.5398941E+001
 73
2
  0
ENDSEC
  0
EOF
