  0
SECTION
  2
HEADER
  9
$ACADVER
  1
AC1009
999
I-DEAS 8 Not Encoded
  9
$EXTMIN
 10
0.0
 20
0.0
  9
$EXTMAX
 10
5.94E+002
 20
4.2E+002
  9
$TEXTSIZE
 40
1.25E-001
  9
$LTSCALE
 40
1.0
  9
$CLAYER
  8
2D_SICHTBARE_KANTEN
  9
$CECOLOR
 62
40
  9
$DIMASZ
 40
1.25E-001
  9
$DIMEXO
 40
6.25E-002
  9
$DIMDLI
 40
2.5E-001
  9
$DIMEXE
 40
1.25E-001
  9
$DIMTP
 40
5.0E-003
  9
$DIMTM
 40
-5.0E-003
  9
$DIMTXT
 40
3.0
  9
$DIMLIM
 70
0
  9
$DIMTIH
 70
1
  9
$DIMTOH
 70
1
  9
$DIMSE1
 70
0
  9
$DIMSE2
 70
0
  9
$DIMTAD
 70
0
  9
$DIMASO
 70
1
  9
$DIMALT
 70
0
  9
$DIMALTD
 70
0
  9
$DIMTOFL
 70
1
  9
$DIMTIX
 70
0
  9
$DIMSAH
 70
0
  9
$DIMTFAC
 40
1.0
  9
$DIMGAP
 40
6.25E-002
  9
$LUNITS
 70
2
  9
$LUPREC
 70
3
  9
$FILLETRAD
 40
2.0
  9
$AUNITS
 70
0
  9
$AUPREC
 70
1
  9
$CHAMFERA
 40
1.0E+001
  9
$CHAMFERB
 40
1.0E+001
  9
$ANGBASE
 50
0.0
  9
$ANGDIR
 70
0
  9
$PDMODE
 70
2
  9
$PDSIZE
 40
-1.0E-002
  9
$SPLINETYPE
 70
6
  0
ENDSEC
  0
SECTION
  2
TABLES
  0
TABLE
  2
LTYPE
 70
7
  0
LTYPE
  2
HIDDENNEW00
  3
_ 
 70
64
 72
65
 73
3
 40
4.5
 49
1.5
 49
-1.5
 49
1.5
  0
LTYPE
  2
HIDDENNEW01
  3
_ 
 70
64
 72
65
 73
3
 40
4.5
 49
1.5
 49
-1.5
 49
1.5
  0
LTYPE
  2
HIDDEN
  3
_ 
 70
64
 72
65
 73
3
 40
4.5
 49
1.5
 49
-1.5
 49
1.5
  0
LTYPE
  2
CENTERLINE
  3
_ 
 70
64
 72
65
 73
5
 40
3.0E+001
 49
1.2E+001
 49
-1.5
 49
3.0
 49
-1.5
 49
1.2E+001
  0
LTYPE
  2
PHANTOM
  3
_ 
 70
64
 72
65
 73
7
 40
2.95E+001
 49
9.5
 49
-1.5
 49
3.0
 49
-1.5
 49
3.0
 49
-1.5
 49
9.5
  0
LTYPE
  2
SHORT_DASH
  3
_ 
 70
64
 72
65
 73
3
 40
3.0
 49
7.5E-001
 49
-1.5
 49
7.5E-001
  0
LTYPE
  2
LONG_DASH
  3
_ 
 70
64
 72
65
 73
3
 40
9.0
 49
2.25
 49
-4.5
 49
2.25
  0
ENDTAB
  0
TABLE
  2
LAYER
 70
258
  0
LAYER
  2
1
 70
0
 62
7
  6
CONTINUOUS
  0
LAYER
  2
2
 70
0
 62
7
  6
CONTINUOUS
  0
LAYER
  2
3
 70
0
 62
7
  6
CONTINUOUS
  0
LAYER
  2
4
 70
0
 62
7
  6
CONTINUOUS
  0
LAYER
  2
5
 70
0
 62
7
  6
CONTINUOUS
  0
LAYER
  2
6
 70
0
 62
7
  6
CONTINUOUS
  0
LAYER
  2
7
 70
0
 62
7
  6
CONTINUOUS
  0
LAYER
  2
8
 70
0
 62
7
  6
CONTINUOUS
  0
LAYER
  2
9
 70
0
 62
7
  6
CONTINUOUS
  0
LAYER
  2
10
 70
0
 62
7
  6
CONTINUOUS
  0
LAYER
  2
11
 70
0
 62
7
  6
CONTINUOUS
  0
LAYER
  2
12
 70
0
 62
7
  6
CONTINUOUS
  0
LAYER
  2
13
 70
0
 62
7
  6
CONTINUOUS
  0
LAYER
  2
14
 70
0
 62
7
  6
CONTINUOUS
  0
LAYER
  2
15
 70
0
 62
7
  6
CONTINUOUS
  0
LAYER
  2
16
 70
0
 62
7
  6
CONTINUOUS
  0
LAYER
  2
17
 70
0
 62
7
  6
CONTINUOUS
  0
LAYER
  2
18
 70
0
 62
7
  6
CONTINUOUS
  0
LAYER
  2
19
 70
0
 62
7
  6
CONTINUOUS
  0
LAYER
  2
20
 70
0
 62
7
  6
CONTINUOUS
  0
LAYER
  2
21
 70
0
 62
7
  6
CONTINUOUS
  0
LAYER
  2
22
 70
0
 62
7
  6
CONTINUOUS
  0
LAYER
  2
23
 70
0
 62
7
  6
CONTINUOUS
  0
LAYER
  2
24
 70
0
 62
7
  6
CONTINUOUS
  0
LAYER
  2
25
 70
0
 62
7
  6
CONTINUOUS
  0
LAYER
  2
26
 70
0
 62
7
  6
CONTINUOUS
  0
LAYER
  2
27
 70
0
 62
7
  6
CONTINUOUS
  0
LAYER
  2
28
 70
0
 62
7
  6
CONTINUOUS
  0
LAYER
  2
29
 70
0
 62
7
  6
CONTINUOUS
  0
LAYER
  2
30
 70
0
 62
7
  6
CONTINUOUS
  0
LAYER
  2
31
 70
0
 62
7
  6
CONTINUOUS
  0
LAYER
  2
32
 70
0
 62
7
  6
CONTINUOUS
  0
LAYER
  2
33
 70
0
 62
7
  6
CONTINUOUS
  0
LAYER
  2
34
 70
0
 62
7
  6
CONTINUOUS
  0
LAYER
  2
35
 70
0
 62
7
  6
CONTINUOUS
  0
LAYER
  2
36
 70
0
 62
7
  6
CONTINUOUS
  0
LAYER
  2
37
 70
0
 62
7
  6
CONTINUOUS
  0
LAYER
  2
38
 70
0
 62
7
  6
CONTINUOUS
  0
LAYER
  2
39
 70
0
 62
7
  6
CONTINUOUS
  0
LAYER
  2
40
 70
0
 62
7
  6
CONTINUOUS
  0
LAYER
  2
41
 70
0
 62
7
  6
CONTINUOUS
  0
LAYER
  2
42
 70
0
 62
7
  6
CONTINUOUS
  0
LAYER
  2
43
 70
0
 62
7
  6
CONTINUOUS
  0
LAYER
  2
44
 70
0
 62
7
  6
CONTINUOUS
  0
LAYER
  2
45
 70
0
 62
7
  6
CONTINUOUS
  0
LAYER
  2
46
 70
0
 62
7
  6
CONTINUOUS
  0
LAYER
  2
47
 70
0
 62
7
  6
CONTINUOUS
  0
LAYER
  2
48
 70
0
 62
7
  6
CONTINUOUS
  0
LAYER
  2
49
 70
0
 62
7
  6
CONTINUOUS
  0
LAYER
  2
50
 70
0
 62
7
  6
CONTINUOUS
  0
LAYER
  2
51
 70
0
 62
7
  6
CONTINUOUS
  0
LAYER
  2
52
 70
0
 62
7
  6
CONTINUOUS
  0
LAYER
  2
53
 70
0
 62
7
  6
CONTINUOUS
  0
LAYER
  2
54
 70
0
 62
7
  6
CONTINUOUS
  0
LAYER
  2
55
 70
0
 62
7
  6
CONTINUOUS
  0
LAYER
  2
56
 70
0
 62
7
  6
CONTINUOUS
  0
LAYER
  2
57
 70
0
 62
7
  6
CONTINUOUS
  0
LAYER
  2
58
 70
0
 62
7
  6
CONTINUOUS
  0
LAYER
  2
59
 70
0
 62
7
  6
CONTINUOUS
  0
LAYER
  2
60
 70
0
 62
7
  6
CONTINUOUS
  0
LAYER
  2
61
 70
0
 62
7
  6
CONTINUOUS
  0
LAYER
  2
62
 70
0
 62
7
  6
CONTINUOUS
  0
LAYER
  2
63
 70
0
 62
7
  6
CONTINUOUS
  0
LAYER
  2
64
 70
0
 62
7
  6
CONTINUOUS
  0
LAYER
  2
65
 70
0
 62
7
  6
CONTINUOUS
  0
LAYER
  2
66
 70
0
 62
7
  6
CONTINUOUS
  0
LAYER
  2
67
 70
0
 62
7
  6
CONTINUOUS
  0
LAYER
  2
68
 70
0
 62
7
  6
CONTINUOUS
  0
LAYER
  2
69
 70
0
 62
7
  6
CONTINUOUS
  0
LAYER
  2
70
 70
0
 62
7
  6
CONTINUOUS
  0
LAYER
  2
71
 70
0
 62
7
  6
CONTINUOUS
  0
LAYER
  2
72
 70
0
 62
7
  6
CONTINUOUS
  0
LAYER
  2
73
 70
0
 62
7
  6
CONTINUOUS
  0
LAYER
  2
74
 70
0
 62
7
  6
CONTINUOUS
  0
LAYER
  2
75
 70
0
 62
7
  6
CONTINUOUS
  0
LAYER
  2
76
 70
0
 62
7
  6
CONTINUOUS
  0
LAYER
  2
77
 70
0
 62
7
  6
CONTINUOUS
  0
LAYER
  2
78
 70
0
 62
7
  6
CONTINUOUS
  0
LAYER
  2
79
 70
0
 62
7
  6
CONTINUOUS
  0
LAYER
  2
80
 70
0
 62
7
  6
CONTINUOUS
  0
LAYER
  2
81
 70
0
 62
7
  6
CONTINUOUS
  0
LAYER
  2
82
 70
0
 62
7
  6
CONTINUOUS
  0
LAYER
  2
83
 70
0
 62
7
  6
CONTINUOUS
  0
LAYER
  2
84
 70
0
 62
7
  6
CONTINUOUS
  0
LAYER
  2
85
 70
0
 62
7
  6
CONTINUOUS
  0
LAYER
  2
86
 70
0
 62
7
  6
CONTINUOUS
  0
LAYER
  2
87
 70
0
 62
7
  6
CONTINUOUS
  0
LAYER
  2
88
 70
0
 62
7
  6
CONTINUOUS
  0
LAYER
  2
89
 70
0
 62
7
  6
CONTINUOUS
  0
LAYER
  2
90
 70
0
 62
7
  6
CONTINUOUS
  0
LAYER
  2
91
 70
0
 62
7
  6
CONTINUOUS
  0
LAYER
  2
92
 70
0
 62
7
  6
CONTINUOUS
  0
LAYER
  2
93
 70
0
 62
7
  6
CONTINUOUS
  0
LAYER
  2
94
 70
0
 62
7
  6
CONTINUOUS
  0
LAYER
  2
95
 70
0
 62
7
  6
CONTINUOUS
  0
LAYER
  2
96
 70
0
 62
7
  6
CONTINUOUS
  0
LAYER
  2
97
 70
0
 62
7
  6
CONTINUOUS
  0
LAYER
  2
98
 70
0
 62
7
  6
CONTINUOUS
  0
LAYER
  2
99
 70
0
 62
7
  6
CONTINUOUS
  0
LAYER
  2
2D_BEMASSUNG
 70
0
 62
1
  6
PHANTOM
  0
LAYER
  2
2D_SCHNITTVERLAUF_ETC
 70
0
 62
40
  6
CONTINUOUS
  0
LAYER
  2
102
 70
0
 62
7
  6
CONTINUOUS
  0
LAYER
  2
2D_TEXT
 70
0
 62
1
  6
CONTINUOUS
  0
LAYER
  2
2D_SICHTBARE_KANTEN
 70
0
 62
1
  6
HIDDENNEW00
  0
LAYER
  2
2D_VERDECKTE_KANTEN
 70
0
 62
1
  6
CONTINUOUS
  0
LAYER
  2
2D_MITTELLINIEN
 70
0
 62
1
  6
PHANTOM
  0
LAYER
  2
2D_REFERENZ-GEOMETRIE
 70
0
 62
1
  6
CONTINUOUS
  0
LAYER
  2
2D_SCHRAFFUR
 70
0
 62
1
  6
CONTINUOUS
  0
LAYER
  2
Drafting_Hidden_Entities
 70
1
 62
7
  6
CONTINUOUS
  0
ENDTAB
  0
TABLE
  2
STYLE
 70
1
  0
STYLE
  2
STANDARD
 70
64
 40
0.0
 41
1.0
 50
0.0
 71
0
 42
1.0
  3
monotxt.shx
  4

  0
ENDTAB
  0
TABLE
  2
VIEW
 70
0
  0
ENDTAB
  0
TABLE
  2
DIMSTYLE
 70
2
  0
DIMSTYLE
  2
DSTYLE1
 70
0
  3

  4

  5

  6

  7

 40
1.0
 41
4.0
 42
0.0
 43
3.8E-001
 44
1.5
 45
1.0E-003
 46
0.0
 47
1.0E-001
 48
1.0E-001
 71
0
 72
0
 73
0
 74
0
 75
0
 76
0
 77
1
 78
11
140
3.5
141
9.0E-002
142
0.0
143
3.9370079E-002
144
1.0
145
0.0
146
1.0
147
1.5
170
0
171
2
172
0
173
0
174
0
175
0
176
0
177
0
178
0
  0
DIMSTYLE
  2
DSTYLE2
 70
0
  3

  4

  5

  6

  7

 40
1.0
 41
4.0
 42
0.0
 43
3.8E-001
 44
1.5
 45
1.0E-003
 46
0.0
 47
1.0E-001
 48
1.0E-001
 71
0
 72
0
 73
0
 74
0
 75
0
 76
0
 77
1
 78
11
140
5.0
141
9.0E-002
142
0.0
143
3.9370079E-002
144
1.0
145
0.0
146
1.0
147
1.5
170
0
171
2
172
0
173
0
174
0
175
0
176
0
177
0
178
0
  0
ENDTAB
  0
ENDSEC
  0
SECTION
  2
BLOCKS
  0
BLOCK
  2
*AH13
  3
*AH
 10
0.0
 20
0.0
 70
65
  0
LINE
  8
1
  6
CONTINUOUS
 62
0
 10
0.0
 20
0.0
 11
1.0
 21
-1.666679E-001
  0
LINE
  8
1
  6
CONTINUOUS
 62
0
 10
1.0
 20
-1.666679E-001
 11
1.0
 21
1.66668E-001
  0
LINE
  8
1
  6
CONTINUOUS
 62
0
 10
1.0
 20
1.66668E-001
 11
0.0
 21
0.0
  0
ENDBLK
  0
BLOCK
  2
*XH53
  3
*XH
 10
0.0
 20
0.0
 70
65
  0
LINE
  8
2D_SCHRAFFUR
  6
CONTINUOUS
 62
1
 10
1.3880885E+001
 20
-1.2118885E+001
 11
1.5652885E+001
 21
-1.0346885E+001
  0
LINE
  8
2D_SCHRAFFUR
  6
CONTINUOUS
 62
1
 10
1.5652885E+001
 20
-7.5188846
 11
1.1051885E+001
 21
-1.2118885E+001
  0
LINE
  8
2D_SCHRAFFUR
  6
CONTINUOUS
 62
1
 10
9.1528846
 20
-1.1189885E+001
 11
1.1223885E+001
 21
-9.1188846
  0
LINE
  8
2D_SCHRAFFUR
  6
CONTINUOUS
 62
1
 10
1.2712885E+001
 20
-7.6298846
 11
1.5652885E+001
 21
-4.6898846
  0
LINE
  8
2D_SCHRAFFUR
  6
CONTINUOUS
 62
1
 10
1.5652885E+001
 20
-1.8618846
 11
1.2712885E+001
 21
-4.8018846
  0
LINE
  8
2D_SCHRAFFUR
  6
CONTINUOUS
 62
1
 10
1.2712885E+001
 20
-1.9728846
 11
1.5652885E+001
 21
9.6711538E-001
  0
LINE
  8
2D_SCHRAFFUR
  6
CONTINUOUS
 62
1
 10
1.5652885E+001
 20
3.7951154
 11
1.2712885E+001
 21
8.5511538E-001
  0
LINE
  8
2D_SCHRAFFUR
  6
CONTINUOUS
 62
1
 10
1.2712885E+001
 20
3.6831154
 11
1.5652885E+001
 21
6.6231154
  0
LINE
  8
2D_SCHRAFFUR
  6
CONTINUOUS
 62
1
 10
1.4081885E+001
 20
7.8811154
 11
1.1081885E+001
 21
4.8811154
  0
LINE
  8
2D_SCHRAFFUR
  6
CONTINUOUS
 62
1
 10
8.2528846
 20
4.8811154
 11
1.1252885E+001
 21
7.8811154
  0
LINE
  8
2D_SCHRAFFUR
  6
CONTINUOUS
 62
1
 10
8.4248846
 20
7.8811154
 11
5.4248846
 21
4.8811154
  0
LINE
  8
2D_SCHRAFFUR
  6
CONTINUOUS
 62
1
 10
-8.8471154
 20
-9.3908846
 11
-1.1575115E+001
 21
-1.2118885E+001
  0
LINE
  8
2D_SCHRAFFUR
  6
CONTINUOUS
 62
1
 10
-1.4402115E+001
 20
-1.2117885E+001
 11
-1.1403115E+001
 21
-9.1188846
  0
LINE
  8
2D_SCHRAFFUR
  6
CONTINUOUS
 62
1
 10
2.5968846
 20
4.8811154
 11
5.5968846
 21
7.8811154
  0
LINE
  8
2D_SCHRAFFUR
  6
CONTINUOUS
 62
1
 10
2.7678846
 20
7.8811154
 11
-2.3211538E-001
 21
4.8811154
  0
LINE
  8
2D_SCHRAFFUR
  6
CONTINUOUS
 62
1
 10
-1.2407115E+001
 20
-7.2938846
 11
-1.5347115E+001
 21
-1.0233885E+001
  0
LINE
  8
2D_SCHRAFFUR
  6
CONTINUOUS
 62
1
 10
-1.5347115E+001
 20
-7.4058846
 11
-1.2407115E+001
 21
-4.4658846
  0
LINE
  8
2D_SCHRAFFUR
  6
CONTINUOUS
 62
1
 10
-3.0601154
 20
4.8811154
 11
-6.0115385E-002
 21
7.8811154
  0
LINE
  8
2D_SCHRAFFUR
  6
CONTINUOUS
 62
1
 10
-2.8891154
 20
7.8811154
 11
-5.8891154
 21
4.8811154
  0
LINE
  8
2D_SCHRAFFUR
  6
CONTINUOUS
 62
1
 10
-1.2407115E+001
 20
-1.6378846
 11
-1.5347115E+001
 21
-4.5778846
  0
LINE
  8
2D_SCHRAFFUR
  6
CONTINUOUS
 62
1
 10
-1.5347115E+001
 20
-1.7488846
 11
-1.2407115E+001
 21
1.1911154
  0
LINE
  8
2D_SCHRAFFUR
  6
CONTINUOUS
 62
1
 10
-8.7171154
 20
4.8811154
 11
-5.7171154
 21
7.8811154
  0
LINE
  8
2D_SCHRAFFUR
  6
CONTINUOUS
 62
1
 10
-8.5451154
 20
7.8811154
 11
-1.1546115E+001
 21
4.8811154
  0
LINE
  8
2D_SCHRAFFUR
  6
CONTINUOUS
 62
1
 10
-1.2407115E+001
 20
4.0191154
 11
-1.5347115E+001
 21
1.0791154
  0
LINE
  8
2D_SCHRAFFUR
  6
CONTINUOUS
 62
1
 10
-1.5347115E+001
 20
3.9081154
 11
-1.1374115E+001
 21
7.8811154
  0
LINE
  8
2D_SCHRAFFUR
  6
CONTINUOUS
 62
1
 10
-1.4202115E+001
 20
7.8811154
 11
-1.5347115E+001
 21
6.7361154
  0
ENDBLK
  0
BLOCK
  2
P
 10
0.0
 20
0.0
 70
0
  0
LINE
  8
2D_SICHTBARE_KANTEN
  6
CONTINUOUS
 62
40
 10
-1.4516591E+002
 20
-1.7039E+001
 11
-1.4516591E+002
 21
-1.5E+001
  0
LINE
  8
2D_SICHTBARE_KANTEN
  6
CONTINUOUS
 62
40
 10
-1.4516591E+002
 20
-1.5E+001
 11
-1.7116591E+002
 21
-1.5E+001
  0
LINE
  8
2D_SICHTBARE_KANTEN
  6
CONTINUOUS
 62
40
 10
1.1870918E+002
 20
-2.35E+001
 11
-1.5254882E+002
 21
-2.35E+001
  0
LINE
  8
2D_SICHTBARE_KANTEN
  6
CONTINUOUS
 62
40
 10
1.1870918E+002
 20
-3.05E+001
 11
-1.5254882E+002
 21
-3.05E+001
  0
ARC
  8
2D_SICHTBARE_KANTEN
  6
CONTINUOUS
 62
40
 10
-1.7720555E+002
 20
-2.70005E+001
 40
9.5508783E-001
 50
1.7371846E+002
 51
1.8628154E+002
  0
LINE
  8
2D_SICHTBARE_KANTEN
  6
CONTINUOUS
 62
40
 10
-1.7815491E+002
 20
-2.7105E+001
 11
-1.7720891E+002
 21
-3.6105E+001
  0
ARC
  8
2D_SICHTBARE_KANTEN
  6
CONTINUOUS
 62
40
 10
-1.7621557E+002
 20
-3.6001264E+001
 40
9.9873645E-001
 50
1.8596192E+002
 51
2.7003818E+002
  0
LINE
  8
2D_SICHTBARE_KANTEN
  6
CONTINUOUS
 62
40
 10
-1.7621491E+002
 20
-3.7E+001
 11
-1.4544091E+002
 21
-3.7E+001
  0
ARC
  8
2D_SICHTBARE_KANTEN
  6
CONTINUOUS
 62
40
 10
-1.4544095E+002
 20
-3.5999135E+001
 40
1.0008653
 50
2.7000254E+002
 51
3.5196695E+002
  0
LINE
  8
2D_SICHTBARE_KANTEN
  6
CONTINUOUS
 62
40
 10
-1.4444991E+002
 20
-3.6139E+001
 11
-1.4365794E+002
 21
-3.05E+001
  0
ARC
  8
2D_SICHTBARE_KANTEN
  6
CONTINUOUS
 62
40
 10
-1.4417008E+002
 20
-2.7E+001
 40
9.9393753E-001
 50
3.5196096E+002
 51
3.6803904E+002
  0
LINE
  8
2D_VERDECKTE_KANTEN
  6
HIDDEN
 62
1
 10
-1.4318591E+002
 20
-2.6861E+001
 11
-1.4365794E+002
 21
-2.35E+001
  0
ARC
  8
2D_SICHTBARE_KANTEN
  6
CONTINUOUS
 62
40
 10
-1.4543947E+002
 20
-1.8000198E+001
 40
9.9930377E-001
 50
8.0070437
 51
4.9028712E+001
  0
ARC
  8
2D_SICHTBARE_KANTEN
  6
CONTINUOUS
 62
40
 10
-1.4544173E+002
 20
-1.80026E+001
 40
1.0025999
 50
4.902113E+001
 51
8.9952974E+001
  0
LINE
  8
2D_SICHTBARE_KANTEN
  6
CONTINUOUS
 62
40
 10
-1.4544091E+002
 20
-1.7E+001
 11
-1.5016591E+002
 21
-1.7E+001
  0
LINE
  8
2D_SICHTBARE_KANTEN
  6
CONTINUOUS
 62
40
 10
-1.7814591E+002
 20
-2.6861E+001
 11
-1.7688191E+002
 21
-1.7861E+001
  0
ARC
  8
2D_SICHTBARE_KANTEN
  6
CONTINUOUS
 62
40
 10
-1.7589234E+002
 20
-1.8000198E+001
 40
9.9930377E-001
 50
1.3097129E+002
 51
1.7199296E+002
  0
LINE
  8
2D_SICHTBARE_KANTEN
  6
CONTINUOUS
 62
40
 10
-1.7589091E+002
 20
-1.7E+001
 11
-1.5016591E+002
 21
-1.7E+001
  0
ARC
  8
2D_SICHTBARE_KANTEN
  6
CONTINUOUS
 62
40
 10
-1.7589008E+002
 20
-1.80026E+001
 40
1.0025999
 50
9.0047026E+001
 51
1.3097887E+002
  0
LINE
  8
2D_SICHTBARE_KANTEN
  6
CONTINUOUS
 62
40
 10
-1.7616591E+002
 20
-1.7039E+001
 11
-1.7616591E+002
 21
-1.5E+001
  0
LINE
  8
2D_SICHTBARE_KANTEN
  6
CONTINUOUS
 62
40
 10
-1.7616591E+002
 20
-1.5E+001
 11
-1.7116591E+002
 21
-1.5E+001
  0
ARC
  8
2D_SICHTBARE_KANTEN
  6
CONTINUOUS
 62
40
 10
1.0570918E+002
 20
-2.7E+001
 40
1.3462912E+001
 50
3.4493151E+002
 51
3.7506849E+002
  0
ARC
  8
2D_SICHTBARE_KANTEN
  6
CONTINUOUS
 62
40
 10
-1.525487E+002
 20
-1.8500056E+001
 40
4.9999442
 50
2.2028545E+002
 51
2.6999862E+002
  0
ARC
  8
2D_SICHTBARE_KANTEN
  6
CONTINUOUS
 62
40
 10
-1.5254876E+002
 20
-3.5499967E+001
 40
4.9999673
 50
9.0000707E+001
 51
1.4587522E+002
  0
LINE
  8
2D_SICHTBARE_KANTEN
  6
CONTINUOUS
 62
40
 10
-1.4365794E+002
 20
-2.35E+001
 11
-1.4444991E+002
 21
-1.7861E+001
  0
LINE
  8
2D_VERDECKTE_KANTEN
  6
HIDDEN
 62
1
 10
-1.4365794E+002
 20
-3.05E+001
 11
-1.4318591E+002
 21
-2.7139E+001
  0
LINE
  8
2D_MITTELLINIEN
  6
CENTERLINE
 62
1
 10
-1.6082791E+002
 20
-4.4563086E+001
 11
-1.6082791E+002
 21
-5.186569
  0
LINE
  8
2D_MITTELLINIEN
  6
CENTERLINE
 62
1
 10
1.0917209E+002
 20
-2.1619821E+001
 11
1.0917209E+002
 21
-3.2899462E+001
  0
ARC
  8
2D_SICHTBARE_KANTEN
  6
CONTINUOUS
 62
40
 10
-1.6082713E+002
 20
-8.5817299E+001
 40
1.7499863E+001
 50
5.4761052E+001
 51
3.0520497E+002
  0
ARC
  8
2D_SICHTBARE_KANTEN
  6
CONTINUOUS
 62
40
 10
-1.6082713E+002
 20
-8.5817003E+001
 40
1.7499936E+001
 50
2.6999891E+002
 51
4.4999885E+002
  0
ARC
  8
2D_SICHTBARE_KANTEN
  6
CONTINUOUS
 62
40
 10
-1.4496698E+002
 20
-6.3351832E+001
 40
9.9999867
 50
2.348096E+002
 51
2.6938285E+002
  0
LINE
  8
2D_SICHTBARE_KANTEN
  6
CONTINUOUS
 62
40
 10
-1.4507469E+002
 20
-7.3351239E+001
 11
-9.9547994E+001
 21
-7.3793543E+001
  0
LINE
  8
2D_SICHTBARE_KANTEN
  6
CONTINUOUS
 62
40
 10
1.0917272E+002
 20
-7.5817241E+001
 11
-9.9547994E+001
 21
-7.3793543E+001
  0
ARC
  8
2D_SICHTBARE_KANTEN
  6
CONTINUOUS
 62
40
 10
1.0917409E+002
 20
-8.5816922E+001
 40
9.9996803
 50
3.5999983E+002
 51
4.5000783E+002
  0
ARC
  8
2D_SICHTBARE_KANTEN
  6
CONTINUOUS
 62
40
 10
1.0917346E+002
 20
-8.5816704E+001
 40
1.0000309E+001
 50
2.6999761E+002
 51
3.5999859E+002
  0
LINE
  8
2D_SICHTBARE_KANTEN
  6
CONTINUOUS
 62
40
 10
-1.4111726E+002
 20
-9.8244741E+001
 11
1.0917304E+002
 21
-9.5817014E+001
  0
LINE
  8
2D_SICHTBARE_KANTEN
  6
CONTINUOUS
 62
40
 10
-1.4506418E+002
 20
-9.8282526E+001
 11
-1.4111726E+002
 21
-9.8244741E+001
  0
ARC
  8
2D_SICHTBARE_KANTEN
  6
CONTINUOUS
 62
40
 10
-1.4496591E+002
 20
-1.082821E+002
 40
1.0000053E+001
 50
9.0563013E+001
 51
1.2525706E+002
  0
CIRCLE
  8
2D_SICHTBARE_KANTEN
  6
CONTINUOUS
 62
40
 10
-1.6082713E+002
 20
-8.5816503E+001
 40
4.5
  0
LINE
  8
2D_MITTELLINIEN
  6
CENTERLINE
 62
1
 10
-1.6082791E+002
 20
-1.0742856E+002
 11
-1.6082653E+002
 21
-6.5975478E+001
  0
LINE
  8
2D_SICHTBARE_KANTEN
  6
CONTINUOUS
 62
40
 10
-1.5711851E+002
 20
-8.3422362E+001
 11
-1.6309552E+002
 21
-8.9591833E+001
  0
LINE
  8
2D_SICHTBARE_KANTEN
  6
CONTINUOUS
 62
40
 10
-1.6453986E+002
 20
-8.8203712E+001
 11
-1.5855002E+002
 21
-8.2024026E+001
  0
LINE
  8
2D_MITTELLINIEN
  6
CENTERLINE
 62
1
 10
1.2306331E+002
 20
-8.5817127E+001
 11
-1.8388846E+002
 21
-8.5817127E+001
  0
LINE
  8
2D_MITTELLINIEN
  6
CENTERLINE
 62
1
 10
1.0917325E+002
 20
-7.2668795E+001
 11
1.0917252E+002
 21
-9.896546E+001
  0
CIRCLE
  8
2D_SICHTBARE_KANTEN
  6
CONTINUOUS
 62
40
 10
-1.6082719E+002
 20
-8.5817127E+001
 40
1.55E+001
  0
LINE
  8
2D_SICHTBARE_KANTEN
  6
CONTINUOUS
 62
40
 10
-2.1115939E+002
 20
-1.7039E+001
 11
-2.1115939E+002
 21
-1.5E+001
  0
LINE
  8
2D_SICHTBARE_KANTEN
  6
CONTINUOUS
 62
40
 10
-2.1115939E+002
 20
-1.5E+001
 11
-2.1615939E+002
 21
-1.5E+001
  0
LINE
  8
2D_SICHTBARE_KANTEN
  6
CONTINUOUS
 62
40
 10
-2.2165939E+002
 20
-2.35E+001
 11
-2.1665939E+002
 21
-2.35E+001
  0
ARC
  8
2D_SICHTBARE_KANTEN
  6
CONTINUOUS
 62
40
 10
-2.1665951E+002
 20
-1.8500056E+001
 40
4.9999442
 50
2.7000138E+002
 51
3.1971455E+002
  0
LINE
  8
2D_SICHTBARE_KANTEN
  6
CONTINUOUS
 62
40
 10
-2.2165939E+002
 20
-3.05E+001
 11
-2.1665939E+002
 21
-3.05E+001
  0
ARC
  8
2D_SICHTBARE_KANTEN
  6
CONTINUOUS
 62
40
 10
-2.1665945E+002
 20
-3.5499967E+001
 40
4.9999673
 50
3.4124784E+001
 51
8.9999293E+001
  0
ARC
  8
2D_SICHTBARE_KANTEN
  6
CONTINUOUS
 62
40
 10
-2.4319903E+002
 20
-2.70005E+001
 40
9.5508783E-001
 50
1.7371846E+002
 51
1.8628154E+002
  0
LINE
  8
2D_SICHTBARE_KANTEN
  6
CONTINUOUS
 62
40
 10
-2.4414839E+002
 20
-2.6896E+001
 11
-2.4342339E+002
 21
-2.0E+001
  0
LINE
  8
2D_SICHTBARE_KANTEN
  6
CONTINUOUS
 62
40
 10
-2.4414839E+002
 20
-2.7105E+001
 11
-2.4320239E+002
 21
-3.6105E+001
  0
ARC
  8
2D_SICHTBARE_KANTEN
  6
CONTINUOUS
 62
40
 10
-2.4220905E+002
 20
-3.6001264E+001
 40
9.9873645E-001
 50
1.8596192E+002
 51
2.7003818E+002
  0
LINE
  8
2D_SICHTBARE_KANTEN
  6
CONTINUOUS
 62
40
 10
-2.4220839E+002
 20
-3.7E+001
 11
-2.1143439E+002
 21
-3.7E+001
  0
ARC
  8
2D_SICHTBARE_KANTEN
  6
CONTINUOUS
 62
40
 10
-2.1143443E+002
 20
-3.5999135E+001
 40
1.0008653
 50
2.7000254E+002
 51
3.5196695E+002
  0
LINE
  8
2D_SICHTBARE_KANTEN
  6
CONTINUOUS
 62
40
 10
-2.1044339E+002
 20
-3.6139E+001
 11
-2.0917939E+002
 21
-2.7139E+001
  0
ARC
  8
2D_SICHTBARE_KANTEN
  6
CONTINUOUS
 62
40
 10
-2.1016356E+002
 20
-2.7E+001
 40
9.9393753E-001
 50
3.5196096E+002
 51
3.6803904E+002
  0
LINE
  8
2D_SICHTBARE_KANTEN
  6
CONTINUOUS
 62
40
 10
-2.0917939E+002
 20
-2.6861E+001
 11
-2.1044339E+002
 21
-1.7861E+001
  0
ARC
  8
2D_SICHTBARE_KANTEN
  6
CONTINUOUS
 62
40
 10
-2.1143295E+002
 20
-1.8000198E+001
 40
9.9930377E-001
 50
8.0070437
 51
4.9028712E+001
  0
ARC
  8
2D_SICHTBARE_KANTEN
  6
CONTINUOUS
 62
40
 10
-2.1143521E+002
 20
-1.80026E+001
 40
1.0025999
 50
4.902113E+001
 51
8.9952974E+001
  0
LINE
  8
2D_SICHTBARE_KANTEN
  6
CONTINUOUS
 62
40
 10
-2.1143439E+002
 20
-1.7E+001
 11
-2.1615939E+002
 21
-1.7E+001
  0
ARC
  8
2D_SICHTBARE_KANTEN
  6
CONTINUOUS
 62
40
 10
-2.2865939E+002
 20
-2.7E+001
 40
1.3462912E+001
 50
1.6493151E+002
 51
1.9506849E+002
  0
LINE
  8
2D_SICHTBARE_KANTEN
  6
CONTINUOUS
 62
40
 10
-2.4165939E+002
 20
-3.05E+001
 11
-2.2165939E+002
 21
-3.05E+001
  0
ARC
  8
2D_SICHTBARE_KANTEN
  6
CONTINUOUS
 62
40
 10
-2.3465939E+002
 20
-2.7E+001
 40
1.3462912E+001
 50
3.4493151E+002
 51
3.7506849E+002
  0
LINE
  8
2D_SICHTBARE_KANTEN
  6
CONTINUOUS
 62
40
 10
-2.2165939E+002
 20
-2.35E+001
 11
-2.4165939E+002
 21
-2.35E+001
  0
LINE
  8
2D_SICHTBARE_KANTEN
  6
CONTINUOUS
 62
40
 10
-2.3665939E+002
 20
-2.0E+001
 11
-2.3665939E+002
 21
-2.35E+001
  0
LINE
  8
2D_SICHTBARE_KANTEN
  6
CONTINUOUS
 62
40
 10
-2.3665939E+002
 20
-2.35E+001
 11
-2.2665939E+002
 21
-2.35E+001
  0
LINE
  8
2D_SICHTBARE_KANTEN
  6
CONTINUOUS
 62
40
 10
-2.2665939E+002
 20
-2.35E+001
 11
-2.2665939E+002
 21
-2.0E+001
  0
LINE
  8
2D_SICHTBARE_KANTEN
  6
CONTINUOUS
 62
40
 10
-2.3865939E+002
 20
-9.0
 11
-2.3865939E+002
 21
-7.0
  0
LINE
  8
2D_SICHTBARE_KANTEN
  6
CONTINUOUS
 62
40
 10
-2.3865939E+002
 20
-7.0
 11
-2.2465939E+002
 21
-7.0
  0
LINE
  8
2D_SICHTBARE_KANTEN
  6
CONTINUOUS
 62
40
 10
-2.2465939E+002
 20
-7.0
 11
-2.2465939E+002
 21
-9.0
  0
LINE
  8
2D_SICHTBARE_KANTEN
  6
CONTINUOUS
 62
40
 10
-2.3965939E+002
 20
-1.6E+001
 11
-2.4215939E+002
 21
-1.6E+001
  0
LINE
  8
2D_SICHTBARE_KANTEN
  6
CONTINUOUS
 62
40
 10
-2.4215939E+002
 20
-1.6E+001
 11
-2.4315939E+002
 21
-1.5E+001
  0
LINE
  8
2D_SICHTBARE_KANTEN
  6
CONTINUOUS
 62
40
 10
-2.4315939E+002
 20
-1.5E+001
 11
-2.4315939E+002
 21
-5.0
  0
LINE
  8
2D_SICHTBARE_KANTEN
  6
CONTINUOUS
 62
40
 10
-2.4315939E+002
 20
-5.0
 11
-2.4215939E+002
 21
-4.0
  0
LINE
  8
2D_SICHTBARE_KANTEN
  6
CONTINUOUS
 62
40
 10
-2.4215939E+002
 20
-4.0
 11
-2.4115939E+002
 21
-4.0
  0
LINE
  8
2D_SICHTBARE_KANTEN
  6
CONTINUOUS
 62
40
 10
-2.4115939E+002
 20
-4.0
 11
-2.4115939E+002
 21
-9.0
  0
LINE
  8
2D_SICHTBARE_KANTEN
  6
CONTINUOUS
 62
40
 10
-2.4115939E+002
 20
-9.0
 11
-2.2215939E+002
 21
-9.0
  0
LINE
  8
2D_SICHTBARE_KANTEN
  6
CONTINUOUS
 62
40
 10
-2.2215939E+002
 20
-9.0
 11
-2.2215939E+002
 21
-4.0
  0
LINE
  8
2D_SICHTBARE_KANTEN
  6
CONTINUOUS
 62
40
 10
-2.2215939E+002
 20
-4.0
 11
-2.2115939E+002
 21
-4.0
  0
LINE
  8
2D_SICHTBARE_KANTEN
  6
CONTINUOUS
 62
40
 10
-2.2115939E+002
 20
-4.0
 11
-2.2015939E+002
 21
-5.0
  0
LINE
  8
2D_SICHTBARE_KANTEN
  6
CONTINUOUS
 62
40
 10
-2.2015939E+002
 20
-5.0
 11
-2.2015939E+002
 21
-1.5E+001
  0
LINE
  8
2D_SICHTBARE_KANTEN
  6
CONTINUOUS
 62
40
 10
-2.2015939E+002
 20
-1.5E+001
 11
-2.2115939E+002
 21
-1.6E+001
  0
LINE
  8
2D_SICHTBARE_KANTEN
  6
CONTINUOUS
 62
40
 10
-2.2115939E+002
 20
-1.6E+001
 11
-2.2365939E+002
 21
-1.6E+001
  0
LINE
  8
2D_SICHTBARE_KANTEN
  6
CONTINUOUS
 62
40
 10
-2.2365939E+002
 20
-1.6E+001
 11
-2.2365939E+002
 21
-2.0E+001
  0
LINE
  8
2D_SICHTBARE_KANTEN
  6
CONTINUOUS
 62
40
 10
-2.2365939E+002
 20
-2.0E+001
 11
-2.3965939E+002
 21
-2.0E+001
  0
LINE
  8
2D_SICHTBARE_KANTEN
  6
CONTINUOUS
 62
40
 10
-2.3965939E+002
 20
-2.0E+001
 11
-2.3965939E+002
 21
-1.6E+001
  0
LINE
  8
2D_MITTELLINIEN
  6
CENTERLINE
 62
1
 10
-2.3171939E+002
 20
-3.1932E+001
 11
-2.3165939E+002
 21
-4.587
  0
ARC
  8
2D_SICHTBARE_KANTEN
  6
CONTINUOUS
 62
40
 10
-2.1715976E+002
 20
-1.0003722
 40
1.0003723
 50
2.1319473E-002
 51
8.9978681E+001
  0
LINE
  8
2D_SICHTBARE_KANTEN
  6
CONTINUOUS
 62
40
 10
-2.1615939E+002
 20
-1.0
 11
-2.1615939E+002
 21
-1.9E+001
  0
ARC
  8
2D_SICHTBARE_KANTEN
  6
CONTINUOUS
 62
40
 10
-2.171595E+002
 20
-1.8999891E+001
 40
1.0001095
 50
2.7000627E+002
 51
3.5999373E+002
  0
LINE
  8
2D_SICHTBARE_KANTEN
  6
CONTINUOUS
 62
40
 10
-2.1715939E+002
 20
-2.0E+001
 11
-2.2265939E+002
 21
-2.0E+001
  0
LINE
  8
2D_SICHTBARE_KANTEN
  6
CONTINUOUS
 62
40
 10
-2.2265939E+002
 20
-2.0E+001
 11
-2.2265939E+002
 21
-1.7E+001
  0
LINE
  8
2D_SICHTBARE_KANTEN
  6
CONTINUOUS
 62
40
 10
-2.2265939E+002
 20
-1.7E+001
 11
-2.1909939E+002
 21
-1.7E+001
  0
LINE
  8
2D_SICHTBARE_KANTEN
  6
CONTINUOUS
 62
40
 10
-2.1909939E+002
 20
-1.7E+001
 11
-2.1909939E+002
 21
-3.0
  0
LINE
  8
2D_SICHTBARE_KANTEN
  6
CONTINUOUS
 62
40
 10
-2.1909939E+002
 20
-3.0
 11
-2.4421939E+002
 21
-3.0
  0
LINE
  8
2D_SICHTBARE_KANTEN
  6
CONTINUOUS
 62
40
 10
-2.4421939E+002
 20
-3.0
 11
-2.4421939E+002
 21
-1.7E+001
  0
LINE
  8
2D_SICHTBARE_KANTEN
  6
CONTINUOUS
 62
40
 10
-2.4421939E+002
 20
-1.7E+001
 11
-2.4065939E+002
 21
-1.7E+001
  0
LINE
  8
2D_SICHTBARE_KANTEN
  6
CONTINUOUS
 62
40
 10
-2.4065939E+002
 20
-1.7E+001
 11
-2.4065939E+002
 21
-2.0E+001
  0
LINE
  8
2D_SICHTBARE_KANTEN
  6
CONTINUOUS
 62
40
 10
-2.4615939E+002
 20
0.0
 11
-2.1715939E+002
 21
0.0
  0
LINE
  8
2D_SICHTBARE_KANTEN
  6
CONTINUOUS
 62
40
 10
-2.4715939E+002
 20
-1.9E+001
 11
-2.4715939E+002
 21
-1.0
  0
ARC
  8
2D_SICHTBARE_KANTEN
  6
CONTINUOUS
 62
40
 10
-2.461591E+002
 20
-1.0002829
 40
1.0002829
 50
9.0016204E+001
 51
1.799838E+002
  0
LINE
  8
2D_SICHTBARE_KANTEN
  6
CONTINUOUS
 62
40
 10
-2.4065939E+002
 20
-2.0E+001
 11
-2.4615939E+002
 21
-2.0E+001
  0
LINE
  8
2D_MITTELLINIEN
  6
CENTERLINE
 62
1
 10
-2.2665939E+002
 20
-4.8867E+001
 11
-2.2665939E+002
 21
-2.0E+001
  0
LINE
  8
2D_SICHTBARE_KANTEN
  6
CONTINUOUS
 62
40
 10
-1.2882791E+002
 20
0.0
 11
1.7117209E+002
 21
0.0
  0
LINE
  8
2D_SICHTBARE_KANTEN
  6
CONTINUOUS
 62
40
 10
-1.2882791E+002
 20
-2.0E+001
 11
1.7117209E+002
 21
-2.0E+001
  0
LINE
  8
2D_SICHTBARE_KANTEN
  6
CONTINUOUS
 62
40
 10
-1.2882791E+002
 20
0.0
 11
-1.2882791E+002
 21
-2.0E+001
  0
LINE
  8
2D_VERDECKTE_KANTEN
  6
HIDDEN
 62
1
 10
-1.2882791E+002
 20
-3.0
 11
1.7117209E+002
 21
-3.0
  0
LINE
  8
2D_VERDECKTE_KANTEN
  6
HIDDEN
 62
1
 10
-1.2882791E+002
 20
-1.7E+001
 11
1.7117209E+002
 21
-1.7E+001
  0
LINE
  8
2D_SICHTBARE_KANTEN
  6
CONTINUOUS
 62
40
 10
1.7117209E+002
 20
0.0
 11
1.7117209E+002
 21
-2.0E+001
  0
LINE
  8
2D_SICHTBARE_KANTEN
  6
CONTINUOUS
 62
40
 10
1.8367209E+002
 20
0.0
 11
1.8367209E+002
 21
-2.0E+001
  0
LINE
  8
2D_SICHTBARE_KANTEN
  6
CONTINUOUS
 62
40
 10
1.8367209E+002
 20
0.0
 11
1.7117209E+002
 21
0.0
  0
LINE
  8
2D_SICHTBARE_KANTEN
  6
CONTINUOUS
 62
40
 10
1.8367209E+002
 20
-2.0E+001
 11
1.7117209E+002
 21
-2.0E+001
  0
LINE
  8
2D_SICHTBARE_KANTEN
  6
CONTINUOUS
 62
40
 10
-1.4132791E+002
 20
0.0
 11
-1.4132791E+002
 21
-2.0E+001
  0
LINE
  8
2D_SICHTBARE_KANTEN
  6
CONTINUOUS
 62
40
 10
-1.4132791E+002
 20
0.0
 11
-1.2882791E+002
 21
0.0
  0
LINE
  8
2D_SICHTBARE_KANTEN
  6
CONTINUOUS
 62
40
 10
-1.4132791E+002
 20
-2.0E+001
 11
-1.2882791E+002
 21
-2.0E+001
  0
DIMENSION
  8
2D_BEMASSUNG
  6
CONTINUOUS
 62
1
  2
*D186
  3
DSTYLE1
 10
-1.2882791E+002
 20
2.4938554E+001
 11
-1.4487142E+002
 21
2.8189554E+001
 70
128
 13
-1.6082791E+002
 23
-5.186569
 14
-1.2882791E+002
 24
0.0
 40
5.0
 50
0.0
  0
DIMENSION
  8
2D_BEMASSUNG
  6
CONTINUOUS
 62
1
  2
*D187
  3
DSTYLE1
 10
1.7117209E+002
 20
2.5354041E+001
 11
5.290025E+001
 21
2.8605041E+001
 70
128
 13
-1.2882791E+002
 23
0.0
 14
1.7117209E+002
 24
0.0
 40
5.0
 50
0.0
  0
LINE
  8
2D_MITTELLINIEN
  6
CENTERLINE
 62
1
 10
-1.2182791E+002
 20
0.0
 11
-1.2182791E+002
 21
-2.0E+001
  0
LINE
  8
2D_MITTELLINIEN
  6
CENTERLINE
 62
1
 10
1.6417209E+002
 20
0.0
 11
1.6417209E+002
 21
-2.0E+001
  0
LINE
  8
2D_MITTELLINIEN
  6
CENTERLINE
 62
1
 10
-1.2882791E+002
 20
-1.0E+001
 11
-1.1299999E+002
 21
-1.0E+001
  0
LINE
  8
2D_MITTELLINIEN
  6
CENTERLINE
 62
1
 10
1.559832E+002
 20
-1.0E+001
 11
1.7117209E+002
 21
-1.0E+001
  0
CIRCLE
  8
2D_SICHTBARE_KANTEN
  6
CONTINUOUS
 62
40
 10
1.6417209E+002
 20
-1.0E+001
 40
6.0
  0
CIRCLE
  8
2D_SICHTBARE_KANTEN
  6
CONTINUOUS
 62
40
 10
1.6417209E+002
 20
-1.0E+001
 40
3.0
  0
CIRCLE
  8
2D_SICHTBARE_KANTEN
  6
CONTINUOUS
 62
40
 10
-1.2182791E+002
 20
-1.0E+001
 40
3.0
  0
CIRCLE
  8
2D_SICHTBARE_KANTEN
  6
CONTINUOUS
 62
40
 10
-1.2182791E+002
 20
-1.0E+001
 40
6.0
  0
LINE
  8
2D_VERDECKTE_KANTEN
  6
HIDDEN
 62
1
 10
9.1672094E+001
 20
-4.0
 11
1.2667209E+002
 21
-4.0
  0
LINE
  8
2D_SICHTBARE_KANTEN
  6
CONTINUOUS
 62
40
 10
9.022237E+001
 20
-2.0E+001
 11
1.2522237E+002
 21
-2.0E+001
  0
LINE
  8
2D_SICHTBARE_KANTEN
  6
CONTINUOUS
 62
40
 10
-2.3965939E+002
 20
-1.6E+001
 11
-2.2676444E+002
 21
-1.6E+001
  0
LINE
  8
2D_SICHTBARE_KANTEN
  6
CONTINUOUS
 62
40
 10
-2.2676444E+002
 20
-1.6E+001
 11
-2.2365939E+002
 21
-1.6E+001
  0
LINE
  8
2D_VERDECKTE_KANTEN
  6
HIDDEN
 62
1
 10
9.1672094E+001
 20
-1.6E+001
 11
1.2667209E+002
 21
-1.6E+001
  0
LINE
  8
2D_VERDECKTE_KANTEN
  6
HIDDEN
 62
1
 10
1.2667209E+002
 20
-2.0E+001
 11
1.2667209E+002
 21
-4.0
  0
LINE
  8
2D_MITTELLINIEN
  6
CENTERLINE
 62
1
 10
1.0917209E+002
 20
-2.3404838E+001
 11
1.0917209E+002
 21
-8.91605E-001
  0
LINE
  8
2D_VERDECKTE_KANTEN
  6
HIDDEN
 62
1
 10
9.1672094E+001
 20
-2.0E+001
 11
9.1672094E+001
 21
-4.0
  0
LINE
  8
2D_VERDECKTE_KANTEN
  6
HIDDEN
 62
1
 10
9.1672094E+001
 20
-9.0
 11
1.2667209E+002
 21
-9.0
  0
LINE
  8
2D_SICHTBARE_KANTEN
  6
CONTINUOUS
 62
40
 10
1.0417209E+002
 20
-2.0E+001
 11
1.0417209E+002
 21
-2.35E+001
  0
LINE
  8
2D_SICHTBARE_KANTEN
  6
CONTINUOUS
 62
40
 10
1.1417209E+002
 20
-2.35E+001
 11
1.1417209E+002
 21
-2.0E+001
  0
CIRCLE
  8
2D_SICHTBARE_KANTEN
  6
CONTINUOUS
 62
40
 10
1.0917288E+002
 20
-8.5817127E+001
 40
3.25
  0
DIMENSION
  8
2D_BEMASSUNG
  6
CONTINUOUS
 62
1
  2
*D208
  3
DSTYLE1
 10
-1.6082791E+002
 20
-5.2815681E+001
 11
-2.4291715E+001
 21
-4.9564681E+001
 70
128
 13
1.0917209E+002
 23
-3.2899462E+001
 14
-1.6082791E+002
 24
-4.4563086E+001
 40
5.0
 50
0.0
  0
DIMENSION
  8
2D_BEMASSUNG
  6
CONTINUOUS
 62
1
  2
*D209
  3
DSTYLE1
 10
-1.2182791E+002
 20
1.1057237E+001
 11
2.3787816E+001
 21
1.4308237E+001
 70
128
 13
1.6417209E+002
 23
0.0
 14
-1.2182791E+002
 24
0.0
 40
5.0
 50
0.0
  0
LINE
  8
2D_SICHTBARE_KANTEN
  6
CONTINUOUS
 62
40
 10
1.7117209E+002
 20
4.7646993E+001
 11
1.7117209E+002
 21
7.8646993E+001
  0
LINE
  8
2D_SICHTBARE_KANTEN
  6
CONTINUOUS
 62
40
 10
-1.2882791E+002
 20
4.7646993E+001
 11
-1.2882791E+002
 21
7.8646993E+001
  0
LINE
  8
2D_SICHTBARE_KANTEN
  6
CONTINUOUS
 62
40
 10
1.7117209E+002
 20
7.8646993E+001
 11
-1.2882791E+002
 21
7.8646993E+001
  0
LINE
  8
2D_SICHTBARE_KANTEN
  6
CONTINUOUS
 62
40
 10
1.7117209E+002
 20
4.7646993E+001
 11
-1.2882791E+002
 21
4.7646993E+001
  0
LINE
  8
2D_SICHTBARE_KANTEN
  6
CONTINUOUS
 62
40
 10
1.8367209E+002
 20
6.0146993E+001
 11
1.8367209E+002
 21
7.8646993E+001
  0
LINE
  8
2D_SICHTBARE_KANTEN
  6
CONTINUOUS
 62
40
 10
-1.4132791E+002
 20
6.0146993E+001
 11
-1.4132791E+002
 21
7.8646993E+001
  0
LINE
  8
2D_SICHTBARE_KANTEN
  6
CONTINUOUS
 62
40
 10
1.7117209E+002
 20
7.8646993E+001
 11
1.8367209E+002
 21
7.8646993E+001
  0
LINE
  8
2D_SICHTBARE_KANTEN
  6
CONTINUOUS
 62
40
 10
-1.2882791E+002
 20
7.8646993E+001
 11
-1.4132791E+002
 21
7.8646993E+001
  0
ARC
  8
2D_SICHTBARE_KANTEN
  6
CONTINUOUS
 62
40
 10
1.7117209E+002
 20
6.0146993E+001
 40
1.25E+001
 50
2.7E+002
 51
3.6E+002
  0
ARC
  8
2D_SICHTBARE_KANTEN
  6
CONTINUOUS
 62
40
 10
-1.2882791E+002
 20
6.0146993E+001
 40
1.25E+001
 50
1.8E+002
 51
2.7E+002
  0
LINE
  8
2D_VERDECKTE_KANTEN
  6
HIDDEN
 62
1
 10
1.7117209E+002
 20
5.0596993E+001
 11
-1.2882791E+002
 21
5.0596993E+001
  0
LINE
  8
2D_VERDECKTE_KANTEN
  6
HIDDEN
 62
1
 10
1.7117209E+002
 20
7.5696993E+001
 11
-1.2882791E+002
 21
7.5696993E+001
  0
LINE
  8
2D_VERDECKTE_KANTEN
  6
HIDDEN
 62
1
 10
1.5767209E+002
 20
5.0596993E+001
 11
1.5767209E+002
 21
7.5696993E+001
  0
LINE
  8
2D_VERDECKTE_KANTEN
  6
HIDDEN
 62
1
 10
-1.1532791E+002
 20
5.0596993E+001
 11
-1.1532791E+002
 21
7.5696993E+001
  0
LINE
  8
2D_MITTELLINIEN
  6
CENTERLINE
 62
1
 10
-1.2182791E+002
 20
4.1133889E+001
 11
-1.2182791E+002
 21
8.5711856E+001
  0
LINE
  8
2D_MITTELLINIEN
  6
CENTERLINE
 62
1
 10
1.6417209E+002
 20
4.1883099E+001
 11
1.6417209E+002
 21
8.6086461E+001
  0
LINE
  8
2D_VERDECKTE_KANTEN
  6
HIDDEN
 62
1
 10
-1.2782791E+002
 20
4.7646993E+001
 11
-1.2482791E+002
 21
5.0596993E+001
  0
LINE
  8
2D_VERDECKTE_KANTEN
  6
HIDDEN
 62
1
 10
-1.1582791E+002
 20
4.7646993E+001
 11
-1.1882791E+002
 21
5.0596993E+001
  0
LINE
  8
2D_VERDECKTE_KANTEN
  6
HIDDEN
 62
1
 10
1.5817209E+002
 20
4.7646993E+001
 11
1.6117209E+002
 21
5.0596993E+001
  0
LINE
  8
2D_VERDECKTE_KANTEN
  6
HIDDEN
 62
1
 10
1.7017209E+002
 20
4.7646993E+001
 11
1.6717209E+002
 21
5.0596993E+001
  0
LINE
  8
2D_VERDECKTE_KANTEN
  6
HIDDEN
 62
1
 10
-1.1832791E+002
 20
7.5696993E+001
 11
-1.1832791E+002
 21
7.8646993E+001
  0
LINE
  8
2D_VERDECKTE_KANTEN
  6
HIDDEN
 62
1
 10
-1.2532791E+002
 20
7.5696993E+001
 11
-1.2532791E+002
 21
7.8646993E+001
  0
LINE
  8
2D_VERDECKTE_KANTEN
  6
HIDDEN
 62
1
 10
1.6067209E+002
 20
7.5696993E+001
 11
1.6067209E+002
 21
7.8646993E+001
  0
LINE
  8
2D_VERDECKTE_KANTEN
  6
HIDDEN
 62
1
 10
1.6767209E+002
 20
7.5696993E+001
 11
1.6767209E+002
 21
7.8646993E+001
  0
CIRCLE
  8
2D_SICHTBARE_KANTEN
  6
CONTINUOUS
 62
40
 10
1.4617209E+002
 20
6.3146993E+001
 40
3.5
  0
CIRCLE
  8
2D_VERDECKTE_KANTEN
  6
HIDDEN
 62
1
 10
1.4617209E+002
 20
6.3146993E+001
 40
6.0
  0
CIRCLE
  8
2D_VERDECKTE_KANTEN
  6
HIDDEN
 62
1
 10
-1.0437233E+002
 20
6.3146993E+001
 40
6.0
  0
CIRCLE
  8
2D_SICHTBARE_KANTEN
  6
CONTINUOUS
 62
40
 10
-1.0437233E+002
 20
6.3146993E+001
 40
3.5
  0
LINE
  8
2D_BEMASSUNG
  6
CONTINUOUS
 62
1
 10
1.4617209E+002
 20
6.3146993E+001
 11
1.4617209E+002
 21
6.3146993E+001
  0
LINE
  8
2D_BEMASSUNG
  6
CONTINUOUS
 62
1
 10
1.4617209E+002
 20
6.3146993E+001
 11
1.4617209E+002
 21
6.3146993E+001
  0
LINE
  8
2D_BEMASSUNG
  6
CONTINUOUS
 62
1
 10
1.4617209E+002
 20
6.3146993E+001
 11
1.5317209E+002
 21
6.3146993E+001
  0
LINE
  8
2D_BEMASSUNG
  6
CONTINUOUS
 62
1
 10
1.4617209E+002
 20
6.3146993E+001
 11
1.4617209E+002
 21
7.0146993E+001
  0
LINE
  8
2D_BEMASSUNG
  6
CONTINUOUS
 62
1
 10
1.4617209E+002
 20
6.3146993E+001
 11
1.3917209E+002
 21
6.3146993E+001
  0
LINE
  8
2D_BEMASSUNG
  6
CONTINUOUS
 62
1
 10
1.4617209E+002
 20
6.3146993E+001
 11
1.4617209E+002
 21
5.6146993E+001
  0
LINE
  8
2D_BEMASSUNG
  6
CONTINUOUS
 62
1
 10
-1.0437233E+002
 20
6.3146993E+001
 11
-1.0437233E+002
 21
6.3146993E+001
  0
LINE
  8
2D_BEMASSUNG
  6
CONTINUOUS
 62
1
 10
-1.0437233E+002
 20
6.3146993E+001
 11
-1.0437233E+002
 21
6.3146993E+001
  0
LINE
  8
2D_BEMASSUNG
  6
CONTINUOUS
 62
1
 10
-1.0437233E+002
 20
6.3146993E+001
 11
-9.7372331E+001
 21
6.3146993E+001
  0
LINE
  8
2D_BEMASSUNG
  6
CONTINUOUS
 62
1
 10
-1.0437233E+002
 20
6.3146993E+001
 11
-1.0437233E+002
 21
7.0146993E+001
  0
LINE
  8
2D_BEMASSUNG
  6
CONTINUOUS
 62
1
 10
-1.0437233E+002
 20
6.3146993E+001
 11
-1.1137233E+002
 21
6.3146993E+001
  0
LINE
  8
2D_BEMASSUNG
  6
CONTINUOUS
 62
1
 10
-1.0437233E+002
 20
6.3146993E+001
 11
-1.0437233E+002
 21
5.6146993E+001
  0
DIMENSION
  8
2D_BEMASSUNG
  6
CONTINUOUS
 62
1
  2
*D250
  3
DSTYLE1
 10
-1.2182791E+002
 20
1.0731029E+002
 11
3.576188E+001
 21
1.1056129E+002
 70
128
 13
1.6417209E+002
 23
8.6086461E+001
 14
-1.2182791E+002
 24
8.5711856E+001
 40
5.0
 50
0.0
  0
DIMENSION
  8
2D_BEMASSUNG
  6
CONTINUOUS
 62
1
  2
*D251
  3
DSTYLE1
 10
-1.4132791E+002
 20
1.2158706E+002
 11
5.8788928E+001
 21
1.2483806E+002
 70
128
 13
1.8367209E+002
 23
7.8646993E+001
 14
-1.4132791E+002
 24
7.8646993E+001
 40
5.0
 50
0.0
  0
DIMENSION
  8
2D_BEMASSUNG
  6
CONTINUOUS
 62
1
  1
250
  2
*D252
  3
DSTYLE1
 10
-1.0437233E+002
 20
9.2112443E+001
 11
1.7340243E+001
 21
9.5363443E+001
 70
128
 13
1.4617209E+002
 23
7.0146993E+001
 14
-1.0437233E+002
 24
7.0146993E+001
 40
5.0
 50
0.0
  0
DIMENSION
  8
2D_BEMASSUNG
  6
CONTINUOUS
 62
1
  2
*D253
  3
DSTYLE1
 10
2.009353E+002
 20
-2.0E+001
 11
1.976843E+002
 21
-7.682413
 70
128
 13
1.8367209E+002
 23
0.0
 14
1.8367209E+002
 24
-2.0E+001
 40
5.0
 50
9.0E+001
  0
INSERT
  2
*XH53
  8
2D_SCHRAFFUR
 10
-2.3181227E+002
 20
-7.8811154
  0
POINT
  8
Drafting_Hidden_Entities
  6
CONTINUOUS
 62
1
 10
0.0
 20
0.0
  0
ENDBLK
  0
BLOCK
  2
*D186
  3
*D
 10
0.0
 20
0.0
 70
65
  0
LINE
  8
2D_BEMASSUNG
  6
CONTINUOUS
 62
1
 10
-1.6082791E+002
 20
-5.186569
 11
-1.6082791E+002
 21
2.6438554E+001
  0
LINE
  8
2D_BEMASSUNG
  6
CONTINUOUS
 62
1
 10
-1.2882791E+002
 20
0.0
 11
-1.2882791E+002
 21
2.6438554E+001
  0
SOLID
  8
1
  6
CONTINUOUS
 62
0
 10
-1.6082791E+002
 20
2.4938554E+001
 11
-1.5682791E+002
 21
2.4271882E+001
 12
-1.5682791E+002
 22
2.5605226E+001
 13
-1.5682791E+002
 23
2.5605226E+001
  0
SOLID
  8
1
  6
CONTINUOUS
 62
0
 10
-1.2882791E+002
 20
2.4938554E+001
 11
-1.3282791E+002
 21
2.5605226E+001
 12
-1.3282791E+002
 22
2.4271882E+001
 13
-1.3282791E+002
 23
2.4271882E+001
  0
LINE
  8
2D_BEMASSUNG
  6
CONTINUOUS
 62
1
 10
-1.6082791E+002
 20
2.4938554E+001
 11
-1.4487142E+002
 21
2.4938554E+001
  0
LINE
  8
2D_BEMASSUNG
  6
CONTINUOUS
 62
1
 10
-1.2882791E+002
 20
2.4938554E+001
 11
-1.4487142E+002
 21
2.4938554E+001
  0
TEXT
  8
2D_BEMASSUNG
  6
CONTINUOUS
 62
1
 10
-1.4767142E+002
 20
2.6439554E+001
 40
3.5
  1
32
 41
8.0E-001
  0
ENDBLK
  0
BLOCK
  2
*D187
  3
*D
 10
0.0
 20
0.0
 70
65
  0
LINE
  8
2D_BEMASSUNG
  6
CONTINUOUS
 62
1
 10
-1.2882791E+002
 20
0.0
 11
-1.2882791E+002
 21
2.6854041E+001
  0
LINE
  8
2D_BEMASSUNG
  6
CONTINUOUS
 62
1
 10
1.7117209E+002
 20
0.0
 11
1.7117209E+002
 21
2.6854041E+001
  0
SOLID
  8
1
  6
CONTINUOUS
 62
0
 10
-1.2882791E+002
 20
2.5354041E+001
 11
-1.2482791E+002
 21
2.4687369E+001
 12
-1.2482791E+002
 22
2.6020713E+001
 13
-1.2482791E+002
 23
2.6020713E+001
  0
SOLID
  8
1
  6
CONTINUOUS
 62
0
 10
1.7117209E+002
 20
2.5354041E+001
 11
1.6717209E+002
 21
2.6020713E+001
 12
1.6717209E+002
 22
2.4687369E+001
 13
1.6717209E+002
 23
2.4687369E+001
  0
LINE
  8
2D_BEMASSUNG
  6
CONTINUOUS
 62
1
 10
-1.2882791E+002
 20
2.5354041E+001
 11
5.290025E+001
 21
2.5354041E+001
  0
LINE
  8
2D_BEMASSUNG
  6
CONTINUOUS
 62
1
 10
1.7117209E+002
 20
2.5354041E+001
 11
5.290025E+001
 21
2.5354041E+001
  0
TEXT
  8
2D_BEMASSUNG
  6
CONTINUOUS
 62
1
 10
4.870025E+001
 20
2.6855041E+001
 40
3.5
  1
300
 41
8.0E-001
  0
ENDBLK
  0
BLOCK
  2
*D208
  3
*D
 10
0.0
 20
0.0
 70
65
  0
LINE
  8
2D_BEMASSUNG
  6
CONTINUOUS
 62
1
 10
1.0917209E+002
 20
-3.2899462E+001
 11
1.0917209E+002
 21
-5.4315681E+001
  0
LINE
  8
2D_BEMASSUNG
  6
CONTINUOUS
 62
1
 10
-1.6082791E+002
 20
-4.4563086E+001
 11
-1.6082791E+002
 21
-5.4315681E+001
  0
SOLID
  8
1
  6
CONTINUOUS
 62
0
 10
1.0917209E+002
 20
-5.2815681E+001
 11
1.0517209E+002
 21
-5.2149009E+001
 12
1.0517209E+002
 22
-5.3482353E+001
 13
1.0517209E+002
 23
-5.3482353E+001
  0
SOLID
  8
1
  6
CONTINUOUS
 62
0
 10
-1.6082791E+002
 20
-5.2815681E+001
 11
-1.5682791E+002
 21
-5.3482353E+001
 12
-1.5682791E+002
 22
-5.2149009E+001
 13
-1.5682791E+002
 23
-5.2149009E+001
  0
LINE
  8
2D_BEMASSUNG
  6
CONTINUOUS
 62
1
 10
1.0917209E+002
 20
-5.2815681E+001
 11
-2.4291715E+001
 21
-5.2815681E+001
  0
LINE
  8
2D_BEMASSUNG
  6
CONTINUOUS
 62
1
 10
-1.6082791E+002
 20
-5.2815681E+001
 11
-2.4291715E+001
 21
-5.2815681E+001
  0
TEXT
  8
2D_BEMASSUNG
  6
CONTINUOUS
 62
1
 10
-2.8491715E+001
 20
-5.1314681E+001
 40
3.5
  1
270
 41
8.0E-001
 50
3.6E+002
  0
ENDBLK
  0
BLOCK
  2
*D209
  3
*D
 10
0.0
 20
0.0
 70
65
  0
LINE
  8
2D_BEMASSUNG
  6
CONTINUOUS
 62
1
 10
1.6417209E+002
 20
0.0
 11
1.6417209E+002
 21
1.2557237E+001
  0
LINE
  8
2D_BEMASSUNG
  6
CONTINUOUS
 62
1
 10
-1.2182791E+002
 20
0.0
 11
-1.2182791E+002
 21
1.2557237E+001
  0
SOLID
  8
1
  6
CONTINUOUS
 62
0
 10
1.6417209E+002
 20
1.1057237E+001
 11
1.6017209E+002
 21
1.1723909E+001
 12
1.6017209E+002
 22
1.0390565E+001
 13
1.6017209E+002
 23
1.0390565E+001
  0
SOLID
  8
1
  6
CONTINUOUS
 62
0
 10
-1.2182791E+002
 20
1.1057237E+001
 11
-1.1782791E+002
 21
1.0390565E+001
 12
-1.1782791E+002
 22
1.1723909E+001
 13
-1.1782791E+002
 23
1.1723909E+001
  0
LINE
  8
2D_BEMASSUNG
  6
CONTINUOUS
 62
1
 10
1.6417209E+002
 20
1.1057237E+001
 11
2.3787816E+001
 21
1.1057237E+001
  0
LINE
  8
2D_BEMASSUNG
  6
CONTINUOUS
 62
1
 10
-1.2182791E+002
 20
1.1057237E+001
 11
2.3787816E+001
 21
1.1057237E+001
  0
TEXT
  8
2D_BEMASSUNG
  6
CONTINUOUS
 62
1
 10
1.9587816E+001
 20
1.2558237E+001
 40
3.5
  1
286
 41
8.0E-001
 50
3.6E+002
  0
ENDBLK
  0
BLOCK
  2
*D250
  3
*D
 10
0.0
 20
0.0
 70
65
  0
LINE
  8
2D_BEMASSUNG
  6
CONTINUOUS
 62
1
 10
1.6417209E+002
 20
8.6086461E+001
 11
1.6417209E+002
 21
1.0881029E+002
  0
LINE
  8
2D_BEMASSUNG
  6
CONTINUOUS
 62
1
 10
-1.2182791E+002
 20
8.5711856E+001
 11
-1.2182791E+002
 21
1.0881029E+002
  0
SOLID
  8
1
  6
CONTINUOUS
 62
0
 10
1.6417209E+002
 20
1.0731029E+002
 11
1.6017209E+002
 21
1.0797697E+002
 12
1.6017209E+002
 22
1.0664362E+002
 13
1.6017209E+002
 23
1.0664362E+002
  0
SOLID
  8
1
  6
CONTINUOUS
 62
0
 10
-1.2182791E+002
 20
1.0731029E+002
 11
-1.1782791E+002
 21
1.0664362E+002
 12
-1.1782791E+002
 22
1.0797697E+002
 13
-1.1782791E+002
 23
1.0797697E+002
  0
LINE
  8
2D_BEMASSUNG
  6
CONTINUOUS
 62
1
 10
1.6417209E+002
 20
1.0731029E+002
 11
3.576188E+001
 21
1.0731029E+002
  0
LINE
  8
2D_BEMASSUNG
  6
CONTINUOUS
 62
1
 10
-1.2182791E+002
 20
1.0731029E+002
 11
3.576188E+001
 21
1.0731029E+002
  0
TEXT
  8
2D_BEMASSUNG
  6
CONTINUOUS
 62
1
 10
3.156188E+001
 20
1.0881129E+002
 40
3.5
  1
286
 41
8.0E-001
 50
3.6E+002
  0
ENDBLK
  0
BLOCK
  2
*D251
  3
*D
 10
0.0
 20
0.0
 70
65
  0
LINE
  8
2D_BEMASSUNG
  6
CONTINUOUS
 62
1
 10
1.8367209E+002
 20
7.8646993E+001
 11
1.8367209E+002
 21
1.2308706E+002
  0
LINE
  8
2D_BEMASSUNG
  6
CONTINUOUS
 62
1
 10
-1.4132791E+002
 20
7.8646993E+001
 11
-1.4132791E+002
 21
1.2308706E+002
  0
SOLID
  8
1
  6
CONTINUOUS
 62
0
 10
1.8367209E+002
 20
1.2158706E+002
 11
1.7967209E+002
 21
1.2225373E+002
 12
1.7967209E+002
 22
1.2092039E+002
 13
1.7967209E+002
 23
1.2092039E+002
  0
SOLID
  8
1
  6
CONTINUOUS
 62
0
 10
-1.4132791E+002
 20
1.2158706E+002
 11
-1.3732791E+002
 21
1.2092039E+002
 12
-1.3732791E+002
 22
1.2225373E+002
 13
-1.3732791E+002
 23
1.2225373E+002
  0
LINE
  8
2D_BEMASSUNG
  6
CONTINUOUS
 62
1
 10
1.8367209E+002
 20
1.2158706E+002
 11
5.8788928E+001
 21
1.2158706E+002
  0
LINE
  8
2D_BEMASSUNG
  6
CONTINUOUS
 62
1
 10
-1.4132791E+002
 20
1.2158706E+002
 11
5.8788928E+001
 21
1.2158706E+002
  0
TEXT
  8
2D_BEMASSUNG
  6
CONTINUOUS
 62
1
 10
5.4588928E+001
 20
1.2308806E+002
 40
3.5
  1
325
 41
8.0E-001
 50
3.6E+002
  0
ENDBLK
  0
BLOCK
  2
*D252
  3
*D
 10
0.0
 20
0.0
 70
65
  0
LINE
  8
2D_BEMASSUNG
  6
CONTINUOUS
 62
1
 10
1.4617209E+002
 20
7.0146993E+001
 11
1.4617209E+002
 21
9.3612443E+001
  0
LINE
  8
2D_BEMASSUNG
  6
CONTINUOUS
 62
1
 10
-1.0437233E+002
 20
7.0146993E+001
 11
-1.0437233E+002
 21
9.3612443E+001
  0
SOLID
  8
1
  6
CONTINUOUS
 62
0
 10
1.4617209E+002
 20
9.2112443E+001
 11
1.4217209E+002
 21
9.2779115E+001
 12
1.4217209E+002
 22
9.1445771E+001
 13
1.4217209E+002
 23
9.1445771E+001
  0
SOLID
  8
1
  6
CONTINUOUS
 62
0
 10
-1.0437233E+002
 20
9.2112443E+001
 11
-1.0037233E+002
 21
9.1445771E+001
 12
-1.0037233E+002
 22
9.2779115E+001
 13
-1.0037233E+002
 23
9.2779115E+001
  0
LINE
  8
2D_BEMASSUNG
  6
CONTINUOUS
 62
1
 10
1.4617209E+002
 20
9.2112443E+001
 11
1.7340243E+001
 21
9.2112443E+001
  0
LINE
  8
2D_BEMASSUNG
  6
CONTINUOUS
 62
1
 10
-1.0437233E+002
 20
9.2112443E+001
 11
1.7340243E+001
 21
9.2112443E+001
  0
TEXT
  8
2D_BEMASSUNG
  6
CONTINUOUS
 62
1
 10
1.3140243E+001
 20
9.3613443E+001
 40
3.5
  1
250
 41
8.0E-001
 50
3.6E+002
  0
ENDBLK
  0
BLOCK
  2
*D253
  3
*D
 10
0.0
 20
0.0
 70
65
  0
LINE
  8
2D_BEMASSUNG
  6
CONTINUOUS
 62
1
 10
1.8367209E+002
 20
0.0
 11
2.024353E+002
 21
0.0
  0
LINE
  8
2D_BEMASSUNG
  6
CONTINUOUS
 62
1
 10
1.8367209E+002
 20
-2.0E+001
 11
2.024353E+002
 21
-2.0E+001
  0
SOLID
  8
1
  6
CONTINUOUS
 62
0
 10
2.009353E+002
 20
0.0
 11
2.0026863E+002
 21
-4.0
 12
2.0160197E+002
 22
-4.0
 13
2.0160197E+002
 23
-4.0
  0
SOLID
  8
1
  6
CONTINUOUS
 62
0
 10
2.009353E+002
 20
-2.0E+001
 11
2.0160197E+002
 21
-1.6E+001
 12
2.0026863E+002
 22
-1.6E+001
 13
2.0026863E+002
 23
-1.6E+001
  0
LINE
  8
2D_BEMASSUNG
  6
CONTINUOUS
 62
1
 10
2.009353E+002
 20
0.0
 11
2.009353E+002
 21
-7.682413
  0
LINE
  8
2D_BEMASSUNG
  6
CONTINUOUS
 62
1
 10
2.009353E+002
 20
-2.0E+001
 11
2.009353E+002
 21
-7.682413
  0
TEXT
  8
2D_BEMASSUNG
  6
CONTINUOUS
 62
1
 10
1.994343E+002
 20
-1.0482413E+001
 40
3.5
  1
20
 41
8.0E-001
 50
9.0E+001
  0
ENDBLK
  0
BLOCK
  2
*D476
  3
*D
 10
0.0
 20
0.0
 70
65
  0
LINE
  8
2D_BEMASSUNG
  6
CONTINUOUS
 62
1
 10
1.7453019E+002
 20
2.1622841E+002
 11
1.7453019E+002
 21
2.4233245E+002
  0
LINE
  8
2D_BEMASSUNG
  6
CONTINUOUS
 62
1
 10
4.7453019E+002
 20
2.1622841E+002
 11
4.7453019E+002
 21
2.4233245E+002
  0
SOLID
  8
1
  6
CONTINUOUS
 62
0
 10
1.7453019E+002
 20
2.4083245E+002
 11
1.7853019E+002
 21
2.4016578E+002
 12
1.7853019E+002
 22
2.4149912E+002
 13
1.7853019E+002
 23
2.4149912E+002
  0
SOLID
  8
1
  6
CONTINUOUS
 62
0
 10
4.7453019E+002
 20
2.4083245E+002
 11
4.7053019E+002
 21
2.4149912E+002
 12
4.7053019E+002
 22
2.4016578E+002
 13
4.7053019E+002
 23
2.4016578E+002
  0
LINE
  8
2D_BEMASSUNG
  6
CONTINUOUS
 62
1
 10
1.7453019E+002
 20
2.4083245E+002
 11
3.5625834E+002
 21
2.4083245E+002
  0
LINE
  8
2D_BEMASSUNG
  6
CONTINUOUS
 62
1
 10
4.7453019E+002
 20
2.4083245E+002
 11
3.5625834E+002
 21
2.4083245E+002
  0
TEXT
  8
2D_BEMASSUNG
  6
CONTINUOUS
 62
1
 10
3.5025834E+002
 20
2.4233345E+002
 40
5.0
  1
300
 41
8.0E-001
  0
ENDBLK
  0
BLOCK
  2
*D497
  3
*D
 10
0.0
 20
0.0
 70
65
  0
LINE
  8
2D_BEMASSUNG
  6
CONTINUOUS
 62
1
 10
4.1253019E+002
 20
1.8332895E+002
 11
4.1253019E+002
 21
1.6116273E+002
  0
LINE
  8
2D_BEMASSUNG
  6
CONTINUOUS
 62
1
 10
1.4253019E+002
 20
1.7166532E+002
 11
1.4253019E+002
 21
1.6116273E+002
  0
SOLID
  8
1
  6
CONTINUOUS
 62
0
 10
4.1253019E+002
 20
1.6266273E+002
 11
4.0853019E+002
 21
1.633294E+002
 12
4.0853019E+002
 22
1.6199606E+002
 13
4.0853019E+002
 23
1.6199606E+002
  0
SOLID
  8
1
  6
CONTINUOUS
 62
0
 10
1.4253019E+002
 20
1.6266273E+002
 11
1.4653019E+002
 21
1.6199606E+002
 12
1.4653019E+002
 22
1.633294E+002
 13
1.4653019E+002
 23
1.633294E+002
  0
LINE
  8
2D_BEMASSUNG
  6
CONTINUOUS
 62
1
 10
4.1253019E+002
 20
1.6266273E+002
 11
2.7906638E+002
 21
1.6266273E+002
  0
LINE
  8
2D_BEMASSUNG
  6
CONTINUOUS
 62
1
 10
1.4253019E+002
 20
1.6266273E+002
 11
2.7906638E+002
 21
1.6266273E+002
  0
TEXT
  8
2D_BEMASSUNG
  6
CONTINUOUS
 62
1
 10
2.7306638E+002
 20
1.6416373E+002
 40
5.0
  1
270
 41
8.0E-001
 50
3.6E+002
  0
ENDBLK
  0
BLOCK
  2
*D498
  3
*D
 10
0.0
 20
0.0
 70
65
  0
LINE
  8
2D_BEMASSUNG
  6
CONTINUOUS
 62
1
 10
4.6753019E+002
 20
2.1622841E+002
 11
4.6753019E+002
 21
2.2803564E+002
  0
LINE
  8
2D_BEMASSUNG
  6
CONTINUOUS
 62
1
 10
1.8153019E+002
 20
2.1622841E+002
 11
1.8153019E+002
 21
2.2803564E+002
  0
SOLID
  8
1
  6
CONTINUOUS
 62
0
 10
4.6753019E+002
 20
2.2653564E+002
 11
4.6353019E+002
 21
2.2720232E+002
 12
4.6353019E+002
 22
2.2586897E+002
 13
4.6353019E+002
 23
2.2586897E+002
  0
SOLID
  8
1
  6
CONTINUOUS
 62
0
 10
1.8153019E+002
 20
2.2653564E+002
 11
1.8553019E+002
 21
2.2586897E+002
 12
1.8553019E+002
 22
2.2720232E+002
 13
1.8553019E+002
 23
2.2720232E+002
  0
LINE
  8
2D_BEMASSUNG
  6
CONTINUOUS
 62
1
 10
4.6753019E+002
 20
2.2653564E+002
 11
3.2714591E+002
 21
2.2653564E+002
  0
LINE
  8
2D_BEMASSUNG
  6
CONTINUOUS
 62
1
 10
1.8153019E+002
 20
2.2653564E+002
 11
3.2714591E+002
 21
2.2653564E+002
  0
TEXT
  8
2D_BEMASSUNG
  6
CONTINUOUS
 62
1
 10
3.2114591E+002
 20
2.2803664E+002
 40
5.0
  1
286
 41
8.0E-001
 50
3.6E+002
  0
ENDBLK
  0
BLOCK
  2
*D539
  3
*D
 10
0.0
 20
0.0
 70
65
  0
LINE
  8
2D_BEMASSUNG
  6
CONTINUOUS
 62
1
 10
4.6753019E+002
 20
3.2065542E+002
 11
4.6753019E+002
 21
3.4262925E+002
  0
LINE
  8
2D_BEMASSUNG
  6
CONTINUOUS
 62
1
 10
1.8153019E+002
 20
3.2028081E+002
 11
1.8153019E+002
 21
3.4262925E+002
  0
SOLID
  8
1
  6
CONTINUOUS
 62
0
 10
4.6753019E+002
 20
3.4112925E+002
 11
4.6353019E+002
 21
3.4179592E+002
 12
4.6353019E+002
 22
3.4046258E+002
 13
4.6353019E+002
 23
3.4046258E+002
  0
SOLID
  8
1
  6
CONTINUOUS
 62
0
 10
1.8153019E+002
 20
3.4112925E+002
 11
1.8553019E+002
 21
3.4046258E+002
 12
1.8553019E+002
 22
3.4179592E+002
 13
1.8553019E+002
 23
3.4179592E+002
  0
LINE
  8
2D_BEMASSUNG
  6
CONTINUOUS
 62
1
 10
4.6753019E+002
 20
3.4112925E+002
 11
3.3911997E+002
 21
3.4112925E+002
  0
LINE
  8
2D_BEMASSUNG
  6
CONTINUOUS
 62
1
 10
1.8153019E+002
 20
3.4112925E+002
 11
3.3911997E+002
 21
3.4112925E+002
  0
TEXT
  8
2D_BEMASSUNG
  6
CONTINUOUS
 62
1
 10
3.3311997E+002
 20
3.4263025E+002
 40
5.0
  1
286
 41
8.0E-001
 50
3.6E+002
  0
ENDBLK
  0
BLOCK
  2
*D540
  3
*D
 10
0.0
 20
0.0
 70
65
  0
LINE
  8
2D_BEMASSUNG
  6
CONTINUOUS
 62
1
 10
4.8703019E+002
 20
3.1321595E+002
 11
4.8703019E+002
 21
3.5690602E+002
  0
LINE
  8
2D_BEMASSUNG
  6
CONTINUOUS
 62
1
 10
1.6203019E+002
 20
3.1321595E+002
 11
1.6203019E+002
 21
3.5690602E+002
  0
SOLID
  8
1
  6
CONTINUOUS
 62
0
 10
4.8703019E+002
 20
3.5540602E+002
 11
4.8303019E+002
 21
3.5607269E+002
 12
4.8303019E+002
 22
3.5473935E+002
 13
4.8303019E+002
 23
3.5473935E+002
  0
SOLID
  8
1
  6
CONTINUOUS
 62
0
 10
1.6203019E+002
 20
3.5540602E+002
 11
1.6603019E+002
 21
3.5473935E+002
 12
1.6603019E+002
 22
3.5607269E+002
 13
1.6603019E+002
 23
3.5607269E+002
  0
LINE
  8
2D_BEMASSUNG
  6
CONTINUOUS
 62
1
 10
4.8703019E+002
 20
3.5540602E+002
 11
3.6214702E+002
 21
3.5540602E+002
  0
LINE
  8
2D_BEMASSUNG
  6
CONTINUOUS
 62
1
 10
1.6203019E+002
 20
3.5540602E+002
 11
3.6214702E+002
 21
3.5540602E+002
  0
TEXT
  8
2D_BEMASSUNG
  6
CONTINUOUS
 62
1
 10
3.5614702E+002
 20
3.5690702E+002
 40
5.0
  1
325
 41
8.0E-001
 50
3.6E+002
  0
ENDBLK
  0
BLOCK
  2
*D541
  3
*D
 10
0.0
 20
0.0
 70
65
  0
LINE
  8
2D_BEMASSUNG
  6
CONTINUOUS
 62
1
 10
4.4953019E+002
 20
3.0471595E+002
 11
4.4953019E+002
 21
3.274314E+002
  0
LINE
  8
2D_BEMASSUNG
  6
CONTINUOUS
 62
1
 10
1.9898576E+002
 20
3.0471595E+002
 11
1.9898576E+002
 21
3.274314E+002
  0
SOLID
  8
1
  6
CONTINUOUS
 62
0
 10
4.4953019E+002
 20
3.259314E+002
 11
4.4553019E+002
 21
3.2659807E+002
 12
4.4553019E+002
 22
3.2526473E+002
 13
4.4553019E+002
 23
3.2526473E+002
  0
SOLID
  8
1
  6
CONTINUOUS
 62
0
 10
1.9898576E+002
 20
3.259314E+002
 11
2.0298576E+002
 21
3.2526473E+002
 12
2.0298576E+002
 22
3.2659807E+002
 13
2.0298576E+002
 23
3.2659807E+002
  0
LINE
  8
2D_BEMASSUNG
  6
CONTINUOUS
 62
1
 10
4.4953019E+002
 20
3.259314E+002
 11
3.2069834E+002
 21
3.259314E+002
  0
LINE
  8
2D_BEMASSUNG
  6
CONTINUOUS
 62
1
 10
1.9898576E+002
 20
3.259314E+002
 11
3.2069834E+002
 21
3.259314E+002
  0
TEXT
  8
2D_BEMASSUNG
  6
CONTINUOUS
 62
1
 10
3.1469834E+002
 20
3.274324E+002
 40
5.0
  1
250
 41
8.0E-001
 50
3.6E+002
  0
ENDBLK
  0
BLOCK
  2
*D542
  3
*D
 10
0.0
 20
0.0
 70
65
  0
LINE
  8
2D_BEMASSUNG
  6
CONTINUOUS
 62
1
 10
4.8703019E+002
 20
2.1622841E+002
 11
5.0654339E+002
 21
2.1622841E+002
  0
LINE
  8
2D_BEMASSUNG
  6
CONTINUOUS
 62
1
 10
4.8703019E+002
 20
1.9622841E+002
 11
5.0654339E+002
 21
1.9622841E+002
  0
SOLID
  8
1
  6
CONTINUOUS
 62
0
 10
5.0504339E+002
 20
2.1622841E+002
 11
5.0437672E+002
 21
2.1222841E+002
 12
5.0571007E+002
 22
2.1222841E+002
 13
5.0571007E+002
 23
2.1222841E+002
  0
SOLID
  8
1
  6
CONTINUOUS
 62
0
 10
5.0504339E+002
 20
1.9622841E+002
 11
5.0571007E+002
 21
2.0022841E+002
 12
5.0437672E+002
 22
2.0022841E+002
 13
5.0437672E+002
 23
2.0022841E+002
  0
LINE
  8
2D_BEMASSUNG
  6
CONTINUOUS
 62
1
 10
5.0504339E+002
 20
2.1622841E+002
 11
5.0504339E+002
 21
2.08546E+002
  0
LINE
  8
2D_BEMASSUNG
  6
CONTINUOUS
 62
1
 10
5.0504339E+002
 20
1.9622841E+002
 11
5.0504339E+002
 21
2.08546E+002
  0
TEXT
  8
2D_BEMASSUNG
  6
CONTINUOUS
 62
1
 10
5.0354239E+002
 20
2.04546E+002
 40
5.0
  1
20
 41
8.0E-001
 50
9.0E+001
  0
ENDBLK
  0
ENDSEC
  0
SECTION
  2
ENTITIES
  0
LINE
  8
2D_SICHTBARE_KANTEN
  6
CONTINUOUS
 62
40
 10
1.5819219E+002
 20
1.9918941E+002
 11
1.5819219E+002
 21
2.0122841E+002
  0
LINE
  8
2D_SICHTBARE_KANTEN
  6
CONTINUOUS
 62
40
 10
1.5819219E+002
 20
2.0122841E+002
 11
1.3219219E+002
 21
2.0122841E+002
  0
LINE
  8
2D_SICHTBARE_KANTEN
  6
CONTINUOUS
 62
40
 10
4.2206727E+002
 20
1.9272841E+002
 11
1.5080928E+002
 21
1.9272841E+002
  0
LINE
  8
2D_SICHTBARE_KANTEN
  6
CONTINUOUS
 62
40
 10
4.2206727E+002
 20
1.8572841E+002
 11
1.5080928E+002
 21
1.8572841E+002
  0
ARC
  8
2D_SICHTBARE_KANTEN
  6
CONTINUOUS
 62
40
 10
1.2615254E+002
 20
1.8922791E+002
 40
9.5508783E-001
 50
1.7371846E+002
 51
1.8628154E+002
  0
LINE
  8
2D_SICHTBARE_KANTEN
  6
CONTINUOUS
 62
40
 10
1.2520319E+002
 20
1.8912341E+002
 11
1.2614919E+002
 21
1.8012341E+002
  0
ARC
  8
2D_SICHTBARE_KANTEN
  6
CONTINUOUS
 62
40
 10
1.2714252E+002
 20
1.8022714E+002
 40
9.9873645E-001
 50
1.8596192E+002
 51
2.7003818E+002
  0
LINE
  8
2D_SICHTBARE_KANTEN
  6
CONTINUOUS
 62
40
 10
1.2714319E+002
 20
1.7922841E+002
 11
1.5791719E+002
 21
1.7922841E+002
  0
ARC
  8
2D_SICHTBARE_KANTEN
  6
CONTINUOUS
 62
40
 10
1.5791714E+002
 20
1.8022927E+002
 40
1.0008653
 50
2.7000254E+002
 51
3.5196695E+002
  0
LINE
  8
2D_SICHTBARE_KANTEN
  6
CONTINUOUS
 62
40
 10
1.5890819E+002
 20
1.8008941E+002
 11
1.5970015E+002
 21
1.8572841E+002
  0
ARC
  8
2D_SICHTBARE_KANTEN
  6
CONTINUOUS
 62
40
 10
1.5918802E+002
 20
1.8922841E+002
 40
9.9393753E-001
 50
3.5196096E+002
 51
3.6803904E+002
  0
LINE
  8
2D_VERDECKTE_KANTEN
  6
HIDDEN
 62
1
 10
1.6017219E+002
 20
1.8936741E+002
 11
1.5970015E+002
 21
1.9272841E+002
  0
ARC
  8
2D_SICHTBARE_KANTEN
  6
CONTINUOUS
 62
40
 10
1.5791863E+002
 20
1.9822821E+002
 40
9.9930377E-001
 50
8.0070437
 51
4.9028712E+001
  0
ARC
  8
2D_SICHTBARE_KANTEN
  6
CONTINUOUS
 62
40
 10
1.5791636E+002
 20
1.9822581E+002
 40
1.0025999
 50
4.902113E+001
 51
8.9952974E+001
  0
LINE
  8
2D_SICHTBARE_KANTEN
  6
CONTINUOUS
 62
40
 10
1.5791719E+002
 20
1.9922841E+002
 11
1.5319219E+002
 21
1.9922841E+002
  0
LINE
  8
2D_SICHTBARE_KANTEN
  6
CONTINUOUS
 62
40
 10
1.2521219E+002
 20
1.8936741E+002
 11
1.2647619E+002
 21
1.9836741E+002
  0
ARC
  8
2D_SICHTBARE_KANTEN
  6
CONTINUOUS
 62
40
 10
1.2746575E+002
 20
1.9822821E+002
 40
9.9930377E-001
 50
1.3097129E+002
 51
1.7199296E+002
  0
LINE
  8
2D_SICHTBARE_KANTEN
  6
CONTINUOUS
 62
40
 10
1.2746719E+002
 20
1.9922841E+002
 11
1.5319219E+002
 21
1.9922841E+002
  0
ARC
  8
2D_SICHTBARE_KANTEN
  6
CONTINUOUS
 62
40
 10
1.2746801E+002
 20
1.9822581E+002
 40
1.0025999
 50
9.0047026E+001
 51
1.3097887E+002
  0
LINE
  8
2D_SICHTBARE_KANTEN
  6
CONTINUOUS
 62
40
 10
1.2719219E+002
 20
1.9918941E+002
 11
1.2719219E+002
 21
2.0122841E+002
  0
LINE
  8
2D_SICHTBARE_KANTEN
  6
CONTINUOUS
 62
40
 10
1.2719219E+002
 20
2.0122841E+002
 11
1.3219219E+002
 21
2.0122841E+002
  0
ARC
  8
2D_SICHTBARE_KANTEN
  6
CONTINUOUS
 62
40
 10
4.0906727E+002
 20
1.8922841E+002
 40
1.3462912E+001
 50
3.4493151E+002
 51
3.7506849E+002
  0
ARC
  8
2D_SICHTBARE_KANTEN
  6
CONTINUOUS
 62
40
 10
1.508094E+002
 20
1.9772835E+002
 40
4.9999442
 50
2.2028545E+002
 51
2.6999862E+002
  0
ARC
  8
2D_SICHTBARE_KANTEN
  6
CONTINUOUS
 62
40
 10
1.5080934E+002
 20
1.8072844E+002
 40
4.9999673
 50
9.0000707E+001
 51
1.4587522E+002
  0
LINE
  8
2D_SICHTBARE_KANTEN
  6
CONTINUOUS
 62
40
 10
1.5970015E+002
 20
1.9272841E+002
 11
1.5890819E+002
 21
1.9836741E+002
  0
LINE
  8
2D_VERDECKTE_KANTEN
  6
HIDDEN
 62
1
 10
1.5970015E+002
 20
1.8572841E+002
 11
1.6017219E+002
 21
1.8908941E+002
  0
LINE
  8
2D_MITTELLINIEN
  6
CENTERLINE
 62
1
 10
1.4253019E+002
 20
1.7166532E+002
 11
1.4253019E+002
 21
2.1104184E+002
  0
LINE
  8
2D_MITTELLINIEN
  6
CENTERLINE
 62
1
 10
4.1253019E+002
 20
1.9460859E+002
 11
4.1253019E+002
 21
1.8332895E+002
  0
ARC
  8
2D_SICHTBARE_KANTEN
  6
CONTINUOUS
 62
40
 10
1.4253096E+002
 20
1.0023795E+002
 40
1.7499863E+001
 50
5.4761052E+001
 51
3.0520497E+002
  0
ARC
  8
2D_SICHTBARE_KANTEN
  6
CONTINUOUS
 62
40
 10
1.4253096E+002
 20
1.0023824E+002
 40
1.7499936E+001
 50
2.6999891E+002
 51
4.4999885E+002
  0
ARC
  8
2D_SICHTBARE_KANTEN
  6
CONTINUOUS
 62
40
 10
1.5839111E+002
 20
1.2270341E+002
 40
9.9999867
 50
2.348096E+002
 51
2.6938285E+002
  0
LINE
  8
2D_SICHTBARE_KANTEN
  6
CONTINUOUS
 62
40
 10
1.582834E+002
 20
1.1270401E+002
 11
2.038101E+002
 21
1.122617E+002
  0
LINE
  8
2D_SICHTBARE_KANTEN
  6
CONTINUOUS
 62
40
 10
4.1253082E+002
 20
1.1023801E+002
 11
2.038101E+002
 21
1.122617E+002
  0
ARC
  8
2D_SICHTBARE_KANTEN
  6
CONTINUOUS
 62
40
 10
4.1253218E+002
 20
1.0023833E+002
 40
9.9996803
 50
3.5999983E+002
 51
4.5000783E+002
  0
ARC
  8
2D_SICHTBARE_KANTEN
  6
CONTINUOUS
 62
40
 10
4.1253155E+002
 20
1.0023854E+002
 40
1.0000309E+001
 50
2.6999761E+002
 51
3.5999859E+002
  0
LINE
  8
2D_SICHTBARE_KANTEN
  6
CONTINUOUS
 62
40
 10
1.6224083E+002
 20
8.7810506E+001
 11
4.1253114E+002
 21
9.0238233E+001
  0
LINE
  8
2D_SICHTBARE_KANTEN
  6
CONTINUOUS
 62
40
 10
1.5829392E+002
 20
8.7772721E+001
 11
1.6224083E+002
 21
8.7810506E+001
  0
ARC
  8
2D_SICHTBARE_KANTEN
  6
CONTINUOUS
 62
40
 10
1.5839218E+002
 20
7.7773151E+001
 40
1.0000053E+001
 50
9.0563013E+001
 51
1.2525706E+002
  0
CIRCLE
  8
2D_SICHTBARE_KANTEN
  6
CONTINUOUS
 62
40
 10
1.4253096E+002
 20
1.0023874E+002
 40
4.5
  0
LINE
  8
2D_MITTELLINIEN
  6
CENTERLINE
 62
1
 10
1.4253019E+002
 20
7.8626684E+001
 11
1.4253156E+002
 21
1.2007977E+002
  0
LINE
  8
2D_SICHTBARE_KANTEN
  6
CONTINUOUS
 62
40
 10
1.4623958E+002
 20
1.0263288E+002
 11
1.4026257E+002
 21
9.6463414E+001
  0
LINE
  8
2D_SICHTBARE_KANTEN
  6
CONTINUOUS
 62
40
 10
1.3881823E+002
 20
9.7851535E+001
 11
1.4480807E+002
 21
1.0403122E+002
  0
LINE
  8
2D_MITTELLINIEN
  6
CENTERLINE
 62
1
 10
4.264214E+002
 20
1.0023812E+002
 11
1.1946963E+002
 21
1.0023812E+002
  0
LINE
  8
2D_MITTELLINIEN
  6
CENTERLINE
 62
1
 10
4.1253134E+002
 20
1.1338645E+002
 11
4.1253061E+002
 21
8.7089787E+001
  0
CIRCLE
  8
2D_SICHTBARE_KANTEN
  6
CONTINUOUS
 62
40
 10
1.425309E+002
 20
1.0023812E+002
 40
1.55E+001
  0
LINE
  8
2D_SICHTBARE_KANTEN
  6
CONTINUOUS
 62
40
 10
9.2198706E+001
 20
1.9918941E+002
 11
9.2198706E+001
 21
2.0122841E+002
  0
LINE
  8
2D_SICHTBARE_KANTEN
  6
CONTINUOUS
 62
40
 10
9.2198706E+001
 20
2.0122841E+002
 11
8.7198706E+001
 21
2.0122841E+002
  0
LINE
  8
2D_SICHTBARE_KANTEN
  6
CONTINUOUS
 62
40
 10
8.1698706E+001
 20
1.9272841E+002
 11
8.6698706E+001
 21
1.9272841E+002
  0
ARC
  8
2D_SICHTBARE_KANTEN
  6
CONTINUOUS
 62
40
 10
8.6698586E+001
 20
1.9772835E+002
 40
4.9999442
 50
2.7000138E+002
 51
3.1971455E+002
  0
LINE
  8
2D_SICHTBARE_KANTEN
  6
CONTINUOUS
 62
40
 10
8.1698706E+001
 20
1.8572841E+002
 11
8.6698706E+001
 21
1.8572841E+002
  0
ARC
  8
2D_SICHTBARE_KANTEN
  6
CONTINUOUS
 62
40
 10
8.6698645E+001
 20
1.8072844E+002
 40
4.9999673
 50
3.4124784E+001
 51
8.9999293E+001
  0
ARC
  8
2D_SICHTBARE_KANTEN
  6
CONTINUOUS
 62
40
 10
6.015906E+001
 20
1.8922791E+002
 40
9.5508783E-001
 50
1.7371846E+002
 51
1.8628154E+002
  0
LINE
  8
2D_SICHTBARE_KANTEN
  6
CONTINUOUS
 62
40
 10
5.9209706E+001
 20
1.8933241E+002
 11
5.9934706E+001
 21
1.9622841E+002
  0
LINE
  8
2D_SICHTBARE_KANTEN
  6
CONTINUOUS
 62
40
 10
5.9209706E+001
 20
1.8912341E+002
 11
6.0155706E+001
 21
1.8012341E+002
  0
ARC
  8
2D_SICHTBARE_KANTEN
  6
CONTINUOUS
 62
40
 10
6.1149041E+001
 20
1.8022714E+002
 40
9.9873645E-001
 50
1.8596192E+002
 51
2.7003818E+002
  0
LINE
  8
2D_SICHTBARE_KANTEN
  6
CONTINUOUS
 62
40
 10
6.1149706E+001
 20
1.7922841E+002
 11
9.1923706E+001
 21
1.7922841E+002
  0
ARC
  8
2D_SICHTBARE_KANTEN
  6
CONTINUOUS
 62
40
 10
9.1923662E+001
 20
1.8022927E+002
 40
1.0008653
 50
2.7000254E+002
 51
3.5196695E+002
  0
LINE
  8
2D_SICHTBARE_KANTEN
  6
CONTINUOUS
 62
40
 10
9.2914706E+001
 20
1.8008941E+002
 11
9.4178706E+001
 21
1.8908941E+002
  0
ARC
  8
2D_SICHTBARE_KANTEN
  6
CONTINUOUS
 62
40
 10
9.3194536E+001
 20
1.8922841E+002
 40
9.9393753E-001
 50
3.5196096E+002
 51
3.6803904E+002
  0
LINE
  8
2D_SICHTBARE_KANTEN
  6
CONTINUOUS
 62
40
 10
9.4178706E+001
 20
1.8936741E+002
 11
9.2914706E+001
 21
1.9836741E+002
  0
ARC
  8
2D_SICHTBARE_KANTEN
  6
CONTINUOUS
 62
40
 10
9.1925145E+001
 20
1.9822821E+002
 40
9.9930377E-001
 50
8.0070437
 51
4.9028712E+001
  0
ARC
  8
2D_SICHTBARE_KANTEN
  6
CONTINUOUS
 62
40
 10
9.1922883E+001
 20
1.9822581E+002
 40
1.0025999
 50
4.902113E+001
 51
8.9952974E+001
  0
LINE
  8
2D_SICHTBARE_KANTEN
  6
CONTINUOUS
 62
40
 10
9.1923706E+001
 20
1.9922841E+002
 11
8.7198706E+001
 21
1.9922841E+002
  0
ARC
  8
2D_SICHTBARE_KANTEN
  6
CONTINUOUS
 62
40
 10
7.4698706E+001
 20
1.8922841E+002
 40
1.3462912E+001
 50
1.6493151E+002
 51
1.9506849E+002
  0
LINE
  8
2D_SICHTBARE_KANTEN
  6
CONTINUOUS
 62
40
 10
6.1698706E+001
 20
1.8572841E+002
 11
8.1698706E+001
 21
1.8572841E+002
  0
ARC
  8
2D_SICHTBARE_KANTEN
  6
CONTINUOUS
 62
40
 10
6.8698706E+001
 20
1.8922841E+002
 40
1.3462912E+001
 50
3.4493151E+002
 51
3.7506849E+002
  0
LINE
  8
2D_SICHTBARE_KANTEN
  6
CONTINUOUS
 62
40
 10
8.1698706E+001
 20
1.9272841E+002
 11
6.1698706E+001
 21
1.9272841E+002
  0
LINE
  8
2D_SICHTBARE_KANTEN
  6
CONTINUOUS
 62
40
 10
6.6698706E+001
 20
1.9622841E+002
 11
6.6698706E+001
 21
1.9272841E+002
  0
LINE
  8
2D_SICHTBARE_KANTEN
  6
CONTINUOUS
 62
40
 10
6.6698706E+001
 20
1.9272841E+002
 11
7.6698706E+001
 21
1.9272841E+002
  0
LINE
  8
2D_SICHTBARE_KANTEN
  6
CONTINUOUS
 62
40
 10
7.6698706E+001
 20
1.9272841E+002
 11
7.6698706E+001
 21
1.9622841E+002
  0
LINE
  8
2D_SICHTBARE_KANTEN
  6
CONTINUOUS
 62
40
 10
6.4698706E+001
 20
2.0722841E+002
 11
6.4698706E+001
 21
2.0922841E+002
  0
LINE
  8
2D_SICHTBARE_KANTEN
  6
CONTINUOUS
 62
40
 10
6.4698706E+001
 20
2.0922841E+002
 11
7.8698706E+001
 21
2.0922841E+002
  0
LINE
  8
2D_SICHTBARE_KANTEN
  6
CONTINUOUS
 62
40
 10
7.8698706E+001
 20
2.0922841E+002
 11
7.8698706E+001
 21
2.0722841E+002
  0
LINE
  8
2D_SICHTBARE_KANTEN
  6
CONTINUOUS
 62
40
 10
6.3698706E+001
 20
2.0022841E+002
 11
6.1198706E+001
 21
2.0022841E+002
  0
LINE
  8
2D_SICHTBARE_KANTEN
  6
CONTINUOUS
 62
40
 10
6.1198706E+001
 20
2.0022841E+002
 11
6.0198706E+001
 21
2.0122841E+002
  0
LINE
  8
2D_SICHTBARE_KANTEN
  6
CONTINUOUS
 62
40
 10
6.0198706E+001
 20
2.0122841E+002
 11
6.0198706E+001
 21
2.1122841E+002
  0
LINE
  8
2D_SICHTBARE_KANTEN
  6
CONTINUOUS
 62
40
 10
6.0198706E+001
 20
2.1122841E+002
 11
6.1198706E+001
 21
2.1222841E+002
  0
LINE
  8
2D_SICHTBARE_KANTEN
  6
CONTINUOUS
 62
40
 10
6.1198706E+001
 20
2.1222841E+002
 11
6.2198706E+001
 21
2.1222841E+002
  0
LINE
  8
2D_SICHTBARE_KANTEN
  6
CONTINUOUS
 62
40
 10
6.2198706E+001
 20
2.1222841E+002
 11
6.2198706E+001
 21
2.0722841E+002
  0
LINE
  8
2D_SICHTBARE_KANTEN
  6
CONTINUOUS
 62
40
 10
6.2198706E+001
 20
2.0722841E+002
 11
8.1198706E+001
 21
2.0722841E+002
  0
LINE
  8
2D_SICHTBARE_KANTEN
  6
CONTINUOUS
 62
40
 10
8.1198706E+001
 20
2.0722841E+002
 11
8.1198706E+001
 21
2.1222841E+002
  0
LINE
  8
2D_SICHTBARE_KANTEN
  6
CONTINUOUS
 62
40
 10
8.1198706E+001
 20
2.1222841E+002
 11
8.2198706E+001
 21
2.1222841E+002
  0
LINE
  8
2D_SICHTBARE_KANTEN
  6
CONTINUOUS
 62
40
 10
8.2198706E+001
 20
2.1222841E+002
 11
8.3198706E+001
 21
2.1122841E+002
  0
LINE
  8
2D_SICHTBARE_KANTEN
  6
CONTINUOUS
 62
40
 10
8.3198706E+001
 20
2.1122841E+002
 11
8.3198706E+001
 21
2.0122841E+002
  0
LINE
  8
2D_SICHTBARE_KANTEN
  6
CONTINUOUS
 62
40
 10
8.3198706E+001
 20
2.0122841E+002
 11
8.2198706E+001
 21
2.0022841E+002
  0
LINE
  8
2D_SICHTBARE_KANTEN
  6
CONTINUOUS
 62
40
 10
8.2198706E+001
 20
2.0022841E+002
 11
7.9698706E+001
 21
2.0022841E+002
  0
LINE
  8
2D_SICHTBARE_KANTEN
  6
CONTINUOUS
 62
40
 10
7.9698706E+001
 20
2.0022841E+002
 11
7.9698706E+001
 21
1.9622841E+002
  0
LINE
  8
2D_SICHTBARE_KANTEN
  6
CONTINUOUS
 62
40
 10
7.9698706E+001
 20
1.9622841E+002
 11
6.3698706E+001
 21
1.9622841E+002
  0
LINE
  8
2D_SICHTBARE_KANTEN
  6
CONTINUOUS
 62
40
 10
6.3698706E+001
 20
1.9622841E+002
 11
6.3698706E+001
 21
2.0022841E+002
  0
LINE
  8
2D_MITTELLINIEN
  6
CENTERLINE
 62
1
 10
7.1638706E+001
 20
1.8429641E+002
 11
7.1698706E+001
 21
2.1164141E+002
  0
ARC
  8
2D_SICHTBARE_KANTEN
  6
CONTINUOUS
 62
40
 10
8.6198334E+001
 20
2.1522804E+002
 40
1.0003723
 50
2.1319473E-002
 51
8.9978681E+001
  0
LINE
  8
2D_SICHTBARE_KANTEN
  6
CONTINUOUS
 62
40
 10
8.7198706E+001
 20
2.1522841E+002
 11
8.7198706E+001
 21
1.9722841E+002
  0
ARC
  8
2D_SICHTBARE_KANTEN
  6
CONTINUOUS
 62
40
 10
8.6198597E+001
 20
1.9722852E+002
 40
1.0001095
 50
2.7000627E+002
 51
3.5999373E+002
  0
LINE
  8
2D_SICHTBARE_KANTEN
  6
CONTINUOUS
 62
40
 10
8.6198706E+001
 20
1.9622841E+002
 11
8.0698706E+001
 21
1.9622841E+002
  0
LINE
  8
2D_SICHTBARE_KANTEN
  6
CONTINUOUS
 62
40
 10
8.0698706E+001
 20
1.9622841E+002
 11
8.0698706E+001
 21
1.9922841E+002
  0
LINE
  8
2D_SICHTBARE_KANTEN
  6
CONTINUOUS
 62
40
 10
8.0698706E+001
 20
1.9922841E+002
 11
8.4258706E+001
 21
1.9922841E+002
  0
LINE
  8
2D_SICHTBARE_KANTEN
  6
CONTINUOUS
 62
40
 10
8.4258706E+001
 20
1.9922841E+002
 11
8.4258706E+001
 21
2.1322841E+002
  0
LINE
  8
2D_SICHTBARE_KANTEN
  6
CONTINUOUS
 62
40
 10
8.4258706E+001
 20
2.1322841E+002
 11
5.9138706E+001
 21
2.1322841E+002
  0
LINE
  8
2D_SICHTBARE_KANTEN
  6
CONTINUOUS
 62
40
 10
5.9138706E+001
 20
2.1322841E+002
 11
5.9138706E+001
 21
1.9922841E+002
  0
LINE
  8
2D_SICHTBARE_KANTEN
  6
CONTINUOUS
 62
40
 10
5.9138706E+001
 20
1.9922841E+002
 11
6.2698706E+001
 21
1.9922841E+002
  0
LINE
  8
2D_SICHTBARE_KANTEN
  6
CONTINUOUS
 62
40
 10
6.2698706E+001
 20
1.9922841E+002
 11
6.2698706E+001
 21
1.9622841E+002
  0
LINE
  8
2D_SICHTBARE_KANTEN
  6
CONTINUOUS
 62
40
 10
5.7198706E+001
 20
2.1622841E+002
 11
8.6198706E+001
 21
2.1622841E+002
  0
LINE
  8
2D_SICHTBARE_KANTEN
  6
CONTINUOUS
 62
40
 10
5.6198706E+001
 20
1.9722841E+002
 11
5.6198706E+001
 21
2.1522841E+002
  0
ARC
  8
2D_SICHTBARE_KANTEN
  6
CONTINUOUS
 62
40
 10
5.7198989E+001
 20
2.1522813E+002
 40
1.0002829
 50
9.0016204E+001
 51
1.799838E+002
  0
LINE
  8
2D_SICHTBARE_KANTEN
  6
CONTINUOUS
 62
40
 10
6.2698706E+001
 20
1.9622841E+002
 11
5.7198706E+001
 21
1.9622841E+002
  0
LINE
  8
2D_MITTELLINIEN
  6
CENTERLINE
 62
1
 10
7.6698706E+001
 20
1.6736141E+002
 11
7.6698706E+001
 21
1.9622841E+002
  0
LINE
  8
2D_SICHTBARE_KANTEN
  6
CONTINUOUS
 62
40
 10
1.7453019E+002
 20
2.1622841E+002
 11
4.7453019E+002
 21
2.1622841E+002
  0
LINE
  8
2D_SICHTBARE_KANTEN
  6
CONTINUOUS
 62
40
 10
1.7453019E+002
 20
1.9622841E+002
 11
4.7453019E+002
 21
1.9622841E+002
  0
LINE
  8
2D_SICHTBARE_KANTEN
  6
CONTINUOUS
 62
40
 10
1.7453019E+002
 20
2.1622841E+002
 11
1.7453019E+002
 21
1.9622841E+002
  0
LINE
  8
2D_VERDECKTE_KANTEN
  6
HIDDEN
 62
1
 10
1.7453019E+002
 20
2.1322841E+002
 11
4.7453019E+002
 21
2.1322841E+002
  0
LINE
  8
2D_VERDECKTE_KANTEN
  6
HIDDEN
 62
1
 10
1.7453019E+002
 20
1.9922841E+002
 11
4.7453019E+002
 21
1.9922841E+002
  0
LINE
  8
2D_SICHTBARE_KANTEN
  6
CONTINUOUS
 62
40
 10
4.7453019E+002
 20
2.1622841E+002
 11
4.7453019E+002
 21
1.9622841E+002
  0
LINE
  8
2D_SICHTBARE_KANTEN
  6
CONTINUOUS
 62
40
 10
4.8703019E+002
 20
2.1622841E+002
 11
4.8703019E+002
 21
1.9622841E+002
  0
LINE
  8
2D_SICHTBARE_KANTEN
  6
CONTINUOUS
 62
40
 10
4.8703019E+002
 20
2.1622841E+002
 11
4.7453019E+002
 21
2.1622841E+002
  0
LINE
  8
2D_SICHTBARE_KANTEN
  6
CONTINUOUS
 62
40
 10
4.8703019E+002
 20
1.9622841E+002
 11
4.7453019E+002
 21
1.9622841E+002
  0
LINE
  8
2D_SICHTBARE_KANTEN
  6
CONTINUOUS
 62
40
 10
1.6203019E+002
 20
2.1622841E+002
 11
1.6203019E+002
 21
1.9622841E+002
  0
LINE
  8
2D_SICHTBARE_KANTEN
  6
CONTINUOUS
 62
40
 10
1.6203019E+002
 20
2.1622841E+002
 11
1.7453019E+002
 21
2.1622841E+002
  0
LINE
  8
2D_SICHTBARE_KANTEN
  6
CONTINUOUS
 62
40
 10
1.6203019E+002
 20
1.9622841E+002
 11
1.7453019E+002
 21
1.9622841E+002
  0
DIMENSION
  8
2D_BEMASSUNG
  6
CONTINUOUS
 62
1
  2
*D476
  3
DSTYLE2
 10
4.7453019E+002
 20
2.4083245E+002
 11
3.5625834E+002
 21
2.4483345E+002
 70
128
 13
1.7453019E+002
 23
2.1622841E+002
 14
4.7453019E+002
 24
2.1622841E+002
 40
5.0
 50
0.0
  0
LINE
  8
2D_MITTELLINIEN
  6
CENTERLINE
 62
1
 10
1.8153019E+002
 20
2.1622841E+002
 11
1.8153019E+002
 21
1.9622841E+002
  0
LINE
  8
2D_MITTELLINIEN
  6
CENTERLINE
 62
1
 10
4.6753019E+002
 20
2.1622841E+002
 11
4.6753019E+002
 21
1.9622841E+002
  0
LINE
  8
2D_MITTELLINIEN
  6
CENTERLINE
 62
1
 10
1.7453019E+002
 20
2.0622841E+002
 11
1.903581E+002
 21
2.0622841E+002
  0
LINE
  8
2D_MITTELLINIEN
  6
CENTERLINE
 62
1
 10
4.593413E+002
 20
2.0622841E+002
 11
4.7453019E+002
 21
2.0622841E+002
  0
CIRCLE
  8
2D_SICHTBARE_KANTEN
  6
CONTINUOUS
 62
40
 10
4.6753019E+002
 20
2.0622841E+002
 40
6.0
  0
CIRCLE
  8
2D_SICHTBARE_KANTEN
  6
CONTINUOUS
 62
40
 10
4.6753019E+002
 20
2.0622841E+002
 40
3.0
  0
CIRCLE
  8
2D_SICHTBARE_KANTEN
  6
CONTINUOUS
 62
40
 10
1.8153019E+002
 20
2.0622841E+002
 40
3.0
  0
CIRCLE
  8
2D_SICHTBARE_KANTEN
  6
CONTINUOUS
 62
40
 10
1.8153019E+002
 20
2.0622841E+002
 40
6.0
  0
LINE
  8
2D_VERDECKTE_KANTEN
  6
HIDDEN
 62
1
 10
3.9503019E+002
 20
2.1222841E+002
 11
4.3003019E+002
 21
2.1222841E+002
  0
LINE
  8
2D_SICHTBARE_KANTEN
  6
CONTINUOUS
 62
40
 10
3.9358046E+002
 20
1.9622841E+002
 11
4.2858046E+002
 21
1.9622841E+002
  0
LINE
  8
2D_SICHTBARE_KANTEN
  6
CONTINUOUS
 62
40
 10
6.3698706E+001
 20
2.0022841E+002
 11
7.6593652E+001
 21
2.0022841E+002
  0
LINE
  8
2D_SICHTBARE_KANTEN
  6
CONTINUOUS
 62
40
 10
7.6593652E+001
 20
2.0022841E+002
 11
7.9698706E+001
 21
2.0022841E+002
  0
LINE
  8
2D_VERDECKTE_KANTEN
  6
HIDDEN
 62
1
 10
3.9503019E+002
 20
2.0022841E+002
 11
4.3003019E+002
 21
2.0022841E+002
  0
LINE
  8
2D_VERDECKTE_KANTEN
  6
HIDDEN
 62
1
 10
4.3003019E+002
 20
1.9622841E+002
 11
4.3003019E+002
 21
2.1222841E+002
  0
LINE
  8
2D_MITTELLINIEN
  6
CENTERLINE
 62
1
 10
4.1253019E+002
 20
1.9282357E+002
 11
4.1253019E+002
 21
2.153368E+002
  0
LINE
  8
2D_VERDECKTE_KANTEN
  6
HIDDEN
 62
1
 10
3.9503019E+002
 20
1.9622841E+002
 11
3.9503019E+002
 21
2.1222841E+002
  0
LINE
  8
2D_VERDECKTE_KANTEN
  6
HIDDEN
 62
1
 10
3.9503019E+002
 20
2.0722841E+002
 11
4.3003019E+002
 21
2.0722841E+002
  0
LINE
  8
2D_SICHTBARE_KANTEN
  6
CONTINUOUS
 62
40
 10
4.0753019E+002
 20
1.9622841E+002
 11
4.0753019E+002
 21
1.9272841E+002
  0
LINE
  8
2D_SICHTBARE_KANTEN
  6
CONTINUOUS
 62
40
 10
4.1753019E+002
 20
1.9272841E+002
 11
4.1753019E+002
 21
1.9622841E+002
  0
CIRCLE
  8
2D_SICHTBARE_KANTEN
  6
CONTINUOUS
 62
40
 10
4.1253098E+002
 20
1.0023812E+002
 40
3.25
  0
DIMENSION
  8
2D_BEMASSUNG
  6
CONTINUOUS
 62
1
  2
*D497
  3
DSTYLE2
 10
1.4253019E+002
 20
1.6266273E+002
 11
2.7906638E+002
 21
1.6666373E+002
 70
128
 13
4.1253019E+002
 23
1.8332895E+002
 14
1.4253019E+002
 24
1.7166532E+002
 40
5.0
 50
0.0
  0
DIMENSION
  8
2D_BEMASSUNG
  6
CONTINUOUS
 62
1
  2
*D498
  3
DSTYLE2
 10
1.8153019E+002
 20
2.2653564E+002
 11
3.2714591E+002
 21
2.3053664E+002
 70
128
 13
4.6753019E+002
 23
2.1622841E+002
 14
1.8153019E+002
 24
2.1622841E+002
 40
5.0
 50
0.0
  0
LINE
  8
2D_SICHTBARE_KANTEN
  6
CONTINUOUS
 62
40
 10
4.7453019E+002
 20
2.8221595E+002
 11
4.7453019E+002
 21
3.1321595E+002
  0
LINE
  8
2D_SICHTBARE_KANTEN
  6
CONTINUOUS
 62
40
 10
1.7453019E+002
 20
2.8221595E+002
 11
1.7453019E+002
 21
3.1321595E+002
  0
LINE
  8
2D_SICHTBARE_KANTEN
  6
CONTINUOUS
 62
40
 10
4.7453019E+002
 20
3.1321595E+002
 11
1.7453019E+002
 21
3.1321595E+002
  0
LINE
  8
2D_SICHTBARE_KANTEN
  6
CONTINUOUS
 62
40
 10
4.7453019E+002
 20
2.8221595E+002
 11
1.7453019E+002
 21
2.8221595E+002
  0
LINE
  8
2D_SICHTBARE_KANTEN
  6
CONTINUOUS
 62
40
 10
4.8703019E+002
 20
2.9471595E+002
 11
4.8703019E+002
 21
3.1321595E+002
  0
LINE
  8
2D_SICHTBARE_KANTEN
  6
CONTINUOUS
 62
40
 10
1.6203019E+002
 20
2.9471595E+002
 11
1.6203019E+002
 21
3.1321595E+002
  0
LINE
  8
2D_SICHTBARE_KANTEN
  6
CONTINUOUS
 62
40
 10
4.7453019E+002
 20
3.1321595E+002
 11
4.8703019E+002
 21
3.1321595E+002
  0
LINE
  8
2D_SICHTBARE_KANTEN
  6
CONTINUOUS
 62
40
 10
1.7453019E+002
 20
3.1321595E+002
 11
1.6203019E+002
 21
3.1321595E+002
  0
ARC
  8
2D_SICHTBARE_KANTEN
  6
CONTINUOUS
 62
40
 10
4.7453019E+002
 20
2.9471595E+002
 40
1.25E+001
 50
2.7E+002
 51
3.6E+002
  0
ARC
  8
2D_SICHTBARE_KANTEN
  6
CONTINUOUS
 62
40
 10
1.7453019E+002
 20
2.9471595E+002
 40
1.25E+001
 50
1.8E+002
 51
2.7E+002
  0
LINE
  8
2D_VERDECKTE_KANTEN
  6
HIDDEN
 62
1
 10
4.7453019E+002
 20
2.8516595E+002
 11
1.7453019E+002
 21
2.8516595E+002
  0
LINE
  8
2D_VERDECKTE_KANTEN
  6
HIDDEN
 62
1
 10
4.7453019E+002
 20
3.1026595E+002
 11
1.7453019E+002
 21
3.1026595E+002
  0
LINE
  8
2D_VERDECKTE_KANTEN
  6
HIDDEN
 62
1
 10
4.6103019E+002
 20
2.8516595E+002
 11
4.6103019E+002
 21
3.1026595E+002
  0
LINE
  8
2D_VERDECKTE_KANTEN
  6
HIDDEN
 62
1
 10
1.8803019E+002
 20
2.8516595E+002
 11
1.8803019E+002
 21
3.1026595E+002
  0
LINE
  8
2D_MITTELLINIEN
  6
CENTERLINE
 62
1
 10
1.8153019E+002
 20
2.7333632E+002
 11
1.8153019E+002
 21
3.1791429E+002
  0
LINE
  8
2D_MITTELLINIEN
  6
CENTERLINE
 62
1
 10
4.6753019E+002
 20
2.7408553E+002
 11
4.6753019E+002
 21
3.182889E+002
  0
LINE
  8
2D_VERDECKTE_KANTEN
  6
HIDDEN
 62
1
 10
1.7553019E+002
 20
2.8221595E+002
 11
1.7853019E+002
 21
2.8516595E+002
  0
LINE
  8
2D_VERDECKTE_KANTEN
  6
HIDDEN
 62
1
 10
1.8753019E+002
 20
2.8221595E+002
 11
1.8453019E+002
 21
2.8516595E+002
  0
LINE
  8
2D_VERDECKTE_KANTEN
  6
HIDDEN
 62
1
 10
4.6153019E+002
 20
2.8221595E+002
 11
4.6453019E+002
 21
2.8516595E+002
  0
LINE
  8
2D_VERDECKTE_KANTEN
  6
HIDDEN
 62
1
 10
4.7353019E+002
 20
2.8221595E+002
 11
4.7053019E+002
 21
2.8516595E+002
  0
LINE
  8
2D_VERDECKTE_KANTEN
  6
HIDDEN
 62
1
 10
1.8503019E+002
 20
3.1026595E+002
 11
1.8503019E+002
 21
3.1321595E+002
  0
LINE
  8
2D_VERDECKTE_KANTEN
  6
HIDDEN
 62
1
 10
1.7803019E+002
 20
3.1026595E+002
 11
1.7803019E+002
 21
3.1321595E+002
  0
LINE
  8
2D_VERDECKTE_KANTEN
  6
HIDDEN
 62
1
 10
4.6403019E+002
 20
3.1026595E+002
 11
4.6403019E+002
 21
3.1321595E+002
  0
LINE
  8
2D_VERDECKTE_KANTEN
  6
HIDDEN
 62
1
 10
4.7103019E+002
 20
3.1026595E+002
 11
4.7103019E+002
 21
3.1321595E+002
  0
CIRCLE
  8
2D_SICHTBARE_KANTEN
  6
CONTINUOUS
 62
40
 10
4.4953019E+002
 20
2.9771595E+002
 40
3.5
  0
CIRCLE
  8
2D_VERDECKTE_KANTEN
  6
HIDDEN
 62
1
 10
4.4953019E+002
 20
2.9771595E+002
 40
6.0
  0
CIRCLE
  8
2D_VERDECKTE_KANTEN
  6
HIDDEN
 62
1
 10
1.9898576E+002
 20
2.9771595E+002
 40
6.0
  0
CIRCLE
  8
2D_SICHTBARE_KANTEN
  6
CONTINUOUS
 62
40
 10
1.9898576E+002
 20
2.9771595E+002
 40
3.5
  0
LINE
  8
2D_BEMASSUNG
  6
CONTINUOUS
 62
1
 10
4.4953019E+002
 20
2.9771595E+002
 11
4.4953019E+002
 21
2.9771595E+002
  0
LINE
  8
2D_BEMASSUNG
  6
CONTINUOUS
 62
1
 10
4.4953019E+002
 20
2.9771595E+002
 11
4.4953019E+002
 21
2.9771595E+002
  0
LINE
  8
2D_BEMASSUNG
  6
CONTINUOUS
 62
1
 10
4.4953019E+002
 20
2.9771595E+002
 11
4.5653019E+002
 21
2.9771595E+002
  0
LINE
  8
2D_BEMASSUNG
  6
CONTINUOUS
 62
1
 10
4.4953019E+002
 20
2.9771595E+002
 11
4.4953019E+002
 21
3.0471595E+002
  0
LINE
  8
2D_BEMASSUNG
  6
CONTINUOUS
 62
1
 10
4.4953019E+002
 20
2.9771595E+002
 11
4.4253019E+002
 21
2.9771595E+002
  0
LINE
  8
2D_BEMASSUNG
  6
CONTINUOUS
 62
1
 10
4.4953019E+002
 20
2.9771595E+002
 11
4.4953019E+002
 21
2.9071595E+002
  0
LINE
  8
2D_BEMASSUNG
  6
CONTINUOUS
 62
1
 10
1.9898576E+002
 20
2.9771595E+002
 11
1.9898576E+002
 21
2.9771595E+002
  0
LINE
  8
2D_BEMASSUNG
  6
CONTINUOUS
 62
1
 10
1.9898576E+002
 20
2.9771595E+002
 11
1.9898576E+002
 21
2.9771595E+002
  0
LINE
  8
2D_BEMASSUNG
  6
CONTINUOUS
 62
1
 10
1.9898576E+002
 20
2.9771595E+002
 11
2.0598576E+002
 21
2.9771595E+002
  0
LINE
  8
2D_BEMASSUNG
  6
CONTINUOUS
 62
1
 10
1.9898576E+002
 20
2.9771595E+002
 11
1.9898576E+002
 21
3.0471595E+002
  0
LINE
  8
2D_BEMASSUNG
  6
CONTINUOUS
 62
1
 10
1.9898576E+002
 20
2.9771595E+002
 11
1.9198576E+002
 21
2.9771595E+002
  0
LINE
  8
2D_BEMASSUNG
  6
CONTINUOUS
 62
1
 10
1.9898576E+002
 20
2.9771595E+002
 11
1.9898576E+002
 21
2.9071595E+002
  0
DIMENSION
  8
2D_BEMASSUNG
  6
CONTINUOUS
 62
1
  2
*D539
  3
DSTYLE2
 10
1.8153019E+002
 20
3.4112925E+002
 11
3.3911997E+002
 21
3.4513025E+002
 70
128
 13
4.6753019E+002
 23
3.2065542E+002
 14
1.8153019E+002
 24
3.2028081E+002
 40
5.0
 50
0.0
  0
DIMENSION
  8
2D_BEMASSUNG
  6
CONTINUOUS
 62
1
  2
*D540
  3
DSTYLE2
 10
1.6203019E+002
 20
3.5540602E+002
 11
3.6214702E+002
 21
3.5940702E+002
 70
128
 13
4.8703019E+002
 23
3.1321595E+002
 14
1.6203019E+002
 24
3.1321595E+002
 40
5.0
 50
0.0
  0
DIMENSION
  8
2D_BEMASSUNG
  6
CONTINUOUS
 62
1
  1
250
  2
*D541
  3
DSTYLE2
 10
1.9898576E+002
 20
3.259314E+002
 11
3.2069834E+002
 21
3.299324E+002
 70
128
 13
4.4953019E+002
 23
3.0471595E+002
 14
1.9898576E+002
 24
3.0471595E+002
 40
5.0
 50
0.0
  0
DIMENSION
  8
2D_BEMASSUNG
  6
CONTINUOUS
 62
1
  2
*D542
  3
DSTYLE2
 10
5.0504339E+002
 20
1.9622841E+002
 11
5.0104239E+002
 21
2.08546E+002
 70
128
 13
4.8703019E+002
 23
2.1622841E+002
 14
4.8703019E+002
 24
1.9622841E+002
 40
5.0
 50
9.0E+001
  0
INSERT
  2
*XH53
  8
2D_SCHRAFFUR
 10
7.1545822E+001
 20
2.0834729E+002
  0
TEXT
  8
2D_TEXT
  6
CONTINUOUS
 62
150
 10
4.0290044E+002
 20
1.4790765E+001
 40
7.0
  1
BTS-Zubehör Schwinghebel 7453N
 41
8.0E-001
  0
LINE
  8
2D_SICHTBARE_KANTEN
  6
CONTINUOUS
 62
40
 10
1.3607504E+001
 20
4.141414
 11
5.836075E+002
 21
4.141414
  0
LINE
  8
2D_SICHTBARE_KANTEN
  6
CONTINUOUS
 62
40
 10
5.836075E+002
 20
4.141414
 11
5.836075E+002
 21
4.1414141E+002
  0
LINE
  8
2D_SICHTBARE_KANTEN
  6
CONTINUOUS
 62
40
 10
5.9248196E+002
 20
4.2419913E+002
 11
2.2481963E+001
 21
4.2419913E+002
  0
LINE
  8
2D_SICHTBARE_KANTEN
  6
CONTINUOUS
 62
40
 10
1.3607504E+001
 20
4.1414141E+002
 11
1.3607504E+001
 21
4.141414
  0
LINE
  8
2D_SICHTBARE_KANTEN
  6
CONTINUOUS
 62
40
 10
1.3607504E+001
 20
4.1414141E+002
 11
5.836075E+002
 21
4.1414141E+002
  0
TEXT
  8
2D_TEXT
  6
CONTINUOUS
 62
150
 10
2.3665224E+001
 20
3.9935066E+002
 40
5.0
  1
M 1:1
 41
8.0E-001
  0
ENDSEC
  0
EOF
