  0
SECTION
  2
HEADER
  9
$ACADVER
  1
AC1009
999
I-DEAS 8 Not Encoded
  9
$EXTMIN
 10
0.0
 20
0.0
  9
$EXTMAX
 10
5.94E+002
 20
4.2E+002
  9
$TEXTSIZE
 40
1.25E-001
  9
$LTSCALE
 40
1.0
  9
$CLAYER
  8
104
  9
$CECOLOR
 62
40
  9
$DIMASZ
 40
1.25E-001
  9
$DIMEXO
 40
6.25E-002
  9
$DIMDLI
 40
2.5E-001
  9
$DIMEXE
 40
1.25E-001
  9
$DIMTP
 40
5.0E-003
  9
$DIMTM
 40
-5.0E-003
  9
$DIMTXT
 40
3.0
  9
$DIMLIM
 70
0
  9
$DIMTIH
 70
1
  9
$DIMTOH
 70
1
  9
$DIMSE1
 70
0
  9
$DIMSE2
 70
0
  9
$DIMTAD
 70
0
  9
$DIMASO
 70
1
  9
$DIMALT
 70
0
  9
$DIMALTD
 70
0
  9
$DIMTOFL
 70
1
  9
$DIMTIX
 70
0
  9
$DIMSAH
 70
0
  9
$DIMTFAC
 40
1.0
  9
$DIMGAP
 40
6.25E-002
  9
$LUNITS
 70
2
  9
$LUPREC
 70
3
  9
$FILLETRAD
 40
2.0
  9
$AUNITS
 70
0
  9
$AUPREC
 70
1
  9
$CHAMFERA
 40
1.0E+001
  9
$CHAMFERB
 40
1.0E+001
  9
$ANGBASE
 50
0.0
  9
$ANGDIR
 70
0
  9
$PDMODE
 70
2
  9
$PDSIZE
 40
-1.0E-002
  9
$SPLINETYPE
 70
6
  0
ENDSEC
  0
SECTION
  2
TABLES
  0
TABLE
  2
LTYPE
 70
7
  0
LTYPE
  2
HIDDENNEW00
  3
_ 
 70
64
 72
65
 73
3
 40
4.5
 49
1.5
 49
-1.5
 49
1.5
  0
LTYPE
  2
HIDDENNEW01
  3
_ 
 70
64
 72
65
 73
3
 40
4.5
 49
1.5
 49
-1.5
 49
1.5
  0
LTYPE
  2
HIDDEN
  3
_ 
 70
64
 72
65
 73
3
 40
4.5
 49
1.5
 49
-1.5
 49
1.5
  0
LTYPE
  2
CENTERLINE
  3
_ 
 70
64
 72
65
 73
5
 40
3.0E+001
 49
1.2E+001
 49
-1.5
 49
3.0
 49
-1.5
 49
1.2E+001
  0
LTYPE
  2
PHANTOM
  3
_ 
 70
64
 72
65
 73
7
 40
2.95E+001
 49
9.5
 49
-1.5
 49
3.0
 49
-1.5
 49
3.0
 49
-1.5
 49
9.5
  0
LTYPE
  2
SHORT_DASH
  3
_ 
 70
64
 72
65
 73
3
 40
3.0
 49
7.5E-001
 49
-1.5
 49
7.5E-001
  0
LTYPE
  2
LONG_DASH
  3
_ 
 70
64
 72
65
 73
3
 40
9.0
 49
2.25
 49
-4.5
 49
2.25
  0
ENDTAB
  0
TABLE
  2
LAYER
 70
258
  0
LAYER
  2
MED-1
 70
0
 62
3
  6
HIDDENNEW00
  0
LAYER
  2
2
 70
0
 62
7
  6
CONTINUOUS
  0
LAYER
  2
3
 70
0
 62
7
  6
CONTINUOUS
  0
LAYER
  2
MED-4
 70
0
 62
2
  6
HIDDENNEW00
  0
LAYER
  2
MED-5
 70
0
 62
5
  6
HIDDENNEW00
  0
LAYER
  2
MED-6
 70
0
 62
6
  6
HIDDENNEW00
  0
LAYER
  2
7
 70
0
 62
7
  6
CONTINUOUS
  0
LAYER
  2
8
 70
0
 62
7
  6
CONTINUOUS
  0
LAYER
  2
9
 70
0
 62
7
  6
CONTINUOUS
  0
LAYER
  2
10
 70
0
 62
7
  6
CONTINUOUS
  0
LAYER
  2
MED-11
 70
0
 62
70
  6
HIDDENNEW00
  0
LAYER
  2
12
 70
0
 62
7
  6
CONTINUOUS
  0
LAYER
  2
13
 70
0
 62
7
  6
CONTINUOUS
  0
LAYER
  2
14
 70
0
 62
7
  6
CONTINUOUS
  0
LAYER
  2
15
 70
0
 62
7
  6
CONTINUOUS
  0
LAYER
  2
16
 70
0
 62
7
  6
CONTINUOUS
  0
LAYER
  2
17
 70
0
 62
7
  6
CONTINUOUS
  0
LAYER
  2
18
 70
0
 62
7
  6
CONTINUOUS
  0
LAYER
  2
19
 70
0
 62
7
  6
CONTINUOUS
  0
LAYER
  2
20
 70
0
 62
7
  6
CONTINUOUS
  0
LAYER
  2
21
 70
0
 62
7
  6
CONTINUOUS
  0
LAYER
  2
22
 70
0
 62
7
  6
CONTINUOUS
  0
LAYER
  2
23
 70
0
 62
7
  6
CONTINUOUS
  0
LAYER
  2
24
 70
0
 62
7
  6
CONTINUOUS
  0
LAYER
  2
25
 70
0
 62
7
  6
CONTINUOUS
  0
LAYER
  2
26
 70
0
 62
7
  6
CONTINUOUS
  0
LAYER
  2
27
 70
0
 62
7
  6
CONTINUOUS
  0
LAYER
  2
28
 70
0
 62
7
  6
CONTINUOUS
  0
LAYER
  2
29
 70
0
 62
7
  6
CONTINUOUS
  0
LAYER
  2
30
 70
0
 62
7
  6
CONTINUOUS
  0
LAYER
  2
31
 70
0
 62
7
  6
CONTINUOUS
  0
LAYER
  2
32
 70
0
 62
7
  6
CONTINUOUS
  0
LAYER
  2
33
 70
0
 62
7
  6
CONTINUOUS
  0
LAYER
  2
34
 70
0
 62
7
  6
CONTINUOUS
  0
LAYER
  2
35
 70
0
 62
7
  6
CONTINUOUS
  0
LAYER
  2
36
 70
0
 62
7
  6
CONTINUOUS
  0
LAYER
  2
37
 70
0
 62
7
  6
CONTINUOUS
  0
LAYER
  2
38
 70
0
 62
7
  6
CONTINUOUS
  0
LAYER
  2
39
 70
0
 62
7
  6
CONTINUOUS
  0
LAYER
  2
40
 70
0
 62
7
  6
CONTINUOUS
  0
LAYER
  2
41
 70
0
 62
7
  6
CONTINUOUS
  0
LAYER
  2
42
 70
0
 62
7
  6
CONTINUOUS
  0
LAYER
  2
43
 70
0
 62
7
  6
CONTINUOUS
  0
LAYER
  2
44
 70
0
 62
7
  6
CONTINUOUS
  0
LAYER
  2
45
 70
0
 62
7
  6
CONTINUOUS
  0
LAYER
  2
46
 70
0
 62
7
  6
CONTINUOUS
  0
LAYER
  2
47
 70
0
 62
7
  6
CONTINUOUS
  0
LAYER
  2
48
 70
0
 62
7
  6
CONTINUOUS
  0
LAYER
  2
49
 70
0
 62
7
  6
CONTINUOUS
  0
LAYER
  2
50
 70
0
 62
7
  6
CONTINUOUS
  0
LAYER
  2
51
 70
0
 62
7
  6
CONTINUOUS
  0
LAYER
  2
52
 70
0
 62
7
  6
CONTINUOUS
  0
LAYER
  2
53
 70
0
 62
7
  6
CONTINUOUS
  0
LAYER
  2
54
 70
0
 62
7
  6
CONTINUOUS
  0
LAYER
  2
55
 70
0
 62
7
  6
CONTINUOUS
  0
LAYER
  2
56
 70
0
 62
7
  6
CONTINUOUS
  0
LAYER
  2
57
 70
0
 62
7
  6
CONTINUOUS
  0
LAYER
  2
58
 70
0
 62
7
  6
CONTINUOUS
  0
LAYER
  2
59
 70
0
 62
7
  6
CONTINUOUS
  0
LAYER
  2
60
 70
0
 62
7
  6
CONTINUOUS
  0
LAYER
  2
61
 70
0
 62
7
  6
CONTINUOUS
  0
LAYER
  2
62
 70
0
 62
7
  6
CONTINUOUS
  0
LAYER
  2
63
 70
0
 62
7
  6
CONTINUOUS
  0
LAYER
  2
64
 70
0
 62
7
  6
CONTINUOUS
  0
LAYER
  2
65
 70
0
 62
7
  6
CONTINUOUS
  0
LAYER
  2
66
 70
0
 62
7
  6
CONTINUOUS
  0
LAYER
  2
67
 70
0
 62
7
  6
CONTINUOUS
  0
LAYER
  2
68
 70
0
 62
7
  6
CONTINUOUS
  0
LAYER
  2
69
 70
0
 62
7
  6
CONTINUOUS
  0
LAYER
  2
70
 70
0
 62
7
  6
CONTINUOUS
  0
LAYER
  2
71
 70
0
 62
7
  6
CONTINUOUS
  0
LAYER
  2
72
 70
0
 62
7
  6
CONTINUOUS
  0
LAYER
  2
73
 70
0
 62
7
  6
CONTINUOUS
  0
LAYER
  2
74
 70
0
 62
7
  6
CONTINUOUS
  0
LAYER
  2
75
 70
0
 62
7
  6
CONTINUOUS
  0
LAYER
  2
76
 70
0
 62
7
  6
CONTINUOUS
  0
LAYER
  2
77
 70
0
 62
7
  6
CONTINUOUS
  0
LAYER
  2
78
 70
0
 62
7
  6
CONTINUOUS
  0
LAYER
  2
79
 70
0
 62
7
  6
CONTINUOUS
  0
LAYER
  2
80
 70
0
 62
7
  6
CONTINUOUS
  0
LAYER
  2
81
 70
0
 62
7
  6
CONTINUOUS
  0
LAYER
  2
82
 70
0
 62
7
  6
CONTINUOUS
  0
LAYER
  2
83
 70
0
 62
7
  6
CONTINUOUS
  0
LAYER
  2
84
 70
0
 62
7
  6
CONTINUOUS
  0
LAYER
  2
85
 70
0
 62
7
  6
CONTINUOUS
  0
LAYER
  2
86
 70
0
 62
7
  6
CONTINUOUS
  0
LAYER
  2
87
 70
0
 62
7
  6
CONTINUOUS
  0
LAYER
  2
88
 70
0
 62
7
  6
CONTINUOUS
  0
LAYER
  2
89
 70
0
 62
7
  6
CONTINUOUS
  0
LAYER
  2
90
 70
0
 62
7
  6
CONTINUOUS
  0
LAYER
  2
91
 70
0
 62
7
  6
CONTINUOUS
  0
LAYER
  2
92
 70
0
 62
7
  6
CONTINUOUS
  0
LAYER
  2
93
 70
0
 62
7
  6
CONTINUOUS
  0
LAYER
  2
94
 70
0
 62
7
  6
CONTINUOUS
  0
LAYER
  2
95
 70
0
 62
7
  6
CONTINUOUS
  0
LAYER
  2
96
 70
0
 62
7
  6
CONTINUOUS
  0
LAYER
  2
97
 70
0
 62
7
  6
CONTINUOUS
  0
LAYER
  2
98
 70
0
 62
7
  6
CONTINUOUS
  0
LAYER
  2
99
 70
0
 62
7
  6
CONTINUOUS
  0
LAYER
  2
MED-0
 70
0
 62
230
  6
HIDDENNEW00
  0
LAYER
  2
101
 70
0
 62
7
  6
CONTINUOUS
  0
LAYER
  2
102
 70
0
 62
7
  6
CONTINUOUS
  0
LAYER
  2
103
 70
0
 62
7
  6
CONTINUOUS
  0
LAYER
  2
104
 70
0
 62
7
  6
CONTINUOUS
  0
LAYER
  2
105
 70
0
 62
7
  6
CONTINUOUS
  0
LAYER
  2
106
 70
0
 62
7
  6
CONTINUOUS
  0
LAYER
  2
107
 70
0
 62
7
  6
CONTINUOUS
  0
LAYER
  2
108
 70
0
 62
7
  6
CONTINUOUS
  0
LAYER
  2
Drafting_Hidden_Entities
 70
1
 62
7
  6
CONTINUOUS
  0
ENDTAB
  0
TABLE
  2
STYLE
 70
1
  0
STYLE
  2
STANDARD
 70
64
 40
0.0
 41
1.0
 50
0.0
 71
0
 42
1.0
  3
monotxt.shx
  4

  0
ENDTAB
  0
TABLE
  2
VIEW
 70
0
  0
ENDTAB
  0
TABLE
  2
DIMSTYLE
 70
1
  0
DIMSTYLE
  2
DSTYLE1
 70
0
  3

  4

  5

  6

  7

 40
1.0
 41
3.5
 42
1.0
 43
3.8E-001
 44
1.0
 45
0.0
 46
0.0
 47
1.0E-001
 48
1.0E-001
 71
0
 72
0
 73
0
 74
0
 75
0
 76
0
 77
1
 78
11
140
3.5
141
9.0E-002
142
0.0
143
1.0
144
1.0
145
0.0
146
1.0
147
1.1655
170
0
171
2
172
0
173
0
174
0
175
0
176
0
177
0
178
0
  0
ENDTAB
  0
ENDSEC
  0
SECTION
  2
BLOCKS
  0
BLOCK
  2
*AH13
  3
*AH
 10
0.0
 20
0.0
 70
65
  0
LINE
  8
MED-1
  6
CONTINUOUS
 62
0
 10
0.0
 20
0.0
 11
1.0
 21
-1.666679E-001
  0
LINE
  8
MED-1
  6
CONTINUOUS
 62
0
 10
1.0
 20
-1.666679E-001
 11
1.0
 21
1.66668E-001
  0
LINE
  8
MED-1
  6
CONTINUOUS
 62
0
 10
1.0
 20
1.66668E-001
 11
0.0
 21
0.0
  0
ENDBLK
  0
BLOCK
  2
*XH34
  3
*XH
 10
0.0
 20
0.0
 70
65
  0
LINE
  8
108
  6
CONTINUOUS
 62
1
 10
1.4689848E+001
 20
-1.4321915
 11
1.4857816E+001
 21
-1.2642225
  0
LINE
  8
108
  6
CONTINUOUS
 62
1
 10
1.4857816E+001
 20
-9.8138554E-001
 11
1.4407011E+001
 21
-1.4321915
  0
LINE
  8
108
  6
CONTINUOUS
 62
1
 10
1.4124143E+001
 20
-1.4321915
 11
1.4857816E+001
 21
-6.9854854E-001
  0
LINE
  8
108
  6
CONTINUOUS
 62
1
 10
1.4857816E+001
 20
-4.1571154E-001
 11
1.3841306E+001
 21
-1.4321915
  0
LINE
  8
108
  6
CONTINUOUS
 62
1
 10
1.3558469E+001
 20
-1.4321915
 11
1.4857816E+001
 21
-1.3287454E-001
  0
LINE
  8
108
  6
CONTINUOUS
 62
1
 10
1.4857816E+001
 20
1.5002246E-001
 11
1.3275632E+001
 21
-1.4321915
  0
LINE
  8
108
  6
CONTINUOUS
 62
1
 10
1.2992796E+001
 20
-1.4321915
 11
1.4857816E+001
 21
4.3285946E-001
  0
LINE
  8
108
  6
CONTINUOUS
 62
1
 10
1.4857816E+001
 20
7.1569646E-001
 11
1.2709928E+001
 21
-1.4321915
  0
LINE
  8
108
  6
CONTINUOUS
 62
1
 10
1.2427091E+001
 20
-1.4321915
 11
1.4857816E+001
 21
9.9853346E-001
  0
LINE
  8
108
  6
CONTINUOUS
 62
1
 10
1.4857816E+001
 20
1.2813705
 11
1.2144254E+001
 21
-1.4321915
  0
LINE
  8
108
  6
CONTINUOUS
 62
1
 10
1.1861417E+001
 20
-1.4321915
 11
1.4857816E+001
 21
1.5642075
  0
LINE
  8
108
  6
CONTINUOUS
 62
1
 10
1.457858E+001
 20
1.5678085
 11
1.157858E+001
 21
-1.4321915
  0
LINE
  8
108
  6
CONTINUOUS
 62
1
 10
1.1295713E+001
 20
-1.4321915
 11
1.4295713E+001
 21
1.5678085
  0
LINE
  8
108
  6
CONTINUOUS
 62
1
 10
1.4012876E+001
 20
1.5678085
 11
1.1012876E+001
 21
-1.4321915
  0
LINE
  8
108
  6
CONTINUOUS
 62
1
 10
1.0730039E+001
 20
-1.4321915
 11
1.3730039E+001
 21
1.5678085
  0
LINE
  8
108
  6
CONTINUOUS
 62
1
 10
1.3447202E+001
 20
1.5678085
 11
1.0447202E+001
 21
-1.4321915
  0
LINE
  8
108
  6
CONTINUOUS
 62
1
 10
1.0164365E+001
 20
-1.4321915
 11
1.3164365E+001
 21
1.5678085
  0
LINE
  8
108
  6
CONTINUOUS
 62
1
 10
1.2881498E+001
 20
1.5678085
 11
9.881498
 21
-1.4321915
  0
LINE
  8
108
  6
CONTINUOUS
 62
1
 10
9.598661
 20
-1.4321915
 11
1.2598661E+001
 21
1.5678085
  0
LINE
  8
108
  6
CONTINUOUS
 62
1
 10
1.2315824E+001
 20
1.5678085
 11
9.315824
 21
-1.4321915
  0
LINE
  8
108
  6
CONTINUOUS
 62
1
 10
9.032987
 20
-1.4321915
 11
1.2032987E+001
 21
1.5678085
  0
LINE
  8
108
  6
CONTINUOUS
 62
1
 10
1.175015E+001
 20
1.5678085
 11
8.75015
 21
-1.4321915
  0
LINE
  8
108
  6
CONTINUOUS
 62
1
 10
8.467313
 20
-1.4321915
 11
1.1467313E+001
 21
1.5678085
  0
LINE
  8
108
  6
CONTINUOUS
 62
1
 10
1.1184446E+001
 20
1.5678085
 11
8.184446
 21
-1.4321915
  0
LINE
  8
108
  6
CONTINUOUS
 62
1
 10
7.901609
 20
-1.4321915
 11
1.0901609E+001
 21
1.5678085
  0
LINE
  8
108
  6
CONTINUOUS
 62
1
 10
1.0618772E+001
 20
1.5678085
 11
7.618772
 21
-1.4321915
  0
LINE
  8
108
  6
CONTINUOUS
 62
1
 10
7.335935
 20
-1.4321915
 11
1.0335935E+001
 21
1.5678085
  0
LINE
  8
108
  6
CONTINUOUS
 62
1
 10
1.0053098E+001
 20
1.5678085
 11
7.053098
 21
-1.4321915
  0
LINE
  8
108
  6
CONTINUOUS
 62
1
 10
6.770231
 20
-1.4321915
 11
9.770231
 21
1.5678085
  0
LINE
  8
108
  6
CONTINUOUS
 62
1
 10
9.487394
 20
1.5678085
 11
6.487394
 21
-1.4321915
  0
LINE
  8
108
  6
CONTINUOUS
 62
1
 10
6.204557
 20
-1.4321915
 11
9.204557
 21
1.5678085
  0
LINE
  8
108
  6
CONTINUOUS
 62
1
 10
8.92172
 20
1.5678085
 11
5.92172
 21
-1.4321915
  0
LINE
  8
108
  6
CONTINUOUS
 62
1
 10
5.638883
 20
-1.4321915
 11
8.638883
 21
1.5678085
  0
LINE
  8
108
  6
CONTINUOUS
 62
1
 10
8.356016
 20
1.5678085
 11
5.356016
 21
-1.4321915
  0
LINE
  8
108
  6
CONTINUOUS
 62
1
 10
5.073179
 20
-1.4321915
 11
8.073179
 21
1.5678085
  0
LINE
  8
108
  6
CONTINUOUS
 62
1
 10
7.790342
 20
1.5678085
 11
4.790342
 21
-1.4321915
  0
LINE
  8
108
  6
CONTINUOUS
 62
1
 10
4.507505
 20
-1.4321915
 11
7.507505
 21
1.5678085
  0
LINE
  8
108
  6
CONTINUOUS
 62
1
 10
7.224668
 20
1.5678085
 11
4.224668
 21
-1.4321915
  0
LINE
  8
108
  6
CONTINUOUS
 62
1
 10
3.941831
 20
-1.4321915
 11
6.941801
 21
1.5678085
  0
LINE
  8
108
  6
CONTINUOUS
 62
1
 10
6.658964
 20
1.5678085
 11
3.658964
 21
-1.4321915
  0
LINE
  8
108
  6
CONTINUOUS
 62
1
 10
3.376127
 20
-1.4321915
 11
6.376127
 21
1.5678085
  0
LINE
  8
108
  6
CONTINUOUS
 62
1
 10
6.09329
 20
1.5678085
 11
3.09329
 21
-1.4321915
  0
LINE
  8
108
  6
CONTINUOUS
 62
1
 10
2.810453
 20
-1.4321915
 11
5.810453
 21
1.5678085
  0
LINE
  8
108
  6
CONTINUOUS
 62
1
 10
5.527616
 20
1.5678085
 11
2.527616
 21
-1.4321915
  0
LINE
  8
108
  6
CONTINUOUS
 62
1
 10
2.244749
 20
-1.4321915
 11
5.244749
 21
1.5678085
  0
LINE
  8
108
  6
CONTINUOUS
 62
1
 10
4.961912
 20
1.5678085
 11
1.961912
 21
-1.4321915
  0
LINE
  8
108
  6
CONTINUOUS
 62
1
 10
1.679075
 20
-1.4321915
 11
4.679075
 21
1.5678085
  0
LINE
  8
108
  6
CONTINUOUS
 62
1
 10
4.396238
 20
1.5678085
 11
1.396238
 21
-1.4321915
  0
LINE
  8
108
  6
CONTINUOUS
 62
1
 10
1.113401
 20
-1.4321915
 11
4.113401
 21
1.5678085
  0
LINE
  8
108
  6
CONTINUOUS
 62
1
 10
3.830534
 20
1.5678085
 11
8.3053403E-001
 21
-1.4321915
  0
LINE
  8
108
  6
CONTINUOUS
 62
1
 10
5.4769703E-001
 20
-1.4321915
 11
3.547697
 21
1.5678085
  0
LINE
  8
108
  6
CONTINUOUS
 62
1
 10
3.26486
 20
1.5678085
 11
2.6486003E-001
 21
-1.4321915
  0
LINE
  8
108
  6
CONTINUOUS
 62
1
 10
-1.7976974E-002
 20
-1.4321915
 11
2.982023
 21
1.5678085
  0
LINE
  8
108
  6
CONTINUOUS
 62
1
 10
2.699186
 20
1.5678085
 11
-3.0081397E-001
 21
-1.4321915
  0
LINE
  8
108
  6
CONTINUOUS
 62
1
 10
-5.8365097E-001
 20
-1.4321915
 11
2.416349
 21
1.5678085
  0
LINE
  8
108
  6
CONTINUOUS
 62
1
 10
2.133482
 20
1.5678085
 11
-8.6651797E-001
 21
-1.4321915
  0
LINE
  8
108
  6
CONTINUOUS
 62
1
 10
-1.149355
 20
-1.4321915
 11
1.850645
 21
1.5678085
  0
LINE
  8
108
  6
CONTINUOUS
 62
1
 10
1.567808
 20
1.5678085
 11
-1.432192
 21
-1.4321915
  0
LINE
  8
108
  6
CONTINUOUS
 62
1
 10
-1.715029
 20
-1.4321915
 11
1.284971
 21
1.5678085
  0
LINE
  8
108
  6
CONTINUOUS
 62
1
 10
1.002134
 20
1.5678085
 11
-1.997866
 21
-1.4321915
  0
LINE
  8
108
  6
CONTINUOUS
 62
1
 10
-2.280733
 20
-1.4321915
 11
7.1926703E-001
 21
1.5678085
  0
LINE
  8
108
  6
CONTINUOUS
 62
1
 10
4.3643003E-001
 20
1.5678085
 11
-2.56357
 21
-1.4321915
  0
LINE
  8
108
  6
CONTINUOUS
 62
1
 10
-2.846407
 20
-1.4321915
 11
1.5359303E-001
 21
1.5678085
  0
LINE
  8
108
  6
CONTINUOUS
 62
1
 10
-1.2924397E-001
 20
1.5678085
 11
-3.129244
 21
-1.4321915
  0
LINE
  8
108
  6
CONTINUOUS
 62
1
 10
-3.412081
 20
-1.4321915
 11
-4.1208097E-001
 21
1.5678085
  0
LINE
  8
108
  6
CONTINUOUS
 62
1
 10
-6.9494897E-001
 20
1.5678085
 11
-3.694949
 21
-1.4321915
  0
LINE
  8
108
  6
CONTINUOUS
 62
1
 10
-3.977785
 20
-1.4321915
 11
-9.7778497E-001
 21
1.5678085
  0
LINE
  8
108
  6
CONTINUOUS
 62
1
 10
-1.260622
 20
1.5678085
 11
-4.260622
 21
-1.4321915
  0
LINE
  8
108
  6
CONTINUOUS
 62
1
 10
-4.543459
 20
-1.4321915
 11
-1.543459
 21
1.5678085
  0
LINE
  8
108
  6
CONTINUOUS
 62
1
 10
-1.826296
 20
1.5678085
 11
-4.826296
 21
-1.4321915
  0
LINE
  8
108
  6
CONTINUOUS
 62
1
 10
-5.109133
 20
-1.4321915
 11
-2.109164
 21
1.5678085
  0
LINE
  8
108
  6
CONTINUOUS
 62
1
 10
-2.392001
 20
1.5678085
 11
-5.39197
 21
-1.4321915
  0
LINE
  8
108
  6
CONTINUOUS
 62
1
 10
-5.674837
 20
-1.4321915
 11
-2.674837
 21
1.5678085
  0
LINE
  8
108
  6
CONTINUOUS
 62
1
 10
-2.957674
 20
1.5678085
 11
-5.957674
 21
-1.4321915
  0
LINE
  8
108
  6
CONTINUOUS
 62
1
 10
-6.240511
 20
-1.4321915
 11
-3.240511
 21
1.5678085
  0
LINE
  8
108
  6
CONTINUOUS
 62
1
 10
-3.523348
 20
1.5678085
 11
-6.523348
 21
-1.4321915
  0
LINE
  8
108
  6
CONTINUOUS
 62
1
 10
-6.806185
 20
-1.4321915
 11
-3.806216
 21
1.5678085
  0
LINE
  8
108
  6
CONTINUOUS
 62
1
 10
-4.089053
 20
1.5678085
 11
-7.089053
 21
-1.4321915
  0
LINE
  8
108
  6
CONTINUOUS
 62
1
 10
-7.371889
 20
-1.4321915
 11
-4.371889
 21
1.5678085
  0
LINE
  8
108
  6
CONTINUOUS
 62
1
 10
-4.654726
 20
1.5678085
 11
-7.654726
 21
-1.4321915
  0
LINE
  8
108
  6
CONTINUOUS
 62
1
 10
-7.937563
 20
-1.4321915
 11
-4.937563
 21
1.5678085
  0
LINE
  8
108
  6
CONTINUOUS
 62
1
 10
-5.2204
 20
1.5678085
 11
-8.2204
 21
-1.4321915
  0
LINE
  8
108
  6
CONTINUOUS
 62
1
 10
-8.503268
 20
-1.4321915
 11
-5.503268
 21
1.5678085
  0
LINE
  8
108
  6
CONTINUOUS
 62
1
 10
-5.786105
 20
1.5678085
 11
-8.786105
 21
-1.4321915
  0
LINE
  8
108
  6
CONTINUOUS
 62
1
 10
-9.068941
 20
-1.4321915
 11
-6.068941
 21
1.5678085
  0
LINE
  8
108
  6
CONTINUOUS
 62
1
 10
-6.351778
 20
1.5678085
 11
-9.351778
 21
-1.4321915
  0
LINE
  8
108
  6
CONTINUOUS
 62
1
 10
-9.634615
 20
-1.4321915
 11
-6.634615
 21
1.5678085
  0
LINE
  8
108
  6
CONTINUOUS
 62
1
 10
-6.917483
 20
1.5678085
 11
-9.917483
 21
-1.4321915
  0
LINE
  8
108
  6
CONTINUOUS
 62
1
 10
-1.020032E+001
 20
-1.4321915
 11
-7.20032
 21
1.5678085
  0
LINE
  8
108
  6
CONTINUOUS
 62
1
 10
-7.483157
 20
1.5678085
 11
-1.0483157E+001
 21
-1.4321915
  0
LINE
  8
108
  6
CONTINUOUS
 62
1
 10
-1.0765993E+001
 20
-1.4321915
 11
-7.765993
 21
1.5678085
  0
LINE
  8
108
  6
CONTINUOUS
 62
1
 10
-8.04883
 20
1.5678085
 11
-1.104883E+001
 21
-1.4321915
  0
LINE
  8
108
  6
CONTINUOUS
 62
1
 10
-1.1331667E+001
 20
-1.4321915
 11
-8.331667
 21
1.5678085
  0
LINE
  8
108
  6
CONTINUOUS
 62
1
 10
-8.614535
 20
1.5678085
 11
-1.1614535E+001
 21
-1.4321915
  0
LINE
  8
108
  6
CONTINUOUS
 62
1
 10
-1.1897372E+001
 20
-1.4321915
 11
-8.897372
 21
1.5678085
  0
LINE
  8
108
  6
CONTINUOUS
 62
1
 10
-9.180209
 20
1.5678085
 11
-1.2180209E+001
 21
-1.4321915
  0
LINE
  8
108
  6
CONTINUOUS
 62
1
 10
-1.2463045E+001
 20
-1.4321915
 11
-9.463045
 21
1.5678085
  0
LINE
  8
108
  6
CONTINUOUS
 62
1
 10
-9.745882
 20
1.5678085
 11
-1.2745882E+001
 21
-1.4321915
  0
LINE
  8
108
  6
CONTINUOUS
 62
1
 10
-1.302875E+001
 20
-1.4321915
 11
-1.002875E+001
 21
1.5678085
  0
LINE
  8
108
  6
CONTINUOUS
 62
1
 10
-1.0311587E+001
 20
1.5678085
 11
-1.3311587E+001
 21
-1.4321915
  0
LINE
  8
108
  6
CONTINUOUS
 62
1
 10
-1.3594424E+001
 20
-1.4321915
 11
-1.0594424E+001
 21
1.5678085
  0
LINE
  8
108
  6
CONTINUOUS
 62
1
 10
-1.0877261E+001
 20
1.5678085
 11
-1.3877261E+001
 21
-1.4321915
  0
LINE
  8
108
  6
CONTINUOUS
 62
1
 10
-1.4160097E+001
 20
-1.4321915
 11
-1.1160097E+001
 21
1.5678085
  0
LINE
  8
108
  6
CONTINUOUS
 62
1
 10
-1.1442965E+001
 20
1.5678085
 11
-1.4442965E+001
 21
-1.4321915
  0
LINE
  8
108
  6
CONTINUOUS
 62
1
 10
-1.4725802E+001
 20
-1.4321915
 11
-1.1725802E+001
 21
1.5678085
  0
LINE
  8
108
  6
CONTINUOUS
 62
1
 10
-1.2008639E+001
 20
1.5678085
 11
-1.5008639E+001
 21
-1.4321915
  0
LINE
  8
108
  6
CONTINUOUS
 62
1
 10
-1.5291476E+001
 20
-1.4321915
 11
-1.2291476E+001
 21
1.5678085
  0
LINE
  8
108
  6
CONTINUOUS
 62
1
 10
-1.2574313E+001
 20
1.5678085
 11
-1.5574313E+001
 21
-1.4321915
  0
LINE
  8
108
  6
CONTINUOUS
 62
1
 10
-1.5857149E+001
 20
-1.4321915
 11
-1.2857149E+001
 21
1.5678085
  0
LINE
  8
108
  6
CONTINUOUS
 62
1
 10
-1.3140017E+001
 20
1.5678085
 11
-1.6140017E+001
 21
-1.4321915
  0
LINE
  8
108
  6
CONTINUOUS
 62
1
 10
-1.6422854E+001
 20
-1.4321915
 11
-1.3422854E+001
 21
1.5678085
  0
LINE
  8
108
  6
CONTINUOUS
 62
1
 10
-1.3705691E+001
 20
1.5678085
 11
-1.6705691E+001
 21
-1.4321915
  0
LINE
  8
108
  6
CONTINUOUS
 62
1
 10
-1.6988528E+001
 20
-1.4321915
 11
-1.3988528E+001
 21
1.5678085
  0
LINE
  8
108
  6
CONTINUOUS
 62
1
 10
-1.4271365E+001
 20
1.5678085
 11
-1.7271365E+001
 21
-1.4321915
  0
LINE
  8
108
  6
CONTINUOUS
 62
1
 10
-1.7554232E+001
 20
-1.4321915
 11
-1.4554232E+001
 21
1.5678085
  0
ENDBLK
  0
BLOCK
  2
*XH35
  3
*XH
 10
0.0
 20
0.0
 70
65
  0
LINE
  8
108
  6
CONTINUOUS
 62
1
 10
-2.7582807
 20
-1.5257243E+001
 11
-2.4977217
 21
-1.4996684E+001
  0
LINE
  8
108
  6
CONTINUOUS
 62
1
 10
-2.4977217
 20
-1.4713847E+001
 11
-3.0411177
 21
-1.5257243E+001
  0
LINE
  8
108
  6
CONTINUOUS
 62
1
 10
-3.3239547
 20
-1.5257243E+001
 11
-2.4977217
 21
-1.443101E+001
  0
LINE
  8
108
  6
CONTINUOUS
 62
1
 10
-2.4977217
 20
-1.4148173E+001
 11
-3.6067907
 21
-1.5257243E+001
  0
LINE
  8
108
  6
CONTINUOUS
 62
1
 10
-3.8896587
 20
-1.5257243E+001
 11
-2.4977217
 21
-1.3865275E+001
  0
LINE
  8
108
  6
CONTINUOUS
 62
1
 10
-2.4977217
 20
-1.3582439E+001
 11
-4.1724957
 21
-1.5257243E+001
  0
LINE
  8
108
  6
CONTINUOUS
 62
1
 10
-4.4553327
 20
-1.5257243E+001
 11
-2.4977217
 21
-1.3299602E+001
  0
LINE
  8
108
  6
CONTINUOUS
 62
1
 10
-2.4977217
 20
-1.3016765E+001
 11
-4.7381697
 21
-1.5257243E+001
  0
LINE
  8
108
  6
CONTINUOUS
 62
1
 10
-5.0210067
 20
-1.5257243E+001
 11
-2.4977217
 21
-1.2733928E+001
  0
LINE
  8
108
  6
CONTINUOUS
 62
1
 10
-2.4977217
 20
-1.2451091E+001
 11
-5.3038737
 21
-1.5257243E+001
  0
LINE
  8
108
  6
CONTINUOUS
 62
1
 10
-5.4977217
 20
-1.5168254E+001
 11
-2.4977217
 21
-1.2168254E+001
  0
LINE
  8
108
  6
CONTINUOUS
 62
1
 10
-2.4977217
 20
-1.1885417E+001
 11
-5.4977217
 21
-1.4885417E+001
  0
LINE
  8
108
  6
CONTINUOUS
 62
1
 10
-5.4977217
 20
-1.460258E+001
 11
-2.4977217
 21
-1.160258E+001
  0
LINE
  8
108
  6
CONTINUOUS
 62
1
 10
-2.4977217
 20
-1.1319743E+001
 11
-5.4977217
 21
-1.4319743E+001
  0
LINE
  8
108
  6
CONTINUOUS
 62
1
 10
-5.4977217
 20
-1.4036845E+001
 11
-2.4977217
 21
-1.1036845E+001
  0
LINE
  8
108
  6
CONTINUOUS
 62
1
 10
-2.4977217
 20
-1.0754008E+001
 11
-5.4977217
 21
-1.3754008E+001
  0
LINE
  8
108
  6
CONTINUOUS
 62
1
 10
-5.4977217
 20
-1.3471171E+001
 11
-2.4977217
 21
-1.0471171E+001
  0
LINE
  8
108
  6
CONTINUOUS
 62
1
 10
1.2716237E+001
 20
4.7427567
 11
1.2859273E+001
 21
4.8857627
  0
LINE
  8
108
  6
CONTINUOUS
 62
1
 10
1.2717855E+001
 20
5.0271807
 11
1.24334E+001
 21
4.7427567
  0
LINE
  8
108
  6
CONTINUOUS
 62
1
 10
-2.4977217
 20
-1.0188335E+001
 11
-5.4977217
 21
-1.3188335E+001
  0
LINE
  8
108
  6
CONTINUOUS
 62
1
 10
-5.4977217
 20
-1.2905498E+001
 11
-2.4977217
 21
-9.9054976
  0
LINE
  8
108
  6
CONTINUOUS
 62
1
 10
1.2150533E+001
 20
4.7427567
 11
1.2576406E+001
 21
5.1685987
  0
LINE
  8
108
  6
CONTINUOUS
 62
1
 10
1.2434987E+001
 20
5.3100177
 11
1.1867696E+001
 21
4.7427567
  0
LINE
  8
108
  6
CONTINUOUS
 62
1
 10
-2.4977217
 20
-9.6226606
 11
-5.4977217
 21
-1.2622661E+001
  0
LINE
  8
108
  6
CONTINUOUS
 62
1
 10
-5.4977217
 20
-1.2339824E+001
 11
-2.4977217
 21
-9.3398237
  0
LINE
  8
108
  6
CONTINUOUS
 62
1
 10
1.1584859E+001
 20
4.7427567
 11
1.2293569E+001
 21
5.4514357
  0
LINE
  8
108
  6
CONTINUOUS
 62
1
 10
1.215215E+001
 20
5.5929157
 11
1.1302022E+001
 21
4.7427567
  0
LINE
  8
108
  6
CONTINUOUS
 62
1
 10
-2.4977217
 20
-9.0569868
 11
-5.4977217
 21
-1.2056987E+001
  0
LINE
  8
108
  6
CONTINUOUS
 62
1
 10
-5.4977217
 20
-1.177415E+001
 11
-2.4977217
 21
-8.7741499
  0
LINE
  8
108
  6
CONTINUOUS
 62
1
 10
1.1019185E+001
 20
4.7427567
 11
1.2010732E+001
 21
5.7343337
  0
LINE
  8
108
  6
CONTINUOUS
 62
1
 10
1.1869313E+001
 20
5.8757527
 11
1.0736318E+001
 21
4.7427567
  0
LINE
  8
108
  6
CONTINUOUS
 62
1
 10
-2.4977217
 20
-8.491313
 11
-5.4977217
 21
-1.1491313E+001
  0
LINE
  8
108
  6
CONTINUOUS
 62
1
 10
-5.4977217
 20
-1.1208476E+001
 11
-2.4977217
 21
-8.2084761
  0
LINE
  8
108
  6
CONTINUOUS
 62
1
 10
1.0453481E+001
 20
4.7427567
 11
1.1727895E+001
 21
6.0171707
  0
LINE
  8
108
  6
CONTINUOUS
 62
1
 10
1.1586476E+001
 20
6.1585897
 11
1.0170644E+001
 21
4.7427567
  0
LINE
  8
108
  6
CONTINUOUS
 62
1
 10
-2.4977217
 20
-7.9255781
 11
-5.4977217
 21
-1.0925578E+001
  0
LINE
  8
108
  6
CONTINUOUS
 62
1
 10
-5.4977217
 20
-1.0642741E+001
 11
-2.4977217
 21
-7.6427413
  0
LINE
  8
108
  6
CONTINUOUS
 62
1
 10
9.8878073
 20
4.7427567
 11
1.1445058E+001
 21
6.3000077
  0
LINE
  8
108
  6
CONTINUOUS
 62
1
 10
1.1303639E+001
 20
6.4414267
 11
9.6049703
 21
4.7427567
  0
LINE
  8
108
  6
CONTINUOUS
 62
1
 10
-2.4977217
 20
-7.3599043
 11
-5.4977217
 21
-1.0359904E+001
  0
LINE
  8
108
  6
CONTINUOUS
 62
1
 10
-5.4977217
 20
-1.0077067E+001
 11
-2.4977217
 21
-7.0770673
  0
LINE
  8
108
  6
CONTINUOUS
 62
1
 10
9.3221033
 20
4.7427567
 11
1.116219E+001
 21
6.5828447
  0
LINE
  8
108
  6
CONTINUOUS
 62
1
 10
1.1020772E+001
 20
6.7242627
 11
9.0392663
 21
4.7427567
  0
LINE
  8
108
  6
CONTINUOUS
 62
1
 10
-2.4977217
 20
-6.7942303
 11
-5.4977217
 21
-9.7942305
  0
LINE
  8
108
  6
CONTINUOUS
 62
1
 10
-5.4977217
 20
-9.5113936
 11
-2.4977217
 21
-6.5113933
  0
LINE
  8
108
  6
CONTINUOUS
 62
1
 10
8.7564293
 20
4.7427567
 11
1.0879354E+001
 21
6.8656817
  0
LINE
  8
108
  6
CONTINUOUS
 62
1
 10
1.0737935E+001
 20
7.0070997
 11
8.4735923
 21
4.7427567
  0
LINE
  8
108
  6
CONTINUOUS
 62
1
 10
-2.4977217
 20
-6.2285563
 11
-5.4977217
 21
-9.2285566
  0
LINE
  8
108
  6
CONTINUOUS
 62
1
 10
-5.4977217
 20
-8.9457197
 11
-2.4977217
 21
-5.9457193
  0
LINE
  8
108
  6
CONTINUOUS
 62
1
 10
8.1907553
 20
4.7427567
 11
1.0596517E+001
 21
7.1485187
  0
LINE
  8
108
  6
CONTINUOUS
 62
1
 10
1.0455098E+001
 20
7.2899367
 11
7.9078873
 21
4.7427567
  0
LINE
  8
108
  6
CONTINUOUS
 62
1
 10
-2.4977217
 20
-5.6628833
 11
-5.4977217
 21
-8.6628828
  0
LINE
  8
108
  6
CONTINUOUS
 62
1
 10
-5.4977217
 20
-8.3800459
 11
-2.4977217
 21
-5.3800463
  0
LINE
  8
108
  6
CONTINUOUS
 62
1
 10
7.6250513
 20
4.7427567
 11
1.031368E+001
 21
7.4313557
  0
LINE
  8
108
  6
CONTINUOUS
 62
1
 10
1.0172261E+001
 20
7.5727737
 11
7.3422143
 21
4.7427567
  0
LINE
  8
108
  6
CONTINUOUS
 62
1
 10
-2.4977217
 20
-5.0971483
 11
-5.4977217
 21
-8.0971479
  0
LINE
  8
108
  6
CONTINUOUS
 62
1
 10
-5.4977217
 20
-7.814311
 11
-2.4977217
 21
-4.8143113
  0
LINE
  8
108
  6
CONTINUOUS
 62
1
 10
7.0593773
 20
4.7427567
 11
1.0030843E+001
 21
7.7141927
  0
LINE
  8
108
  6
CONTINUOUS
 62
1
 10
9.7765403
 20
7.7427567
 11
6.7765403
 21
4.7427567
  0
LINE
  8
108
  6
CONTINUOUS
 62
1
 10
-2.4977217
 20
-4.5314743
 11
-5.4977217
 21
-7.5314743
  0
LINE
  8
108
  6
CONTINUOUS
 62
1
 10
-5.4977217
 20
-7.2486373
 11
-2.4977217
 21
-4.2486373
  0
LINE
  8
108
  6
CONTINUOUS
 62
1
 10
6.4937033
 20
4.7427567
 11
9.4937033
 21
7.7427567
  0
LINE
  8
108
  6
CONTINUOUS
 62
1
 10
9.2108353
 20
7.7427567
 11
6.2108353
 21
4.7427567
  0
LINE
  8
108
  6
CONTINUOUS
 62
1
 10
-2.4977217
 20
-3.9658003
 11
-5.4977217
 21
-6.9658003
  0
LINE
  8
108
  6
CONTINUOUS
 62
1
 10
-5.4977217
 20
-6.6829633
 11
-2.4977217
 21
-3.6829633
  0
LINE
  8
108
  6
CONTINUOUS
 62
1
 10
5.9279993
 20
4.7427567
 11
8.9279993
 21
7.7427567
  0
LINE
  8
108
  6
CONTINUOUS
 62
1
 10
8.6451623
 20
7.7427567
 11
5.6451623
 21
4.7427567
  0
LINE
  8
108
  6
CONTINUOUS
 62
1
 10
-2.4977217
 20
-3.4001263
 11
-5.4977217
 21
-6.4001263
  0
LINE
  8
108
  6
CONTINUOUS
 62
1
 10
-5.4977217
 20
-6.1172893
 11
-2.4977217
 21
-3.1172893
  0
LINE
  8
108
  6
CONTINUOUS
 62
1
 10
5.3623253
 20
4.7427567
 11
8.3623253
 21
7.7427567
  0
LINE
  8
108
  6
CONTINUOUS
 62
1
 10
8.0794883
 20
7.7427567
 11
5.0794883
 21
4.7427567
  0
LINE
  8
108
  6
CONTINUOUS
 62
1
 10
-2.4977217
 20
-2.8344523
 11
-5.4977217
 21
-5.8344523
  0
LINE
  8
108
  6
CONTINUOUS
 62
1
 10
-5.4977217
 20
-5.5516153
 11
-2.4977217
 21
-2.5516153
  0
LINE
  8
108
  6
CONTINUOUS
 62
1
 10
4.7966203
 20
4.7427567
 11
7.7966203
 21
7.7427567
  0
LINE
  8
108
  6
CONTINUOUS
 62
1
 10
7.5137833
 20
7.7427567
 11
4.5137833
 21
4.7427567
  0
LINE
  8
108
  6
CONTINUOUS
 62
1
 10
-2.4977217
 20
-2.2687793
 11
-5.4977217
 21
-5.2687793
  0
LINE
  8
108
  6
CONTINUOUS
 62
1
 10
-5.4977217
 20
-4.9858813
 11
-2.4977217
 21
-1.9858813
  0
LINE
  8
108
  6
CONTINUOUS
 62
1
 10
4.2309473
 20
4.7427567
 11
7.2309473
 21
7.7427567
  0
LINE
  8
108
  6
CONTINUOUS
 62
1
 10
6.9481103
 20
7.7427567
 11
3.9481103
 21
4.7427567
  0
LINE
  8
108
  6
CONTINUOUS
 62
1
 10
-2.4977217
 20
-1.7030443
 11
-5.4977217
 21
-4.7030443
  0
LINE
  8
108
  6
CONTINUOUS
 62
1
 10
-5.4977217
 20
-4.4202073
 11
-2.4977217
 21
-1.4202073
  0
LINE
  8
108
  6
CONTINUOUS
 62
1
 10
3.6652733
 20
4.7427567
 11
6.6652733
 21
7.7427567
  0
LINE
  8
108
  6
CONTINUOUS
 62
1
 10
6.3824053
 20
7.7427567
 11
3.3824053
 21
4.7427567
  0
LINE
  8
108
  6
CONTINUOUS
 62
1
 10
-2.4977217
 20
-1.1373703
 11
-5.4977217
 21
-4.1373703
  0
LINE
  8
108
  6
CONTINUOUS
 62
1
 10
-5.4977217
 20
-3.8545333
 11
-2.4977217
 21
-8.5453334E-001
  0
LINE
  8
108
  6
CONTINUOUS
 62
1
 10
3.0995683
 20
4.7427567
 11
6.0995683
 21
7.7427567
  0
LINE
  8
108
  6
CONTINUOUS
 62
1
 10
5.8167313
 20
7.7427567
 11
2.8167313
 21
4.7427567
  0
LINE
  8
108
  6
CONTINUOUS
 62
1
 10
-2.4977217
 20
-5.7169634E-001
 11
-5.4977217
 21
-3.5716963
  0
LINE
  8
108
  6
CONTINUOUS
 62
1
 10
-5.4977217
 20
-3.2888593
 11
-2.4977217
 21
-2.8885934E-001
  0
LINE
  8
108
  6
CONTINUOUS
 62
1
 10
2.5338953
 20
4.7427567
 11
5.5338953
 21
7.7427567
  0
LINE
  8
108
  6
CONTINUOUS
 62
1
 10
5.2510583
 20
7.7427567
 11
2.2510583
 21
4.7427567
  0
LINE
  8
108
  6
CONTINUOUS
 62
1
 10
-2.4977217
 20
-6.0223394E-003
 11
-5.4977217
 21
-3.0060223
  0
LINE
  8
108
  6
CONTINUOUS
 62
1
 10
-5.4977217
 20
-2.7231853
 11
-2.4977217
 21
2.7681466E-001
  0
LINE
  8
108
  6
CONTINUOUS
 62
1
 10
1.9682213
 20
4.7427567
 11
4.9682213
 21
7.7427567
  0
LINE
  8
108
  6
CONTINUOUS
 62
1
 10
4.6853533
 20
7.7427567
 11
1.6853533
 21
4.7427567
  0
LINE
  8
108
  6
CONTINUOUS
 62
1
 10
-2.4977217
 20
5.5965166E-001
 11
-5.4977217
 21
-2.4403483
  0
LINE
  8
108
  6
CONTINUOUS
 62
1
 10
-5.4977217
 20
-2.1574503
 11
-2.4977217
 21
8.4254966E-001
  0
LINE
  8
108
  6
CONTINUOUS
 62
1
 10
1.4025163
 20
4.7427567
 11
4.4025163
 21
7.7427567
  0
LINE
  8
108
  6
CONTINUOUS
 62
1
 10
4.1196793
 20
7.7427567
 11
1.1196793
 21
4.7427567
  0
LINE
  8
108
  6
CONTINUOUS
 62
1
 10
-2.4977217
 20
1.1253867
 11
-5.4977217
 21
-1.8746133
  0
LINE
  8
108
  6
CONTINUOUS
 62
1
 10
-5.4977217
 20
-1.5917773
 11
-2.4977217
 21
1.4082227
  0
LINE
  8
108
  6
CONTINUOUS
 62
1
 10
8.3684329E-001
 20
4.7427567
 11
3.8368433
 21
7.7427567
  0
LINE
  8
108
  6
CONTINUOUS
 62
1
 10
3.5540063
 20
7.7427567
 11
5.5397529E-001
 21
4.7427567
  0
LINE
  8
108
  6
CONTINUOUS
 62
1
 10
-2.4977217
 20
1.6910597
 11
-5.4977217
 21
-1.3089403
  0
LINE
  8
108
  6
CONTINUOUS
 62
1
 10
-5.4977217
 20
-1.0261033
 11
-2.4977217
 21
1.9738967
  0
LINE
  8
108
  6
CONTINUOUS
 62
1
 10
2.7113829E-001
 20
4.7427567
 11
3.2711383
 21
7.7427567
  0
LINE
  8
108
  6
CONTINUOUS
 62
1
 10
2.9883013
 20
7.7427567
 11
-1.1698714E-002
 21
4.7427567
  0
LINE
  8
108
  6
CONTINUOUS
 62
1
 10
-2.4977217
 20
2.2567337
 11
-5.4977217
 21
-7.4326634E-001
  0
LINE
  8
108
  6
CONTINUOUS
 62
1
 10
-5.4977217
 20
-4.6042934E-001
 11
-2.4977217
 21
2.5395707
  0
LINE
  8
108
  6
CONTINUOUS
 62
1
 10
-2.9453571E-001
 20
4.7427567
 11
2.7054643
 21
7.7427567
  0
LINE
  8
108
  6
CONTINUOUS
 62
1
 10
2.4226273
 20
7.7427567
 11
-5.7737271E-001
 21
4.7427567
  0
LINE
  8
108
  6
CONTINUOUS
 62
1
 10
-2.4977217
 20
2.8224077
 11
-5.4977217
 21
-1.7759234E-001
  0
LINE
  8
108
  6
CONTINUOUS
 62
1
 10
-5.4977217
 20
1.0524466E-001
 11
-2.4977217
 21
3.1052447
  0
LINE
  8
108
  6
CONTINUOUS
 62
1
 10
-8.6020871E-001
 20
4.7427567
 11
2.1397913
 21
7.7427567
  0
LINE
  8
108
  6
CONTINUOUS
 62
1
 10
1.8569233
 20
7.7427567
 11
-1.1430767
 21
4.7427567
  0
LINE
  8
108
  6
CONTINUOUS
 62
1
 10
-2.4977217
 20
3.3880817
 11
-5.4977217
 21
3.8808166E-001
  0
LINE
  8
108
  6
CONTINUOUS
 62
1
 10
-5.4977217
 20
6.7091866E-001
 11
-2.4977217
 21
3.6709187
  0
LINE
  8
108
  6
CONTINUOUS
 62
1
 10
-1.4259137
 20
4.7427567
 11
1.5740863
 21
7.7427567
  0
LINE
  8
108
  6
CONTINUOUS
 62
1
 10
1.2912493
 20
7.7427567
 11
-1.7087507
 21
4.7427567
  0
LINE
  8
108
  6
CONTINUOUS
 62
1
 10
-2.4977217
 20
3.9538167
 11
-5.4977217
 21
9.5381666E-001
  0
LINE
  8
108
  6
CONTINUOUS
 62
1
 10
-5.4977217
 20
1.2366537
 11
-2.4977217
 21
4.2366537
  0
LINE
  8
108
  6
CONTINUOUS
 62
1
 10
-1.9915877
 20
4.7427567
 11
1.0084123
 21
7.7427567
  0
LINE
  8
108
  6
CONTINUOUS
 62
1
 10
7.2557529E-001
 20
7.7427567
 11
-2.2744247
 21
4.7427567
  0
LINE
  8
108
  6
CONTINUOUS
 62
1
 10
-2.4977217
 20
4.5194907
 11
-5.4977217
 21
1.5194907
  0
LINE
  8
108
  6
CONTINUOUS
 62
1
 10
-5.4977217
 20
1.8023267
 11
4.4270829E-001
 21
7.7427567
  0
LINE
  8
108
  6
CONTINUOUS
 62
1
 10
1.5987129E-001
 20
7.7427567
 11
-5.4977217
 21
2.0851637
  0
LINE
  8
108
  6
CONTINUOUS
 62
1
 10
-5.4977217
 20
2.3680007
 11
-1.2296571E-001
 21
7.7427567
  0
LINE
  8
108
  6
CONTINUOUS
 62
1
 10
-4.0580271E-001
 20
7.7427567
 11
-5.4977217
 21
2.6508377
  0
LINE
  8
108
  6
CONTINUOUS
 62
1
 10
-5.4977217
 20
2.9336747
 11
-6.8863971E-001
 21
7.7427567
  0
LINE
  8
108
  6
CONTINUOUS
 62
1
 10
-9.7150671E-001
 20
7.7427567
 11
-5.4977217
 21
3.2165117
  0
LINE
  8
108
  6
CONTINUOUS
 62
1
 10
-5.4977217
 20
3.4993487
 11
-1.2543437
 21
7.7427567
  0
LINE
  8
108
  6
CONTINUOUS
 62
1
 10
-1.5371807
 20
7.7427567
 11
-5.4977217
 21
3.7822467
  0
LINE
  8
108
  6
CONTINUOUS
 62
1
 10
-5.4977217
 20
4.0650837
 11
-1.8200177
 21
7.7427567
  0
LINE
  8
108
  6
CONTINUOUS
 62
1
 10
-2.1028547
 20
7.7427567
 11
-5.4977217
 21
4.3479207
  0
LINE
  8
108
  6
CONTINUOUS
 62
1
 10
-5.4977217
 20
4.6307577
 11
-2.3856917
 21
7.7427567
  0
LINE
  8
108
  6
CONTINUOUS
 62
1
 10
-2.6685587
 20
7.7427567
 11
-5.4977217
 21
4.9135947
  0
LINE
  8
108
  6
CONTINUOUS
 62
1
 10
-5.4977217
 20
5.1964307
 11
-2.9513957
 21
7.7427567
  0
LINE
  8
108
  6
CONTINUOUS
 62
1
 10
-3.2342327
 20
7.7427567
 11
-5.4977217
 21
5.4792677
  0
LINE
  8
108
  6
CONTINUOUS
 62
1
 10
-5.4977217
 20
5.7621047
 11
-3.5170697
 21
7.7427567
  0
LINE
  8
108
  6
CONTINUOUS
 62
1
 10
-3.7999067
 20
7.7427567
 11
-5.4977217
 21
6.0449417
  0
LINE
  8
108
  6
CONTINUOUS
 62
1
 10
-5.4977217
 20
6.3277787
 11
-4.0827737
 21
7.7427567
  0
LINE
  8
108
  6
CONTINUOUS
 62
1
 10
-4.3656107
 20
7.7427567
 11
-5.4977217
 21
6.6106157
  0
LINE
  8
108
  6
CONTINUOUS
 62
1
 10
-5.4977217
 20
6.8935137
 11
-4.6484477
 21
7.7427567
  0
LINE
  8
108
  6
CONTINUOUS
 62
1
 10
-4.9312847
 20
7.7427567
 11
-5.4977217
 21
7.1763507
  0
LINE
  8
108
  6
CONTINUOUS
 62
1
 10
-5.4977217
 20
7.4591877
 11
-5.2141217
 21
7.7427567
  0
ENDBLK
  0
BLOCK
  2
*XH36
  3
*XH
 10
0.0
 20
0.0
 70
65
  0
LINE
  8
108
  6
CONTINUOUS
 62
1
 10
3.6784743
 20
-1.0463679E+001
 11
5.4661943
 21
-8.6759593
  0
LINE
  8
108
  6
CONTINUOUS
 62
1
 10
6.3912123
 20
-2.0940501
 11
-1.9887617
 21
-1.0474055E+001
  0
LINE
  8
108
  6
CONTINUOUS
 62
1
 10
-5.2563397
 20
-8.0847727
 11
6.0933913
 21
3.2649589
  0
LINE
  8
108
  6
CONTINUOUS
 62
1
 10
5.3614583
 20
8.1898859
 11
-5.5380177
 21
-2.7095901
  0
LINE
  8
108
  6
CONTINUOUS
 62
1
 10
-5.4724657
 20
3.0128229
 11
1.0406573
 21
9.5259449
  0
LINE
  8
108
  6
CONTINUOUS
 62
1
 10
-4.6162037
 20
9.5259449
 11
-5.1595997
 21
8.9825489
  0
ENDBLK
  0
BLOCK
  2
*XH37
  3
*XH
 10
0.0
 20
0.0
 70
65
  0
LINE
  8
108
  6
CONTINUOUS
 62
1
 10
2.4489351
 20
-8.8647705
 11
4.9059361
 21
-6.4078002
  0
LINE
  8
108
  6
CONTINUOUS
 62
1
 10
5.2188021
 20
-4.380736E-001
 11
-3.2078949
 21
-8.8647705
  0
LINE
  8
108
  6
CONTINUOUS
 62
1
 10
-5.9737339
 20
-5.9737182
 11
5.0937711
 21
5.0937864
  0
LINE
  8
108
  6
CONTINUOUS
 62
1
 10
4.8120941
 20
1.0468969E+001
 11
-6.6707859
 21
-1.0139406
  0
LINE
  8
108
  6
CONTINUOUS
 62
1
 10
-6.4486479
 20
4.8650884
 11
-1.784759E-001
 21
1.1135229E+001
  0
ENDBLK
  0
BLOCK
  2
*XH38
  3
*XH
 10
0.0
 20
0.0
 70
65
  0
LINE
  8
108
  6
CONTINUOUS
 62
1
 10
-8.0236258
 20
-2.582962
 11
-7.8571827
 21
-2.7494049
  0
LINE
  8
108
  6
CONTINUOUS
 62
1
 10
-3.6112108
 20
-2.7527618
 11
-8.0236258
 21
1.6596528
  0
LINE
  8
108
  6
CONTINUOUS
 62
1
 10
-5.3720447
 20
3.2507172
 11
6.3473025E-001
 21
-2.7560577
  0
LINE
  8
108
  6
CONTINUOUS
 62
1
 10
4.8807013
 20
-2.7593536
 11
-1.1293997
 21
3.2507172
  0
LINE
  8
108
  6
CONTINUOUS
 62
1
 10
3.1132452
 20
3.2507172
 11
9.0581612
 21
-2.6942291
  0
LINE
  8
108
  6
CONTINUOUS
 62
1
 10
8.9743603
 20
1.632248
 11
7.3558913
 21
3.2507172
  0
ENDBLK
  0
BLOCK
  2
*XH39
  3
*XH
 10
0.0
 20
0.0
 70
65
  0
LINE
  8
108
  6
CONTINUOUS
 62
1
 10
1.6021177
 20
-6.8831848
 11
3.6876587
 21
-4.7976135
  0
LINE
  8
108
  6
CONTINUOUS
 62
1
 10
3.6876587
 20
-5.5499883E-001
 11
-2.6405273
 21
-6.8831848
  0
LINE
  8
108
  6
CONTINUOUS
 62
1
 10
-3.8123413
 20
-3.8123228
 11
3.6876587
 21
3.6876772
  0
LINE
  8
108
  6
CONTINUOUS
 62
1
 10
2.7809207
 20
7.0235532
 11
-3.8123413
 21
4.3029217E-001
  0
LINE
  8
108
  6
CONTINUOUS
 62
1
 10
-3.8123413
 20
4.6729672
 11
-1.3684633
 21
7.1168152
  0
ENDBLK
  0
BLOCK
  2
*XH40
  3
*XH
 10
0.0
 20
0.0
 70
65
  0
LINE
  8
108
  6
CONTINUOUS
 62
1
 10
8.996535E-001
 20
-3.3429972
 11
2.9263255
 21
-1.3163252
  0
LINE
  8
108
  6
CONTINUOUS
 62
1
 10
2.9263255
 20
2.9263508
 11
-2.0929925
 21
-2.0929972
  0
LINE
  8
108
  6
CONTINUOUS
 62
1
 10
-4.5736745
 20
-3.3103417E-001
 11
-8.56375E-002
 21
4.1570028
  0
ENDBLK
  0
BLOCK
  2
*XH41
  3
*XH
 10
0.0
 20
0.0
 70
65
  0
LINE
  8
108
  6
CONTINUOUS
 62
1
 10
1.7359545
 20
-3.8534547E-001
 11
1.7773665
 21
-3.4396358E-001
  0
LINE
  8
108
  6
CONTINUOUS
 62
1
 10
-1.0066605
 20
1.1146545
 11
-2.5066605
 21
-3.8534547E-001
  0
ENDBLK
  0
BLOCK
  2
*XH42
  3
*XH
 10
0.0
 20
0.0
 70
65
  0
LINE
  8
108
  6
CONTINUOUS
 62
1
 10
-3.5520628
 20
-6.905823E-001
 11
-1.3416138
 21
-2.9010315
  0
LINE
  8
108
  6
CONTINUOUS
 62
1
 10
2.9010312
 20
-2.9010315
 11
-3.0989688
 21
3.0989685
  0
LINE
  8
108
  6
CONTINUOUS
 62
1
 10
1.1436772
 20
3.0989685
 11
3.9479372
 21
2.947083E-001
  0
ENDBLK
  0
BLOCK
  2
*XH44
  3
*XH
 10
0.0
 20
0.0
 70
65
  0
LINE
  8
108
  6
CONTINUOUS
 62
1
 10
-4.9954097
 20
1.1400035E+001
 11
5.1204572E+001
 21
1.1400035E+001
  0
LINE
  8
108
  6
CONTINUOUS
 62
1
 10
5.1204572E+001
 20
1.125001E+001
 11
-4.9954097
 21
1.125001E+001
  0
LINE
  8
108
  6
CONTINUOUS
 62
1
 10
-4.9954097
 20
1.1099986E+001
 11
5.1204572E+001
 21
1.1099986E+001
  0
LINE
  8
108
  6
CONTINUOUS
 62
1
 10
5.1204572E+001
 20
1.0950023E+001
 11
-4.9954097
 21
1.0950023E+001
  0
LINE
  8
108
  6
CONTINUOUS
 62
1
 10
-4.9954097
 20
1.0799998E+001
 11
5.1204572E+001
 21
1.0799998E+001
  0
LINE
  8
108
  6
CONTINUOUS
 62
1
 10
5.1204572E+001
 20
1.0650035E+001
 11
-4.9954097
 21
1.0650035E+001
  0
LINE
  8
108
  6
CONTINUOUS
 62
1
 10
-4.9954097
 20
1.050001E+001
 11
5.1204572E+001
 21
1.050001E+001
  0
LINE
  8
108
  6
CONTINUOUS
 62
1
 10
5.1204572E+001
 20
1.0349986E+001
 11
-4.9954097
 21
1.0349986E+001
  0
LINE
  8
108
  6
CONTINUOUS
 62
1
 10
-4.9954097
 20
1.0200023E+001
 11
5.1204572E+001
 21
1.0200023E+001
  0
LINE
  8
108
  6
CONTINUOUS
 62
1
 10
5.1204572E+001
 20
1.0049998E+001
 11
-4.9954097
 21
1.0049998E+001
  0
LINE
  8
108
  6
CONTINUOUS
 62
1
 10
-4.9954097
 20
9.9000353
 11
5.1204572E+001
 21
9.9000353
  0
LINE
  8
108
  6
CONTINUOUS
 62
1
 10
5.1204572E+001
 20
9.7500103
 11
-4.9954097
 21
9.7500103
  0
LINE
  8
108
  6
CONTINUOUS
 62
1
 10
-4.9954097
 20
9.5999863
 11
5.1204572E+001
 21
9.5999863
  0
LINE
  8
108
  6
CONTINUOUS
 62
1
 10
5.1204572E+001
 20
9.4500233
 11
-4.9954097
 21
9.4500233
  0
LINE
  8
108
  6
CONTINUOUS
 62
1
 10
-4.9954097
 20
9.2999983
 11
5.1204572E+001
 21
9.2999983
  0
LINE
  8
108
  6
CONTINUOUS
 62
1
 10
5.1204572E+001
 20
9.1500353
 11
-4.9954097
 21
9.1500353
  0
LINE
  8
108
  6
CONTINUOUS
 62
1
 10
-4.9954097
 20
9.0000103
 11
5.1204572E+001
 21
9.0000103
  0
LINE
  8
108
  6
CONTINUOUS
 62
1
 10
5.1204572E+001
 20
8.8499863
 11
-4.9954097
 21
8.8499863
  0
LINE
  8
108
  6
CONTINUOUS
 62
1
 10
-4.9954097
 20
8.7000233
 11
5.1204572E+001
 21
8.7000233
  0
LINE
  8
108
  6
CONTINUOUS
 62
1
 10
5.1204572E+001
 20
8.5499983
 11
-4.9954097
 21
8.5499983
  0
LINE
  8
108
  6
CONTINUOUS
 62
1
 10
-4.9954097
 20
8.3999743
 11
-5.6181573E-001
 21
8.3999743
  0
LINE
  8
108
  6
CONTINUOUS
 62
1
 10
-9.3016273E-001
 20
8.2500103
 11
-4.9954097
 21
8.2500103
  0
LINE
  8
108
  6
CONTINUOUS
 62
1
 10
-4.9954097
 20
8.0999863
 11
-1.1708857
 21
8.0999863
  0
LINE
  8
108
  6
CONTINUOUS
 62
1
 10
-1.3535947
 20
7.9500233
 11
-4.9954097
 21
7.9500233
  0
LINE
  8
108
  6
CONTINUOUS
 62
1
 10
-4.9954097
 20
7.7999983
 11
-1.4995907
 21
7.7999983
  0
LINE
  8
108
  6
CONTINUOUS
 62
1
 10
-1.6188527
 20
7.6499743
 11
-4.9954097
 21
7.6499743
  0
LINE
  8
108
  6
CONTINUOUS
 62
1
 10
-4.9954097
 20
7.5000103
 11
-1.7168757
 21
7.5000103
  0
LINE
  8
108
  6
CONTINUOUS
 62
1
 10
-1.7971977
 20
7.3499863
 11
-4.9954097
 21
7.3499863
  0
LINE
  8
108
  6
CONTINUOUS
 62
1
 10
-4.9954097
 20
7.2000233
 11
-1.8620477
 21
7.2000233
  0
LINE
  8
108
  6
CONTINUOUS
 62
1
 10
-1.9130427
 20
7.0499983
 11
-4.9954097
 21
7.0499983
  0
LINE
  8
108
  6
CONTINUOUS
 62
1
 10
-4.9954097
 20
6.8999743
 11
-1.9512197
 21
6.8999743
  0
LINE
  8
108
  6
CONTINUOUS
 62
1
 10
-1.9773737
 20
6.7500103
 11
-4.9954097
 21
6.7500103
  0
LINE
  8
108
  6
CONTINUOUS
 62
1
 10
-4.9954097
 20
6.5999863
 11
-1.9919307
 21
6.5999863
  0
LINE
  8
108
  6
CONTINUOUS
 62
1
 10
-1.9954097
 20
6.4500233
 11
-4.9954097
 21
6.4500233
  0
LINE
  8
108
  6
CONTINUOUS
 62
1
 10
-4.9954097
 20
6.2999983
 11
-1.9954097
 21
6.2999983
  0
LINE
  8
108
  6
CONTINUOUS
 62
1
 10
-1.9954097
 20
6.1499743
 11
-4.9954097
 21
6.1499743
  0
LINE
  8
108
  6
CONTINUOUS
 62
1
 10
-4.9954097
 20
6.0000103
 11
-1.9954097
 21
6.0000103
  0
LINE
  8
108
  6
CONTINUOUS
 62
1
 10
-1.9954097
 20
5.8499863
 11
-4.9954097
 21
5.8499863
  0
LINE
  8
108
  6
CONTINUOUS
 62
1
 10
-4.9954097
 20
5.7000233
 11
-1.9954097
 21
5.7000233
  0
LINE
  8
108
  6
CONTINUOUS
 62
1
 10
-1.9954097
 20
5.5499983
 11
-4.9954097
 21
5.5499983
  0
LINE
  8
108
  6
CONTINUOUS
 62
1
 10
-4.9954097
 20
5.3999743
 11
-1.9954097
 21
5.3999743
  0
LINE
  8
108
  6
CONTINUOUS
 62
1
 10
-1.9954097
 20
5.2500103
 11
-4.9954097
 21
5.2500103
  0
LINE
  8
108
  6
CONTINUOUS
 62
1
 10
-4.9954097
 20
5.0999863
 11
-1.9954097
 21
5.0999863
  0
LINE
  8
108
  6
CONTINUOUS
 62
1
 10
-1.9954097
 20
4.9500233
 11
-4.9954097
 21
4.9500233
  0
LINE
  8
108
  6
CONTINUOUS
 62
1
 10
-4.9954097
 20
4.7999983
 11
-1.9954097
 21
4.7999983
  0
LINE
  8
108
  6
CONTINUOUS
 62
1
 10
-1.9954097
 20
4.6499743
 11
-4.9954097
 21
4.6499743
  0
LINE
  8
108
  6
CONTINUOUS
 62
1
 10
-4.9954097
 20
4.5000103
 11
-1.9954097
 21
4.5000103
  0
LINE
  8
108
  6
CONTINUOUS
 62
1
 10
-1.9954097
 20
4.3499863
 11
-4.9954097
 21
4.3499863
  0
LINE
  8
108
  6
CONTINUOUS
 62
1
 10
-4.9954097
 20
4.2000233
 11
-1.9954097
 21
4.2000233
  0
LINE
  8
108
  6
CONTINUOUS
 62
1
 10
-1.9954097
 20
4.0499983
 11
-4.9954097
 21
4.0499983
  0
LINE
  8
108
  6
CONTINUOUS
 62
1
 10
-4.9954097
 20
3.8999743
 11
-1.9954097
 21
3.8999743
  0
LINE
  8
108
  6
CONTINUOUS
 62
1
 10
-1.9954097
 20
3.7500103
 11
-4.9954097
 21
3.7500103
  0
LINE
  8
108
  6
CONTINUOUS
 62
1
 10
-4.9954097
 20
3.5999863
 11
-1.9954097
 21
3.5999863
  0
LINE
  8
108
  6
CONTINUOUS
 62
1
 10
-1.9954097
 20
3.4500233
 11
-4.9954097
 21
3.4500233
  0
LINE
  8
108
  6
CONTINUOUS
 62
1
 10
-4.9954097
 20
3.2999983
 11
-1.9954097
 21
3.2999983
  0
LINE
  8
108
  6
CONTINUOUS
 62
1
 10
-1.9954097
 20
3.1499743
 11
-4.9954097
 21
3.1499743
  0
LINE
  8
108
  6
CONTINUOUS
 62
1
 10
-4.9954097
 20
3.0000103
 11
-1.9954097
 21
3.0000103
  0
LINE
  8
108
  6
CONTINUOUS
 62
1
 10
-1.9954097
 20
2.8499863
 11
-4.9954097
 21
2.8499863
  0
LINE
  8
108
  6
CONTINUOUS
 62
1
 10
-4.9954097
 20
2.7000233
 11
-1.9954097
 21
2.7000233
  0
LINE
  8
108
  6
CONTINUOUS
 62
1
 10
-1.9954097
 20
2.5499983
 11
-4.9954097
 21
2.5499983
  0
LINE
  8
108
  6
CONTINUOUS
 62
1
 10
-4.9954097
 20
2.3999743
 11
-1.9954097
 21
2.3999743
  0
LINE
  8
108
  6
CONTINUOUS
 62
1
 10
-1.9954097
 20
2.2500103
 11
-4.9954097
 21
2.2500103
  0
LINE
  8
108
  6
CONTINUOUS
 62
1
 10
-4.9954097
 20
2.0999863
 11
-1.9954097
 21
2.0999863
  0
LINE
  8
108
  6
CONTINUOUS
 62
1
 10
-1.9954097
 20
1.9500233
 11
-4.9954097
 21
1.9500233
  0
LINE
  8
108
  6
CONTINUOUS
 62
1
 10
-4.9954097
 20
1.7999983
 11
-1.9954097
 21
1.7999983
  0
LINE
  8
108
  6
CONTINUOUS
 62
1
 10
-1.9954097
 20
1.6499743
 11
-4.9954097
 21
1.6499743
  0
LINE
  8
108
  6
CONTINUOUS
 62
1
 10
-4.9954097
 20
1.5000103
 11
-1.9954097
 21
1.5000103
  0
LINE
  8
108
  6
CONTINUOUS
 62
1
 10
-1.9954097
 20
1.3499863
 11
-4.9954097
 21
1.3499863
  0
LINE
  8
108
  6
CONTINUOUS
 62
1
 10
-4.9954097
 20
1.2000233
 11
-1.9954097
 21
1.2000233
  0
LINE
  8
108
  6
CONTINUOUS
 62
1
 10
-1.9954097
 20
1.0499983
 11
-4.9954097
 21
1.0499983
  0
LINE
  8
108
  6
CONTINUOUS
 62
1
 10
-4.9954097
 20
8.9997434E-001
 11
-1.9954097
 21
8.9997434E-001
  0
LINE
  8
108
  6
CONTINUOUS
 62
1
 10
-1.9954097
 20
7.5001034E-001
 11
-4.9954097
 21
7.5001034E-001
  0
LINE
  8
108
  6
CONTINUOUS
 62
1
 10
-4.9954097
 20
5.9998634E-001
 11
-1.9954097
 21
5.9998634E-001
  0
LINE
  8
108
  6
CONTINUOUS
 62
1
 10
-1.9954097
 20
4.5002334E-001
 11
-4.9954097
 21
4.5002334E-001
  0
LINE
  8
108
  6
CONTINUOUS
 62
1
 10
-4.9954097
 20
2.9999834E-001
 11
-1.9954097
 21
2.9999834E-001
  0
LINE
  8
108
  6
CONTINUOUS
 62
1
 10
-1.9954097
 20
1.4997434E-001
 11
-4.9954097
 21
1.4997434E-001
  0
LINE
  8
108
  6
CONTINUOUS
 62
1
 10
-4.9954097
 20
1.03444E-005
 11
-1.9954097
 21
1.03444E-005
  0
LINE
  8
108
  6
CONTINUOUS
 62
1
 10
-1.9954097
 20
-1.5001366E-001
 11
-4.9954097
 21
-1.5001366E-001
  0
LINE
  8
108
  6
CONTINUOUS
 62
1
 10
-4.9954097
 20
-2.9997666E-001
 11
-1.9954097
 21
-2.9997666E-001
  0
LINE
  8
108
  6
CONTINUOUS
 62
1
 10
-1.9954097
 20
-4.5000166E-001
 11
-4.9954097
 21
-4.5000166E-001
  0
LINE
  8
108
  6
CONTINUOUS
 62
1
 10
-4.9954097
 20
-6.0002566E-001
 11
-1.9954097
 21
-6.0002566E-001
  0
LINE
  8
108
  6
CONTINUOUS
 62
1
 10
-1.9954097
 20
-7.4998966E-001
 11
-4.9954097
 21
-7.4998966E-001
  0
LINE
  8
108
  6
CONTINUOUS
 62
1
 10
-4.9954097
 20
-9.0001366E-001
 11
-1.9954097
 21
-9.0001366E-001
  0
LINE
  8
108
  6
CONTINUOUS
 62
1
 10
-1.9954097
 20
-1.0499767
 11
-4.9954097
 21
-1.0499767
  0
LINE
  8
108
  6
CONTINUOUS
 62
1
 10
-4.9954097
 20
-1.2000017
 11
-1.9954097
 21
-1.2000017
  0
LINE
  8
108
  6
CONTINUOUS
 62
1
 10
-1.9954097
 20
-1.3500257
 11
-4.9954097
 21
-1.3500257
  0
LINE
  8
108
  6
CONTINUOUS
 62
1
 10
-4.9954097
 20
-1.4999897
 11
-1.9954097
 21
-1.4999897
  0
LINE
  8
108
  6
CONTINUOUS
 62
1
 10
-1.9954097
 20
-1.6500137
 11
-4.9954097
 21
-1.6500137
  0
LINE
  8
108
  6
CONTINUOUS
 62
1
 10
-4.9954097
 20
-1.7999767
 11
-1.9954097
 21
-1.7999767
  0
LINE
  8
108
  6
CONTINUOUS
 62
1
 10
-1.9954097
 20
-1.9500017
 11
-4.9954097
 21
-1.9500017
  0
LINE
  8
108
  6
CONTINUOUS
 62
1
 10
-4.9954097
 20
-2.1000257
 11
-1.9954097
 21
-2.1000257
  0
LINE
  8
108
  6
CONTINUOUS
 62
1
 10
-1.9954097
 20
-2.2499897
 11
-4.9954097
 21
-2.2499897
  0
LINE
  8
108
  6
CONTINUOUS
 62
1
 10
-4.9954097
 20
-2.4000137
 11
-1.9954097
 21
-2.4000137
  0
LINE
  8
108
  6
CONTINUOUS
 62
1
 10
-1.9954097
 20
-2.5499767
 11
-4.9954097
 21
-2.5499767
  0
LINE
  8
108
  6
CONTINUOUS
 62
1
 10
-4.9954097
 20
-2.7000017
 11
-1.9954097
 21
-2.7000017
  0
LINE
  8
108
  6
CONTINUOUS
 62
1
 10
-1.9954097
 20
-2.8500257
 11
-4.9954097
 21
-2.8500257
  0
LINE
  8
108
  6
CONTINUOUS
 62
1
 10
-4.9954097
 20
-2.9999897
 11
-1.9954097
 21
-2.9999897
  0
LINE
  8
108
  6
CONTINUOUS
 62
1
 10
-1.9954097
 20
-3.1500137
 11
-4.9954097
 21
-3.1500137
  0
LINE
  8
108
  6
CONTINUOUS
 62
1
 10
-4.9954097
 20
-3.299977
 11
-1.9954097
 21
-3.299977
  0
LINE
  8
108
  6
CONTINUOUS
 62
1
 10
-1.9954097
 20
-3.4500014
 11
-4.9954097
 21
-3.4500014
  0
LINE
  8
108
  6
CONTINUOUS
 62
1
 10
-4.9954097
 20
-3.6000259
 11
-1.9954097
 21
-3.6000259
  0
LINE
  8
108
  6
CONTINUOUS
 62
1
 10
-1.9954097
 20
-3.7499892
 11
-4.9954097
 21
-3.7499892
  0
LINE
  8
108
  6
CONTINUOUS
 62
1
 10
-4.9954097
 20
-3.9000137
 11
-1.9954097
 21
-3.9000137
  0
LINE
  8
108
  6
CONTINUOUS
 62
1
 10
-1.9954097
 20
-4.049977
 11
-4.9954097
 21
-4.049977
  0
LINE
  8
108
  6
CONTINUOUS
 62
1
 10
-4.9954097
 20
-4.2000014
 11
-1.9954097
 21
-4.2000014
  0
LINE
  8
108
  6
CONTINUOUS
 62
1
 10
-1.9954097
 20
-4.3500259
 11
-4.9954097
 21
-4.3500259
  0
LINE
  8
108
  6
CONTINUOUS
 62
1
 10
-4.9954097
 20
-4.4999892
 11
-1.9954097
 21
-4.4999892
  0
LINE
  8
108
  6
CONTINUOUS
 62
1
 10
-1.9954097
 20
-4.6500137
 11
-4.9954097
 21
-4.6500137
  0
LINE
  8
108
  6
CONTINUOUS
 62
1
 10
-4.9954097
 20
-4.799977
 11
-1.9954097
 21
-4.799977
  0
LINE
  8
108
  6
CONTINUOUS
 62
1
 10
-1.9954097
 20
-4.9500014
 11
-4.9954097
 21
-4.9500014
  0
LINE
  8
108
  6
CONTINUOUS
 62
1
 10
-4.9954097
 20
-5.1000259
 11
-1.9954097
 21
-5.1000259
  0
LINE
  8
108
  6
CONTINUOUS
 62
1
 10
-1.9954097
 20
-5.2499892
 11
-4.9954097
 21
-5.2499892
  0
LINE
  8
108
  6
CONTINUOUS
 62
1
 10
-4.9954097
 20
-5.4000137
 11
-1.9954097
 21
-5.4000137
  0
LINE
  8
108
  6
CONTINUOUS
 62
1
 10
-1.9954097
 20
-5.549977
 11
-4.9954097
 21
-5.549977
  0
LINE
  8
108
  6
CONTINUOUS
 62
1
 10
-4.9954097
 20
-5.7000014
 11
-1.9954097
 21
-5.7000014
  0
LINE
  8
108
  6
CONTINUOUS
 62
1
 10
-1.9954097
 20
-5.8500259
 11
-4.9954097
 21
-5.8500259
  0
LINE
  8
108
  6
CONTINUOUS
 62
1
 10
-4.9954097
 20
-5.9999892
 11
-1.9954097
 21
-5.9999892
  0
LINE
  8
108
  6
CONTINUOUS
 62
1
 10
-1.9954097
 20
-6.1500137
 11
-4.9954097
 21
-6.1500137
  0
LINE
  8
108
  6
CONTINUOUS
 62
1
 10
-4.9954097
 20
-6.299977
 11
-1.9954097
 21
-6.299977
  0
LINE
  8
108
  6
CONTINUOUS
 62
1
 10
-1.9954097
 20
-6.4500014
 11
-4.9954097
 21
-6.4500014
  0
LINE
  8
108
  6
CONTINUOUS
 62
1
 10
-4.9954097
 20
-6.6000259
 11
-1.9954097
 21
-6.6000259
  0
LINE
  8
108
  6
CONTINUOUS
 62
1
 10
-1.9954097
 20
-6.7499892
 11
-4.9954097
 21
-6.7499892
  0
LINE
  8
108
  6
CONTINUOUS
 62
1
 10
-4.9954097
 20
-6.9000137
 11
-1.9954097
 21
-6.9000137
  0
LINE
  8
108
  6
CONTINUOUS
 62
1
 10
-1.9954097
 20
-7.049977
 11
-4.9954097
 21
-7.049977
  0
LINE
  8
108
  6
CONTINUOUS
 62
1
 10
-4.9954097
 20
-7.2000014
 11
-1.9954097
 21
-7.2000014
  0
LINE
  8
108
  6
CONTINUOUS
 62
1
 10
-1.9954097
 20
-7.3500259
 11
-4.9954097
 21
-7.3500259
  0
LINE
  8
108
  6
CONTINUOUS
 62
1
 10
-4.9954097
 20
-7.4999892
 11
-1.9954097
 21
-7.4999892
  0
LINE
  8
108
  6
CONTINUOUS
 62
1
 10
-1.9954097
 20
-7.6500137
 11
-4.9954097
 21
-7.6500137
  0
LINE
  8
108
  6
CONTINUOUS
 62
1
 10
-4.9954097
 20
-7.799977
 11
-1.9954097
 21
-7.799977
  0
LINE
  8
108
  6
CONTINUOUS
 62
1
 10
-1.9954097
 20
-7.9500014
 11
-4.9954097
 21
-7.9500014
  0
LINE
  8
108
  6
CONTINUOUS
 62
1
 10
-4.9954097
 20
-8.1000259
 11
-1.9954097
 21
-8.1000259
  0
LINE
  8
108
  6
CONTINUOUS
 62
1
 10
-1.9954097
 20
-8.2499892
 11
-4.9954097
 21
-8.2499892
  0
LINE
  8
108
  6
CONTINUOUS
 62
1
 10
-4.9954097
 20
-8.4000137
 11
-1.9954097
 21
-8.4000137
  0
LINE
  8
108
  6
CONTINUOUS
 62
1
 10
-1.9954097
 20
-8.549977
 11
-4.9954097
 21
-8.549977
  0
LINE
  8
108
  6
CONTINUOUS
 62
1
 10
-4.9954097
 20
-8.7000014
 11
-1.9954097
 21
-8.7000014
  0
LINE
  8
108
  6
CONTINUOUS
 62
1
 10
-1.9954097
 20
-8.8500259
 11
-4.9954097
 21
-8.8500259
  0
LINE
  8
108
  6
CONTINUOUS
 62
1
 10
-4.9954097
 20
-8.9999892
 11
-1.9954097
 21
-8.9999892
  0
LINE
  8
108
  6
CONTINUOUS
 62
1
 10
-1.9954097
 20
-9.1500137
 11
-4.9954097
 21
-9.1500137
  0
LINE
  8
108
  6
CONTINUOUS
 62
1
 10
-4.9954097
 20
-9.299977
 11
-1.9954097
 21
-9.299977
  0
LINE
  8
108
  6
CONTINUOUS
 62
1
 10
-1.9954097
 20
-9.4500014
 11
-4.9954097
 21
-9.4500014
  0
LINE
  8
108
  6
CONTINUOUS
 62
1
 10
-4.9954097
 20
-9.6000259
 11
-1.9954097
 21
-9.6000259
  0
LINE
  8
108
  6
CONTINUOUS
 62
1
 10
-1.9954097
 20
-9.7499892
 11
-4.9954097
 21
-9.7499892
  0
LINE
  8
108
  6
CONTINUOUS
 62
1
 10
-4.9954097
 20
-9.9000137
 11
-1.9954097
 21
-9.9000137
  0
LINE
  8
108
  6
CONTINUOUS
 62
1
 10
-1.9954097
 20
-1.0049977E+001
 11
-4.9954097
 21
-1.0049977E+001
  0
LINE
  8
108
  6
CONTINUOUS
 62
1
 10
-4.9954097
 20
-1.0200001E+001
 11
-1.9954097
 21
-1.0200001E+001
  0
LINE
  8
108
  6
CONTINUOUS
 62
1
 10
-1.9954097
 20
-1.0350026E+001
 11
-4.9954097
 21
-1.0350026E+001
  0
LINE
  8
108
  6
CONTINUOUS
 62
1
 10
-4.9954097
 20
-1.0499989E+001
 11
-1.9954097
 21
-1.0499989E+001
  0
LINE
  8
108
  6
CONTINUOUS
 62
1
 10
-1.9954097
 20
-1.0650014E+001
 11
-4.9954097
 21
-1.0650014E+001
  0
LINE
  8
108
  6
CONTINUOUS
 62
1
 10
-4.9954097
 20
-1.0799977E+001
 11
-1.9954097
 21
-1.0799977E+001
  0
LINE
  8
108
  6
CONTINUOUS
 62
1
 10
-1.9954097
 20
-1.0950001E+001
 11
-4.9954097
 21
-1.0950001E+001
  0
LINE
  8
108
  6
CONTINUOUS
 62
1
 10
-4.9954097
 20
-1.1100026E+001
 11
-1.9954097
 21
-1.1100026E+001
  0
LINE
  8
108
  6
CONTINUOUS
 62
1
 10
-1.9954097
 20
-1.1249989E+001
 11
-4.9954097
 21
-1.1249989E+001
  0
LINE
  8
108
  6
CONTINUOUS
 62
1
 10
-4.9954097
 20
-1.1400014E+001
 11
-1.9954097
 21
-1.1400014E+001
  0
ENDBLK
  0
BLOCK
  2
*XH45
  3
*XH
 10
0.0
 20
0.0
 70
65
  0
LINE
  8
108
  6
CONTINUOUS
 62
1
 10
4.378187E-001
 20
-1.1185834E+001
 11
8.776997E-001
 21
-1.1625714E+001
  0
LINE
  8
108
  6
CONTINUOUS
 62
1
 10
1.1378007
 20
-9.0574157
 11
4.378187E-001
 21
-8.3574035
  0
LINE
  8
108
  6
CONTINUOUS
 62
1
 10
4.378187E-001
 20
-5.5289734
 11
1.1378007
 21
-6.2289856
  0
LINE
  8
108
  6
CONTINUOUS
 62
1
 10
1.1378007
 20
-3.4005554
 11
4.378187E-001
 21
-2.7005432
  0
LINE
  8
108
  6
CONTINUOUS
 62
1
 10
-8.621993E-001
 20
1.4278748
 11
-8.085803E-001
 21
1.3742859
  0
LINE
  8
108
  6
CONTINUOUS
 62
1
 10
4.378187E-001
 20
1.2788698E-001
 11
1.1378007
 21
-5.7212522E-001
  0
LINE
  8
108
  6
CONTINUOUS
 62
1
 10
1.1378007
 20
2.256305
 11
-8.621993E-001
 21
4.256305
  0
LINE
  8
108
  6
CONTINUOUS
 62
1
 10
-4.1517503
 20
1.0374286E+001
 11
-2.1611493
 21
8.3836853
  0
LINE
  8
108
  6
CONTINUOUS
 62
1
 10
-8.621993E-001
 20
7.0847351
 11
1.1378007
 21
5.0847351
  0
LINE
  8
108
  6
CONTINUOUS
 62
1
 10
1.1378007
 20
7.9131653
 11
-1.3233203
 21
1.0374286E+001
  0
ENDBLK
  0
BLOCK
  2
*XH46
  3
*XH
 10
0.0
 20
0.0
 70
65
  0
LINE
  8
108
  6
CONTINUOUS
 62
1
 10
2.8366239E-001
 20
-1.1030036E+001
 11
9.8364439E-001
 21
-1.0330085E+001
  0
LINE
  8
108
  6
CONTINUOUS
 62
1
 10
9.8364439E-001
 20
-7.5016547
 11
2.8366239E-001
 21
-8.2016059
  0
LINE
  8
108
  6
CONTINUOUS
 62
1
 10
2.8366239E-001
 20
-5.3731757
 11
9.8364439E-001
 21
-4.6732245
  0
LINE
  8
108
  6
CONTINUOUS
 62
1
 10
9.8364439E-001
 20
-1.8447943
 11
2.8366239E-001
 21
-2.5447455
  0
LINE
  8
108
  6
CONTINUOUS
 62
1
 10
2.8366239E-001
 20
2.8368467E-001
 11
9.8364439E-001
 21
9.8363577E-001
  0
LINE
  8
108
  6
CONTINUOUS
 62
1
 10
9.8364439E-001
 20
3.812066
 11
-1.0163556
 21
1.812066
  0
LINE
  8
108
  6
CONTINUOUS
 62
1
 10
-1.0163556
 20
4.6404962
 11
9.8364439E-001
 21
6.6404962
  0
LINE
  8
108
  6
CONTINUOUS
 62
1
 10
8.4173739E-001
 20
9.3270196
 11
-1.1488626
 21
7.336419
  0
LINE
  8
108
  6
CONTINUOUS
 62
1
 10
-3.9772936
 20
7.336419
 11
-1.9866926
 21
9.3270196
  0
ENDBLK
  0
BLOCK
  2
*XH47
  3
*XH
 10
0.0
 20
0.0
 70
65
  0
LINE
  8
108
  6
CONTINUOUS
 62
1
 10
-5.1334483E-001
 20
-1.0255683E+001
 11
-1.2133568
 21
-1.0955756E+001
  0
LINE
  8
108
  6
CONTINUOUS
 62
1
 10
-1.2133568
 20
-8.1272651
 11
-5.1334483E-001
 21
-7.4273139
  0
LINE
  8
108
  6
CONTINUOUS
 62
1
 10
-5.1334483E-001
 20
-4.5988227
 11
-1.2133568
 21
-5.2988959
  0
LINE
  8
108
  6
CONTINUOUS
 62
1
 10
-1.2133568
 20
-2.4704047
 11
-5.1334483E-001
 21
-1.7704535
  0
LINE
  8
108
  6
CONTINUOUS
 62
1
 10
1.2330852
 20
-2.3993611E-002
 11
2.7866432
 21
1.5295953
  0
LINE
  8
108
  6
CONTINUOUS
 62
1
 10
2.7866432
 20
4.3579644
 11
-1.2133568
 21
3.5796439E-001
  0
LINE
  8
108
  6
CONTINUOUS
 62
1
 10
-1.2133568
 20
3.1864556
 11
4.2866432
 21
8.6864556
  0
LINE
  8
108
  6
CONTINUOUS
 62
1
 10
1.7478252
 20
8.9760064
 11
-1.2133568
 21
6.0148248
  0
LINE
  8
108
  6
CONTINUOUS
 62
1
 10
-1.2133568
 20
8.843316
 11
-1.0806058
 21
8.9760064
  0
ENDBLK
  0
BLOCK
  2
*XH48
  3
*XH
 10
0.0
 20
0.0
 70
65
  0
LINE
  8
108
  6
CONTINUOUS
 62
1
 10
-8.6263135E-001
 20
-1.1865253E+001
 11
-1.5626434
 21
-1.1165302E+001
  0
LINE
  8
108
  6
CONTINUOUS
 62
1
 10
-1.5626434
 20
-8.3368713
 11
-8.6263135E-001
 21
-9.0368835
  0
LINE
  8
108
  6
CONTINUOUS
 62
1
 10
-8.6263135E-001
 20
-6.2083923
 11
-1.5626434
 21
-5.5084411
  0
LINE
  8
108
  6
CONTINUOUS
 62
1
 10
-1.5626434
 20
-2.680011
 11
-8.6263135E-001
 21
-3.3800232
  0
LINE
  8
108
  6
CONTINUOUS
 62
1
 10
-8.6263135E-001
 20
-5.5153202E-001
 11
-1.5626434
 21
1.4841919E-001
  0
LINE
  8
108
  6
CONTINUOUS
 62
1
 10
-1.5626434
 20
2.9768494
 11
1.1794827
 21
2.3472288E-001
  0
LINE
  8
108
  6
CONTINUOUS
 62
1
 10
2.4373566
 20
1.8052796
 11
-1.5626434
 21
5.8052796
  0
LINE
  8
108
  6
CONTINUOUS
 62
1
 10
-1.5626434
 20
8.6337097
 11
2.4373566
 21
4.6337097
  0
LINE
  8
108
  6
CONTINUOUS
 62
1
 10
2.6647736
 20
7.2347229
 11
6.6477365E-001
 21
9.2347229
  0
LINE
  8
108
  6
CONTINUOUS
 62
1
 10
3.4932036
 20
9.2347229
 11
3.9373566
 21
8.7905701
  0
ENDBLK
  0
BLOCK
  2
*XH49
  3
*XH
 10
0.0
 20
0.0
 70
65
  0
LINE
  8
108
  6
CONTINUOUS
 62
1
 10
-8.0236258
 20
2.582962
 11
-7.8571827
 21
2.7494049
  0
LINE
  8
108
  6
CONTINUOUS
 62
1
 10
-3.6112108
 20
2.7527618
 11
-8.0236258
 21
-1.6596527
  0
LINE
  8
108
  6
CONTINUOUS
 62
1
 10
-5.3720447
 20
-3.2507172
 11
6.3473025E-001
 21
2.7560577
  0
LINE
  8
108
  6
CONTINUOUS
 62
1
 10
4.8807013
 20
2.7593536
 11
-1.1293997
 21
-3.2507172
  0
LINE
  8
108
  6
CONTINUOUS
 62
1
 10
3.1132452
 20
-3.2507172
 11
9.0581612
 21
2.6942291
  0
LINE
  8
108
  6
CONTINUOUS
 62
1
 10
8.9743603
 20
-1.6322479
 11
7.3558913
 21
-3.2507172
  0
ENDBLK
  0
BLOCK
  2
*XH50
  3
*XH
 10
0.0
 20
0.0
 70
65
  0
LINE
  8
108
  6
CONTINUOUS
 62
1
 10
1.6021177
 20
6.8831848
 11
3.6876587
 21
4.7976135
  0
LINE
  8
108
  6
CONTINUOUS
 62
1
 10
3.6876587
 20
5.549988E-001
 11
-2.6405273
 21
6.8831848
  0
LINE
  8
108
  6
CONTINUOUS
 62
1
 10
-3.8123413
 20
3.812323
 11
3.6876587
 21
-3.687677
  0
LINE
  8
108
  6
CONTINUOUS
 62
1
 10
2.7809207
 20
-7.0235535
 11
-3.8123413
 21
-4.302917E-001
  0
LINE
  8
108
  6
CONTINUOUS
 62
1
 10
-3.8123413
 20
-4.6729675
 11
-1.3684633
 21
-7.1168152
  0
ENDBLK
  0
BLOCK
  2
*XH51
  3
*XH
 10
0.0
 20
0.0
 70
65
  0
LINE
  8
108
  6
CONTINUOUS
 62
1
 10
8.996535E-001
 20
3.3429972
 11
2.9263255
 21
1.3163249
  0
LINE
  8
108
  6
CONTINUOUS
 62
1
 10
2.9263255
 20
-2.9263509
 11
-2.0929925
 21
2.0929972
  0
LINE
  8
108
  6
CONTINUOUS
 62
1
 10
-4.5736745
 20
3.3103432E-001
 11
-8.56375E-002
 21
-4.1570028
  0
ENDBLK
  0
BLOCK
  2
*XH52
  3
*XH
 10
0.0
 20
0.0
 70
65
  0
LINE
  8
108
  6
CONTINUOUS
 62
1
 10
1.7359545
 20
3.8534545E-001
 11
1.7773665
 21
3.4396365E-001
  0
LINE
  8
108
  6
CONTINUOUS
 62
1
 10
-1.0066605
 20
-1.1146546
 11
-2.5066605
 21
3.8534545E-001
  0
ENDBLK
  0
BLOCK
  2
*XH53
  3
*XH
 10
0.0
 20
0.0
 70
65
  0
LINE
  8
108
  6
CONTINUOUS
 62
1
 10
-3.5520628
 20
6.9058228E-001
 11
-1.3416138
 21
2.9010315
  0
LINE
  8
108
  6
CONTINUOUS
 62
1
 10
2.9010312
 20
2.9010315
 11
-3.0989688
 21
-3.0989685
  0
LINE
  8
108
  6
CONTINUOUS
 62
1
 10
1.1436772
 20
-3.0989685
 11
3.9479372
 21
-2.9470822E-001
  0
ENDBLK
  0
BLOCK
  2
*XH54
  3
*XH
 10
0.0
 20
0.0
 70
65
  0
LINE
  8
108
  6
CONTINUOUS
 62
1
 10
-4.9954097
 20
-1.1400035E+001
 11
5.1204572E+001
 21
-1.1400035E+001
  0
LINE
  8
108
  6
CONTINUOUS
 62
1
 10
5.1204572E+001
 20
-1.1250011E+001
 11
-4.9954097
 21
-1.1250011E+001
  0
LINE
  8
108
  6
CONTINUOUS
 62
1
 10
-4.9954097
 20
-1.1099986E+001
 11
5.1204572E+001
 21
-1.1099986E+001
  0
LINE
  8
108
  6
CONTINUOUS
 62
1
 10
5.1204572E+001
 20
-1.0950023E+001
 11
-4.9954097
 21
-1.0950023E+001
  0
LINE
  8
108
  6
CONTINUOUS
 62
1
 10
-4.9954097
 20
-1.0799999E+001
 11
5.1204572E+001
 21
-1.0799999E+001
  0
LINE
  8
108
  6
CONTINUOUS
 62
1
 10
5.1204572E+001
 20
-1.0650035E+001
 11
-4.9954097
 21
-1.0650035E+001
  0
LINE
  8
108
  6
CONTINUOUS
 62
1
 10
-4.9954097
 20
-1.0500011E+001
 11
5.1204572E+001
 21
-1.0500011E+001
  0
LINE
  8
108
  6
CONTINUOUS
 62
1
 10
5.1204572E+001
 20
-1.0349986E+001
 11
-4.9954097
 21
-1.0349986E+001
  0
LINE
  8
108
  6
CONTINUOUS
 62
1
 10
-4.9954097
 20
-1.0200023E+001
 11
5.1204572E+001
 21
-1.0200023E+001
  0
LINE
  8
108
  6
CONTINUOUS
 62
1
 10
5.1204572E+001
 20
-1.0049999E+001
 11
-4.9954097
 21
-1.0049999E+001
  0
LINE
  8
108
  6
CONTINUOUS
 62
1
 10
-4.9954097
 20
-9.9000352
 11
5.1204572E+001
 21
-9.9000352
  0
LINE
  8
108
  6
CONTINUOUS
 62
1
 10
5.1204572E+001
 20
-9.7500108
 11
-4.9954097
 21
-9.7500108
  0
LINE
  8
108
  6
CONTINUOUS
 62
1
 10
-4.9954097
 20
-9.5999864
 11
5.1204572E+001
 21
-9.5999864
  0
LINE
  8
108
  6
CONTINUOUS
 62
1
 10
5.1204572E+001
 20
-9.450023
 11
-4.9954097
 21
-9.450023
  0
LINE
  8
108
  6
CONTINUOUS
 62
1
 10
-4.9954097
 20
-9.2999986
 11
5.1204572E+001
 21
-9.2999986
  0
LINE
  8
108
  6
CONTINUOUS
 62
1
 10
5.1204572E+001
 20
-9.1500352
 11
-4.9954097
 21
-9.1500352
  0
LINE
  8
108
  6
CONTINUOUS
 62
1
 10
-4.9954097
 20
-9.0000108
 11
5.1204572E+001
 21
-9.0000108
  0
LINE
  8
108
  6
CONTINUOUS
 62
1
 10
5.1204572E+001
 20
-8.8499864
 11
-4.9954097
 21
-8.8499864
  0
LINE
  8
108
  6
CONTINUOUS
 62
1
 10
-4.9954097
 20
-8.700023
 11
5.1204572E+001
 21
-8.700023
  0
LINE
  8
108
  6
CONTINUOUS
 62
1
 10
5.1204572E+001
 20
-8.5499986
 11
-4.9954097
 21
-8.5499986
  0
LINE
  8
108
  6
CONTINUOUS
 62
1
 10
-4.9954097
 20
-8.3999742
 11
-5.6181573E-001
 21
-8.3999742
  0
LINE
  8
108
  6
CONTINUOUS
 62
1
 10
-9.3016273E-001
 20
-8.2500108
 11
-4.9954097
 21
-8.2500108
  0
LINE
  8
108
  6
CONTINUOUS
 62
1
 10
-4.9954097
 20
-8.0999864
 11
-1.1708857
 21
-8.0999864
  0
LINE
  8
108
  6
CONTINUOUS
 62
1
 10
-1.3535947
 20
-7.950023
 11
-4.9954097
 21
-7.950023
  0
LINE
  8
108
  6
CONTINUOUS
 62
1
 10
-4.9954097
 20
-7.7999986
 11
-1.4995907
 21
-7.7999986
  0
LINE
  8
108
  6
CONTINUOUS
 62
1
 10
-1.6188527
 20
-7.6499742
 11
-4.9954097
 21
-7.6499742
  0
LINE
  8
108
  6
CONTINUOUS
 62
1
 10
-4.9954097
 20
-7.5000108
 11
-1.7168757
 21
-7.5000108
  0
LINE
  8
108
  6
CONTINUOUS
 62
1
 10
-1.7971977
 20
-7.3499864
 11
-4.9954097
 21
-7.3499864
  0
LINE
  8
108
  6
CONTINUOUS
 62
1
 10
-4.9954097
 20
-7.200023
 11
-1.8620477
 21
-7.200023
  0
LINE
  8
108
  6
CONTINUOUS
 62
1
 10
-1.9130427
 20
-7.0499986
 11
-4.9954097
 21
-7.0499986
  0
LINE
  8
108
  6
CONTINUOUS
 62
1
 10
-4.9954097
 20
-6.8999742
 11
-1.9512197
 21
-6.8999742
  0
LINE
  8
108
  6
CONTINUOUS
 62
1
 10
-1.9773737
 20
-6.7500108
 11
-4.9954097
 21
-6.7500108
  0
LINE
  8
108
  6
CONTINUOUS
 62
1
 10
-4.9954097
 20
-6.5999864
 11
-1.9919307
 21
-6.5999864
  0
LINE
  8
108
  6
CONTINUOUS
 62
1
 10
-1.9954097
 20
-6.450023
 11
-4.9954097
 21
-6.450023
  0
LINE
  8
108
  6
CONTINUOUS
 62
1
 10
-4.9954097
 20
-6.2999986
 11
-1.9954097
 21
-6.2999986
  0
LINE
  8
108
  6
CONTINUOUS
 62
1
 10
-1.9954097
 20
-6.1499742
 11
-4.9954097
 21
-6.1499742
  0
LINE
  8
108
  6
CONTINUOUS
 62
1
 10
-4.9954097
 20
-6.0000108
 11
-1.9954097
 21
-6.0000108
  0
LINE
  8
108
  6
CONTINUOUS
 62
1
 10
-1.9954097
 20
-5.8499864
 11
-4.9954097
 21
-5.8499864
  0
LINE
  8
108
  6
CONTINUOUS
 62
1
 10
-4.9954097
 20
-5.700023
 11
-1.9954097
 21
-5.700023
  0
LINE
  8
108
  6
CONTINUOUS
 62
1
 10
-1.9954097
 20
-5.5499986
 11
-4.9954097
 21
-5.5499986
  0
LINE
  8
108
  6
CONTINUOUS
 62
1
 10
-4.9954097
 20
-5.3999742
 11
-1.9954097
 21
-5.3999742
  0
LINE
  8
108
  6
CONTINUOUS
 62
1
 10
-1.9954097
 20
-5.2500108
 11
-4.9954097
 21
-5.2500108
  0
LINE
  8
108
  6
CONTINUOUS
 62
1
 10
-4.9954097
 20
-5.0999864
 11
-1.9954097
 21
-5.0999864
  0
LINE
  8
108
  6
CONTINUOUS
 62
1
 10
-1.9954097
 20
-4.950023
 11
-4.9954097
 21
-4.950023
  0
LINE
  8
108
  6
CONTINUOUS
 62
1
 10
-4.9954097
 20
-4.7999986
 11
-1.9954097
 21
-4.7999986
  0
LINE
  8
108
  6
CONTINUOUS
 62
1
 10
-1.9954097
 20
-4.6499742
 11
-4.9954097
 21
-4.6499742
  0
LINE
  8
108
  6
CONTINUOUS
 62
1
 10
-4.9954097
 20
-4.5000108
 11
-1.9954097
 21
-4.5000108
  0
LINE
  8
108
  6
CONTINUOUS
 62
1
 10
-1.9954097
 20
-4.3499864
 11
-4.9954097
 21
-4.3499864
  0
LINE
  8
108
  6
CONTINUOUS
 62
1
 10
-4.9954097
 20
-4.200023
 11
-1.9954097
 21
-4.200023
  0
LINE
  8
108
  6
CONTINUOUS
 62
1
 10
-1.9954097
 20
-4.0499986
 11
-4.9954097
 21
-4.0499986
  0
LINE
  8
108
  6
CONTINUOUS
 62
1
 10
-4.9954097
 20
-3.8999742
 11
-1.9954097
 21
-3.8999742
  0
LINE
  8
108
  6
CONTINUOUS
 62
1
 10
-1.9954097
 20
-3.7500108
 11
-4.9954097
 21
-3.7500108
  0
LINE
  8
108
  6
CONTINUOUS
 62
1
 10
-4.9954097
 20
-3.5999864
 11
-1.9954097
 21
-3.5999864
  0
LINE
  8
108
  6
CONTINUOUS
 62
1
 10
-1.9954097
 20
-3.450023
 11
-4.9954097
 21
-3.450023
  0
LINE
  8
108
  6
CONTINUOUS
 62
1
 10
-4.9954097
 20
-3.2999986
 11
-1.9954097
 21
-3.2999986
  0
LINE
  8
108
  6
CONTINUOUS
 62
1
 10
-1.9954097
 20
-3.1499742
 11
-4.9954097
 21
-3.1499742
  0
LINE
  8
108
  6
CONTINUOUS
 62
1
 10
-4.9954097
 20
-3.0000108
 11
-1.9954097
 21
-3.0000108
  0
LINE
  8
108
  6
CONTINUOUS
 62
1
 10
-1.9954097
 20
-2.8499864
 11
-4.9954097
 21
-2.8499864
  0
LINE
  8
108
  6
CONTINUOUS
 62
1
 10
-4.9954097
 20
-2.700023
 11
-1.9954097
 21
-2.700023
  0
LINE
  8
108
  6
CONTINUOUS
 62
1
 10
-1.9954097
 20
-2.5499986
 11
-4.9954097
 21
-2.5499986
  0
LINE
  8
108
  6
CONTINUOUS
 62
1
 10
-4.9954097
 20
-2.3999742
 11
-1.9954097
 21
-2.3999742
  0
LINE
  8
108
  6
CONTINUOUS
 62
1
 10
-1.9954097
 20
-2.2500108
 11
-4.9954097
 21
-2.2500108
  0
LINE
  8
108
  6
CONTINUOUS
 62
1
 10
-4.9954097
 20
-2.0999864
 11
-1.9954097
 21
-2.0999864
  0
LINE
  8
108
  6
CONTINUOUS
 62
1
 10
-1.9954097
 20
-1.950023
 11
-4.9954097
 21
-1.950023
  0
LINE
  8
108
  6
CONTINUOUS
 62
1
 10
-4.9954097
 20
-1.7999986
 11
-1.9954097
 21
-1.7999986
  0
LINE
  8
108
  6
CONTINUOUS
 62
1
 10
-1.9954097
 20
-1.6499742
 11
-4.9954097
 21
-1.6499742
  0
LINE
  8
108
  6
CONTINUOUS
 62
1
 10
-4.9954097
 20
-1.5000108
 11
-1.9954097
 21
-1.5000108
  0
LINE
  8
108
  6
CONTINUOUS
 62
1
 10
-1.9954097
 20
-1.3499864
 11
-4.9954097
 21
-1.3499864
  0
LINE
  8
108
  6
CONTINUOUS
 62
1
 10
-4.9954097
 20
-1.200023
 11
-1.9954097
 21
-1.200023
  0
LINE
  8
108
  6
CONTINUOUS
 62
1
 10
-1.9954097
 20
-1.0499986
 11
-4.9954097
 21
-1.0499986
  0
LINE
  8
108
  6
CONTINUOUS
 62
1
 10
-4.9954097
 20
-8.9997416E-001
 11
-1.9954097
 21
-8.9997416E-001
  0
LINE
  8
108
  6
CONTINUOUS
 62
1
 10
-1.9954097
 20
-7.5001076E-001
 11
-4.9954097
 21
-7.5001076E-001
  0
LINE
  8
108
  6
CONTINUOUS
 62
1
 10
-4.9954097
 20
-5.9998636E-001
 11
-1.9954097
 21
-5.9998636E-001
  0
LINE
  8
108
  6
CONTINUOUS
 62
1
 10
-1.9954097
 20
-4.5002296E-001
 11
-4.9954097
 21
-4.5002296E-001
  0
LINE
  8
108
  6
CONTINUOUS
 62
1
 10
-4.9954097
 20
-2.9999856E-001
 11
-1.9954097
 21
-2.9999856E-001
  0
LINE
  8
108
  6
CONTINUOUS
 62
1
 10
-1.9954097
 20
-1.4997416E-001
 11
-4.9954097
 21
-1.4997416E-001
  0
LINE
  8
108
  6
CONTINUOUS
 62
1
 10
-4.9954097
 20
-1.07648E-005
 11
-1.9954097
 21
-1.07648E-005
  0
LINE
  8
108
  6
CONTINUOUS
 62
1
 10
-1.9954097
 20
1.5001364E-001
 11
-4.9954097
 21
1.5001364E-001
  0
LINE
  8
108
  6
CONTINUOUS
 62
1
 10
-4.9954097
 20
2.9997704E-001
 11
-1.9954097
 21
2.9997704E-001
  0
LINE
  8
108
  6
CONTINUOUS
 62
1
 10
-1.9954097
 20
4.5000144E-001
 11
-4.9954097
 21
4.5000144E-001
  0
LINE
  8
108
  6
CONTINUOUS
 62
1
 10
-4.9954097
 20
6.0002584E-001
 11
-1.9954097
 21
6.0002584E-001
  0
LINE
  8
108
  6
CONTINUOUS
 62
1
 10
-1.9954097
 20
7.4998924E-001
 11
-4.9954097
 21
7.4998924E-001
  0
LINE
  8
108
  6
CONTINUOUS
 62
1
 10
-4.9954097
 20
9.0001364E-001
 11
-1.9954097
 21
9.0001364E-001
  0
LINE
  8
108
  6
CONTINUOUS
 62
1
 10
-1.9954097
 20
1.049977
 11
-4.9954097
 21
1.049977
  0
LINE
  8
108
  6
CONTINUOUS
 62
1
 10
-4.9954097
 20
1.2000014
 11
-1.9954097
 21
1.2000014
  0
LINE
  8
108
  6
CONTINUOUS
 62
1
 10
-1.9954097
 20
1.3500258
 11
-4.9954097
 21
1.3500258
  0
LINE
  8
108
  6
CONTINUOUS
 62
1
 10
-4.9954097
 20
1.4999892
 11
-1.9954097
 21
1.4999892
  0
LINE
  8
108
  6
CONTINUOUS
 62
1
 10
-1.9954097
 20
1.6500136
 11
-4.9954097
 21
1.6500136
  0
LINE
  8
108
  6
CONTINUOUS
 62
1
 10
-4.9954097
 20
1.799977
 11
-1.9954097
 21
1.799977
  0
LINE
  8
108
  6
CONTINUOUS
 62
1
 10
-1.9954097
 20
1.9500014
 11
-4.9954097
 21
1.9500014
  0
LINE
  8
108
  6
CONTINUOUS
 62
1
 10
-4.9954097
 20
2.1000258
 11
-1.9954097
 21
2.1000258
  0
LINE
  8
108
  6
CONTINUOUS
 62
1
 10
-1.9954097
 20
2.2499892
 11
-4.9954097
 21
2.2499892
  0
LINE
  8
108
  6
CONTINUOUS
 62
1
 10
-4.9954097
 20
2.4000136
 11
-1.9954097
 21
2.4000136
  0
LINE
  8
108
  6
CONTINUOUS
 62
1
 10
-1.9954097
 20
2.549977
 11
-4.9954097
 21
2.549977
  0
LINE
  8
108
  6
CONTINUOUS
 62
1
 10
-4.9954097
 20
2.7000014
 11
-1.9954097
 21
2.7000014
  0
LINE
  8
108
  6
CONTINUOUS
 62
1
 10
-1.9954097
 20
2.8500258
 11
-4.9954097
 21
2.8500258
  0
LINE
  8
108
  6
CONTINUOUS
 62
1
 10
-4.9954097
 20
2.9999892
 11
-1.9954097
 21
2.9999892
  0
LINE
  8
108
  6
CONTINUOUS
 62
1
 10
-1.9954097
 20
3.1500136
 11
-4.9954097
 21
3.1500136
  0
LINE
  8
108
  6
CONTINUOUS
 62
1
 10
-4.9954097
 20
3.299977
 11
-1.9954097
 21
3.299977
  0
LINE
  8
108
  6
CONTINUOUS
 62
1
 10
-1.9954097
 20
3.4500014
 11
-4.9954097
 21
3.4500014
  0
LINE
  8
108
  6
CONTINUOUS
 62
1
 10
-4.9954097
 20
3.6000258
 11
-1.9954097
 21
3.6000258
  0
LINE
  8
108
  6
CONTINUOUS
 62
1
 10
-1.9954097
 20
3.7499892
 11
-4.9954097
 21
3.7499892
  0
LINE
  8
108
  6
CONTINUOUS
 62
1
 10
-4.9954097
 20
3.9000136
 11
-1.9954097
 21
3.9000136
  0
LINE
  8
108
  6
CONTINUOUS
 62
1
 10
-1.9954097
 20
4.049977
 11
-4.9954097
 21
4.049977
  0
LINE
  8
108
  6
CONTINUOUS
 62
1
 10
-4.9954097
 20
4.2000014
 11
-1.9954097
 21
4.2000014
  0
LINE
  8
108
  6
CONTINUOUS
 62
1
 10
-1.9954097
 20
4.3500258
 11
-4.9954097
 21
4.3500258
  0
LINE
  8
108
  6
CONTINUOUS
 62
1
 10
-4.9954097
 20
4.4999892
 11
-1.9954097
 21
4.4999892
  0
LINE
  8
108
  6
CONTINUOUS
 62
1
 10
-1.9954097
 20
4.6500136
 11
-4.9954097
 21
4.6500136
  0
LINE
  8
108
  6
CONTINUOUS
 62
1
 10
-4.9954097
 20
4.799977
 11
-1.9954097
 21
4.799977
  0
LINE
  8
108
  6
CONTINUOUS
 62
1
 10
-1.9954097
 20
4.9500014
 11
-4.9954097
 21
4.9500014
  0
LINE
  8
108
  6
CONTINUOUS
 62
1
 10
-4.9954097
 20
5.1000258
 11
-1.9954097
 21
5.1000258
  0
LINE
  8
108
  6
CONTINUOUS
 62
1
 10
-1.9954097
 20
5.2499892
 11
-4.9954097
 21
5.2499892
  0
LINE
  8
108
  6
CONTINUOUS
 62
1
 10
-4.9954097
 20
5.4000136
 11
-1.9954097
 21
5.4000136
  0
LINE
  8
108
  6
CONTINUOUS
 62
1
 10
-1.9954097
 20
5.549977
 11
-4.9954097
 21
5.549977
  0
LINE
  8
108
  6
CONTINUOUS
 62
1
 10
-4.9954097
 20
5.7000014
 11
-1.9954097
 21
5.7000014
  0
LINE
  8
108
  6
CONTINUOUS
 62
1
 10
-1.9954097
 20
5.8500258
 11
-4.9954097
 21
5.8500258
  0
LINE
  8
108
  6
CONTINUOUS
 62
1
 10
-4.9954097
 20
5.9999892
 11
-1.9954097
 21
5.9999892
  0
LINE
  8
108
  6
CONTINUOUS
 62
1
 10
-1.9954097
 20
6.1500136
 11
-4.9954097
 21
6.1500136
  0
LINE
  8
108
  6
CONTINUOUS
 62
1
 10
-4.9954097
 20
6.299977
 11
-1.9954097
 21
6.299977
  0
LINE
  8
108
  6
CONTINUOUS
 62
1
 10
-1.9954097
 20
6.4500014
 11
-4.9954097
 21
6.4500014
  0
LINE
  8
108
  6
CONTINUOUS
 62
1
 10
-4.9954097
 20
6.6000258
 11
-1.9954097
 21
6.6000258
  0
LINE
  8
108
  6
CONTINUOUS
 62
1
 10
-1.9954097
 20
6.7499892
 11
-4.9954097
 21
6.7499892
  0
LINE
  8
108
  6
CONTINUOUS
 62
1
 10
-4.9954097
 20
6.9000136
 11
-1.9954097
 21
6.9000136
  0
LINE
  8
108
  6
CONTINUOUS
 62
1
 10
-1.9954097
 20
7.049977
 11
-4.9954097
 21
7.049977
  0
LINE
  8
108
  6
CONTINUOUS
 62
1
 10
-4.9954097
 20
7.2000014
 11
-1.9954097
 21
7.2000014
  0
LINE
  8
108
  6
CONTINUOUS
 62
1
 10
-1.9954097
 20
7.3500258
 11
-4.9954097
 21
7.3500258
  0
LINE
  8
108
  6
CONTINUOUS
 62
1
 10
-4.9954097
 20
7.4999892
 11
-1.9954097
 21
7.4999892
  0
LINE
  8
108
  6
CONTINUOUS
 62
1
 10
-1.9954097
 20
7.6500136
 11
-4.9954097
 21
7.6500136
  0
LINE
  8
108
  6
CONTINUOUS
 62
1
 10
-4.9954097
 20
7.799977
 11
-1.9954097
 21
7.799977
  0
LINE
  8
108
  6
CONTINUOUS
 62
1
 10
-1.9954097
 20
7.9500014
 11
-4.9954097
 21
7.9500014
  0
LINE
  8
108
  6
CONTINUOUS
 62
1
 10
-4.9954097
 20
8.1000258
 11
-1.9954097
 21
8.1000258
  0
LINE
  8
108
  6
CONTINUOUS
 62
1
 10
-1.9954097
 20
8.2499892
 11
-4.9954097
 21
8.2499892
  0
LINE
  8
108
  6
CONTINUOUS
 62
1
 10
-4.9954097
 20
8.4000136
 11
-1.9954097
 21
8.4000136
  0
LINE
  8
108
  6
CONTINUOUS
 62
1
 10
-1.9954097
 20
8.549977
 11
-4.9954097
 21
8.549977
  0
LINE
  8
108
  6
CONTINUOUS
 62
1
 10
-4.9954097
 20
8.7000014
 11
-1.9954097
 21
8.7000014
  0
LINE
  8
108
  6
CONTINUOUS
 62
1
 10
-1.9954097
 20
8.8500258
 11
-4.9954097
 21
8.8500258
  0
LINE
  8
108
  6
CONTINUOUS
 62
1
 10
-4.9954097
 20
8.9999892
 11
-1.9954097
 21
8.9999892
  0
LINE
  8
108
  6
CONTINUOUS
 62
1
 10
-1.9954097
 20
9.1500136
 11
-4.9954097
 21
9.1500136
  0
LINE
  8
108
  6
CONTINUOUS
 62
1
 10
-4.9954097
 20
9.299977
 11
-1.9954097
 21
9.299977
  0
LINE
  8
108
  6
CONTINUOUS
 62
1
 10
-1.9954097
 20
9.4500014
 11
-4.9954097
 21
9.4500014
  0
LINE
  8
108
  6
CONTINUOUS
 62
1
 10
-4.9954097
 20
9.6000258
 11
-1.9954097
 21
9.6000258
  0
LINE
  8
108
  6
CONTINUOUS
 62
1
 10
-1.9954097
 20
9.7499892
 11
-4.9954097
 21
9.7499892
  0
LINE
  8
108
  6
CONTINUOUS
 62
1
 10
-4.9954097
 20
9.9000136
 11
-1.9954097
 21
9.9000136
  0
LINE
  8
108
  6
CONTINUOUS
 62
1
 10
-1.9954097
 20
1.0049977E+001
 11
-4.9954097
 21
1.0049977E+001
  0
LINE
  8
108
  6
CONTINUOUS
 62
1
 10
-4.9954097
 20
1.0200001E+001
 11
-1.9954097
 21
1.0200001E+001
  0
LINE
  8
108
  6
CONTINUOUS
 62
1
 10
-1.9954097
 20
1.0350026E+001
 11
-4.9954097
 21
1.0350026E+001
  0
LINE
  8
108
  6
CONTINUOUS
 62
1
 10
-4.9954097
 20
1.0499989E+001
 11
-1.9954097
 21
1.0499989E+001
  0
LINE
  8
108
  6
CONTINUOUS
 62
1
 10
-1.9954097
 20
1.0650014E+001
 11
-4.9954097
 21
1.0650014E+001
  0
LINE
  8
108
  6
CONTINUOUS
 62
1
 10
-4.9954097
 20
1.0799977E+001
 11
-1.9954097
 21
1.0799977E+001
  0
LINE
  8
108
  6
CONTINUOUS
 62
1
 10
-1.9954097
 20
1.0950001E+001
 11
-4.9954097
 21
1.0950001E+001
  0
LINE
  8
108
  6
CONTINUOUS
 62
1
 10
-4.9954097
 20
1.1100026E+001
 11
-1.9954097
 21
1.1100026E+001
  0
LINE
  8
108
  6
CONTINUOUS
 62
1
 10
-1.9954097
 20
1.1249989E+001
 11
-4.9954097
 21
1.1249989E+001
  0
LINE
  8
108
  6
CONTINUOUS
 62
1
 10
-4.9954097
 20
1.1400014E+001
 11
-1.9954097
 21
1.1400014E+001
  0
ENDBLK
  0
BLOCK
  2
*XH58
  3
*XH
 10
0.0
 20
0.0
 70
65
  0
LINE
  8
108
  6
CONTINUOUS
 62
1
 10
-8.0236179
 20
-2.5829618
 11
-7.8571909
 21
-2.7494048
  0
LINE
  8
108
  6
CONTINUOUS
 62
1
 10
-3.6112189
 20
-2.7527618
 11
-8.0236179
 21
1.6596522
  0
LINE
  8
108
  6
CONTINUOUS
 62
1
 10
-5.3720369
 20
3.2507172
 11
6.3472208E-001
 21
-2.7560578
  0
LINE
  8
108
  6
CONTINUOUS
 62
1
 10
4.8806941
 20
-2.7593538
 11
-1.1293919
 21
3.2507172
  0
LINE
  8
108
  6
CONTINUOUS
 62
1
 10
3.1132381
 20
3.2507172
 11
9.0581691
 21
-2.6942288
  0
LINE
  8
108
  6
CONTINUOUS
 62
1
 10
8.9743681
 20
1.6322482
 11
7.3558831
 21
3.2507172
  0
ENDBLK
  0
BLOCK
  2
*XH59
  3
*XH
 10
0.0
 20
0.0
 70
65
  0
LINE
  8
108
  6
CONTINUOUS
 62
1
 10
-2.05978
 20
-6.155375E-002
 11
2.90287E-001
 21
-2.4115907
  0
LINE
  8
108
  6
CONTINUOUS
 62
1
 10
3.236576
 20
-1.1152647
 11
-1.467083
 21
3.5884093
  0
ENDBLK
  0
BLOCK
  2
*XH60
  3
*XH
 10
0.0
 20
0.0
 70
65
  0
LINE
  8
108
  6
CONTINUOUS
 62
1
 10
-3.2257348
 20
1.104431
 11
1.4345743
 21
-3.555908
  0
LINE
  8
108
  6
CONTINUOUS
 62
1
 10
2.1139412
 20
7.385E-003
 11
-3.2278075E-001
 21
2.444092
  0
ENDBLK
  0
BLOCK
  2
*XH61
  3
*XH
 10
0.0
 20
0.0
 70
65
  0
LINE
  8
108
  6
CONTINUOUS
 62
1
 10
1.6021057
 20
-6.8831847
 11
3.6876617
 21
-4.7976137
  0
LINE
  8
108
  6
CONTINUOUS
 62
1
 10
3.6876617
 20
-5.549987E-001
 11
-2.6405393
 21
-6.8831847
  0
LINE
  8
108
  6
CONTINUOUS
 62
1
 10
-3.8123383
 20
-3.8123227
 11
3.6876617
 21
3.6876773
  0
LINE
  8
108
  6
CONTINUOUS
 62
1
 10
2.7809237
 20
7.0235533
 11
-3.8123383
 21
4.302913E-001
  0
LINE
  8
108
  6
CONTINUOUS
 62
1
 10
-3.8123383
 20
4.6729673
 11
-1.3684603
 21
7.1168153
  0
ENDBLK
  0
BLOCK
  2
*XH62
  3
*XH
 10
0.0
 20
0.0
 70
65
  0
LINE
  8
108
  6
CONTINUOUS
 62
1
 10
8.9964517E-001
 20
-3.3429972
 11
2.9263332
 21
-1.3163252
  0
LINE
  8
108
  6
CONTINUOUS
 62
1
 10
2.9263332
 20
2.9263508
 11
-2.0929998
 21
-2.0929972
  0
LINE
  8
108
  6
CONTINUOUS
 62
1
 10
-4.5736668
 20
-3.3103417E-001
 11
-8.5644833E-002
 21
4.1570028
  0
ENDBLK
  0
BLOCK
  2
*XH63
  3
*XH
 10
0.0
 20
0.0
 70
65
  0
LINE
  8
108
  6
CONTINUOUS
 62
1
 10
1.735962
 20
-3.853455E-001
 11
1.777374
 21
-3.439635E-001
  0
LINE
  8
108
  6
CONTINUOUS
 62
1
 10
-1.006668
 20
1.1146545
 11
-2.506668
 21
-3.853455E-001
  0
ENDBLK
  0
BLOCK
  2
*XH64
  3
*XH
 10
0.0
 20
0.0
 70
65
  0
LINE
  8
108
  6
CONTINUOUS
 62
1
 10
-3.5520628
 20
-6.905825E-001
 11
-1.3416138
 21
-2.9010315
  0
LINE
  8
108
  6
CONTINUOUS
 62
1
 10
2.9010312
 20
-2.9010315
 11
-3.0989688
 21
3.0989685
  0
LINE
  8
108
  6
CONTINUOUS
 62
1
 10
1.1436772
 20
3.0989685
 11
3.9479372
 21
2.947085E-001
  0
ENDBLK
  0
BLOCK
  2
*XH65
  3
*XH
 10
0.0
 20
0.0
 70
65
  0
LINE
  8
108
  6
CONTINUOUS
 62
1
 10
-4.995411
 20
1.1400035E+001
 11
5.1204586E+001
 21
1.1400035E+001
  0
LINE
  8
108
  6
CONTINUOUS
 62
1
 10
5.1204586E+001
 20
1.125001E+001
 11
-4.995411
 21
1.125001E+001
  0
LINE
  8
108
  6
CONTINUOUS
 62
1
 10
-4.995411
 20
1.1099986E+001
 11
5.1204586E+001
 21
1.1099986E+001
  0
LINE
  8
108
  6
CONTINUOUS
 62
1
 10
5.1204586E+001
 20
1.0950023E+001
 11
-4.995411
 21
1.0950023E+001
  0
LINE
  8
108
  6
CONTINUOUS
 62
1
 10
-4.995411
 20
1.0799998E+001
 11
5.1204586E+001
 21
1.0799998E+001
  0
LINE
  8
108
  6
CONTINUOUS
 62
1
 10
5.1204586E+001
 20
1.0650035E+001
 11
-4.995411
 21
1.0650035E+001
  0
LINE
  8
108
  6
CONTINUOUS
 62
1
 10
-4.995411
 20
1.050001E+001
 11
5.1204586E+001
 21
1.050001E+001
  0
LINE
  8
108
  6
CONTINUOUS
 62
1
 10
5.1204586E+001
 20
1.0349986E+001
 11
-4.995411
 21
1.0349986E+001
  0
LINE
  8
108
  6
CONTINUOUS
 62
1
 10
-4.995411
 20
1.0200023E+001
 11
5.1204586E+001
 21
1.0200023E+001
  0
LINE
  8
108
  6
CONTINUOUS
 62
1
 10
5.1204586E+001
 20
1.0049998E+001
 11
-4.995411
 21
1.0049998E+001
  0
LINE
  8
108
  6
CONTINUOUS
 62
1
 10
-4.995411
 20
9.9000354
 11
5.1204586E+001
 21
9.9000354
  0
LINE
  8
108
  6
CONTINUOUS
 62
1
 10
5.1204586E+001
 20
9.7500104
 11
-4.995411
 21
9.7500104
  0
LINE
  8
108
  6
CONTINUOUS
 62
1
 10
-4.995411
 20
9.5999864
 11
5.1204586E+001
 21
9.5999864
  0
LINE
  8
108
  6
CONTINUOUS
 62
1
 10
5.1204586E+001
 20
9.4500234
 11
-4.995411
 21
9.4500234
  0
LINE
  8
108
  6
CONTINUOUS
 62
1
 10
-4.995411
 20
9.2999984
 11
5.1204586E+001
 21
9.2999984
  0
LINE
  8
108
  6
CONTINUOUS
 62
1
 10
5.1204586E+001
 20
9.1500354
 11
-4.995411
 21
9.1500354
  0
LINE
  8
108
  6
CONTINUOUS
 62
1
 10
-4.995411
 20
9.0000104
 11
5.1204586E+001
 21
9.0000104
  0
LINE
  8
108
  6
CONTINUOUS
 62
1
 10
5.1204586E+001
 20
8.8499864
 11
-4.995411
 21
8.8499864
  0
LINE
  8
108
  6
CONTINUOUS
 62
1
 10
-4.995411
 20
8.7000234
 11
5.1204586E+001
 21
8.7000234
  0
LINE
  8
108
  6
CONTINUOUS
 62
1
 10
5.1204586E+001
 20
8.5499984
 11
-4.995411
 21
8.5499984
  0
LINE
  8
108
  6
CONTINUOUS
 62
1
 10
-4.995411
 20
8.3999744
 11
-5.61817E-001
 21
8.3999744
  0
LINE
  8
108
  6
CONTINUOUS
 62
1
 10
-9.30164E-001
 20
8.2500104
 11
-4.995411
 21
8.2500104
  0
LINE
  8
108
  6
CONTINUOUS
 62
1
 10
-4.995411
 20
8.0999864
 11
-1.170872
 21
8.0999864
  0
LINE
  8
108
  6
CONTINUOUS
 62
1
 10
-1.353581
 20
7.9500234
 11
-4.995411
 21
7.9500234
  0
LINE
  8
108
  6
CONTINUOUS
 62
1
 10
-4.995411
 20
7.7999984
 11
-1.499592
 21
7.7999984
  0
LINE
  8
108
  6
CONTINUOUS
 62
1
 10
-1.618839
 20
7.6499744
 11
-4.995411
 21
7.6499744
  0
LINE
  8
108
  6
CONTINUOUS
 62
1
 10
-4.995411
 20
7.5000104
 11
-1.716877
 21
7.5000104
  0
LINE
  8
108
  6
CONTINUOUS
 62
1
 10
-1.797184
 20
7.3499864
 11
-4.995411
 21
7.3499864
  0
LINE
  8
108
  6
CONTINUOUS
 62
1
 10
-4.995411
 20
7.2000234
 11
-1.862049
 21
7.2000234
  0
LINE
  8
108
  6
CONTINUOUS
 62
1
 10
-1.913029
 20
7.0499984
 11
-4.995411
 21
7.0499984
  0
LINE
  8
108
  6
CONTINUOUS
 62
1
 10
-4.995411
 20
6.8999744
 11
-1.951222
 21
6.8999744
  0
LINE
  8
108
  6
CONTINUOUS
 62
1
 10
-1.97736
 20
6.7500104
 11
-4.995411
 21
6.7500104
  0
LINE
  8
108
  6
CONTINUOUS
 62
1
 10
-4.995411
 20
6.5999864
 11
-1.991932
 21
6.5999864
  0
LINE
  8
108
  6
CONTINUOUS
 62
1
 10
-1.995411
 20
6.4500234
 11
-4.995411
 21
6.4500234
  0
LINE
  8
108
  6
CONTINUOUS
 62
1
 10
-4.995411
 20
6.2999984
 11
-1.995411
 21
6.2999984
  0
LINE
  8
108
  6
CONTINUOUS
 62
1
 10
-1.995411
 20
6.1499744
 11
-4.995411
 21
6.1499744
  0
LINE
  8
108
  6
CONTINUOUS
 62
1
 10
-4.995411
 20
6.0000104
 11
-1.995411
 21
6.0000104
  0
LINE
  8
108
  6
CONTINUOUS
 62
1
 10
-1.995411
 20
5.8499864
 11
-4.995411
 21
5.8499864
  0
LINE
  8
108
  6
CONTINUOUS
 62
1
 10
-4.995411
 20
5.7000234
 11
-1.995411
 21
5.7000234
  0
LINE
  8
108
  6
CONTINUOUS
 62
1
 10
-1.995411
 20
5.5499984
 11
-4.995411
 21
5.5499984
  0
LINE
  8
108
  6
CONTINUOUS
 62
1
 10
-4.995411
 20
5.3999744
 11
-1.995411
 21
5.3999744
  0
LINE
  8
108
  6
CONTINUOUS
 62
1
 10
-1.995411
 20
5.2500104
 11
-4.995411
 21
5.2500104
  0
LINE
  8
108
  6
CONTINUOUS
 62
1
 10
-4.995411
 20
5.0999864
 11
-1.995411
 21
5.0999864
  0
LINE
  8
108
  6
CONTINUOUS
 62
1
 10
-1.995411
 20
4.9500234
 11
-4.995411
 21
4.9500234
  0
LINE
  8
108
  6
CONTINUOUS
 62
1
 10
-4.995411
 20
4.7999984
 11
-1.995411
 21
4.7999984
  0
LINE
  8
108
  6
CONTINUOUS
 62
1
 10
-1.995411
 20
4.6499744
 11
-4.995411
 21
4.6499744
  0
LINE
  8
108
  6
CONTINUOUS
 62
1
 10
-4.995411
 20
4.5000104
 11
-1.995411
 21
4.5000104
  0
LINE
  8
108
  6
CONTINUOUS
 62
1
 10
-1.995411
 20
4.3499864
 11
-4.995411
 21
4.3499864
  0
LINE
  8
108
  6
CONTINUOUS
 62
1
 10
-4.995411
 20
4.2000234
 11
-1.995411
 21
4.2000234
  0
LINE
  8
108
  6
CONTINUOUS
 62
1
 10
-1.995411
 20
4.0499984
 11
-4.995411
 21
4.0499984
  0
LINE
  8
108
  6
CONTINUOUS
 62
1
 10
-4.995411
 20
3.8999744
 11
-1.995411
 21
3.8999744
  0
LINE
  8
108
  6
CONTINUOUS
 62
1
 10
-1.995411
 20
3.7500104
 11
-4.995411
 21
3.7500104
  0
LINE
  8
108
  6
CONTINUOUS
 62
1
 10
-4.995411
 20
3.5999864
 11
-1.995411
 21
3.5999864
  0
LINE
  8
108
  6
CONTINUOUS
 62
1
 10
-1.995411
 20
3.4500234
 11
-4.995411
 21
3.4500234
  0
LINE
  8
108
  6
CONTINUOUS
 62
1
 10
-4.995411
 20
3.2999984
 11
-1.995411
 21
3.2999984
  0
LINE
  8
108
  6
CONTINUOUS
 62
1
 10
-1.995411
 20
3.1499744
 11
-4.995411
 21
3.1499744
  0
LINE
  8
108
  6
CONTINUOUS
 62
1
 10
-4.995411
 20
3.0000104
 11
-1.995411
 21
3.0000104
  0
LINE
  8
108
  6
CONTINUOUS
 62
1
 10
-1.995411
 20
2.8499864
 11
-4.995411
 21
2.8499864
  0
LINE
  8
108
  6
CONTINUOUS
 62
1
 10
-4.995411
 20
2.7000234
 11
-1.995411
 21
2.7000234
  0
LINE
  8
108
  6
CONTINUOUS
 62
1
 10
-1.995411
 20
2.5499984
 11
-4.995411
 21
2.5499984
  0
LINE
  8
108
  6
CONTINUOUS
 62
1
 10
-4.995411
 20
2.3999744
 11
-1.995411
 21
2.3999744
  0
LINE
  8
108
  6
CONTINUOUS
 62
1
 10
-1.995411
 20
2.2500104
 11
-4.995411
 21
2.2500104
  0
LINE
  8
108
  6
CONTINUOUS
 62
1
 10
-4.995411
 20
2.0999864
 11
-1.995411
 21
2.0999864
  0
LINE
  8
108
  6
CONTINUOUS
 62
1
 10
-1.995411
 20
1.9500234
 11
-4.995411
 21
1.9500234
  0
LINE
  8
108
  6
CONTINUOUS
 62
1
 10
-4.995411
 20
1.7999984
 11
-1.995411
 21
1.7999984
  0
LINE
  8
108
  6
CONTINUOUS
 62
1
 10
-1.995411
 20
1.6499744
 11
-4.995411
 21
1.6499744
  0
LINE
  8
108
  6
CONTINUOUS
 62
1
 10
-4.995411
 20
1.5000104
 11
-1.995411
 21
1.5000104
  0
LINE
  8
108
  6
CONTINUOUS
 62
1
 10
-1.995411
 20
1.3499864
 11
-4.995411
 21
1.3499864
  0
LINE
  8
108
  6
CONTINUOUS
 62
1
 10
-4.995411
 20
1.2000234
 11
-1.995411
 21
1.2000234
  0
LINE
  8
108
  6
CONTINUOUS
 62
1
 10
-1.995411
 20
1.0499984
 11
-4.995411
 21
1.0499984
  0
LINE
  8
108
  6
CONTINUOUS
 62
1
 10
-4.995411
 20
8.9997437E-001
 11
-1.995411
 21
8.9997437E-001
  0
LINE
  8
108
  6
CONTINUOUS
 62
1
 10
-1.995411
 20
7.5001037E-001
 11
-4.995411
 21
7.5001037E-001
  0
LINE
  8
108
  6
CONTINUOUS
 62
1
 10
-4.995411
 20
5.9998637E-001
 11
-1.995411
 21
5.9998637E-001
  0
LINE
  8
108
  6
CONTINUOUS
 62
1
 10
-1.995411
 20
4.5002337E-001
 11
-4.995411
 21
4.5002337E-001
  0
LINE
  8
108
  6
CONTINUOUS
 62
1
 10
-4.995411
 20
2.9999837E-001
 11
-1.995411
 21
2.9999837E-001
  0
LINE
  8
108
  6
CONTINUOUS
 62
1
 10
-1.995411
 20
1.4997437E-001
 11
-4.995411
 21
1.4997437E-001
  0
LINE
  8
108
  6
CONTINUOUS
 62
1
 10
-4.995411
 20
1.0366E-005
 11
-1.995411
 21
1.0366E-005
  0
LINE
  8
108
  6
CONTINUOUS
 62
1
 10
-1.995411
 20
-1.5001363E-001
 11
-4.995411
 21
-1.5001363E-001
  0
LINE
  8
108
  6
CONTINUOUS
 62
1
 10
-4.995411
 20
-2.9997663E-001
 11
-1.995411
 21
-2.9997663E-001
  0
LINE
  8
108
  6
CONTINUOUS
 62
1
 10
-1.995411
 20
-4.5000163E-001
 11
-4.995411
 21
-4.5000163E-001
  0
LINE
  8
108
  6
CONTINUOUS
 62
1
 10
-4.995411
 20
-6.0002563E-001
 11
-1.995411
 21
-6.0002563E-001
  0
LINE
  8
108
  6
CONTINUOUS
 62
1
 10
-1.995411
 20
-7.4998963E-001
 11
-4.995411
 21
-7.4998963E-001
  0
LINE
  8
108
  6
CONTINUOUS
 62
1
 10
-4.995411
 20
-9.0001363E-001
 11
-1.995411
 21
-9.0001363E-001
  0
LINE
  8
108
  6
CONTINUOUS
 62
1
 10
-1.995411
 20
-1.0499766
 11
-4.995411
 21
-1.0499766
  0
LINE
  8
108
  6
CONTINUOUS
 62
1
 10
-4.995411
 20
-1.2000016
 11
-1.995411
 21
-1.2000016
  0
LINE
  8
108
  6
CONTINUOUS
 62
1
 10
-1.995411
 20
-1.3500256
 11
-4.995411
 21
-1.3500256
  0
LINE
  8
108
  6
CONTINUOUS
 62
1
 10
-4.995411
 20
-1.4999896
 11
-1.995411
 21
-1.4999896
  0
LINE
  8
108
  6
CONTINUOUS
 62
1
 10
-1.995411
 20
-1.6500136
 11
-4.995411
 21
-1.6500136
  0
LINE
  8
108
  6
CONTINUOUS
 62
1
 10
-4.995411
 20
-1.7999766
 11
-1.995411
 21
-1.7999766
  0
LINE
  8
108
  6
CONTINUOUS
 62
1
 10
-1.995411
 20
-1.9500016
 11
-4.995411
 21
-1.9500016
  0
LINE
  8
108
  6
CONTINUOUS
 62
1
 10
-4.995411
 20
-2.1000256
 11
-1.995411
 21
-2.1000256
  0
LINE
  8
108
  6
CONTINUOUS
 62
1
 10
-1.995411
 20
-2.2499896
 11
-4.995411
 21
-2.2499896
  0
LINE
  8
108
  6
CONTINUOUS
 62
1
 10
-4.995411
 20
-2.4000136
 11
-1.995411
 21
-2.4000136
  0
LINE
  8
108
  6
CONTINUOUS
 62
1
 10
-1.995411
 20
-2.5499766
 11
-4.995411
 21
-2.5499766
  0
LINE
  8
108
  6
CONTINUOUS
 62
1
 10
-4.995411
 20
-2.7000016
 11
-1.995411
 21
-2.7000016
  0
LINE
  8
108
  6
CONTINUOUS
 62
1
 10
-1.995411
 20
-2.8500256
 11
-4.995411
 21
-2.8500256
  0
LINE
  8
108
  6
CONTINUOUS
 62
1
 10
-4.995411
 20
-2.9999896
 11
-1.995411
 21
-2.9999896
  0
LINE
  8
108
  6
CONTINUOUS
 62
1
 10
-1.995411
 20
-3.1500136
 11
-4.995411
 21
-3.1500136
  0
LINE
  8
108
  6
CONTINUOUS
 62
1
 10
-4.995411
 20
-3.2999766
 11
-1.995411
 21
-3.2999766
  0
LINE
  8
108
  6
CONTINUOUS
 62
1
 10
-1.995411
 20
-3.4500016
 11
-4.995411
 21
-3.4500016
  0
LINE
  8
108
  6
CONTINUOUS
 62
1
 10
-4.995411
 20
-3.6000256
 11
-1.995411
 21
-3.6000256
  0
LINE
  8
108
  6
CONTINUOUS
 62
1
 10
-1.995411
 20
-3.7499896
 11
-4.995411
 21
-3.7499896
  0
LINE
  8
108
  6
CONTINUOUS
 62
1
 10
-4.995411
 20
-3.9000136
 11
-1.995411
 21
-3.9000136
  0
LINE
  8
108
  6
CONTINUOUS
 62
1
 10
-1.995411
 20
-4.0499766
 11
-4.995411
 21
-4.0499766
  0
LINE
  8
108
  6
CONTINUOUS
 62
1
 10
-4.995411
 20
-4.2000016
 11
-1.995411
 21
-4.2000016
  0
LINE
  8
108
  6
CONTINUOUS
 62
1
 10
-1.995411
 20
-4.3500256
 11
-4.995411
 21
-4.3500256
  0
LINE
  8
108
  6
CONTINUOUS
 62
1
 10
-4.995411
 20
-4.4999896
 11
-1.995411
 21
-4.4999896
  0
LINE
  8
108
  6
CONTINUOUS
 62
1
 10
-1.995411
 20
-4.6500136
 11
-4.995411
 21
-4.6500136
  0
LINE
  8
108
  6
CONTINUOUS
 62
1
 10
-4.995411
 20
-4.7999766
 11
-1.995411
 21
-4.7999766
  0
LINE
  8
108
  6
CONTINUOUS
 62
1
 10
-1.995411
 20
-4.9500016
 11
-4.995411
 21
-4.9500016
  0
LINE
  8
108
  6
CONTINUOUS
 62
1
 10
-4.995411
 20
-5.1000256
 11
-1.995411
 21
-5.1000256
  0
LINE
  8
108
  6
CONTINUOUS
 62
1
 10
-1.995411
 20
-5.2499896
 11
-4.995411
 21
-5.2499896
  0
LINE
  8
108
  6
CONTINUOUS
 62
1
 10
-4.995411
 20
-5.4000136
 11
-1.995411
 21
-5.4000136
  0
LINE
  8
108
  6
CONTINUOUS
 62
1
 10
-1.995411
 20
-5.5499766
 11
-4.995411
 21
-5.5499766
  0
LINE
  8
108
  6
CONTINUOUS
 62
1
 10
-4.995411
 20
-5.7000016
 11
-1.995411
 21
-5.7000016
  0
LINE
  8
108
  6
CONTINUOUS
 62
1
 10
-1.995411
 20
-5.8500256
 11
-4.995411
 21
-5.8500256
  0
LINE
  8
108
  6
CONTINUOUS
 62
1
 10
-4.995411
 20
-5.9999896
 11
-1.995411
 21
-5.9999896
  0
LINE
  8
108
  6
CONTINUOUS
 62
1
 10
-1.995411
 20
-6.1500136
 11
-4.995411
 21
-6.1500136
  0
LINE
  8
108
  6
CONTINUOUS
 62
1
 10
-4.995411
 20
-6.2999766
 11
-1.995411
 21
-6.2999766
  0
LINE
  8
108
  6
CONTINUOUS
 62
1
 10
-1.995411
 20
-6.4500016
 11
-4.995411
 21
-6.4500016
  0
LINE
  8
108
  6
CONTINUOUS
 62
1
 10
-4.995411
 20
-6.6000256
 11
-1.995411
 21
-6.6000256
  0
LINE
  8
108
  6
CONTINUOUS
 62
1
 10
-1.995411
 20
-6.7499896
 11
-4.995411
 21
-6.7499896
  0
LINE
  8
108
  6
CONTINUOUS
 62
1
 10
-4.995411
 20
-6.9000136
 11
-1.995411
 21
-6.9000136
  0
LINE
  8
108
  6
CONTINUOUS
 62
1
 10
-1.995411
 20
-7.0499766
 11
-4.995411
 21
-7.0499766
  0
LINE
  8
108
  6
CONTINUOUS
 62
1
 10
-4.995411
 20
-7.2000016
 11
-1.995411
 21
-7.2000016
  0
LINE
  8
108
  6
CONTINUOUS
 62
1
 10
-1.995411
 20
-7.3500256
 11
-4.995411
 21
-7.3500256
  0
LINE
  8
108
  6
CONTINUOUS
 62
1
 10
-4.995411
 20
-7.4999896
 11
-1.995411
 21
-7.4999896
  0
LINE
  8
108
  6
CONTINUOUS
 62
1
 10
-1.995411
 20
-7.6500136
 11
-4.995411
 21
-7.6500136
  0
LINE
  8
108
  6
CONTINUOUS
 62
1
 10
-4.995411
 20
-7.7999766
 11
-1.995411
 21
-7.7999766
  0
LINE
  8
108
  6
CONTINUOUS
 62
1
 10
-1.995411
 20
-7.9500016
 11
-4.995411
 21
-7.9500016
  0
LINE
  8
108
  6
CONTINUOUS
 62
1
 10
-4.995411
 20
-8.1000256
 11
-1.995411
 21
-8.1000256
  0
LINE
  8
108
  6
CONTINUOUS
 62
1
 10
-1.995411
 20
-8.2499896
 11
-4.995411
 21
-8.2499896
  0
LINE
  8
108
  6
CONTINUOUS
 62
1
 10
-4.995411
 20
-8.4000136
 11
-1.995411
 21
-8.4000136
  0
LINE
  8
108
  6
CONTINUOUS
 62
1
 10
-1.995411
 20
-8.5499766
 11
-4.995411
 21
-8.5499766
  0
LINE
  8
108
  6
CONTINUOUS
 62
1
 10
-4.995411
 20
-8.7000016
 11
-1.995411
 21
-8.7000016
  0
LINE
  8
108
  6
CONTINUOUS
 62
1
 10
-1.995411
 20
-8.8500256
 11
-4.995411
 21
-8.8500256
  0
LINE
  8
108
  6
CONTINUOUS
 62
1
 10
-4.995411
 20
-8.9999896
 11
-1.995411
 21
-8.9999896
  0
LINE
  8
108
  6
CONTINUOUS
 62
1
 10
-1.995411
 20
-9.1500136
 11
-4.995411
 21
-9.1500136
  0
LINE
  8
108
  6
CONTINUOUS
 62
1
 10
-4.995411
 20
-9.2999766
 11
-1.995411
 21
-9.2999766
  0
LINE
  8
108
  6
CONTINUOUS
 62
1
 10
-1.995411
 20
-9.4500016
 11
-4.995411
 21
-9.4500016
  0
LINE
  8
108
  6
CONTINUOUS
 62
1
 10
-4.995411
 20
-9.6000256
 11
-1.995411
 21
-9.6000256
  0
LINE
  8
108
  6
CONTINUOUS
 62
1
 10
-1.995411
 20
-9.7499896
 11
-4.995411
 21
-9.7499896
  0
LINE
  8
108
  6
CONTINUOUS
 62
1
 10
-4.995411
 20
-9.9000136
 11
-1.995411
 21
-9.9000136
  0
LINE
  8
108
  6
CONTINUOUS
 62
1
 10
-1.995411
 20
-1.0049977E+001
 11
-4.995411
 21
-1.0049977E+001
  0
LINE
  8
108
  6
CONTINUOUS
 62
1
 10
-4.995411
 20
-1.0200002E+001
 11
-1.995411
 21
-1.0200002E+001
  0
LINE
  8
108
  6
CONTINUOUS
 62
1
 10
-1.995411
 20
-1.0350026E+001
 11
-4.995411
 21
-1.0350026E+001
  0
LINE
  8
108
  6
CONTINUOUS
 62
1
 10
-4.995411
 20
-1.049999E+001
 11
-1.995411
 21
-1.049999E+001
  0
LINE
  8
108
  6
CONTINUOUS
 62
1
 10
-1.995411
 20
-1.0650014E+001
 11
-4.995411
 21
-1.0650014E+001
  0
LINE
  8
108
  6
CONTINUOUS
 62
1
 10
-4.995411
 20
-1.0799977E+001
 11
-1.995411
 21
-1.0799977E+001
  0
LINE
  8
108
  6
CONTINUOUS
 62
1
 10
-1.995411
 20
-1.0950002E+001
 11
-4.995411
 21
-1.0950002E+001
  0
LINE
  8
108
  6
CONTINUOUS
 62
1
 10
-4.995411
 20
-1.1100026E+001
 11
-1.995411
 21
-1.1100026E+001
  0
LINE
  8
108
  6
CONTINUOUS
 62
1
 10
-1.995411
 20
-1.124999E+001
 11
-4.995411
 21
-1.124999E+001
  0
LINE
  8
108
  6
CONTINUOUS
 62
1
 10
-4.995411
 20
-1.1400014E+001
 11
-1.995411
 21
-1.1400014E+001
  0
ENDBLK
  0
BLOCK
  2
*XH66
  3
*XH
 10
0.0
 20
0.0
 70
65
  0
LINE
  8
108
  6
CONTINUOUS
 62
1
 10
4.378082E-001
 20
-1.1185833E+001
 11
8.777042E-001
 21
-1.1625713E+001
  0
LINE
  8
108
  6
CONTINUOUS
 62
1
 10
1.1378052
 20
-9.0574156
 11
4.378082E-001
 21
-8.3574036
  0
LINE
  8
108
  6
CONTINUOUS
 62
1
 10
4.378082E-001
 20
-5.5289726
 11
1.1378052
 21
-6.2289856
  0
LINE
  8
108
  6
CONTINUOUS
 62
1
 10
1.1378052
 20
-3.4005546
 11
4.378082E-001
 21
-2.7005426
  0
LINE
  8
108
  6
CONTINUOUS
 62
1
 10
-8.621948E-001
 20
1.4278754
 11
-8.085908E-001
 21
1.3742864
  0
LINE
  8
108
  6
CONTINUOUS
 62
1
 10
4.378082E-001
 20
1.278874E-001
 11
1.1378052
 21
-5.721246E-001
  0
LINE
  8
108
  6
CONTINUOUS
 62
1
 10
1.1378052
 20
2.2563054
 11
-8.621948E-001
 21
4.2563054
  0
LINE
  8
108
  6
CONTINUOUS
 62
1
 10
-4.1517458
 20
1.0374284E+001
 11
-2.1611448
 21
8.3836834
  0
LINE
  8
108
  6
CONTINUOUS
 62
1
 10
-8.621948E-001
 20
7.0847334
 11
1.1378052
 21
5.0847354
  0
LINE
  8
108
  6
CONTINUOUS
 62
1
 10
1.1378052
 20
7.9131634
 11
-1.3233158
 21
1.0374284E+001
  0
ENDBLK
  0
BLOCK
  2
*XH67
  3
*XH
 10
0.0
 20
0.0
 70
65
  0
LINE
  8
108
  6
CONTINUOUS
 62
1
 10
2.8365156E-001
 20
-1.1030035E+001
 11
9.8364856E-001
 21
-1.0330084E+001
  0
LINE
  8
108
  6
CONTINUOUS
 62
1
 10
9.8364856E-001
 20
-7.5016544
 11
2.8365156E-001
 21
-8.2016054
  0
LINE
  8
108
  6
CONTINUOUS
 62
1
 10
2.8365156E-001
 20
-5.3731754
 11
9.8364856E-001
 21
-4.6732234
  0
LINE
  8
108
  6
CONTINUOUS
 62
1
 10
9.8364856E-001
 20
-1.8447934
 11
2.8365156E-001
 21
-2.5447444
  0
LINE
  8
108
  6
CONTINUOUS
 62
1
 10
2.8365156E-001
 20
2.8368556E-001
 11
9.8364856E-001
 21
9.8363656E-001
  0
LINE
  8
108
  6
CONTINUOUS
 62
1
 10
9.8364856E-001
 20
3.8120666
 11
-1.0163514
 21
1.8120666
  0
LINE
  8
108
  6
CONTINUOUS
 62
1
 10
-1.0163514
 20
4.6404946
 11
9.8364856E-001
 21
6.6404946
  0
LINE
  8
108
  6
CONTINUOUS
 62
1
 10
8.4174156E-001
 20
9.3270186
 11
-1.1488584
 21
7.3364176
  0
LINE
  8
108
  6
CONTINUOUS
 62
1
 10
-3.9772894
 20
7.3364176
 11
-1.9866884
 21
9.3270186
  0
ENDBLK
  0
BLOCK
  2
*XH68
  3
*XH
 10
0.0
 20
0.0
 70
65
  0
LINE
  8
108
  6
CONTINUOUS
 62
1
 10
-5.1335478E-001
 20
-1.0255683E+001
 11
-1.2133518
 21
-1.0955756E+001
  0
LINE
  8
108
  6
CONTINUOUS
 62
1
 10
-1.2133518
 20
-8.1272647
 11
-5.1335478E-001
 21
-7.4273137
  0
LINE
  8
108
  6
CONTINUOUS
 62
1
 10
-5.1335478E-001
 20
-4.5988217
 11
-1.2133518
 21
-5.2988957
  0
LINE
  8
108
  6
CONTINUOUS
 62
1
 10
-1.2133518
 20
-2.4704037
 11
-5.1335478E-001
 21
-1.7704527
  0
LINE
  8
108
  6
CONTINUOUS
 62
1
 10
1.2330902
 20
-2.3992722E-002
 11
2.7866482
 21
1.5295963
  0
LINE
  8
108
  6
CONTINUOUS
 62
1
 10
2.7866482
 20
4.3579633
 11
-1.2133518
 21
3.5796528E-001
  0
LINE
  8
108
  6
CONTINUOUS
 62
1
 10
-1.2133518
 20
3.1864563
 11
4.2866482
 21
8.6864543
  0
LINE
  8
108
  6
CONTINUOUS
 62
1
 10
1.7478142
 20
8.9760053
 11
-1.2133518
 21
6.0148233
  0
LINE
  8
108
  6
CONTINUOUS
 62
1
 10
-1.2133518
 20
8.8433143
 11
-1.0806158
 21
8.9760053
  0
ENDBLK
  0
BLOCK
  2
*XH69
  3
*XH
 10
0.0
 20
0.0
 70
65
  0
LINE
  8
108
  6
CONTINUOUS
 62
1
 10
-8.6264035E-001
 20
-1.1865251E+001
 11
-1.5626373
 21
-1.1165301E+001
  0
LINE
  8
108
  6
CONTINUOUS
 62
1
 10
-1.5626373
 20
-8.3368703
 11
-8.6264035E-001
 21
-9.0368834
  0
LINE
  8
108
  6
CONTINUOUS
 62
1
 10
-8.6264035E-001
 20
-6.2083914
 11
-1.5626373
 21
-5.5084403
  0
LINE
  8
108
  6
CONTINUOUS
 62
1
 10
-1.5626373
 20
-2.6800103
 11
-8.6264035E-001
 21
-3.3800224
  0
LINE
  8
108
  6
CONTINUOUS
 62
1
 10
-8.6264035E-001
 20
-5.5153135E-001
 11
-1.5626373
 21
1.4841965E-001
  0
LINE
  8
108
  6
CONTINUOUS
 62
1
 10
-1.5626373
 20
2.9768497
 11
1.1794886
 21
2.3472365E-001
  0
LINE
  8
108
  6
CONTINUOUS
 62
1
 10
2.4373626
 20
1.8052796
 11
-1.5626373
 21
5.8052787
  0
LINE
  8
108
  6
CONTINUOUS
 62
1
 10
-1.5626373
 20
8.6337087
 11
2.4373626
 21
4.6337087
  0
LINE
  8
108
  6
CONTINUOUS
 62
1
 10
2.6647647
 20
7.2347217
 11
6.6476465E-001
 21
9.2347216
  0
LINE
  8
108
  6
CONTINUOUS
 62
1
 10
3.4931947
 20
9.2347216
 11
3.9373626
 21
8.7905687
  0
ENDBLK
  0
BLOCK
  2
*XH70
  3
*XH
 10
0.0
 20
0.0
 70
65
  0
LINE
  8
108
  6
CONTINUOUS
 62
1
 10
-8.0236179
 20
2.5829609
 11
-7.8571909
 21
2.7494039
  0
LINE
  8
108
  6
CONTINUOUS
 62
1
 10
-3.6112189
 20
2.7527609
 11
-8.0236179
 21
-1.6596521
  0
LINE
  8
108
  6
CONTINUOUS
 62
1
 10
-5.3720369
 20
-3.2507161
 11
6.3472208E-001
 21
2.7560569
  0
LINE
  8
108
  6
CONTINUOUS
 62
1
 10
4.8806941
 20
2.7593529
 11
-1.1293919
 21
-3.2507161
  0
LINE
  8
108
  6
CONTINUOUS
 62
1
 10
3.1132381
 20
-3.2507161
 11
9.0581691
 21
2.6942279
  0
LINE
  8
108
  6
CONTINUOUS
 62
1
 10
8.9743681
 20
-1.6322471
 11
7.3558831
 21
-3.2507161
  0
ENDBLK
  0
BLOCK
  2
*XH71
  3
*XH
 10
0.0
 20
0.0
 70
65
  0
LINE
  8
108
  6
CONTINUOUS
 62
1
 10
-2.05978
 20
6.155325E-002
 11
2.90287E-001
 21
2.4115903
  0
LINE
  8
108
  6
CONTINUOUS
 62
1
 10
3.236576
 20
1.1152643
 11
-1.467083
 21
-3.5884078
  0
ENDBLK
  0
BLOCK
  2
*XH72
  3
*XH
 10
0.0
 20
0.0
 70
65
  0
LINE
  8
108
  6
CONTINUOUS
 62
1
 10
-3.2257348
 20
-1.104431
 11
1.4345743
 21
3.555907
  0
LINE
  8
108
  6
CONTINUOUS
 62
1
 10
2.1139412
 20
-7.385E-003
 11
-3.2278075E-001
 21
-2.444091
  0
ENDBLK
  0
BLOCK
  2
*XH73
  3
*XH
 10
0.0
 20
0.0
 70
65
  0
LINE
  8
108
  6
CONTINUOUS
 62
1
 10
1.6021057
 20
6.8831848
 11
3.6876617
 21
4.7976138
  0
LINE
  8
108
  6
CONTINUOUS
 62
1
 10
3.6876617
 20
5.549988E-001
 11
-2.6405393
 21
6.8831848
  0
LINE
  8
108
  6
CONTINUOUS
 62
1
 10
-3.8123383
 20
3.8123228
 11
3.6876617
 21
-3.6876772
  0
LINE
  8
108
  6
CONTINUOUS
 62
1
 10
2.7809237
 20
-7.0235532
 11
-3.8123383
 21
-4.302922E-001
  0
LINE
  8
108
  6
CONTINUOUS
 62
1
 10
-3.8123383
 20
-4.6729682
 11
-1.3684603
 21
-7.1168142
  0
ENDBLK
  0
BLOCK
  2
*XH74
  3
*XH
 10
0.0
 20
0.0
 70
65
  0
LINE
  8
108
  6
CONTINUOUS
 62
1
 10
8.9964267E-001
 20
3.3429972
 11
2.9263307
 21
1.3163242
  0
LINE
  8
108
  6
CONTINUOUS
 62
1
 10
2.9263307
 20
-2.9263508
 11
-2.0930023
 21
2.0929972
  0
LINE
  8
108
  6
CONTINUOUS
 62
1
 10
-4.5736693
 20
3.3103417E-001
 11
-8.5632333E-002
 21
-4.1570018
  0
ENDBLK
  0
BLOCK
  2
*XH75
  3
*XH
 10
0.0
 20
0.0
 70
65
  0
LINE
  8
108
  6
CONTINUOUS
 62
1
 10
1.735962
 20
3.853455E-001
 11
1.777374
 21
3.439635E-001
  0
LINE
  8
108
  6
CONTINUOUS
 62
1
 10
-1.006668
 20
-1.1146545
 11
-2.506668
 21
3.853455E-001
  0
ENDBLK
  0
BLOCK
  2
*XH76
  3
*XH
 10
0.0
 20
0.0
 70
65
  0
LINE
  8
108
  6
CONTINUOUS
 62
1
 10
-3.5520628
 20
6.905815E-001
 11
-1.3416138
 21
2.9010305
  0
LINE
  8
108
  6
CONTINUOUS
 62
1
 10
2.9010312
 20
2.9010305
 11
-3.0989688
 21
-3.0989675
  0
LINE
  8
108
  6
CONTINUOUS
 62
1
 10
1.1436772
 20
-3.0989675
 11
3.9479372
 21
-2.947075E-001
  0
ENDBLK
  0
BLOCK
  2
*XH77
  3
*XH
 10
0.0
 20
0.0
 70
65
  0
LINE
  8
108
  6
CONTINUOUS
 62
1
 10
-4.995411
 20
-1.1400034E+001
 11
5.1204586E+001
 21
-1.1400034E+001
  0
LINE
  8
108
  6
CONTINUOUS
 62
1
 10
5.1204586E+001
 20
-1.125001E+001
 11
-4.995411
 21
-1.125001E+001
  0
LINE
  8
108
  6
CONTINUOUS
 62
1
 10
-4.995411
 20
-1.1099985E+001
 11
5.1204586E+001
 21
-1.1099985E+001
  0
LINE
  8
108
  6
CONTINUOUS
 62
1
 10
5.1204586E+001
 20
-1.0950022E+001
 11
-4.995411
 21
-1.0950022E+001
  0
LINE
  8
108
  6
CONTINUOUS
 62
1
 10
-4.995411
 20
-1.0799997E+001
 11
5.1204586E+001
 21
-1.0799997E+001
  0
LINE
  8
108
  6
CONTINUOUS
 62
1
 10
5.1204586E+001
 20
-1.0650034E+001
 11
-4.995411
 21
-1.0650034E+001
  0
LINE
  8
108
  6
CONTINUOUS
 62
1
 10
-4.995411
 20
-1.050001E+001
 11
5.1204586E+001
 21
-1.050001E+001
  0
LINE
  8
108
  6
CONTINUOUS
 62
1
 10
5.1204586E+001
 20
-1.0349985E+001
 11
-4.995411
 21
-1.0349985E+001
  0
LINE
  8
108
  6
CONTINUOUS
 62
1
 10
-4.995411
 20
-1.0200022E+001
 11
5.1204586E+001
 21
-1.0200022E+001
  0
LINE
  8
108
  6
CONTINUOUS
 62
1
 10
5.1204586E+001
 20
-1.0049997E+001
 11
-4.995411
 21
-1.0049997E+001
  0
LINE
  8
108
  6
CONTINUOUS
 62
1
 10
-4.995411
 20
-9.9000341
 11
5.1204586E+001
 21
-9.9000341
  0
LINE
  8
108
  6
CONTINUOUS
 62
1
 10
5.1204586E+001
 20
-9.7500101
 11
-4.995411
 21
-9.7500101
  0
LINE
  8
108
  6
CONTINUOUS
 62
1
 10
-4.995411
 20
-9.5999851
 11
5.1204586E+001
 21
-9.5999851
  0
LINE
  8
108
  6
CONTINUOUS
 62
1
 10
5.1204586E+001
 20
-9.4500221
 11
-4.995411
 21
-9.4500221
  0
LINE
  8
108
  6
CONTINUOUS
 62
1
 10
-4.995411
 20
-9.2999971
 11
5.1204586E+001
 21
-9.2999971
  0
LINE
  8
108
  6
CONTINUOUS
 62
1
 10
5.1204586E+001
 20
-9.1500341
 11
-4.995411
 21
-9.1500341
  0
LINE
  8
108
  6
CONTINUOUS
 62
1
 10
-4.995411
 20
-9.0000101
 11
5.1204586E+001
 21
-9.0000101
  0
LINE
  8
108
  6
CONTINUOUS
 62
1
 10
5.1204586E+001
 20
-8.8499851
 11
-4.995411
 21
-8.8499851
  0
LINE
  8
108
  6
CONTINUOUS
 62
1
 10
-4.995411
 20
-8.7000221
 11
5.1204586E+001
 21
-8.7000221
  0
LINE
  8
108
  6
CONTINUOUS
 62
1
 10
5.1204586E+001
 20
-8.5499971
 11
-4.995411
 21
-8.5499971
  0
LINE
  8
108
  6
CONTINUOUS
 62
1
 10
-4.995411
 20
-8.3999731
 11
-5.61817E-001
 21
-8.3999731
  0
LINE
  8
108
  6
CONTINUOUS
 62
1
 10
-9.30164E-001
 20
-8.2500101
 11
-4.995411
 21
-8.2500101
  0
LINE
  8
108
  6
CONTINUOUS
 62
1
 10
-4.995411
 20
-8.0999851
 11
-1.170872
 21
-8.0999851
  0
LINE
  8
108
  6
CONTINUOUS
 62
1
 10
-1.353581
 20
-7.9500221
 11
-4.995411
 21
-7.9500221
  0
LINE
  8
108
  6
CONTINUOUS
 62
1
 10
-4.995411
 20
-7.7999971
 11
-1.499592
 21
-7.7999971
  0
LINE
  8
108
  6
CONTINUOUS
 62
1
 10
-1.618839
 20
-7.6499731
 11
-4.995411
 21
-7.6499731
  0
LINE
  8
108
  6
CONTINUOUS
 62
1
 10
-4.995411
 20
-7.5000101
 11
-1.716877
 21
-7.5000101
  0
LINE
  8
108
  6
CONTINUOUS
 62
1
 10
-1.797184
 20
-7.3499861
 11
-4.995411
 21
-7.3499861
  0
LINE
  8
108
  6
CONTINUOUS
 62
1
 10
-4.995411
 20
-7.2000231
 11
-1.862049
 21
-7.2000231
  0
LINE
  8
108
  6
CONTINUOUS
 62
1
 10
-1.913029
 20
-7.0499981
 11
-4.995411
 21
-7.0499981
  0
LINE
  8
108
  6
CONTINUOUS
 62
1
 10
-4.995411
 20
-6.8999741
 11
-1.951222
 21
-6.8999741
  0
LINE
  8
108
  6
CONTINUOUS
 62
1
 10
-1.97736
 20
-6.7500111
 11
-4.995411
 21
-6.7500111
  0
LINE
  8
108
  6
CONTINUOUS
 62
1
 10
-4.995411
 20
-6.5999861
 11
-1.991932
 21
-6.5999861
  0
LINE
  8
108
  6
CONTINUOUS
 62
1
 10
-1.995411
 20
-6.4500231
 11
-4.995411
 21
-6.4500231
  0
LINE
  8
108
  6
CONTINUOUS
 62
1
 10
-4.995411
 20
-6.2999981
 11
-1.995411
 21
-6.2999981
  0
LINE
  8
108
  6
CONTINUOUS
 62
1
 10
-1.995411
 20
-6.1499741
 11
-4.995411
 21
-6.1499741
  0
LINE
  8
108
  6
CONTINUOUS
 62
1
 10
-4.995411
 20
-6.0000111
 11
-1.995411
 21
-6.0000111
  0
LINE
  8
108
  6
CONTINUOUS
 62
1
 10
-1.995411
 20
-5.8499861
 11
-4.995411
 21
-5.8499861
  0
LINE
  8
108
  6
CONTINUOUS
 62
1
 10
-4.995411
 20
-5.7000231
 11
-1.995411
 21
-5.7000231
  0
LINE
  8
108
  6
CONTINUOUS
 62
1
 10
-1.995411
 20
-5.5499981
 11
-4.995411
 21
-5.5499981
  0
LINE
  8
108
  6
CONTINUOUS
 62
1
 10
-4.995411
 20
-5.3999741
 11
-1.995411
 21
-5.3999741
  0
LINE
  8
108
  6
CONTINUOUS
 62
1
 10
-1.995411
 20
-5.2500111
 11
-4.995411
 21
-5.2500111
  0
LINE
  8
108
  6
CONTINUOUS
 62
1
 10
-4.995411
 20
-5.0999861
 11
-1.995411
 21
-5.0999861
  0
LINE
  8
108
  6
CONTINUOUS
 62
1
 10
-1.995411
 20
-4.9500231
 11
-4.995411
 21
-4.9500231
  0
LINE
  8
108
  6
CONTINUOUS
 62
1
 10
-4.995411
 20
-4.7999981
 11
-1.995411
 21
-4.7999981
  0
LINE
  8
108
  6
CONTINUOUS
 62
1
 10
-1.995411
 20
-4.6499741
 11
-4.995411
 21
-4.6499741
  0
LINE
  8
108
  6
CONTINUOUS
 62
1
 10
-4.995411
 20
-4.5000111
 11
-1.995411
 21
-4.5000111
  0
LINE
  8
108
  6
CONTINUOUS
 62
1
 10
-1.995411
 20
-4.3499861
 11
-4.995411
 21
-4.3499861
  0
LINE
  8
108
  6
CONTINUOUS
 62
1
 10
-4.995411
 20
-4.2000231
 11
-1.995411
 21
-4.2000231
  0
LINE
  8
108
  6
CONTINUOUS
 62
1
 10
-1.995411
 20
-4.0499981
 11
-4.995411
 21
-4.0499981
  0
LINE
  8
108
  6
CONTINUOUS
 62
1
 10
-4.995411
 20
-3.8999741
 11
-1.995411
 21
-3.8999741
  0
LINE
  8
108
  6
CONTINUOUS
 62
1
 10
-1.995411
 20
-3.7500111
 11
-4.995411
 21
-3.7500111
  0
LINE
  8
108
  6
CONTINUOUS
 62
1
 10
-4.995411
 20
-3.5999861
 11
-1.995411
 21
-3.5999861
  0
LINE
  8
108
  6
CONTINUOUS
 62
1
 10
-1.995411
 20
-3.4500231
 11
-4.995411
 21
-3.4500231
  0
LINE
  8
108
  6
CONTINUOUS
 62
1
 10
-4.995411
 20
-3.2999981
 11
-1.995411
 21
-3.2999981
  0
LINE
  8
108
  6
CONTINUOUS
 62
1
 10
-1.995411
 20
-3.1499741
 11
-4.995411
 21
-3.1499741
  0
LINE
  8
108
  6
CONTINUOUS
 62
1
 10
-4.995411
 20
-3.0000111
 11
-1.995411
 21
-3.0000111
  0
LINE
  8
108
  6
CONTINUOUS
 62
1
 10
-1.995411
 20
-2.8499861
 11
-4.995411
 21
-2.8499861
  0
LINE
  8
108
  6
CONTINUOUS
 62
1
 10
-4.995411
 20
-2.7000231
 11
-1.995411
 21
-2.7000231
  0
LINE
  8
108
  6
CONTINUOUS
 62
1
 10
-1.995411
 20
-2.5499981
 11
-4.995411
 21
-2.5499981
  0
LINE
  8
108
  6
CONTINUOUS
 62
1
 10
-4.995411
 20
-2.3999741
 11
-1.995411
 21
-2.3999741
  0
LINE
  8
108
  6
CONTINUOUS
 62
1
 10
-1.995411
 20
-2.2500111
 11
-4.995411
 21
-2.2500111
  0
LINE
  8
108
  6
CONTINUOUS
 62
1
 10
-4.995411
 20
-2.0999861
 11
-1.995411
 21
-2.0999861
  0
LINE
  8
108
  6
CONTINUOUS
 62
1
 10
-1.995411
 20
-1.9500231
 11
-4.995411
 21
-1.9500231
  0
LINE
  8
108
  6
CONTINUOUS
 62
1
 10
-4.995411
 20
-1.7999981
 11
-1.995411
 21
-1.7999981
  0
LINE
  8
108
  6
CONTINUOUS
 62
1
 10
-1.995411
 20
-1.6499741
 11
-4.995411
 21
-1.6499741
  0
LINE
  8
108
  6
CONTINUOUS
 62
1
 10
-4.995411
 20
-1.5000111
 11
-1.995411
 21
-1.5000111
  0
LINE
  8
108
  6
CONTINUOUS
 62
1
 10
-1.995411
 20
-1.3499861
 11
-4.995411
 21
-1.3499861
  0
LINE
  8
108
  6
CONTINUOUS
 62
1
 10
-4.995411
 20
-1.2000231
 11
-1.995411
 21
-1.2000231
  0
LINE
  8
108
  6
CONTINUOUS
 62
1
 10
-1.995411
 20
-1.0499981
 11
-4.995411
 21
-1.0499981
  0
LINE
  8
108
  6
CONTINUOUS
 62
1
 10
-4.995411
 20
-8.9997409E-001
 11
-1.995411
 21
-8.9997409E-001
  0
LINE
  8
108
  6
CONTINUOUS
 62
1
 10
-1.995411
 20
-7.5001109E-001
 11
-4.995411
 21
-7.5001109E-001
  0
LINE
  8
108
  6
CONTINUOUS
 62
1
 10
-4.995411
 20
-5.9998609E-001
 11
-1.995411
 21
-5.9998609E-001
  0
LINE
  8
108
  6
CONTINUOUS
 62
1
 10
-1.995411
 20
-4.5002309E-001
 11
-4.995411
 21
-4.5002309E-001
  0
LINE
  8
108
  6
CONTINUOUS
 62
1
 10
-4.995411
 20
-2.9999809E-001
 11
-1.995411
 21
-2.9999809E-001
  0
LINE
  8
108
  6
CONTINUOUS
 62
1
 10
-1.995411
 20
-1.4997409E-001
 11
-4.995411
 21
-1.4997409E-001
  0
LINE
  8
108
  6
CONTINUOUS
 62
1
 10
-4.995411
 20
-1.10916E-005
 11
-1.995411
 21
-1.10916E-005
  0
LINE
  8
108
  6
CONTINUOUS
 62
1
 10
-1.995411
 20
1.5001391E-001
 11
-4.995411
 21
1.5001391E-001
  0
LINE
  8
108
  6
CONTINUOUS
 62
1
 10
-4.995411
 20
2.9997691E-001
 11
-1.995411
 21
2.9997691E-001
  0
LINE
  8
108
  6
CONTINUOUS
 62
1
 10
-1.995411
 20
4.5000191E-001
 11
-4.995411
 21
4.5000191E-001
  0
LINE
  8
108
  6
CONTINUOUS
 62
1
 10
-4.995411
 20
6.0002591E-001
 11
-1.995411
 21
6.0002591E-001
  0
LINE
  8
108
  6
CONTINUOUS
 62
1
 10
-1.995411
 20
7.4998891E-001
 11
-4.995411
 21
7.4998891E-001
  0
LINE
  8
108
  6
CONTINUOUS
 62
1
 10
-4.995411
 20
9.0001391E-001
 11
-1.995411
 21
9.0001391E-001
  0
LINE
  8
108
  6
CONTINUOUS
 62
1
 10
-1.995411
 20
1.0499769
 11
-4.995411
 21
1.0499769
  0
LINE
  8
108
  6
CONTINUOUS
 62
1
 10
-4.995411
 20
1.2000019
 11
-1.995411
 21
1.2000019
  0
LINE
  8
108
  6
CONTINUOUS
 62
1
 10
-1.995411
 20
1.3500259
 11
-4.995411
 21
1.3500259
  0
LINE
  8
108
  6
CONTINUOUS
 62
1
 10
-4.995411
 20
1.4999889
 11
-1.995411
 21
1.4999889
  0
LINE
  8
108
  6
CONTINUOUS
 62
1
 10
-1.995411
 20
1.6500139
 11
-4.995411
 21
1.6500139
  0
LINE
  8
108
  6
CONTINUOUS
 62
1
 10
-4.995411
 20
1.7999769
 11
-1.995411
 21
1.7999769
  0
LINE
  8
108
  6
CONTINUOUS
 62
1
 10
-1.995411
 20
1.9500019
 11
-4.995411
 21
1.9500019
  0
LINE
  8
108
  6
CONTINUOUS
 62
1
 10
-4.995411
 20
2.1000259
 11
-1.995411
 21
2.1000259
  0
LINE
  8
108
  6
CONTINUOUS
 62
1
 10
-1.995411
 20
2.2499889
 11
-4.995411
 21
2.2499889
  0
LINE
  8
108
  6
CONTINUOUS
 62
1
 10
-4.995411
 20
2.4000139
 11
-1.995411
 21
2.4000139
  0
LINE
  8
108
  6
CONTINUOUS
 62
1
 10
-1.995411
 20
2.5499769
 11
-4.995411
 21
2.5499769
  0
LINE
  8
108
  6
CONTINUOUS
 62
1
 10
-4.995411
 20
2.7000019
 11
-1.995411
 21
2.7000019
  0
LINE
  8
108
  6
CONTINUOUS
 62
1
 10
-1.995411
 20
2.8500259
 11
-4.995411
 21
2.8500259
  0
LINE
  8
108
  6
CONTINUOUS
 62
1
 10
-4.995411
 20
2.9999889
 11
-1.995411
 21
2.9999889
  0
LINE
  8
108
  6
CONTINUOUS
 62
1
 10
-1.995411
 20
3.1500139
 11
-4.995411
 21
3.1500139
  0
LINE
  8
108
  6
CONTINUOUS
 62
1
 10
-4.995411
 20
3.2999769
 11
-1.995411
 21
3.2999769
  0
LINE
  8
108
  6
CONTINUOUS
 62
1
 10
-1.995411
 20
3.4500019
 11
-4.995411
 21
3.4500019
  0
LINE
  8
108
  6
CONTINUOUS
 62
1
 10
-4.995411
 20
3.6000259
 11
-1.995411
 21
3.6000259
  0
LINE
  8
108
  6
CONTINUOUS
 62
1
 10
-1.995411
 20
3.7499889
 11
-4.995411
 21
3.7499889
  0
LINE
  8
108
  6
CONTINUOUS
 62
1
 10
-4.995411
 20
3.9000139
 11
-1.995411
 21
3.9000139
  0
LINE
  8
108
  6
CONTINUOUS
 62
1
 10
-1.995411
 20
4.0499769
 11
-4.995411
 21
4.0499769
  0
LINE
  8
108
  6
CONTINUOUS
 62
1
 10
-4.995411
 20
4.2000019
 11
-1.995411
 21
4.2000019
  0
LINE
  8
108
  6
CONTINUOUS
 62
1
 10
-1.995411
 20
4.3500259
 11
-4.995411
 21
4.3500259
  0
LINE
  8
108
  6
CONTINUOUS
 62
1
 10
-4.995411
 20
4.4999889
 11
-1.995411
 21
4.4999889
  0
LINE
  8
108
  6
CONTINUOUS
 62
1
 10
-1.995411
 20
4.6500139
 11
-4.995411
 21
4.6500139
  0
LINE
  8
108
  6
CONTINUOUS
 62
1
 10
-4.995411
 20
4.7999769
 11
-1.995411
 21
4.7999769
  0
LINE
  8
108
  6
CONTINUOUS
 62
1
 10
-1.995411
 20
4.9500019
 11
-4.995411
 21
4.9500019
  0
LINE
  8
108
  6
CONTINUOUS
 62
1
 10
-4.995411
 20
5.1000259
 11
-1.995411
 21
5.1000259
  0
LINE
  8
108
  6
CONTINUOUS
 62
1
 10
-1.995411
 20
5.2499889
 11
-4.995411
 21
5.2499889
  0
LINE
  8
108
  6
CONTINUOUS
 62
1
 10
-4.995411
 20
5.4000139
 11
-1.995411
 21
5.4000139
  0
LINE
  8
108
  6
CONTINUOUS
 62
1
 10
-1.995411
 20
5.5499769
 11
-4.995411
 21
5.5499769
  0
LINE
  8
108
  6
CONTINUOUS
 62
1
 10
-4.995411
 20
5.7000019
 11
-1.995411
 21
5.7000019
  0
LINE
  8
108
  6
CONTINUOUS
 62
1
 10
-1.995411
 20
5.8500259
 11
-4.995411
 21
5.8500259
  0
LINE
  8
108
  6
CONTINUOUS
 62
1
 10
-4.995411
 20
5.9999889
 11
-1.995411
 21
5.9999889
  0
LINE
  8
108
  6
CONTINUOUS
 62
1
 10
-1.995411
 20
6.1500139
 11
-4.995411
 21
6.1500139
  0
LINE
  8
108
  6
CONTINUOUS
 62
1
 10
-4.995411
 20
6.2999769
 11
-1.995411
 21
6.2999769
  0
LINE
  8
108
  6
CONTINUOUS
 62
1
 10
-1.995411
 20
6.4500019
 11
-4.995411
 21
6.4500019
  0
LINE
  8
108
  6
CONTINUOUS
 62
1
 10
-4.995411
 20
6.6000259
 11
-1.995411
 21
6.6000259
  0
LINE
  8
108
  6
CONTINUOUS
 62
1
 10
-1.995411
 20
6.7499889
 11
-4.995411
 21
6.7499889
  0
LINE
  8
108
  6
CONTINUOUS
 62
1
 10
-4.995411
 20
6.9000139
 11
-1.995411
 21
6.9000139
  0
LINE
  8
108
  6
CONTINUOUS
 62
1
 10
-1.995411
 20
7.0499769
 11
-4.995411
 21
7.0499769
  0
LINE
  8
108
  6
CONTINUOUS
 62
1
 10
-4.995411
 20
7.2000019
 11
-1.995411
 21
7.2000019
  0
LINE
  8
108
  6
CONTINUOUS
 62
1
 10
-1.995411
 20
7.3500259
 11
-4.995411
 21
7.3500259
  0
LINE
  8
108
  6
CONTINUOUS
 62
1
 10
-4.995411
 20
7.4999889
 11
-1.995411
 21
7.4999889
  0
LINE
  8
108
  6
CONTINUOUS
 62
1
 10
-1.995411
 20
7.6500139
 11
-4.995411
 21
7.6500139
  0
LINE
  8
108
  6
CONTINUOUS
 62
1
 10
-4.995411
 20
7.7999769
 11
-1.995411
 21
7.7999769
  0
LINE
  8
108
  6
CONTINUOUS
 62
1
 10
-1.995411
 20
7.9500019
 11
-4.995411
 21
7.9500019
  0
LINE
  8
108
  6
CONTINUOUS
 62
1
 10
-4.995411
 20
8.1000259
 11
-1.995411
 21
8.1000259
  0
LINE
  8
108
  6
CONTINUOUS
 62
1
 10
-1.995411
 20
8.2499889
 11
-4.995411
 21
8.2499889
  0
LINE
  8
108
  6
CONTINUOUS
 62
1
 10
-4.995411
 20
8.4000139
 11
-1.995411
 21
8.4000139
  0
LINE
  8
108
  6
CONTINUOUS
 62
1
 10
-1.995411
 20
8.5499769
 11
-4.995411
 21
8.5499769
  0
LINE
  8
108
  6
CONTINUOUS
 62
1
 10
-4.995411
 20
8.6999999
 11
-1.995411
 21
8.6999999
  0
LINE
  8
108
  6
CONTINUOUS
 62
1
 10
-1.995411
 20
8.8500239
 11
-4.995411
 21
8.8500239
  0
LINE
  8
108
  6
CONTINUOUS
 62
1
 10
-4.995411
 20
8.9999869
 11
-1.995411
 21
8.9999869
  0
LINE
  8
108
  6
CONTINUOUS
 62
1
 10
-1.995411
 20
9.1500119
 11
-4.995411
 21
9.1500119
  0
LINE
  8
108
  6
CONTINUOUS
 62
1
 10
-4.995411
 20
9.2999749
 11
-1.995411
 21
9.2999749
  0
LINE
  8
108
  6
CONTINUOUS
 62
1
 10
-1.995411
 20
9.4499999
 11
-4.995411
 21
9.4499999
  0
LINE
  8
108
  6
CONTINUOUS
 62
1
 10
-4.995411
 20
9.6000239
 11
-1.995411
 21
9.6000239
  0
LINE
  8
108
  6
CONTINUOUS
 62
1
 10
-1.995411
 20
9.7499869
 11
-4.995411
 21
9.7499869
  0
LINE
  8
108
  6
CONTINUOUS
 62
1
 10
-4.995411
 20
9.9000119
 11
-1.995411
 21
9.9000119
  0
LINE
  8
108
  6
CONTINUOUS
 62
1
 10
-1.995411
 20
1.0049975E+001
 11
-4.995411
 21
1.0049975E+001
  0
LINE
  8
108
  6
CONTINUOUS
 62
1
 10
-4.995411
 20
1.02E+001
 11
-1.995411
 21
1.02E+001
  0
LINE
  8
108
  6
CONTINUOUS
 62
1
 10
-1.995411
 20
1.0350024E+001
 11
-4.995411
 21
1.0350024E+001
  0
LINE
  8
108
  6
CONTINUOUS
 62
1
 10
-4.995411
 20
1.0499987E+001
 11
-1.995411
 21
1.0499987E+001
  0
LINE
  8
108
  6
CONTINUOUS
 62
1
 10
-1.995411
 20
1.0650012E+001
 11
-4.995411
 21
1.0650012E+001
  0
LINE
  8
108
  6
CONTINUOUS
 62
1
 10
-4.995411
 20
1.0799975E+001
 11
-1.995411
 21
1.0799975E+001
  0
LINE
  8
108
  6
CONTINUOUS
 62
1
 10
-1.995411
 20
1.095E+001
 11
-4.995411
 21
1.095E+001
  0
LINE
  8
108
  6
CONTINUOUS
 62
1
 10
-4.995411
 20
1.1100024E+001
 11
-1.995411
 21
1.1100024E+001
  0
LINE
  8
108
  6
CONTINUOUS
 62
1
 10
-1.995411
 20
1.1249987E+001
 11
-4.995411
 21
1.1249987E+001
  0
LINE
  8
108
  6
CONTINUOUS
 62
1
 10
-4.995411
 20
1.1400012E+001
 11
-1.995411
 21
1.1400012E+001
  0
ENDBLK
  0
BLOCK
  2
*XH78
  3
*XH
 10
0.0
 20
0.0
 70
65
  0
LINE
  8
108
  6
CONTINUOUS
 62
1
 10
-8.0236179
 20
-2.5829621
 11
-7.8571909
 21
-2.7494051
  0
LINE
  8
108
  6
CONTINUOUS
 62
1
 10
-3.6112189
 20
-2.7527621
 11
-8.0236179
 21
1.6596529
  0
LINE
  8
108
  6
CONTINUOUS
 62
1
 10
-5.3720369
 20
3.2507169
 11
6.3472208E-001
 21
-2.7560571
  0
LINE
  8
108
  6
CONTINUOUS
 62
1
 10
4.8806941
 20
-2.7593531
 11
-1.1293919
 21
3.2507169
  0
LINE
  8
108
  6
CONTINUOUS
 62
1
 10
3.1132381
 20
3.2507169
 11
9.0581691
 21
-2.6942291
  0
LINE
  8
108
  6
CONTINUOUS
 62
1
 10
8.9743681
 20
1.6322479
 11
7.3558831
 21
3.2507169
  0
ENDBLK
  0
BLOCK
  2
*XH79
  3
*XH
 10
0.0
 20
0.0
 70
65
  0
LINE
  8
108
  6
CONTINUOUS
 62
1
 10
-2.05978
 20
-6.155375E-002
 11
2.90287E-001
 21
-2.4115907
  0
LINE
  8
108
  6
CONTINUOUS
 62
1
 10
3.236576
 20
-1.1152647
 11
-1.467083
 21
3.5884093
  0
ENDBLK
  0
BLOCK
  2
*XH80
  3
*XH
 10
0.0
 20
0.0
 70
65
  0
LINE
  8
108
  6
CONTINUOUS
 62
1
 10
-3.2257348
 20
1.1044315
 11
1.4345743
 21
-3.5559085
  0
LINE
  8
108
  6
CONTINUOUS
 62
1
 10
2.1139412
 20
7.3855E-003
 11
-3.2278075E-001
 21
2.4440915
  0
ENDBLK
  0
BLOCK
  2
*XH81
  3
*XH
 10
0.0
 20
0.0
 70
65
  0
LINE
  8
108
  6
CONTINUOUS
 62
1
 10
1.6021057
 20
-6.8831852
 11
3.6876617
 21
-4.7976132
  0
LINE
  8
108
  6
CONTINUOUS
 62
1
 10
3.6876617
 20
-5.549982E-001
 11
-2.6405393
 21
-6.8831852
  0
LINE
  8
108
  6
CONTINUOUS
 62
1
 10
-3.8123383
 20
-3.8123232
 11
3.6876617
 21
3.6876768
  0
LINE
  8
108
  6
CONTINUOUS
 62
1
 10
2.7809237
 20
7.0235538
 11
-3.8123383
 21
4.302918E-001
  0
LINE
  8
108
  6
CONTINUOUS
 62
1
 10
-3.8123383
 20
4.6729678
 11
-1.3684603
 21
7.1168148
  0
ENDBLK
  0
BLOCK
  2
*XH82
  3
*XH
 10
0.0
 20
0.0
 70
65
  0
LINE
  8
108
  6
CONTINUOUS
 62
1
 10
8.9964517E-001
 20
-3.3429975
 11
2.9263332
 21
-1.3163245
  0
LINE
  8
108
  6
CONTINUOUS
 62
1
 10
2.9263332
 20
2.9263515
 11
-2.0929998
 21
-2.0929975
  0
LINE
  8
108
  6
CONTINUOUS
 62
1
 10
-4.5736668
 20
-3.310345E-001
 11
-8.5644833E-002
 21
4.1570025
  0
ENDBLK
  0
BLOCK
  2
*XH83
  3
*XH
 10
0.0
 20
0.0
 70
65
  0
LINE
  8
108
  6
CONTINUOUS
 62
1
 10
1.735962
 20
-3.853455E-001
 11
1.777374
 21
-3.439635E-001
  0
LINE
  8
108
  6
CONTINUOUS
 62
1
 10
-1.006668
 20
1.1146545
 11
-2.506668
 21
-3.853455E-001
  0
ENDBLK
  0
BLOCK
  2
*XH84
  3
*XH
 10
0.0
 20
0.0
 70
65
  0
LINE
  8
108
  6
CONTINUOUS
 62
1
 10
-3.5520628
 20
-6.9058167E-001
 11
-1.3416138
 21
-2.9010317
  0
LINE
  8
108
  6
CONTINUOUS
 62
1
 10
2.9010312
 20
-2.9010317
 11
-3.0989688
 21
3.0989683
  0
LINE
  8
108
  6
CONTINUOUS
 62
1
 10
1.1436772
 20
3.0989683
 11
3.9479372
 21
2.9470833E-001
  0
ENDBLK
  0
BLOCK
  2
*XH85
  3
*XH
 10
0.0
 20
0.0
 70
65
  0
LINE
  8
108
  6
CONTINUOUS
 62
1
 10
-4.995411
 20
1.1400035E+001
 11
5.1204586E+001
 21
1.1400035E+001
  0
LINE
  8
108
  6
CONTINUOUS
 62
1
 10
5.1204586E+001
 20
1.1250011E+001
 11
-4.995411
 21
1.1250011E+001
  0
LINE
  8
108
  6
CONTINUOUS
 62
1
 10
-4.995411
 20
1.1099987E+001
 11
5.1204586E+001
 21
1.1099987E+001
  0
LINE
  8
108
  6
CONTINUOUS
 62
1
 10
5.1204586E+001
 20
1.0950023E+001
 11
-4.995411
 21
1.0950023E+001
  0
LINE
  8
108
  6
CONTINUOUS
 62
1
 10
-4.995411
 20
1.0799999E+001
 11
5.1204586E+001
 21
1.0799999E+001
  0
LINE
  8
108
  6
CONTINUOUS
 62
1
 10
5.1204586E+001
 20
1.0650035E+001
 11
-4.995411
 21
1.0650035E+001
  0
LINE
  8
108
  6
CONTINUOUS
 62
1
 10
-4.995411
 20
1.0500011E+001
 11
5.1204586E+001
 21
1.0500011E+001
  0
LINE
  8
108
  6
CONTINUOUS
 62
1
 10
5.1204586E+001
 20
1.0349987E+001
 11
-4.995411
 21
1.0349987E+001
  0
LINE
  8
108
  6
CONTINUOUS
 62
1
 10
-4.995411
 20
1.0200023E+001
 11
5.1204586E+001
 21
1.0200023E+001
  0
LINE
  8
108
  6
CONTINUOUS
 62
1
 10
5.1204586E+001
 20
1.0049999E+001
 11
-4.995411
 21
1.0049999E+001
  0
LINE
  8
108
  6
CONTINUOUS
 62
1
 10
-4.995411
 20
9.9000348
 11
5.1204586E+001
 21
9.9000348
  0
LINE
  8
108
  6
CONTINUOUS
 62
1
 10
5.1204586E+001
 20
9.7500108
 11
-4.995411
 21
9.7500108
  0
LINE
  8
108
  6
CONTINUOUS
 62
1
 10
-4.995411
 20
9.5999868
 11
5.1204586E+001
 21
9.5999868
  0
LINE
  8
108
  6
CONTINUOUS
 62
1
 10
5.1204586E+001
 20
9.4500228
 11
-4.995411
 21
9.4500228
  0
LINE
  8
108
  6
CONTINUOUS
 62
1
 10
-4.995411
 20
9.2999988
 11
5.1204586E+001
 21
9.2999988
  0
LINE
  8
108
  6
CONTINUOUS
 62
1
 10
5.1204586E+001
 20
9.1500348
 11
-4.995411
 21
9.1500348
  0
LINE
  8
108
  6
CONTINUOUS
 62
1
 10
-4.995411
 20
9.0000108
 11
5.1204586E+001
 21
9.0000108
  0
LINE
  8
108
  6
CONTINUOUS
 62
1
 10
5.1204586E+001
 20
8.8499868
 11
-4.995411
 21
8.8499868
  0
LINE
  8
108
  6
CONTINUOUS
 62
1
 10
-4.995411
 20
8.7000228
 11
5.1204586E+001
 21
8.7000228
  0
LINE
  8
108
  6
CONTINUOUS
 62
1
 10
5.1204586E+001
 20
8.5499988
 11
-4.995411
 21
8.5499988
  0
LINE
  8
108
  6
CONTINUOUS
 62
1
 10
-4.995411
 20
8.3999738
 11
-5.61817E-001
 21
8.3999738
  0
LINE
  8
108
  6
CONTINUOUS
 62
1
 10
-9.30164E-001
 20
8.2500108
 11
-4.995411
 21
8.2500108
  0
LINE
  8
108
  6
CONTINUOUS
 62
1
 10
-4.995411
 20
8.0999868
 11
-1.170872
 21
8.0999868
  0
LINE
  8
108
  6
CONTINUOUS
 62
1
 10
-1.353581
 20
7.9500228
 11
-4.995411
 21
7.9500228
  0
LINE
  8
108
  6
CONTINUOUS
 62
1
 10
-4.995411
 20
7.7999988
 11
-1.499592
 21
7.7999988
  0
LINE
  8
108
  6
CONTINUOUS
 62
1
 10
-1.618839
 20
7.6499738
 11
-4.995411
 21
7.6499738
  0
LINE
  8
108
  6
CONTINUOUS
 62
1
 10
-4.995411
 20
7.5000108
 11
-1.716877
 21
7.5000108
  0
LINE
  8
108
  6
CONTINUOUS
 62
1
 10
-1.797184
 20
7.3499868
 11
-4.995411
 21
7.3499868
  0
LINE
  8
108
  6
CONTINUOUS
 62
1
 10
-4.995411
 20
7.2000228
 11
-1.862049
 21
7.2000228
  0
LINE
  8
108
  6
CONTINUOUS
 62
1
 10
-1.913029
 20
7.0499988
 11
-4.995411
 21
7.0499988
  0
LINE
  8
108
  6
CONTINUOUS
 62
1
 10
-4.995411
 20
6.8999738
 11
-1.951222
 21
6.8999738
  0
LINE
  8
108
  6
CONTINUOUS
 62
1
 10
-1.97736
 20
6.7500108
 11
-4.995411
 21
6.7500108
  0
LINE
  8
108
  6
CONTINUOUS
 62
1
 10
-4.995411
 20
6.5999868
 11
-1.991932
 21
6.5999868
  0
LINE
  8
108
  6
CONTINUOUS
 62
1
 10
-1.995411
 20
6.4500228
 11
-4.995411
 21
6.4500228
  0
LINE
  8
108
  6
CONTINUOUS
 62
1
 10
-4.995411
 20
6.2999988
 11
-1.995411
 21
6.2999988
  0
LINE
  8
108
  6
CONTINUOUS
 62
1
 10
-1.995411
 20
6.1499738
 11
-4.995411
 21
6.1499738
  0
LINE
  8
108
  6
CONTINUOUS
 62
1
 10
-4.995411
 20
6.0000108
 11
-1.995411
 21
6.0000108
  0
LINE
  8
108
  6
CONTINUOUS
 62
1
 10
-1.995411
 20
5.8499868
 11
-4.995411
 21
5.8499868
  0
LINE
  8
108
  6
CONTINUOUS
 62
1
 10
-4.995411
 20
5.7000228
 11
-1.995411
 21
5.7000228
  0
LINE
  8
108
  6
CONTINUOUS
 62
1
 10
-1.995411
 20
5.5499988
 11
-4.995411
 21
5.5499988
  0
LINE
  8
108
  6
CONTINUOUS
 62
1
 10
-4.995411
 20
5.3999738
 11
-1.995411
 21
5.3999738
  0
LINE
  8
108
  6
CONTINUOUS
 62
1
 10
-1.995411
 20
5.2500108
 11
-4.995411
 21
5.2500108
  0
LINE
  8
108
  6
CONTINUOUS
 62
1
 10
-4.995411
 20
5.0999868
 11
-1.995411
 21
5.0999868
  0
LINE
  8
108
  6
CONTINUOUS
 62
1
 10
-1.995411
 20
4.9500228
 11
-4.995411
 21
4.9500228
  0
LINE
  8
108
  6
CONTINUOUS
 62
1
 10
-4.995411
 20
4.7999988
 11
-1.995411
 21
4.7999988
  0
LINE
  8
108
  6
CONTINUOUS
 62
1
 10
-1.995411
 20
4.6499738
 11
-4.995411
 21
4.6499738
  0
LINE
  8
108
  6
CONTINUOUS
 62
1
 10
-4.995411
 20
4.5000108
 11
-1.995411
 21
4.5000108
  0
LINE
  8
108
  6
CONTINUOUS
 62
1
 10
-1.995411
 20
4.3499868
 11
-4.995411
 21
4.3499868
  0
LINE
  8
108
  6
CONTINUOUS
 62
1
 10
-4.995411
 20
4.2000228
 11
-1.995411
 21
4.2000228
  0
LINE
  8
108
  6
CONTINUOUS
 62
1
 10
-1.995411
 20
4.0499988
 11
-4.995411
 21
4.0499988
  0
LINE
  8
108
  6
CONTINUOUS
 62
1
 10
-4.995411
 20
3.8999738
 11
-1.995411
 21
3.8999738
  0
LINE
  8
108
  6
CONTINUOUS
 62
1
 10
-1.995411
 20
3.7500108
 11
-4.995411
 21
3.7500108
  0
LINE
  8
108
  6
CONTINUOUS
 62
1
 10
-4.995411
 20
3.5999868
 11
-1.995411
 21
3.5999868
  0
LINE
  8
108
  6
CONTINUOUS
 62
1
 10
-1.995411
 20
3.4500228
 11
-4.995411
 21
3.4500228
  0
LINE
  8
108
  6
CONTINUOUS
 62
1
 10
-4.995411
 20
3.2999988
 11
-1.995411
 21
3.2999988
  0
LINE
  8
108
  6
CONTINUOUS
 62
1
 10
-1.995411
 20
3.1499738
 11
-4.995411
 21
3.1499738
  0
LINE
  8
108
  6
CONTINUOUS
 62
1
 10
-4.995411
 20
3.0000108
 11
-1.995411
 21
3.0000108
  0
LINE
  8
108
  6
CONTINUOUS
 62
1
 10
-1.995411
 20
2.8499868
 11
-4.995411
 21
2.8499868
  0
LINE
  8
108
  6
CONTINUOUS
 62
1
 10
-4.995411
 20
2.7000228
 11
-1.995411
 21
2.7000228
  0
LINE
  8
108
  6
CONTINUOUS
 62
1
 10
-1.995411
 20
2.5499988
 11
-4.995411
 21
2.5499988
  0
LINE
  8
108
  6
CONTINUOUS
 62
1
 10
-4.995411
 20
2.3999738
 11
-1.995411
 21
2.3999738
  0
LINE
  8
108
  6
CONTINUOUS
 62
1
 10
-1.995411
 20
2.2500108
 11
-4.995411
 21
2.2500108
  0
LINE
  8
108
  6
CONTINUOUS
 62
1
 10
-4.995411
 20
2.0999868
 11
-1.995411
 21
2.0999868
  0
LINE
  8
108
  6
CONTINUOUS
 62
1
 10
-1.995411
 20
1.9500228
 11
-4.995411
 21
1.9500228
  0
LINE
  8
108
  6
CONTINUOUS
 62
1
 10
-4.995411
 20
1.7999988
 11
-1.995411
 21
1.7999988
  0
LINE
  8
108
  6
CONTINUOUS
 62
1
 10
-1.995411
 20
1.6499738
 11
-4.995411
 21
1.6499738
  0
LINE
  8
108
  6
CONTINUOUS
 62
1
 10
-4.995411
 20
1.5000108
 11
-1.995411
 21
1.5000108
  0
LINE
  8
108
  6
CONTINUOUS
 62
1
 10
-1.995411
 20
1.3499868
 11
-4.995411
 21
1.3499868
  0
LINE
  8
108
  6
CONTINUOUS
 62
1
 10
-4.995411
 20
1.2000228
 11
-1.995411
 21
1.2000228
  0
LINE
  8
108
  6
CONTINUOUS
 62
1
 10
-1.995411
 20
1.0499988
 11
-4.995411
 21
1.0499988
  0
LINE
  8
108
  6
CONTINUOUS
 62
1
 10
-4.995411
 20
8.9997376E-001
 11
-1.995411
 21
8.9997376E-001
  0
LINE
  8
108
  6
CONTINUOUS
 62
1
 10
-1.995411
 20
7.5001076E-001
 11
-4.995411
 21
7.5001076E-001
  0
LINE
  8
108
  6
CONTINUOUS
 62
1
 10
-4.995411
 20
5.9998676E-001
 11
-1.995411
 21
5.9998676E-001
  0
LINE
  8
108
  6
CONTINUOUS
 62
1
 10
-1.995411
 20
4.5002276E-001
 11
-4.995411
 21
4.5002276E-001
  0
LINE
  8
108
  6
CONTINUOUS
 62
1
 10
-4.995411
 20
2.9999876E-001
 11
-1.995411
 21
2.9999876E-001
  0
LINE
  8
108
  6
CONTINUOUS
 62
1
 10
-1.995411
 20
1.4997376E-001
 11
-4.995411
 21
1.4997376E-001
  0
LINE
  8
108
  6
CONTINUOUS
 62
1
 10
-4.995411
 20
1.07648E-005
 11
-1.995411
 21
1.07648E-005
  0
LINE
  8
108
  6
CONTINUOUS
 62
1
 10
-1.995411
 20
-1.5001324E-001
 11
-4.995411
 21
-1.5001324E-001
  0
LINE
  8
108
  6
CONTINUOUS
 62
1
 10
-4.995411
 20
-2.9997724E-001
 11
-1.995411
 21
-2.9997724E-001
  0
LINE
  8
108
  6
CONTINUOUS
 62
1
 10
-1.995411
 20
-4.5000124E-001
 11
-4.995411
 21
-4.5000124E-001
  0
LINE
  8
108
  6
CONTINUOUS
 62
1
 10
-4.995411
 20
-6.0002624E-001
 11
-1.995411
 21
-6.0002624E-001
  0
LINE
  8
108
  6
CONTINUOUS
 62
1
 10
-1.995411
 20
-7.4998924E-001
 11
-4.995411
 21
-7.4998924E-001
  0
LINE
  8
108
  6
CONTINUOUS
 62
1
 10
-4.995411
 20
-9.0001324E-001
 11
-1.995411
 21
-9.0001324E-001
  0
LINE
  8
108
  6
CONTINUOUS
 62
1
 10
-1.995411
 20
-1.0499772
 11
-4.995411
 21
-1.0499772
  0
LINE
  8
108
  6
CONTINUOUS
 62
1
 10
-4.995411
 20
-1.2000012
 11
-1.995411
 21
-1.2000012
  0
LINE
  8
108
  6
CONTINUOUS
 62
1
 10
-1.995411
 20
-1.3500262
 11
-4.995411
 21
-1.3500262
  0
LINE
  8
108
  6
CONTINUOUS
 62
1
 10
-4.995411
 20
-1.4999892
 11
-1.995411
 21
-1.4999892
  0
LINE
  8
108
  6
CONTINUOUS
 62
1
 10
-1.995411
 20
-1.6500132
 11
-4.995411
 21
-1.6500132
  0
LINE
  8
108
  6
CONTINUOUS
 62
1
 10
-4.995411
 20
-1.7999772
 11
-1.995411
 21
-1.7999772
  0
LINE
  8
108
  6
CONTINUOUS
 62
1
 10
-1.995411
 20
-1.9500012
 11
-4.995411
 21
-1.9500012
  0
LINE
  8
108
  6
CONTINUOUS
 62
1
 10
-4.995411
 20
-2.1000262
 11
-1.995411
 21
-2.1000262
  0
LINE
  8
108
  6
CONTINUOUS
 62
1
 10
-1.995411
 20
-2.2499892
 11
-4.995411
 21
-2.2499892
  0
LINE
  8
108
  6
CONTINUOUS
 62
1
 10
-4.995411
 20
-2.4000132
 11
-1.995411
 21
-2.4000132
  0
LINE
  8
108
  6
CONTINUOUS
 62
1
 10
-1.995411
 20
-2.5499772
 11
-4.995411
 21
-2.5499772
  0
LINE
  8
108
  6
CONTINUOUS
 62
1
 10
-4.995411
 20
-2.7000012
 11
-1.995411
 21
-2.7000012
  0
LINE
  8
108
  6
CONTINUOUS
 62
1
 10
-1.995411
 20
-2.8500262
 11
-4.995411
 21
-2.8500262
  0
LINE
  8
108
  6
CONTINUOUS
 62
1
 10
-4.995411
 20
-2.9999892
 11
-1.995411
 21
-2.9999892
  0
LINE
  8
108
  6
CONTINUOUS
 62
1
 10
-1.995411
 20
-3.1500132
 11
-4.995411
 21
-3.1500132
  0
LINE
  8
108
  6
CONTINUOUS
 62
1
 10
-4.995411
 20
-3.2999772
 11
-1.995411
 21
-3.2999772
  0
LINE
  8
108
  6
CONTINUOUS
 62
1
 10
-1.995411
 20
-3.4500012
 11
-4.995411
 21
-3.4500012
  0
LINE
  8
108
  6
CONTINUOUS
 62
1
 10
-4.995411
 20
-3.6000262
 11
-1.995411
 21
-3.6000262
  0
LINE
  8
108
  6
CONTINUOUS
 62
1
 10
-1.995411
 20
-3.7499892
 11
-4.995411
 21
-3.7499892
  0
LINE
  8
108
  6
CONTINUOUS
 62
1
 10
-4.995411
 20
-3.9000132
 11
-1.995411
 21
-3.9000132
  0
LINE
  8
108
  6
CONTINUOUS
 62
1
 10
-1.995411
 20
-4.0499772
 11
-4.995411
 21
-4.0499772
  0
LINE
  8
108
  6
CONTINUOUS
 62
1
 10
-4.995411
 20
-4.2000012
 11
-1.995411
 21
-4.2000012
  0
LINE
  8
108
  6
CONTINUOUS
 62
1
 10
-1.995411
 20
-4.3500262
 11
-4.995411
 21
-4.3500262
  0
LINE
  8
108
  6
CONTINUOUS
 62
1
 10
-4.995411
 20
-4.4999892
 11
-1.995411
 21
-4.4999892
  0
LINE
  8
108
  6
CONTINUOUS
 62
1
 10
-1.995411
 20
-4.6500132
 11
-4.995411
 21
-4.6500132
  0
LINE
  8
108
  6
CONTINUOUS
 62
1
 10
-4.995411
 20
-4.7999772
 11
-1.995411
 21
-4.7999772
  0
LINE
  8
108
  6
CONTINUOUS
 62
1
 10
-1.995411
 20
-4.9500012
 11
-4.995411
 21
-4.9500012
  0
LINE
  8
108
  6
CONTINUOUS
 62
1
 10
-4.995411
 20
-5.1000262
 11
-1.995411
 21
-5.1000262
  0
LINE
  8
108
  6
CONTINUOUS
 62
1
 10
-1.995411
 20
-5.2499892
 11
-4.995411
 21
-5.2499892
  0
LINE
  8
108
  6
CONTINUOUS
 62
1
 10
-4.995411
 20
-5.4000132
 11
-1.995411
 21
-5.4000132
  0
LINE
  8
108
  6
CONTINUOUS
 62
1
 10
-1.995411
 20
-5.5499772
 11
-4.995411
 21
-5.5499772
  0
LINE
  8
108
  6
CONTINUOUS
 62
1
 10
-4.995411
 20
-5.7000012
 11
-1.995411
 21
-5.7000012
  0
LINE
  8
108
  6
CONTINUOUS
 62
1
 10
-1.995411
 20
-5.8500262
 11
-4.995411
 21
-5.8500262
  0
LINE
  8
108
  6
CONTINUOUS
 62
1
 10
-4.995411
 20
-5.9999892
 11
-1.995411
 21
-5.9999892
  0
LINE
  8
108
  6
CONTINUOUS
 62
1
 10
-1.995411
 20
-6.1500132
 11
-4.995411
 21
-6.1500132
  0
LINE
  8
108
  6
CONTINUOUS
 62
1
 10
-4.995411
 20
-6.2999772
 11
-1.995411
 21
-6.2999772
  0
LINE
  8
108
  6
CONTINUOUS
 62
1
 10
-1.995411
 20
-6.4500012
 11
-4.995411
 21
-6.4500012
  0
LINE
  8
108
  6
CONTINUOUS
 62
1
 10
-4.995411
 20
-6.6000262
 11
-1.995411
 21
-6.6000262
  0
LINE
  8
108
  6
CONTINUOUS
 62
1
 10
-1.995411
 20
-6.7499892
 11
-4.995411
 21
-6.7499892
  0
LINE
  8
108
  6
CONTINUOUS
 62
1
 10
-4.995411
 20
-6.9000132
 11
-1.995411
 21
-6.9000132
  0
LINE
  8
108
  6
CONTINUOUS
 62
1
 10
-1.995411
 20
-7.0499772
 11
-4.995411
 21
-7.0499772
  0
LINE
  8
108
  6
CONTINUOUS
 62
1
 10
-4.995411
 20
-7.2000012
 11
-1.995411
 21
-7.2000012
  0
LINE
  8
108
  6
CONTINUOUS
 62
1
 10
-1.995411
 20
-7.3500262
 11
-4.995411
 21
-7.3500262
  0
LINE
  8
108
  6
CONTINUOUS
 62
1
 10
-4.995411
 20
-7.4999892
 11
-1.995411
 21
-7.4999892
  0
LINE
  8
108
  6
CONTINUOUS
 62
1
 10
-1.995411
 20
-7.6500132
 11
-4.995411
 21
-7.6500132
  0
LINE
  8
108
  6
CONTINUOUS
 62
1
 10
-4.995411
 20
-7.7999772
 11
-1.995411
 21
-7.7999772
  0
LINE
  8
108
  6
CONTINUOUS
 62
1
 10
-1.995411
 20
-7.9500012
 11
-4.995411
 21
-7.9500012
  0
LINE
  8
108
  6
CONTINUOUS
 62
1
 10
-4.995411
 20
-8.1000262
 11
-1.995411
 21
-8.1000262
  0
LINE
  8
108
  6
CONTINUOUS
 62
1
 10
-1.995411
 20
-8.2499892
 11
-4.995411
 21
-8.2499892
  0
LINE
  8
108
  6
CONTINUOUS
 62
1
 10
-4.995411
 20
-8.4000132
 11
-1.995411
 21
-8.4000132
  0
LINE
  8
108
  6
CONTINUOUS
 62
1
 10
-1.995411
 20
-8.5499772
 11
-4.995411
 21
-8.5499772
  0
LINE
  8
108
  6
CONTINUOUS
 62
1
 10
-4.995411
 20
-8.7000012
 11
-1.995411
 21
-8.7000012
  0
LINE
  8
108
  6
CONTINUOUS
 62
1
 10
-1.995411
 20
-8.8500262
 11
-4.995411
 21
-8.8500262
  0
LINE
  8
108
  6
CONTINUOUS
 62
1
 10
-4.995411
 20
-8.9999892
 11
-1.995411
 21
-8.9999892
  0
LINE
  8
108
  6
CONTINUOUS
 62
1
 10
-1.995411
 20
-9.1500132
 11
-4.995411
 21
-9.1500132
  0
LINE
  8
108
  6
CONTINUOUS
 62
1
 10
-4.995411
 20
-9.2999772
 11
-1.995411
 21
-9.2999772
  0
LINE
  8
108
  6
CONTINUOUS
 62
1
 10
-1.995411
 20
-9.4500012
 11
-4.995411
 21
-9.4500012
  0
LINE
  8
108
  6
CONTINUOUS
 62
1
 10
-4.995411
 20
-9.6000262
 11
-1.995411
 21
-9.6000262
  0
LINE
  8
108
  6
CONTINUOUS
 62
1
 10
-1.995411
 20
-9.7499892
 11
-4.995411
 21
-9.7499892
  0
LINE
  8
108
  6
CONTINUOUS
 62
1
 10
-4.995411
 20
-9.9000132
 11
-1.995411
 21
-9.9000132
  0
LINE
  8
108
  6
CONTINUOUS
 62
1
 10
-1.995411
 20
-1.0049977E+001
 11
-4.995411
 21
-1.0049977E+001
  0
LINE
  8
108
  6
CONTINUOUS
 62
1
 10
-4.995411
 20
-1.0200001E+001
 11
-1.995411
 21
-1.0200001E+001
  0
LINE
  8
108
  6
CONTINUOUS
 62
1
 10
-1.995411
 20
-1.0350026E+001
 11
-4.995411
 21
-1.0350026E+001
  0
LINE
  8
108
  6
CONTINUOUS
 62
1
 10
-4.995411
 20
-1.0499989E+001
 11
-1.995411
 21
-1.0499989E+001
  0
LINE
  8
108
  6
CONTINUOUS
 62
1
 10
-1.995411
 20
-1.0650013E+001
 11
-4.995411
 21
-1.0650013E+001
  0
LINE
  8
108
  6
CONTINUOUS
 62
1
 10
-4.995411
 20
-1.0799977E+001
 11
-1.995411
 21
-1.0799977E+001
  0
LINE
  8
108
  6
CONTINUOUS
 62
1
 10
-1.995411
 20
-1.0950001E+001
 11
-4.995411
 21
-1.0950001E+001
  0
LINE
  8
108
  6
CONTINUOUS
 62
1
 10
-4.995411
 20
-1.1100026E+001
 11
-1.995411
 21
-1.1100026E+001
  0
LINE
  8
108
  6
CONTINUOUS
 62
1
 10
-1.995411
 20
-1.1249989E+001
 11
-4.995411
 21
-1.1249989E+001
  0
LINE
  8
108
  6
CONTINUOUS
 62
1
 10
-4.995411
 20
-1.1400013E+001
 11
-1.995411
 21
-1.1400013E+001
  0
ENDBLK
  0
BLOCK
  2
*XH86
  3
*XH
 10
0.0
 20
0.0
 70
65
  0
LINE
  8
108
  6
CONTINUOUS
 62
1
 10
4.378082E-001
 20
-1.1185834E+001
 11
8.777042E-001
 21
-1.1625715E+001
  0
LINE
  8
108
  6
CONTINUOUS
 62
1
 10
1.1378052
 20
-9.0574156
 11
4.378082E-001
 21
-8.3574036
  0
LINE
  8
108
  6
CONTINUOUS
 62
1
 10
4.378082E-001
 20
-5.5289735
 11
1.1378052
 21
-6.2289856
  0
LINE
  8
108
  6
CONTINUOUS
 62
1
 10
1.1378052
 20
-3.4005556
 11
4.378082E-001
 21
-2.7005435
  0
LINE
  8
108
  6
CONTINUOUS
 62
1
 10
-8.621948E-001
 20
1.4278745
 11
-8.085908E-001
 21
1.3742854
  0
LINE
  8
108
  6
CONTINUOUS
 62
1
 10
4.378082E-001
 20
1.2788745E-001
 11
1.1378052
 21
-5.7212555E-001
  0
LINE
  8
108
  6
CONTINUOUS
 62
1
 10
1.1378052
 20
2.2563055
 11
-8.621948E-001
 21
4.2563055
  0
LINE
  8
108
  6
CONTINUOUS
 62
1
 10
-4.1517458
 20
1.0374285E+001
 11
-2.1611448
 21
8.3836854
  0
LINE
  8
108
  6
CONTINUOUS
 62
1
 10
-8.621948E-001
 20
7.0847355
 11
1.1378052
 21
5.0847355
  0
LINE
  8
108
  6
CONTINUOUS
 62
1
 10
1.1378052
 20
7.9131655
 11
-1.3233158
 21
1.0374285E+001
  0
ENDBLK
  0
BLOCK
  2
*XH87
  3
*XH
 10
0.0
 20
0.0
 70
65
  0
LINE
  8
108
  6
CONTINUOUS
 62
1
 10
2.8365156E-001
 20
-1.1030036E+001
 11
9.8364856E-001
 21
-1.0330085E+001
  0
LINE
  8
108
  6
CONTINUOUS
 62
1
 10
9.8364856E-001
 20
-7.5016549
 11
2.8365156E-001
 21
-8.2016059
  0
LINE
  8
108
  6
CONTINUOUS
 62
1
 10
2.8365156E-001
 20
-5.3731759
 11
9.8364856E-001
 21
-4.6732249
  0
LINE
  8
108
  6
CONTINUOUS
 62
1
 10
9.8364856E-001
 20
-1.8447939
 11
2.8365156E-001
 21
-2.5447459
  0
LINE
  8
108
  6
CONTINUOUS
 62
1
 10
2.8365156E-001
 20
2.8368511E-001
 11
9.8364856E-001
 21
9.8363611E-001
  0
LINE
  8
108
  6
CONTINUOUS
 62
1
 10
9.8364856E-001
 20
3.8120661
 11
-1.0163514
 21
1.8120661
  0
LINE
  8
108
  6
CONTINUOUS
 62
1
 10
-1.0163514
 20
4.6404961
 11
9.8364856E-001
 21
6.6404961
  0
LINE
  8
108
  6
CONTINUOUS
 62
1
 10
8.4174156E-001
 20
9.3270191
 11
-1.1488584
 21
7.3364191
  0
LINE
  8
108
  6
CONTINUOUS
 62
1
 10
-3.9772894
 20
7.3364191
 11
-1.9866884
 21
9.3270191
  0
ENDBLK
  0
BLOCK
  2
*XH88
  3
*XH
 10
0.0
 20
0.0
 70
65
  0
LINE
  8
108
  6
CONTINUOUS
 62
1
 10
-5.1335478E-001
 20
-1.0255683E+001
 11
-1.2133518
 21
-1.0955756E+001
  0
LINE
  8
108
  6
CONTINUOUS
 62
1
 10
-1.2133518
 20
-8.1272649
 11
-5.1335478E-001
 21
-7.4273139
  0
LINE
  8
108
  6
CONTINUOUS
 62
1
 10
-5.1335478E-001
 20
-4.5988229
 11
-1.2133518
 21
-5.2988959
  0
LINE
  8
108
  6
CONTINUOUS
 62
1
 10
-1.2133518
 20
-2.4704049
 11
-5.1335478E-001
 21
-1.7704529
  0
LINE
  8
108
  6
CONTINUOUS
 62
1
 10
1.2330902
 20
-2.3993944E-002
 11
2.7866482
 21
1.5295951
  0
LINE
  8
108
  6
CONTINUOUS
 62
1
 10
2.7866482
 20
4.3579641
 11
-1.2133518
 21
3.5796406E-001
  0
LINE
  8
108
  6
CONTINUOUS
 62
1
 10
-1.2133518
 20
3.1864561
 11
4.2866482
 21
8.6864561
  0
LINE
  8
108
  6
CONTINUOUS
 62
1
 10
1.7478142
 20
8.9760061
 11
-1.2133518
 21
6.0148251
  0
LINE
  8
108
  6
CONTINUOUS
 62
1
 10
-1.2133518
 20
8.8433161
 11
-1.0806158
 21
8.9760061
  0
ENDBLK
  0
BLOCK
  2
*XH89
  3
*XH
 10
0.0
 20
0.0
 70
65
  0
LINE
  8
108
  6
CONTINUOUS
 62
1
 10
-8.6264035E-001
 20
-1.1865252E+001
 11
-1.5626373
 21
-1.1165301E+001
  0
LINE
  8
108
  6
CONTINUOUS
 62
1
 10
-1.5626373
 20
-8.3368715
 11
-8.6264035E-001
 21
-9.0368834
  0
LINE
  8
108
  6
CONTINUOUS
 62
1
 10
-8.6264035E-001
 20
-6.2083924
 11
-1.5626373
 21
-5.5084415
  0
LINE
  8
108
  6
CONTINUOUS
 62
1
 10
-1.5626373
 20
-2.6800105
 11
-8.6264035E-001
 21
-3.3800234
  0
LINE
  8
108
  6
CONTINUOUS
 62
1
 10
-8.6264035E-001
 20
-5.5153145E-001
 11
-1.5626373
 21
1.4841955E-001
  0
LINE
  8
108
  6
CONTINUOUS
 62
1
 10
-1.5626373
 20
2.9768495
 11
1.1794886
 21
2.3472255E-001
  0
LINE
  8
108
  6
CONTINUOUS
 62
1
 10
2.4373626
 20
1.8052796
 11
-1.5626373
 21
5.8052795
  0
LINE
  8
108
  6
CONTINUOUS
 62
1
 10
-1.5626373
 20
8.6337096
 11
2.4373626
 21
4.6337095
  0
LINE
  8
108
  6
CONTINUOUS
 62
1
 10
2.6647647
 20
7.2347225
 11
6.6476465E-001
 21
9.2347226
  0
LINE
  8
108
  6
CONTINUOUS
 62
1
 10
3.4931947
 20
9.2347226
 11
3.9373626
 21
8.7905706
  0
ENDBLK
  0
BLOCK
  2
*XH90
  3
*XH
 10
0.0
 20
0.0
 70
65
  0
LINE
  8
108
  6
CONTINUOUS
 62
1
 10
-8.0236179
 20
2.5829625
 11
-7.8571909
 21
2.7494055
  0
LINE
  8
108
  6
CONTINUOUS
 62
1
 10
-3.6112189
 20
2.7527615
 11
-8.0236179
 21
-1.6596525
  0
LINE
  8
108
  6
CONTINUOUS
 62
1
 10
-5.3720369
 20
-3.2507175
 11
6.3472208E-001
 21
2.7560575
  0
LINE
  8
108
  6
CONTINUOUS
 62
1
 10
4.8806941
 20
2.7593535
 11
-1.1293919
 21
-3.2507175
  0
LINE
  8
108
  6
CONTINUOUS
 62
1
 10
3.1132381
 20
-3.2507175
 11
9.0581691
 21
2.6942295
  0
LINE
  8
108
  6
CONTINUOUS
 62
1
 10
8.9743681
 20
-1.6322475
 11
7.3558831
 21
-3.2507175
  0
ENDBLK
  0
BLOCK
  2
*XH91
  3
*XH
 10
0.0
 20
0.0
 70
65
  0
LINE
  8
108
  6
CONTINUOUS
 62
1
 10
-2.05978
 20
6.155425E-002
 11
2.90287E-001
 21
2.4115903
  0
LINE
  8
108
  6
CONTINUOUS
 62
1
 10
3.236576
 20
1.1152653
 11
-1.467083
 21
-3.5884097
  0
ENDBLK
  0
BLOCK
  2
*XH92
  3
*XH
 10
0.0
 20
0.0
 70
65
  0
LINE
  8
108
  6
CONTINUOUS
 62
1
 10
-3.2257348
 20
-1.104431
 11
1.4345743
 21
3.555908
  0
LINE
  8
108
  6
CONTINUOUS
 62
1
 10
2.1139412
 20
-7.385E-003
 11
-3.2278075E-001
 21
-2.444092
  0
ENDBLK
  0
BLOCK
  2
*XH93
  3
*XH
 10
0.0
 20
0.0
 70
65
  0
LINE
  8
108
  6
CONTINUOUS
 62
1
 10
1.6021057
 20
6.8831845
 11
3.6876617
 21
4.7976135
  0
LINE
  8
108
  6
CONTINUOUS
 62
1
 10
3.6876617
 20
5.549985E-001
 11
-2.6405393
 21
6.8831845
  0
LINE
  8
108
  6
CONTINUOUS
 62
1
 10
-3.8123383
 20
3.8123235
 11
3.6876617
 21
-3.6876765
  0
LINE
  8
108
  6
CONTINUOUS
 62
1
 10
2.7809237
 20
-7.0235535
 11
-3.8123383
 21
-4.302915E-001
  0
LINE
  8
108
  6
CONTINUOUS
 62
1
 10
-3.8123383
 20
-4.6729675
 11
-1.3684603
 21
-7.1168155
  0
ENDBLK
  0
BLOCK
  2
*XH94
  3
*XH
 10
0.0
 20
0.0
 70
65
  0
LINE
  8
108
  6
CONTINUOUS
 62
1
 10
8.9964267E-001
 20
3.342997
 11
2.9263307
 21
1.316325
  0
LINE
  8
108
  6
CONTINUOUS
 62
1
 10
2.9263307
 20
-2.926351
 11
-2.0930023
 21
2.092997
  0
LINE
  8
108
  6
CONTINUOUS
 62
1
 10
-4.5736693
 20
3.31035E-001
 11
-8.5632333E-002
 21
-4.157003
  0
ENDBLK
  0
BLOCK
  2
*XH95
  3
*XH
 10
0.0
 20
0.0
 70
65
  0
LINE
  8
108
  6
CONTINUOUS
 62
1
 10
1.735962
 20
3.8534525E-001
 11
1.777374
 21
3.4396425E-001
  0
LINE
  8
108
  6
CONTINUOUS
 62
1
 10
-1.006668
 20
-1.1146547
 11
-2.506668
 21
3.8534525E-001
  0
ENDBLK
  0
BLOCK
  2
*XH96
  3
*XH
 10
0.0
 20
0.0
 70
65
  0
LINE
  8
108
  6
CONTINUOUS
 62
1
 10
-3.5520628
 20
6.9058233E-001
 11
-1.3416138
 21
2.9010313
  0
LINE
  8
108
  6
CONTINUOUS
 62
1
 10
2.9010312
 20
2.9010313
 11
-3.0989688
 21
-3.0989687
  0
LINE
  8
108
  6
CONTINUOUS
 62
1
 10
1.1436772
 20
-3.0989687
 11
3.9479372
 21
-2.9470767E-001
  0
ENDBLK
  0
BLOCK
  2
*XH97
  3
*XH
 10
0.0
 20
0.0
 70
65
  0
LINE
  8
108
  6
CONTINUOUS
 62
1
 10
-4.995411
 20
-1.1400035E+001
 11
5.1204586E+001
 21
-1.1400035E+001
  0
LINE
  8
108
  6
CONTINUOUS
 62
1
 10
5.1204586E+001
 20
-1.1250011E+001
 11
-4.995411
 21
-1.1250011E+001
  0
LINE
  8
108
  6
CONTINUOUS
 62
1
 10
-4.995411
 20
-1.1099987E+001
 11
5.1204586E+001
 21
-1.1099987E+001
  0
LINE
  8
108
  6
CONTINUOUS
 62
1
 10
5.1204586E+001
 20
-1.0950023E+001
 11
-4.995411
 21
-1.0950023E+001
  0
LINE
  8
108
  6
CONTINUOUS
 62
1
 10
-4.995411
 20
-1.0799999E+001
 11
5.1204586E+001
 21
-1.0799999E+001
  0
LINE
  8
108
  6
CONTINUOUS
 62
1
 10
5.1204586E+001
 20
-1.0650035E+001
 11
-4.995411
 21
-1.0650035E+001
  0
LINE
  8
108
  6
CONTINUOUS
 62
1
 10
-4.995411
 20
-1.0500011E+001
 11
5.1204586E+001
 21
-1.0500011E+001
  0
LINE
  8
108
  6
CONTINUOUS
 62
1
 10
5.1204586E+001
 20
-1.0349987E+001
 11
-4.995411
 21
-1.0349987E+001
  0
LINE
  8
108
  6
CONTINUOUS
 62
1
 10
-4.995411
 20
-1.0200023E+001
 11
5.1204586E+001
 21
-1.0200023E+001
  0
LINE
  8
108
  6
CONTINUOUS
 62
1
 10
5.1204586E+001
 20
-1.0049999E+001
 11
-4.995411
 21
-1.0049999E+001
  0
LINE
  8
108
  6
CONTINUOUS
 62
1
 10
-4.995411
 20
-9.9000348
 11
5.1204586E+001
 21
-9.9000348
  0
LINE
  8
108
  6
CONTINUOUS
 62
1
 10
5.1204586E+001
 20
-9.7500108
 11
-4.995411
 21
-9.7500108
  0
LINE
  8
108
  6
CONTINUOUS
 62
1
 10
-4.995411
 20
-9.5999868
 11
5.1204586E+001
 21
-9.5999868
  0
LINE
  8
108
  6
CONTINUOUS
 62
1
 10
5.1204586E+001
 20
-9.4500228
 11
-4.995411
 21
-9.4500228
  0
LINE
  8
108
  6
CONTINUOUS
 62
1
 10
-4.995411
 20
-9.2999988
 11
5.1204586E+001
 21
-9.2999988
  0
LINE
  8
108
  6
CONTINUOUS
 62
1
 10
5.1204586E+001
 20
-9.1500348
 11
-4.995411
 21
-9.1500348
  0
LINE
  8
108
  6
CONTINUOUS
 62
1
 10
-4.995411
 20
-9.0000108
 11
5.1204586E+001
 21
-9.0000108
  0
LINE
  8
108
  6
CONTINUOUS
 62
1
 10
5.1204586E+001
 20
-8.8499868
 11
-4.995411
 21
-8.8499868
  0
LINE
  8
108
  6
CONTINUOUS
 62
1
 10
-4.995411
 20
-8.7000228
 11
5.1204586E+001
 21
-8.7000228
  0
LINE
  8
108
  6
CONTINUOUS
 62
1
 10
5.1204586E+001
 20
-8.5499988
 11
-4.995411
 21
-8.5499988
  0
LINE
  8
108
  6
CONTINUOUS
 62
1
 10
-4.995411
 20
-8.3999738
 11
-5.61817E-001
 21
-8.3999738
  0
LINE
  8
108
  6
CONTINUOUS
 62
1
 10
-9.30164E-001
 20
-8.2500108
 11
-4.995411
 21
-8.2500108
  0
LINE
  8
108
  6
CONTINUOUS
 62
1
 10
-4.995411
 20
-8.0999868
 11
-1.170872
 21
-8.0999868
  0
LINE
  8
108
  6
CONTINUOUS
 62
1
 10
-1.353581
 20
-7.9500228
 11
-4.995411
 21
-7.9500228
  0
LINE
  8
108
  6
CONTINUOUS
 62
1
 10
-4.995411
 20
-7.7999988
 11
-1.499592
 21
-7.7999988
  0
LINE
  8
108
  6
CONTINUOUS
 62
1
 10
-1.618839
 20
-7.6499738
 11
-4.995411
 21
-7.6499738
  0
LINE
  8
108
  6
CONTINUOUS
 62
1
 10
-4.995411
 20
-7.5000108
 11
-1.716877
 21
-7.5000108
  0
LINE
  8
108
  6
CONTINUOUS
 62
1
 10
-1.797184
 20
-7.3499868
 11
-4.995411
 21
-7.3499868
  0
LINE
  8
108
  6
CONTINUOUS
 62
1
 10
-4.995411
 20
-7.2000228
 11
-1.862049
 21
-7.2000228
  0
LINE
  8
108
  6
CONTINUOUS
 62
1
 10
-1.913029
 20
-7.0499988
 11
-4.995411
 21
-7.0499988
  0
LINE
  8
108
  6
CONTINUOUS
 62
1
 10
-4.995411
 20
-6.8999738
 11
-1.951222
 21
-6.8999738
  0
LINE
  8
108
  6
CONTINUOUS
 62
1
 10
-1.97736
 20
-6.7500108
 11
-4.995411
 21
-6.7500108
  0
LINE
  8
108
  6
CONTINUOUS
 62
1
 10
-4.995411
 20
-6.5999868
 11
-1.991932
 21
-6.5999868
  0
LINE
  8
108
  6
CONTINUOUS
 62
1
 10
-1.995411
 20
-6.4500228
 11
-4.995411
 21
-6.4500228
  0
LINE
  8
108
  6
CONTINUOUS
 62
1
 10
-4.995411
 20
-6.2999988
 11
-1.995411
 21
-6.2999988
  0
LINE
  8
108
  6
CONTINUOUS
 62
1
 10
-1.995411
 20
-6.1499738
 11
-4.995411
 21
-6.1499738
  0
LINE
  8
108
  6
CONTINUOUS
 62
1
 10
-4.995411
 20
-6.0000108
 11
-1.995411
 21
-6.0000108
  0
LINE
  8
108
  6
CONTINUOUS
 62
1
 10
-1.995411
 20
-5.8499868
 11
-4.995411
 21
-5.8499868
  0
LINE
  8
108
  6
CONTINUOUS
 62
1
 10
-4.995411
 20
-5.7000228
 11
-1.995411
 21
-5.7000228
  0
LINE
  8
108
  6
CONTINUOUS
 62
1
 10
-1.995411
 20
-5.5499988
 11
-4.995411
 21
-5.5499988
  0
LINE
  8
108
  6
CONTINUOUS
 62
1
 10
-4.995411
 20
-5.3999738
 11
-1.995411
 21
-5.3999738
  0
LINE
  8
108
  6
CONTINUOUS
 62
1
 10
-1.995411
 20
-5.2500108
 11
-4.995411
 21
-5.2500108
  0
LINE
  8
108
  6
CONTINUOUS
 62
1
 10
-4.995411
 20
-5.0999868
 11
-1.995411
 21
-5.0999868
  0
LINE
  8
108
  6
CONTINUOUS
 62
1
 10
-1.995411
 20
-4.9500228
 11
-4.995411
 21
-4.9500228
  0
LINE
  8
108
  6
CONTINUOUS
 62
1
 10
-4.995411
 20
-4.7999988
 11
-1.995411
 21
-4.7999988
  0
LINE
  8
108
  6
CONTINUOUS
 62
1
 10
-1.995411
 20
-4.6499738
 11
-4.995411
 21
-4.6499738
  0
LINE
  8
108
  6
CONTINUOUS
 62
1
 10
-4.995411
 20
-4.5000108
 11
-1.995411
 21
-4.5000108
  0
LINE
  8
108
  6
CONTINUOUS
 62
1
 10
-1.995411
 20
-4.3499868
 11
-4.995411
 21
-4.3499868
  0
LINE
  8
108
  6
CONTINUOUS
 62
1
 10
-4.995411
 20
-4.2000228
 11
-1.995411
 21
-4.2000228
  0
LINE
  8
108
  6
CONTINUOUS
 62
1
 10
-1.995411
 20
-4.0499988
 11
-4.995411
 21
-4.0499988
  0
LINE
  8
108
  6
CONTINUOUS
 62
1
 10
-4.995411
 20
-3.8999738
 11
-1.995411
 21
-3.8999738
  0
LINE
  8
108
  6
CONTINUOUS
 62
1
 10
-1.995411
 20
-3.7500108
 11
-4.995411
 21
-3.7500108
  0
LINE
  8
108
  6
CONTINUOUS
 62
1
 10
-4.995411
 20
-3.5999868
 11
-1.995411
 21
-3.5999868
  0
LINE
  8
108
  6
CONTINUOUS
 62
1
 10
-1.995411
 20
-3.4500228
 11
-4.995411
 21
-3.4500228
  0
LINE
  8
108
  6
CONTINUOUS
 62
1
 10
-4.995411
 20
-3.2999988
 11
-1.995411
 21
-3.2999988
  0
LINE
  8
108
  6
CONTINUOUS
 62
1
 10
-1.995411
 20
-3.1499738
 11
-4.995411
 21
-3.1499738
  0
LINE
  8
108
  6
CONTINUOUS
 62
1
 10
-4.995411
 20
-3.0000108
 11
-1.995411
 21
-3.0000108
  0
LINE
  8
108
  6
CONTINUOUS
 62
1
 10
-1.995411
 20
-2.8499868
 11
-4.995411
 21
-2.8499868
  0
LINE
  8
108
  6
CONTINUOUS
 62
1
 10
-4.995411
 20
-2.7000228
 11
-1.995411
 21
-2.7000228
  0
LINE
  8
108
  6
CONTINUOUS
 62
1
 10
-1.995411
 20
-2.5499988
 11
-4.995411
 21
-2.5499988
  0
LINE
  8
108
  6
CONTINUOUS
 62
1
 10
-4.995411
 20
-2.3999738
 11
-1.995411
 21
-2.3999738
  0
LINE
  8
108
  6
CONTINUOUS
 62
1
 10
-1.995411
 20
-2.2500108
 11
-4.995411
 21
-2.2500108
  0
LINE
  8
108
  6
CONTINUOUS
 62
1
 10
-4.995411
 20
-2.0999868
 11
-1.995411
 21
-2.0999868
  0
LINE
  8
108
  6
CONTINUOUS
 62
1
 10
-1.995411
 20
-1.9500228
 11
-4.995411
 21
-1.9500228
  0
LINE
  8
108
  6
CONTINUOUS
 62
1
 10
-4.995411
 20
-1.7999988
 11
-1.995411
 21
-1.7999988
  0
LINE
  8
108
  6
CONTINUOUS
 62
1
 10
-1.995411
 20
-1.6499738
 11
-4.995411
 21
-1.6499738
  0
LINE
  8
108
  6
CONTINUOUS
 62
1
 10
-4.995411
 20
-1.5000108
 11
-1.995411
 21
-1.5000108
  0
LINE
  8
108
  6
CONTINUOUS
 62
1
 10
-1.995411
 20
-1.3499868
 11
-4.995411
 21
-1.3499868
  0
LINE
  8
108
  6
CONTINUOUS
 62
1
 10
-4.995411
 20
-1.2000228
 11
-1.995411
 21
-1.2000228
  0
LINE
  8
108
  6
CONTINUOUS
 62
1
 10
-1.995411
 20
-1.0499988
 11
-4.995411
 21
-1.0499988
  0
LINE
  8
108
  6
CONTINUOUS
 62
1
 10
-4.995411
 20
-8.9997376E-001
 11
-1.995411
 21
-8.9997376E-001
  0
LINE
  8
108
  6
CONTINUOUS
 62
1
 10
-1.995411
 20
-7.5001076E-001
 11
-4.995411
 21
-7.5001076E-001
  0
LINE
  8
108
  6
CONTINUOUS
 62
1
 10
-4.995411
 20
-5.9998676E-001
 11
-1.995411
 21
-5.9998676E-001
  0
LINE
  8
108
  6
CONTINUOUS
 62
1
 10
-1.995411
 20
-4.5002276E-001
 11
-4.995411
 21
-4.5002276E-001
  0
LINE
  8
108
  6
CONTINUOUS
 62
1
 10
-4.995411
 20
-2.9999876E-001
 11
-1.995411
 21
-2.9999876E-001
  0
LINE
  8
108
  6
CONTINUOUS
 62
1
 10
-1.995411
 20
-1.4997376E-001
 11
-4.995411
 21
-1.4997376E-001
  0
LINE
  8
108
  6
CONTINUOUS
 62
1
 10
-4.995411
 20
-1.07648E-005
 11
-1.995411
 21
-1.07648E-005
  0
LINE
  8
108
  6
CONTINUOUS
 62
1
 10
-1.995411
 20
1.5001324E-001
 11
-4.995411
 21
1.5001324E-001
  0
LINE
  8
108
  6
CONTINUOUS
 62
1
 10
-4.995411
 20
2.9997724E-001
 11
-1.995411
 21
2.9997724E-001
  0
LINE
  8
108
  6
CONTINUOUS
 62
1
 10
-1.995411
 20
4.5000124E-001
 11
-4.995411
 21
4.5000124E-001
  0
LINE
  8
108
  6
CONTINUOUS
 62
1
 10
-4.995411
 20
6.0002624E-001
 11
-1.995411
 21
6.0002624E-001
  0
LINE
  8
108
  6
CONTINUOUS
 62
1
 10
-1.995411
 20
7.4998924E-001
 11
-4.995411
 21
7.4998924E-001
  0
LINE
  8
108
  6
CONTINUOUS
 62
1
 10
-4.995411
 20
9.0001324E-001
 11
-1.995411
 21
9.0001324E-001
  0
LINE
  8
108
  6
CONTINUOUS
 62
1
 10
-1.995411
 20
1.0499772
 11
-4.995411
 21
1.0499772
  0
LINE
  8
108
  6
CONTINUOUS
 62
1
 10
-4.995411
 20
1.2000012
 11
-1.995411
 21
1.2000012
  0
LINE
  8
108
  6
CONTINUOUS
 62
1
 10
-1.995411
 20
1.3500262
 11
-4.995411
 21
1.3500262
  0
LINE
  8
108
  6
CONTINUOUS
 62
1
 10
-4.995411
 20
1.4999892
 11
-1.995411
 21
1.4999892
  0
LINE
  8
108
  6
CONTINUOUS
 62
1
 10
-1.995411
 20
1.6500132
 11
-4.995411
 21
1.6500132
  0
LINE
  8
108
  6
CONTINUOUS
 62
1
 10
-4.995411
 20
1.7999772
 11
-1.995411
 21
1.7999772
  0
LINE
  8
108
  6
CONTINUOUS
 62
1
 10
-1.995411
 20
1.9500012
 11
-4.995411
 21
1.9500012
  0
LINE
  8
108
  6
CONTINUOUS
 62
1
 10
-4.995411
 20
2.1000262
 11
-1.995411
 21
2.1000262
  0
LINE
  8
108
  6
CONTINUOUS
 62
1
 10
-1.995411
 20
2.2499892
 11
-4.995411
 21
2.2499892
  0
LINE
  8
108
  6
CONTINUOUS
 62
1
 10
-4.995411
 20
2.4000132
 11
-1.995411
 21
2.4000132
  0
LINE
  8
108
  6
CONTINUOUS
 62
1
 10
-1.995411
 20
2.5499772
 11
-4.995411
 21
2.5499772
  0
LINE
  8
108
  6
CONTINUOUS
 62
1
 10
-4.995411
 20
2.7000012
 11
-1.995411
 21
2.7000012
  0
LINE
  8
108
  6
CONTINUOUS
 62
1
 10
-1.995411
 20
2.8500262
 11
-4.995411
 21
2.8500262
  0
LINE
  8
108
  6
CONTINUOUS
 62
1
 10
-4.995411
 20
2.9999892
 11
-1.995411
 21
2.9999892
  0
LINE
  8
108
  6
CONTINUOUS
 62
1
 10
-1.995411
 20
3.1500132
 11
-4.995411
 21
3.1500132
  0
LINE
  8
108
  6
CONTINUOUS
 62
1
 10
-4.995411
 20
3.2999772
 11
-1.995411
 21
3.2999772
  0
LINE
  8
108
  6
CONTINUOUS
 62
1
 10
-1.995411
 20
3.4500012
 11
-4.995411
 21
3.4500012
  0
LINE
  8
108
  6
CONTINUOUS
 62
1
 10
-4.995411
 20
3.6000262
 11
-1.995411
 21
3.6000262
  0
LINE
  8
108
  6
CONTINUOUS
 62
1
 10
-1.995411
 20
3.7499892
 11
-4.995411
 21
3.7499892
  0
LINE
  8
108
  6
CONTINUOUS
 62
1
 10
-4.995411
 20
3.9000132
 11
-1.995411
 21
3.9000132
  0
LINE
  8
108
  6
CONTINUOUS
 62
1
 10
-1.995411
 20
4.0499772
 11
-4.995411
 21
4.0499772
  0
LINE
  8
108
  6
CONTINUOUS
 62
1
 10
-4.995411
 20
4.2000012
 11
-1.995411
 21
4.2000012
  0
LINE
  8
108
  6
CONTINUOUS
 62
1
 10
-1.995411
 20
4.3500262
 11
-4.995411
 21
4.3500262
  0
LINE
  8
108
  6
CONTINUOUS
 62
1
 10
-4.995411
 20
4.4999892
 11
-1.995411
 21
4.4999892
  0
LINE
  8
108
  6
CONTINUOUS
 62
1
 10
-1.995411
 20
4.6500132
 11
-4.995411
 21
4.6500132
  0
LINE
  8
108
  6
CONTINUOUS
 62
1
 10
-4.995411
 20
4.7999772
 11
-1.995411
 21
4.7999772
  0
LINE
  8
108
  6
CONTINUOUS
 62
1
 10
-1.995411
 20
4.9500012
 11
-4.995411
 21
4.9500012
  0
LINE
  8
108
  6
CONTINUOUS
 62
1
 10
-4.995411
 20
5.1000262
 11
-1.995411
 21
5.1000262
  0
LINE
  8
108
  6
CONTINUOUS
 62
1
 10
-1.995411
 20
5.2499892
 11
-4.995411
 21
5.2499892
  0
LINE
  8
108
  6
CONTINUOUS
 62
1
 10
-4.995411
 20
5.4000132
 11
-1.995411
 21
5.4000132
  0
LINE
  8
108
  6
CONTINUOUS
 62
1
 10
-1.995411
 20
5.5499772
 11
-4.995411
 21
5.5499772
  0
LINE
  8
108
  6
CONTINUOUS
 62
1
 10
-4.995411
 20
5.7000012
 11
-1.995411
 21
5.7000012
  0
LINE
  8
108
  6
CONTINUOUS
 62
1
 10
-1.995411
 20
5.8500262
 11
-4.995411
 21
5.8500262
  0
LINE
  8
108
  6
CONTINUOUS
 62
1
 10
-4.995411
 20
5.9999892
 11
-1.995411
 21
5.9999892
  0
LINE
  8
108
  6
CONTINUOUS
 62
1
 10
-1.995411
 20
6.1500132
 11
-4.995411
 21
6.1500132
  0
LINE
  8
108
  6
CONTINUOUS
 62
1
 10
-4.995411
 20
6.2999772
 11
-1.995411
 21
6.2999772
  0
LINE
  8
108
  6
CONTINUOUS
 62
1
 10
-1.995411
 20
6.4500012
 11
-4.995411
 21
6.4500012
  0
LINE
  8
108
  6
CONTINUOUS
 62
1
 10
-4.995411
 20
6.6000262
 11
-1.995411
 21
6.6000262
  0
LINE
  8
108
  6
CONTINUOUS
 62
1
 10
-1.995411
 20
6.7499892
 11
-4.995411
 21
6.7499892
  0
LINE
  8
108
  6
CONTINUOUS
 62
1
 10
-4.995411
 20
6.9000132
 11
-1.995411
 21
6.9000132
  0
LINE
  8
108
  6
CONTINUOUS
 62
1
 10
-1.995411
 20
7.0499772
 11
-4.995411
 21
7.0499772
  0
LINE
  8
108
  6
CONTINUOUS
 62
1
 10
-4.995411
 20
7.2000012
 11
-1.995411
 21
7.2000012
  0
LINE
  8
108
  6
CONTINUOUS
 62
1
 10
-1.995411
 20
7.3500262
 11
-4.995411
 21
7.3500262
  0
LINE
  8
108
  6
CONTINUOUS
 62
1
 10
-4.995411
 20
7.4999892
 11
-1.995411
 21
7.4999892
  0
LINE
  8
108
  6
CONTINUOUS
 62
1
 10
-1.995411
 20
7.6500132
 11
-4.995411
 21
7.6500132
  0
LINE
  8
108
  6
CONTINUOUS
 62
1
 10
-4.995411
 20
7.7999772
 11
-1.995411
 21
7.7999772
  0
LINE
  8
108
  6
CONTINUOUS
 62
1
 10
-1.995411
 20
7.9500012
 11
-4.995411
 21
7.9500012
  0
LINE
  8
108
  6
CONTINUOUS
 62
1
 10
-4.995411
 20
8.1000262
 11
-1.995411
 21
8.1000262
  0
LINE
  8
108
  6
CONTINUOUS
 62
1
 10
-1.995411
 20
8.2499892
 11
-4.995411
 21
8.2499892
  0
LINE
  8
108
  6
CONTINUOUS
 62
1
 10
-4.995411
 20
8.4000132
 11
-1.995411
 21
8.4000132
  0
LINE
  8
108
  6
CONTINUOUS
 62
1
 10
-1.995411
 20
8.5499772
 11
-4.995411
 21
8.5499772
  0
LINE
  8
108
  6
CONTINUOUS
 62
1
 10
-4.995411
 20
8.7000012
 11
-1.995411
 21
8.7000012
  0
LINE
  8
108
  6
CONTINUOUS
 62
1
 10
-1.995411
 20
8.8500262
 11
-4.995411
 21
8.8500262
  0
LINE
  8
108
  6
CONTINUOUS
 62
1
 10
-4.995411
 20
8.9999892
 11
-1.995411
 21
8.9999892
  0
LINE
  8
108
  6
CONTINUOUS
 62
1
 10
-1.995411
 20
9.1500132
 11
-4.995411
 21
9.1500132
  0
LINE
  8
108
  6
CONTINUOUS
 62
1
 10
-4.995411
 20
9.2999772
 11
-1.995411
 21
9.2999772
  0
LINE
  8
108
  6
CONTINUOUS
 62
1
 10
-1.995411
 20
9.4500012
 11
-4.995411
 21
9.4500012
  0
LINE
  8
108
  6
CONTINUOUS
 62
1
 10
-4.995411
 20
9.6000262
 11
-1.995411
 21
9.6000262
  0
LINE
  8
108
  6
CONTINUOUS
 62
1
 10
-1.995411
 20
9.7499892
 11
-4.995411
 21
9.7499892
  0
LINE
  8
108
  6
CONTINUOUS
 62
1
 10
-4.995411
 20
9.9000132
 11
-1.995411
 21
9.9000132
  0
LINE
  8
108
  6
CONTINUOUS
 62
1
 10
-1.995411
 20
1.0049977E+001
 11
-4.995411
 21
1.0049977E+001
  0
LINE
  8
108
  6
CONTINUOUS
 62
1
 10
-4.995411
 20
1.0200001E+001
 11
-1.995411
 21
1.0200001E+001
  0
LINE
  8
108
  6
CONTINUOUS
 62
1
 10
-1.995411
 20
1.0350026E+001
 11
-4.995411
 21
1.0350026E+001
  0
LINE
  8
108
  6
CONTINUOUS
 62
1
 10
-4.995411
 20
1.0499989E+001
 11
-1.995411
 21
1.0499989E+001
  0
LINE
  8
108
  6
CONTINUOUS
 62
1
 10
-1.995411
 20
1.0650013E+001
 11
-4.995411
 21
1.0650013E+001
  0
LINE
  8
108
  6
CONTINUOUS
 62
1
 10
-4.995411
 20
1.0799977E+001
 11
-1.995411
 21
1.0799977E+001
  0
LINE
  8
108
  6
CONTINUOUS
 62
1
 10
-1.995411
 20
1.0950001E+001
 11
-4.995411
 21
1.0950001E+001
  0
LINE
  8
108
  6
CONTINUOUS
 62
1
 10
-4.995411
 20
1.1100026E+001
 11
-1.995411
 21
1.1100026E+001
  0
LINE
  8
108
  6
CONTINUOUS
 62
1
 10
-1.995411
 20
1.1249989E+001
 11
-4.995411
 21
1.1249989E+001
  0
LINE
  8
108
  6
CONTINUOUS
 62
1
 10
-4.995411
 20
1.1400013E+001
 11
-1.995411
 21
1.1400013E+001
  0
ENDBLK
  0
BLOCK
  2
*D45
  3
*D
 10
0.0
 20
0.0
 70
65
  0
LINE
  8
MED-0
  6
CONTINUOUS
 62
4
 10
4.3837069E+002
 20
9.142822E+001
 11
4.3837069E+002
 21
7.3663716E+001
  0
LINE
  8
MED-0
  6
CONTINUOUS
 62
4
 10
4.0237069E+002
 20
8.4940717E+001
 11
4.0237069E+002
 21
7.3663716E+001
  0
SOLID
  8
MED-1
  6
CONTINUOUS
 62
0
 10
4.3837069E+002
 20
7.4663716E+001
 11
4.3487069E+002
 21
7.5247054E+001
 12
4.3487069E+002
 22
7.4080379E+001
 13
4.3487069E+002
 23
7.4080379E+001
  0
SOLID
  8
MED-1
  6
CONTINUOUS
 62
0
 10
4.0237069E+002
 20
7.4663716E+001
 11
4.0587069E+002
 21
7.4080379E+001
 12
4.0587069E+002
 22
7.5247054E+001
 13
4.0587069E+002
 23
7.5247054E+001
  0
LINE
  8
MED-0
  6
CONTINUOUS
 62
4
 10
4.3837069E+002
 20
7.4663716E+001
 11
4.2044844E+002
 21
7.4663716E+001
  0
LINE
  8
MED-0
  6
CONTINUOUS
 62
4
 10
4.0237069E+002
 20
7.4663716E+001
 11
4.2044844E+002
 21
7.4663716E+001
  0
TEXT
  8
MED-0
  6
CONTINUOUS
 62
4
 10
4.1811511E+002
 20
7.5830216E+001
 40
3.5
  1
36
 41
6.6666667E-001
 50
3.6E+002
  0
ENDBLK
  0
BLOCK
  2
*D64
  3
*D
 10
0.0
 20
0.0
 70
65
  0
LINE
  8
MED-0
  6
CONTINUOUS
 62
4
 10
4.8837069E+002
 20
9.6428205E+001
 11
4.8837069E+002
 21
6.0607289E+001
  0
LINE
  8
MED-0
  6
CONTINUOUS
 62
4
 10
4.0237069E+002
 20
8.0588575E+001
 11
4.0237069E+002
 21
6.0607289E+001
  0
SOLID
  8
MED-1
  6
CONTINUOUS
 62
0
 10
4.8837069E+002
 20
6.1607289E+001
 11
4.8487069E+002
 21
6.2190627E+001
 12
4.8487069E+002
 22
6.1023952E+001
 13
4.8487069E+002
 23
6.1023952E+001
  0
SOLID
  8
MED-1
  6
CONTINUOUS
 62
0
 10
4.0237069E+002
 20
6.1607289E+001
 11
4.0587069E+002
 21
6.1023952E+001
 12
4.0587069E+002
 22
6.2190627E+001
 13
4.0587069E+002
 23
6.2190627E+001
  0
LINE
  8
MED-0
  6
CONTINUOUS
 62
4
 10
4.8837069E+002
 20
6.1607289E+001
 11
4.4781094E+002
 21
6.1607289E+001
  0
LINE
  8
MED-0
  6
CONTINUOUS
 62
4
 10
4.0237069E+002
 20
6.1607289E+001
 11
4.4781094E+002
 21
6.1607289E+001
  0
TEXT
  8
MED-0
  6
CONTINUOUS
 62
4
 10
4.4314428E+002
 20
6.2773789E+001
 40
3.5
  1
(
 41
6.6666667E-001
 50
3.6E+002
  0
TEXT
  8
MED-0
  6
CONTINUOUS
 62
4
 10
4.4547761E+002
 20
6.2773789E+001
 40
3.5
  1
86
 41
6.6666667E-001
 50
3.6E+002
  0
TEXT
  8
MED-0
  6
CONTINUOUS
 62
4
 10
4.5014428E+002
 20
6.2773789E+001
 40
3.5
  1
)
 41
6.6666667E-001
 50
3.6E+002
  0
ENDBLK
  0
BLOCK
  2
*D533
  3
*D
 10
0.0
 20
0.0
 70
65
  0
LINE
  8
MED-0
  6
CONTINUOUS
 62
4
 10
1.9085307E+002
 20
1.2937752E+002
 11
1.9085307E+002
 21
1.2858416E+002
  0
LINE
  8
MED-0
  6
CONTINUOUS
 62
4
 10
1.5485307E+002
 20
1.1129531E+002
 11
1.5485307E+002
 21
1.2658416E+002
  0
SOLID
  8
MED-1
  6
CONTINUOUS
 62
0
 10
1.9085307E+002
 20
1.2758416E+002
 11
1.8735307E+002
 21
1.281675E+002
 12
1.8735307E+002
 22
1.2700082E+002
 13
1.8735307E+002
 23
1.2700082E+002
  0
SOLID
  8
MED-1
  6
CONTINUOUS
 62
0
 10
1.5485307E+002
 20
1.2758416E+002
 11
1.5835307E+002
 21
1.2700082E+002
 12
1.5835307E+002
 22
1.281675E+002
 13
1.5835307E+002
 23
1.281675E+002
  0
LINE
  8
MED-0
  6
CONTINUOUS
 62
4
 10
1.9085307E+002
 20
1.2758416E+002
 11
1.7293087E+002
 21
1.2758416E+002
  0
LINE
  8
MED-0
  6
CONTINUOUS
 62
4
 10
1.5485307E+002
 20
1.2758416E+002
 11
1.7293087E+002
 21
1.2758416E+002
  0
TEXT
  8
MED-0
  6
CONTINUOUS
 62
4
 10
1.7059754E+002
 20
1.2875066E+002
 40
3.5
  1
36
 41
6.6666667E-001
 50
3.6E+002
  0
ENDBLK
  0
BLOCK
  2
*D1083
  3
*D
 10
0.0
 20
0.0
 70
65
  0
LINE
  8
MED-0
  6
CONTINUOUS
 62
4
 10
3.9877889E+002
 20
2.055595E+002
 11
3.9877889E+002
 21
1.83341E+002
  0
LINE
  8
MED-0
  6
CONTINUOUS
 62
4
 10
4.4477889E+002
 20
1.9415835E+002
 11
4.4477889E+002
 21
1.83341E+002
  0
SOLID
  8
MED-1
  6
CONTINUOUS
 62
0
 10
3.9877889E+002
 20
1.84341E+002
 11
4.0227889E+002
 21
1.8375766E+002
 12
4.0227889E+002
 22
1.8492433E+002
 13
4.0227889E+002
 23
1.8492433E+002
  0
SOLID
  8
MED-1
  6
CONTINUOUS
 62
0
 10
4.4477889E+002
 20
1.84341E+002
 11
4.4127889E+002
 21
1.8492433E+002
 12
4.4127889E+002
 22
1.8375766E+002
 13
4.4127889E+002
 23
1.8375766E+002
  0
LINE
  8
MED-0
  6
CONTINUOUS
 62
4
 10
3.9877889E+002
 20
1.84341E+002
 11
4.2185665E+002
 21
1.84341E+002
  0
LINE
  8
MED-0
  6
CONTINUOUS
 62
4
 10
4.2185665E+002
 20
1.84341E+002
 11
4.4477889E+002
 21
1.84341E+002
  0
TEXT
  8
MED-0
  6
CONTINUOUS
 62
4
 10
4.1952332E+002
 20
1.855065E+002
 40
3.5
  1
46
 41
6.6666667E-001
  0
ENDBLK
  0
BLOCK
  2
*D1092
  3
*D
 10
0.0
 20
0.0
 70
65
  0
LINE
  8
MED-0
  6
CONTINUOUS
 62
4
 10
4.4877889E+002
 20
2.5306149E+002
 11
4.4877889E+002
 21
2.7254863E+002
  0
LINE
  8
MED-0
  6
CONTINUOUS
 62
4
 10
3.9877889E+002
 20
2.4706149E+002
 11
3.9877889E+002
 21
2.7254863E+002
  0
SOLID
  8
MED-1
  6
CONTINUOUS
 62
0
 10
4.4877889E+002
 20
2.7154863E+002
 11
4.4527889E+002
 21
2.7213197E+002
 12
4.4527889E+002
 22
2.7096529E+002
 13
4.4527889E+002
 23
2.7096529E+002
  0
SOLID
  8
MED-1
  6
CONTINUOUS
 62
0
 10
3.9877889E+002
 20
2.7154863E+002
 11
4.0227889E+002
 21
2.7096529E+002
 12
4.0227889E+002
 22
2.7213197E+002
 13
4.0227889E+002
 23
2.7213197E+002
  0
LINE
  8
MED-0
  6
CONTINUOUS
 62
4
 10
4.2385665E+002
 20
2.7154863E+002
 11
4.4877889E+002
 21
2.7154863E+002
  0
LINE
  8
MED-0
  6
CONTINUOUS
 62
4
 10
3.9877889E+002
 20
2.7154863E+002
 11
4.2385665E+002
 21
2.7154863E+002
  0
TEXT
  8
MED-0
  6
CONTINUOUS
 62
4
 10
4.2152332E+002
 20
2.7271413E+002
 40
3.5
  1
50
 41
6.6666667E-001
  0
ENDBLK
  0
BLOCK
  2
*D1101
  3
*D
 10
0.0
 20
0.0
 70
65
  0
LINE
  8
MED-0
  6
CONTINUOUS
 62
4
 10
3.9877889E+002
 20
3.6908474E+002
 11
3.9877889E+002
 21
3.9457189E+002
  0
LINE
  8
MED-0
  6
CONTINUOUS
 62
4
 10
4.5477889E+002
 20
3.7798787E+002
 11
4.5477889E+002
 21
3.9457189E+002
  0
SOLID
  8
MED-1
  6
CONTINUOUS
 62
0
 10
3.9877889E+002
 20
3.9357189E+002
 11
4.0227889E+002
 21
3.9298855E+002
 12
4.0227889E+002
 22
3.9415523E+002
 13
4.0227889E+002
 23
3.9415523E+002
  0
SOLID
  8
MED-1
  6
CONTINUOUS
 62
0
 10
4.5477889E+002
 20
3.9357189E+002
 11
4.5127889E+002
 21
3.9415523E+002
 12
4.5127889E+002
 22
3.9298855E+002
 13
4.5127889E+002
 23
3.9298855E+002
  0
LINE
  8
MED-0
  6
CONTINUOUS
 62
4
 10
3.9877889E+002
 20
3.9357189E+002
 11
4.2685667E+002
 21
3.9357189E+002
  0
LINE
  8
MED-0
  6
CONTINUOUS
 62
4
 10
4.2685667E+002
 20
3.9357189E+002
 11
4.5477889E+002
 21
3.9357189E+002
  0
TEXT
  8
MED-0
  6
CONTINUOUS
 62
4
 10
4.2452334E+002
 20
3.9473739E+002
 40
3.5
  1
56
 41
6.6666667E-001
  0
ENDBLK
  0
ENDSEC
  0
SECTION
  2
ENTITIES
  0
TEXT
  8
103
  6
CONTINUOUS
 62
40
 10
5.8785451E+002
 20
1.7107504E+001
 40
7.0
  1
BTS-Zubehör Zapfenband-Anschlag
 41
6.6315789E-001
 72
1
 11
5.1590188E+002
 21
1.3607504E+001
 73
2
  0
TEXT
  8
103
  6
CONTINUOUS
 62
40
 10
3.0406073E+001
 20
4.0998707E+002
 40
5.0
  1
M 1:1
 41
6.3E-001
 72
1
 11
2.2531073E+001
 21
4.0748707E+002
 73
2
  0
DIMENSION
  8
MED-0
  6
CONTINUOUS
 62
4
  2
*D45
  3
DSTYLE1
 10
4.0237069E+002
 20
7.4663716E+001
 11
4.2044844E+002
 21
7.7580216E+001
 70
128
 13
4.3837069E+002
 23
9.242822E+001
 14
4.0237069E+002
 24
8.5940717E+001
 40
3.0
 50
0.0
  0
DIMENSION
  8
MED-0
  6
CONTINUOUS
 62
4
  1
(<>)
  2
*D64
  3
DSTYLE1
 10
4.0237069E+002
 20
6.1607289E+001
 11
4.4781094E+002
 21
6.4523789E+001
 70
128
 13
4.8837069E+002
 23
9.7428205E+001
 14
4.0237069E+002
 24
8.1588575E+001
 40
3.0
 50
0.0
  0
TEXT
  8
103
  6
CONTINUOUS
 62
150
 10
4.5640894E+002
 20
1.3424215E+002
 40
3.5
  1
Deckkappe
 41
6.5000002E-001
 72
1
 11
4.4617144E+002
 21
1.3249215E+002
 73
2
  0
LINE
  8
MED-1
  6
CONTINUOUS
 62
40
 10
4.5609594E+002
 20
1.284561E+002
 11
4.3432928E+002
 21
1.284561E+002
  0
LINE
  8
MED-1
  6
CONTINUOUS
 62
40
 10
4.3432928E+002
 20
1.284561E+002
 11
4.24824E+002
 21
1.1362594E+002
  0
TEXT
  8
103
  6
CONTINUOUS
 62
40
 10
3.736302E+002
 20
3.308153E+001
 40
7.0
  1
Tuerhebel 7431 (7441)
 41
6.6428571E-001
 72
1
 11
3.248052E+002
 21
2.958153E+001
 73
2
  0
LINE
  8
106
  6
CENTERLINE
 62
1
 10
4.0237069E+002
 20
1.2320735E+002
 11
4.0237069E+002
 21
7.9367796E+001
  0
LINE
  8
104
  6
CONTINUOUS
 62
40
 10
4.0087069E+002
 20
1.1542821E+002
 11
4.0087069E+002
 21
1.1442821E+002
  0
LINE
  8
104
  6
CONTINUOUS
 62
40
 10
4.0087069E+002
 20
1.1442821E+002
 11
4.0387069E+002
 21
1.1442821E+002
  0
LINE
  8
104
  6
CONTINUOUS
 62
40
 10
4.0387069E+002
 20
1.1442821E+002
 11
4.0396399E+002
 21
1.1542821E+002
  0
LINE
  8
104
  6
CONTINUOUS
 62
40
 10
4.0487069E+002
 20
1.0422825E+002
 11
4.0487069E+002
 21
1.1242821E+002
  0
LINE
  8
104
  6
CONTINUOUS
 62
40
 10
4.0487069E+002
 20
1.1242821E+002
 11
4.0787069E+002
 21
1.1542821E+002
  0
LINE
  8
104
  6
CONTINUOUS
 62
40
 10
4.0787069E+002
 20
1.1542821E+002
 11
3.9687069E+002
 21
1.1542821E+002
  0
LINE
  8
104
  6
CONTINUOUS
 62
40
 10
3.9687069E+002
 20
1.1542821E+002
 11
3.9987069E+002
 21
1.1242821E+002
  0
LINE
  8
104
  6
CONTINUOUS
 62
40
 10
3.9987069E+002
 20
1.1242821E+002
 11
3.9987069E+002
 21
1.0422825E+002
  0
LINE
  8
104
  6
CONTINUOUS
 62
40
 10
3.9987069E+002
 20
1.0422825E+002
 11
4.0487069E+002
 21
1.0422825E+002
  0
LINE
  8
104
  6
CONTINUOUS
 62
40
 10
3.9987069E+002
 20
1.1242821E+002
 11
4.0487069E+002
 21
1.1242821E+002
  0
LINE
  8
99
  6
CONTINUOUS
 62
1
 10
4.0062069E+002
 20
1.1242821E+002
 11
4.0062069E+002
 21
1.0422825E+002
  0
LINE
  8
99
  6
CONTINUOUS
 62
1
 10
4.0412069E+002
 20
1.1242821E+002
 11
4.0412069E+002
 21
1.0422825E+002
  0
LINE
  8
104
  6
CONTINUOUS
 62
40
 10
4.3837069E+002
 20
1.1542821E+002
 11
4.3837069E+002
 21
9.242822E+001
  0
LINE
  8
104
  6
CONTINUOUS
 62
40
 10
4.3837069E+002
 20
9.242822E+001
 11
4.0812069E+002
 21
9.2428205E+001
  0
LINE
  8
104
  6
CONTINUOUS
 62
40
 10
3.8800686E+002
 20
9.242822E+001
 11
3.8156454E+002
 21
9.2428205E+001
  0
LINE
  8
104
  6
CONTINUOUS
 62
40
 10
4.3737069E+002
 20
1.1242821E+002
 11
4.0487069E+002
 21
1.1242821E+002
  0
LINE
  8
104
  6
CONTINUOUS
 62
40
 10
4.0487069E+002
 20
1.1242821E+002
 11
4.0787069E+002
 21
1.1542821E+002
  0
LINE
  8
104
  6
CONTINUOUS
 62
40
 10
4.0787069E+002
 20
1.1542821E+002
 11
4.3737069E+002
 21
1.1542821E+002
  0
LINE
  8
104
  6
CONTINUOUS
 62
40
 10
4.3737069E+002
 20
1.1542821E+002
 11
4.3737069E+002
 21
1.1242821E+002
  0
INSERT
  2
*XH34
  8
108
 10
4.2251288E+002
 20
1.138604E+002
  0
LINE
  8
104
  6
CONTINUOUS
 62
40
 10
4.3737069E+002
 20
1.1242821E+002
 11
4.3837069E+002
 21
1.1242821E+002
  0
LINE
  8
104
  6
CONTINUOUS
 62
40
 10
4.3737069E+002
 20
1.1542821E+002
 11
4.3837069E+002
 21
1.1542821E+002
  0
LINE
  8
104
  6
CONTINUOUS
 62
40
 10
3.9987069E+002
 20
1.1242821E+002
 11
3.8437069E+002
 21
1.1242821E+002
  0
LINE
  8
104
  6
CONTINUOUS
 62
40
 10
3.8437069E+002
 20
1.1242821E+002
 11
3.8437069E+002
 21
9.2428205E+001
  0
LINE
  8
104
  6
CONTINUOUS
 62
40
 10
3.8437069E+002
 20
9.2428205E+001
 11
3.8137069E+002
 21
9.2428205E+001
  0
LINE
  8
104
  6
CONTINUOUS
 62
40
 10
3.8137069E+002
 20
9.2428205E+001
 11
3.8137069E+002
 21
1.1542821E+002
  0
LINE
  8
104
  6
CONTINUOUS
 62
40
 10
3.8137069E+002
 20
1.1542821E+002
 11
3.9687069E+002
 21
1.1542821E+002
  0
LINE
  8
104
  6
CONTINUOUS
 62
40
 10
3.9687069E+002
 20
1.1542821E+002
 11
3.9987069E+002
 21
1.1242821E+002
  0
INSERT
  2
*XH35
  8
108
 10
3.8686841E+002
 20
1.0768545E+002
  0
LINE
  8
104
  6
CONTINUOUS
 62
40
 10
4.0823599E+002
 20
9.0228254E+001
 11
4.0750228E+002
 21
1.0422825E+002
  0
LINE
  8
104
  6
CONTINUOUS
 62
40
 10
4.0750228E+002
 20
1.0422825E+002
 11
3.9723913E+002
 21
1.0422825E+002
  0
LINE
  8
104
  6
CONTINUOUS
 62
40
 10
3.9723913E+002
 20
1.0422825E+002
 11
3.965054E+002
 21
9.0228254E+001
  0
LINE
  8
106
  6
CENTERLINE
 62
1
 10
4.3837069E+002
 20
1.0742821E+002
 11
4.8837069E+002
 21
1.0742821E+002
  0
LINE
  8
106
  6
CENTERLINE
 62
1
 10
4.8837069E+002
 20
1.0742821E+002
 11
4.8837069E+002
 21
9.7428205E+001
  0
LINE
  8
106
  6
CENTERLINE
 62
1
 10
4.8837069E+002
 20
9.7428205E+001
 11
4.3837069E+002
 21
9.7428205E+001
  0
LINE
  8
104
  6
CONTINUOUS
 62
40
 10
3.8987069E+002
 20
8.6428205E+001
 11
3.8987069E+002
 21
9.0228254E+001
  0
LINE
  8
104
  6
CONTINUOUS
 62
40
 10
3.8987069E+002
 20
9.0228254E+001
 11
4.1487069E+002
 21
9.0228254E+001
  0
LINE
  8
104
  6
CONTINUOUS
 62
40
 10
4.1487069E+002
 20
9.0228254E+001
 11
4.1487069E+002
 21
8.6428205E+001
  0
LINE
  8
104
  6
CONTINUOUS
 62
40
 10
4.1987069E+002
 20
1.0242821E+002
 11
4.1870724E+002
 21
1.1070659E+002
  0
ARC
  8
104
  6
CONTINUOUS
 62
40
 10
4.1672674E+002
 20
1.104282E+002
 40
1.9999752
 50
8.0012578
 51
9.0000702E+001
  0
LINE
  8
104
  6
CONTINUOUS
 62
40
 10
4.1672671E+002
 20
1.1242818E+002
 11
4.0812069E+002
 21
1.1242818E+002
  0
LINE
  8
104
  6
CONTINUOUS
 62
40
 10
4.0812069E+002
 20
1.1242818E+002
 11
4.0759661E+002
 21
1.0242821E+002
  0
LINE
  8
104
  6
CONTINUOUS
 62
40
 10
4.0759661E+002
 20
1.0242821E+002
 11
4.0812069E+002
 21
9.2428205E+001
  0
LINE
  8
104
  6
CONTINUOUS
 62
40
 10
4.0812069E+002
 20
9.2428205E+001
 11
4.1672671E+002
 21
9.2428205E+001
  0
ARC
  8
104
  6
CONTINUOUS
 62
40
 10
4.1672667E+002
 20
9.442824E+001
 40
2.0000352
 50
2.7000116E+002
 51
3.5199987E+002
  0
LINE
  8
104
  6
CONTINUOUS
 62
40
 10
4.1870724E+002
 20
9.4149885E+001
 11
4.1987069E+002
 21
1.0242821E+002
  0
INSERT
  2
*XH36
  8
108
 10
4.1325182E+002
 20
1.0290226E+002
  0
LINE
  8
104
  6
CONTINUOUS
 62
40
 10
3.8487069E+002
 20
1.0242821E+002
 11
3.8603415E+002
 21
9.4149885E+001
  0
ARC
  8
104
  6
CONTINUOUS
 62
40
 10
3.8801468E+002
 20
9.4428198E+001
 40
1.9999924
 50
1.8799906E+002
 51
2.6999991E+002
  0
LINE
  8
104
  6
CONTINUOUS
 62
40
 10
3.8801468E+002
 20
9.2428205E+001
 11
3.9662069E+002
 21
9.2428205E+001
  0
LINE
  8
104
  6
CONTINUOUS
 62
40
 10
3.9662069E+002
 20
9.2428205E+001
 11
3.9714477E+002
 21
1.0242821E+002
  0
LINE
  8
104
  6
CONTINUOUS
 62
40
 10
3.9714477E+002
 20
1.0242821E+002
 11
3.9662069E+002
 21
1.1242821E+002
  0
LINE
  8
104
  6
CONTINUOUS
 62
40
 10
3.9662069E+002
 20
1.1242821E+002
 11
3.8801468E+002
 21
1.1242821E+002
  0
ARC
  8
104
  6
CONTINUOUS
 62
40
 10
3.8801465E+002
 20
1.1042824E+002
 40
1.999967
 50
8.9999214E+001
 51
1.7199982E+002
  0
LINE
  8
104
  6
CONTINUOUS
 62
40
 10
3.8603415E+002
 20
1.1070659E+002
 11
3.8487069E+002
 21
1.0242821E+002
  0
INSERT
  2
*XH37
  8
108
 10
3.9184354E+002
 20
1.0129298E+002
  0
LINE
  8
104
  6
CONTINUOUS
 62
40
 10
4.3837069E+002
 20
1.0742821E+002
 11
4.19168E+002
 21
1.0742821E+002
  0
LINE
  8
104
  6
CONTINUOUS
 62
40
 10
4.19168E+002
 20
9.7428205E+001
 11
4.3837069E+002
 21
9.7428205E+001
  0
LINE
  8
104
  6
CONTINUOUS
 62
40
 10
4.3837069E+002
 20
9.7428205E+001
 11
4.3837069E+002
 21
1.0742821E+002
  0
LINE
  8
106
  6
CENTERLINE
 62
1
 10
3.3083129E+002
 20
9.9564604E+001
 11
3.3083129E+002
 21
1.485646E+002
  0
LINE
  8
106
  6
CENTERLINE
 62
1
 10
3.3083129E+002
 20
1.485646E+002
 11
3.6583129E+002
 21
1.485646E+002
  0
LINE
  8
106
  6
CENTERLINE
 62
1
 10
3.6583129E+002
 20
1.485646E+002
 11
3.6583129E+002
 21
9.9564604E+001
  0
ARC
  8
104
  6
CONTINUOUS
 62
40
 10
2.9783123E+002
 20
6.256462E+001
 40
1.1049995E+001
 50
3.2889401E+002
 51
3.8710585E+002
  0
LINE
  8
104
  6
CONTINUOUS
 62
40
 10
3.0729238E+002
 20
5.6855939E+001
 11
2.8799489E+002
 21
5.7529813E+001
  0
ARC
  8
104
  6
CONTINUOUS
 62
40
 10
2.9783135E+002
 20
6.2564609E+001
 40
1.1050116E+001
 50
1.4889452E+002
 51
2.0710566E+002
  0
LINE
  8
104
  6
CONTINUOUS
 62
40
 10
2.8837005E+002
 20
6.8273267E+001
 11
3.0766756E+002
 21
6.7599394E+001
  0
LINE
  8
104
  6
CONTINUOUS
 62
40
 10
2.9783132E+002
 20
8.0064604E+001
 11
3.2583132E+002
 21
8.0064604E+001
  0
ARC
  8
104
  6
CONTINUOUS
 62
40
 10
3.2583132E+002
 20
8.5064597E+001
 40
4.9999931
 50
2.6999992E+002
 51
3.6000008E+002
  0
LINE
  8
104
  6
CONTINUOUS
 62
40
 10
3.3083132E+002
 20
8.5064604E+001
 11
3.3083132E+002
 21
9.9564604E+001
  0
LINE
  8
104
  6
CONTINUOUS
 62
40
 10
3.3083132E+002
 20
9.9564604E+001
 11
3.6583132E+002
 21
9.9564604E+001
  0
LINE
  8
104
  6
CONTINUOUS
 62
40
 10
3.6583132E+002
 20
9.9564604E+001
 11
3.4936715E+002
 21
5.9195448E+001
  0
ARC
  8
104
  6
CONTINUOUS
 62
40
 10
3.4487033E+002
 20
6.1381371E+001
 40
4.9999587
 50
2.8336668E+002
 51
3.3407538E+002
  0
LINE
  8
104
  6
CONTINUOUS
 62
40
 10
3.4602623E+002
 20
5.6516859E+001
 11
3.0247384E+002
 21
4.569164E+001
  0
ARC
  8
104
  6
CONTINUOUS
 62
40
 10
3.2483133E+002
 20
6.8564593E+001
 40
2.000011
 50
9.0000314E+001
 51
1.7999969E+002
  0
LINE
  8
104
  6
CONTINUOUS
 62
40
 10
3.2283132E+002
 20
6.8564604E+001
 11
3.2283132E+002
 21
6.4564604E+001
  0
ARC
  8
104
  6
CONTINUOUS
 62
40
 10
3.2483132E+002
 20
6.456461E+001
 40
2.0000062
 50
1.8000018E+002
 51
2.6999982E+002
  0
LINE
  8
104
  6
CONTINUOUS
 62
40
 10
3.2483132E+002
 20
6.2564603E+001
 11
3.4083132E+002
 21
6.2564603E+001
  0
ARC
  8
104
  6
CONTINUOUS
 62
40
 10
3.4083131E+002
 20
6.4564608E+001
 40
2.0000043
 50
2.7000012E+002
 51
3.5999988E+002
  0
LINE
  8
104
  6
CONTINUOUS
 62
40
 10
3.4283132E+002
 20
6.4564604E+001
 11
3.4283132E+002
 21
6.8564604E+001
  0
ARC
  8
104
  6
CONTINUOUS
 62
40
 10
3.4083131E+002
 20
6.8564595E+001
 40
2.000009
 50
2.576268E-004
 51
8.9999741E+001
  0
LINE
  8
104
  6
CONTINUOUS
 62
40
 10
3.4083132E+002
 20
7.0564604E+001
 11
3.2483132E+002
 21
7.0564604E+001
  0
LINE
  8
106
  6
CENTERLINE
 62
1
 10
2.7774349E+002
 20
6.3266081E+001
 11
3.1731487E+002
 21
6.1884229E+001
  0
LINE
  8
106
  6
CENTERLINE
 62
1
 10
2.9854427E+002
 20
8.2981229E+001
 11
2.971187E+002
 21
4.2157919E+001
  0
CIRCLE
  8
104
  6
CONTINUOUS
 62
40
 10
2.9783132E+002
 20
6.2564603E+001
 40
1.75E+001
  0
LINE
  8
106
  6
CENTERLINE
 62
1
 10
2.7723757E+002
 20
6.2564603E+001
 11
3.5844851E+002
 21
6.2564603E+001
  0
LINE
  8
106
  6
CENTERLINE
 62
1
 10
2.9783132E+002
 20
8.2435697E+001
 11
2.9783132E+002
 21
4.1056799E+001
  0
TEXT
  8
103
  6
CONTINUOUS
 62
40
 10
1.302257E+002
 20
3.4170354E+001
 40
7.0
  1
Zapfenband 7431K (7441K)
 41
6.65625E-001
 72
1
 11
7.4313204E+001
 21
3.0670354E+001
 73
2
  0
LINE
  8
106
  6
CENTERLINE
 62
1
 10
1.9085307E+002
 20
9.7627153E+001
 11
2.4085307E+002
 21
9.7627153E+001
  0
LINE
  8
106
  6
CENTERLINE
 62
1
 10
1.9085307E+002
 20
9.1627153E+001
 11
2.4085307E+002
 21
9.1627153E+001
  0
LINE
  8
106
  6
CENTERLINE
 62
1
 10
2.4085307E+002
 20
9.1627153E+001
 11
2.4085307E+002
 21
9.7627153E+001
  0
LINE
  8
104
  6
CONTINUOUS
 62
40
 10
1.3735307E+002
 20
1.0537715E+002
 11
1.3735307E+002
 21
9.7877153E+001
  0
ARC
  8
99
  6
CONTINUOUS
 62
1
 10
1.8072943E+002
 20
9.2714302E+001
 40
1.5869032
 50
3.1609533E+002
 51
3.6804823E+002
  0
ARC
  8
99
  6
CONTINUOUS
 62
1
 10
1.8072927E+002
 20
9.2714225E+001
 40
1.5870782
 50
8.0501593
 51
4.1837782E+001
  0
ARC
  8
99
  6
CONTINUOUS
 62
1
 10
1.8309884E+002
 20
9.4837395E+001
 40
1.594544
 50
2.0498352E+002
 51
2.2188371E+002
  0
ARC
  8
99
  6
CONTINUOUS
 62
1
 10
1.830579E+002
 20
9.4818337E+001
 40
1.5493841
 50
1.8775718E+002
 51
2.0498416E+002
  0
ARC
  8
99
  6
CONTINUOUS
 62
1
 10
1.8297706E+002
 20
9.4805031E+001
 40
1.4674958
 50
1.7839763E+002
 51
1.876684E+002
  0
ARC
  8
99
  6
CONTINUOUS
 62
1
 10
1.8308151E+002
 20
9.4802035E+001
 40
1.5719826
 50
1.695396E+002
 51
1.7839494E+002
  0
ARC
  8
99
  6
CONTINUOUS
 62
1
 10
1.8325381E+002
 20
9.4766007E+001
 40
1.747967
 50
1.5290044E+002
 51
1.6940367E+002
  0
ARC
  8
99
  6
CONTINUOUS
 62
1
 10
1.8017691E+002
 20
9.633421E+001
 40
1.705528
 50
3.3308881E+002
 51
3.660963E+002
  0
ARC
  8
99
  6
CONTINUOUS
 62
1
 10
1.8017689E+002
 20
9.6334328E+001
 40
1.7055312
 50
6.0922988
 51
4.9289871E+001
  0
INSERT
  2
*XH38
  8
108
 10
1.728767E+002
 20
9.4376436E+001
  0
LINE
  8
104
  6
CONTINUOUS
 62
40
 10
1.4485307E+002
 20
1.1162715E+002
 11
1.6485307E+002
 21
1.1162715E+002
  0
LINE
  8
106
  6
CENTERLINE
 62
1
 10
1.361704E+002
 20
1.0162715E+002
 11
1.4771935E+002
 21
1.0162715E+002
  0
LINE
  8
104
  6
CONTINUOUS
 62
40
 10
1.6485307E+002
 20
9.1627153E+001
 11
1.9085307E+002
 21
9.1627153E+001
  0
LINE
  8
104
  6
CONTINUOUS
 62
40
 10
1.9085307E+002
 20
9.1627153E+001
 11
1.9085307E+002
 21
9.7627153E+001
  0
LINE
  8
104
  6
CONTINUOUS
 62
40
 10
1.6485307E+002
 20
9.7627153E+001
 11
1.9085307E+002
 21
9.7627153E+001
  0
LINE
  8
104
  6
CONTINUOUS
 62
40
 10
1.7235307E+002
 20
9.7627153E+001
 11
1.6485307E+002
 21
9.7627153E+001
  0
LINE
  8
104
  6
CONTINUOUS
 62
40
 10
1.6485307E+002
 20
9.7627153E+001
 11
1.6485307E+002
 21
1.1162715E+002
  0
LINE
  8
104
  6
CONTINUOUS
 62
40
 10
1.6485307E+002
 20
1.1162715E+002
 11
1.7135307E+002
 21
1.1162715E+002
  0
LINE
  8
104
  6
CONTINUOUS
 62
40
 10
1.7135307E+002
 20
1.1162715E+002
 11
1.7235307E+002
 21
1.1062715E+002
  0
LINE
  8
104
  6
CONTINUOUS
 62
40
 10
1.7235307E+002
 20
1.1062715E+002
 11
1.7235307E+002
 21
9.7627153E+001
  0
INSERT
  2
*XH39
  8
108
 10
1.6866542E+002
 20
1.0451034E+002
  0
LINE
  8
104
  6
CONTINUOUS
 62
40
 10
1.3735307E+002
 20
1.0537715E+002
 11
1.3985307E+002
 21
1.0537715E+002
  0
LINE
  8
104
  6
CONTINUOUS
 62
40
 10
1.3985307E+002
 20
1.0537715E+002
 11
1.3985307E+002
 21
1.0412715E+002
  0
LINE
  8
104
  6
CONTINUOUS
 62
40
 10
1.3985307E+002
 20
1.0412715E+002
 11
1.4485307E+002
 21
1.0412715E+002
  0
LINE
  8
104
  6
CONTINUOUS
 62
40
 10
1.4485307E+002
 20
1.0412715E+002
 11
1.4485307E+002
 21
1.1162715E+002
  0
LINE
  8
104
  6
CONTINUOUS
 62
40
 10
1.4485307E+002
 20
1.1162715E+002
 11
1.3835307E+002
 21
1.1162715E+002
  0
LINE
  8
104
  6
CONTINUOUS
 62
40
 10
1.3835307E+002
 20
1.1162715E+002
 11
1.3735307E+002
 21
1.1062715E+002
  0
LINE
  8
104
  6
CONTINUOUS
 62
40
 10
1.3735307E+002
 20
1.1062715E+002
 11
1.3735307E+002
 21
1.0537715E+002
  0
INSERT
  2
*XH40
  8
108
 10
1.4192675E+002
 20
1.0747015E+002
  0
LINE
  8
104
  6
CONTINUOUS
 62
40
 10
1.4485307E+002
 20
9.7627153E+001
 11
1.3735307E+002
 21
9.7627153E+001
  0
LINE
  8
104
  6
CONTINUOUS
 62
40
 10
1.3735307E+002
 20
9.7627153E+001
 11
1.3735307E+002
 21
9.7877153E+001
  0
LINE
  8
104
  6
CONTINUOUS
 62
40
 10
1.3735307E+002
 20
9.7877153E+001
 11
1.3985307E+002
 21
9.7877153E+001
  0
LINE
  8
104
  6
CONTINUOUS
 62
40
 10
1.3985307E+002
 20
9.7877153E+001
 11
1.3985307E+002
 21
9.9127153E+001
  0
LINE
  8
104
  6
CONTINUOUS
 62
40
 10
1.3985307E+002
 20
9.9127153E+001
 11
1.4485307E+002
 21
9.9127153E+001
  0
LINE
  8
104
  6
CONTINUOUS
 62
40
 10
1.4485307E+002
 20
9.9127153E+001
 11
1.4485307E+002
 21
9.7627153E+001
  0
INSERT
  2
*XH41
  8
108
 10
1.4307571E+002
 20
9.8012498E+001
  0
LINE
  8
104
  6
CONTINUOUS
 62
40
 10
1.4485307E+002
 20
9.7627153E+001
 11
1.3735307E+002
 21
9.7627153E+001
  0
LINE
  8
104
  6
CONTINUOUS
 62
40
 10
1.3735307E+002
 20
9.7627153E+001
 11
1.3735307E+002
 21
9.1627153E+001
  0
LINE
  8
104
  6
CONTINUOUS
 62
40
 10
1.3735307E+002
 20
9.1627153E+001
 11
1.4485307E+002
 21
9.1627153E+001
  0
LINE
  8
104
  6
CONTINUOUS
 62
40
 10
1.4485307E+002
 20
9.1627153E+001
 11
1.4485307E+002
 21
9.7627153E+001
  0
INSERT
  2
*XH42
  8
108
 10
1.4090514E+002
 20
9.4528184E+001
  0
LINE
  8
106
  6
CENTERLINE
 62
1
 10
1.5385307E+002
 20
9.4051653E+001
 11
1.5385307E+002
 21
6.4702287E+001
  0
LINE
  8
104
  6
CONTINUOUS
 62
40
 10
1.6485307E+002
 20
1.1062715E+002
 11
1.6385307E+002
 21
1.1162715E+002
  0
LINE
  8
104
  6
CONTINUOUS
 62
40
 10
1.6385307E+002
 20
1.1162715E+002
 11
1.4585307E+002
 21
1.1162715E+002
  0
LINE
  8
104
  6
CONTINUOUS
 62
40
 10
1.4585307E+002
 20
1.1162715E+002
 11
1.4485307E+002
 21
1.1062715E+002
  0
LINE
  8
104
  6
CONTINUOUS
 62
40
 10
1.4485307E+002
 20
1.1062715E+002
 11
1.4485307E+002
 21
1.0322713E+002
  0
LINE
  8
104
  6
CONTINUOUS
 62
40
 10
1.4485307E+002
 20
1.0322713E+002
 11
1.6485307E+002
 21
1.0322713E+002
  0
LINE
  8
104
  6
CONTINUOUS
 62
40
 10
1.6485307E+002
 20
1.0322713E+002
 11
1.6485307E+002
 21
1.1062715E+002
  0
LINE
  8
104
  6
CONTINUOUS
 62
40
 10
1.4485307E+002
 20
1.1062715E+002
 11
1.6485307E+002
 21
1.1062715E+002
  0
LINE
  8
104
  6
CONTINUOUS
 62
40
 10
1.4485307E+002
 20
1.0002718E+002
 11
1.6485307E+002
 21
1.0002718E+002
  0
LINE
  8
104
  6
CONTINUOUS
 62
40
 10
1.6485307E+002
 20
1.0002718E+002
 11
1.6485307E+002
 21
9.1627153E+001
  0
LINE
  8
104
  6
CONTINUOUS
 62
40
 10
1.6485307E+002
 20
9.1627153E+001
 11
1.4485307E+002
 21
9.1627153E+001
  0
LINE
  8
104
  6
CONTINUOUS
 62
40
 10
1.4485307E+002
 20
9.1627153E+001
 11
1.4485307E+002
 21
1.0002718E+002
  0
LINE
  8
104
  6
CONTINUOUS
 62
40
 10
1.4685307E+002
 20
1.0002718E+002
 11
1.4685307E+002
 21
1.0322713E+002
  0
LINE
  8
104
  6
CONTINUOUS
 62
40
 10
1.6285307E+002
 20
1.0002718E+002
 11
1.6285307E+002
 21
1.0322713E+002
  0
LINE
  8
104
  6
CONTINUOUS
 62
40
 10
1.6085307E+002
 20
9.1627153E+001
 11
1.6085307E+002
 21
6.8627153E+001
  0
LINE
  8
104
  6
CONTINUOUS
 62
40
 10
1.6085307E+002
 20
6.8627153E+001
 11
1.5985307E+002
 21
6.7627153E+001
  0
LINE
  8
104
  6
CONTINUOUS
 62
40
 10
1.5985307E+002
 20
6.7627153E+001
 11
1.4785307E+002
 21
6.7627153E+001
  0
LINE
  8
104
  6
CONTINUOUS
 62
40
 10
1.4785307E+002
 20
6.7627153E+001
 11
1.4685307E+002
 21
6.8627153E+001
  0
LINE
  8
104
  6
CONTINUOUS
 62
40
 10
1.4685307E+002
 20
6.8627153E+001
 11
1.4685307E+002
 21
9.1627153E+001
  0
LINE
  8
104
  6
CONTINUOUS
 62
40
 10
1.6085307E+002
 20
6.8627153E+001
 11
1.4685307E+002
 21
6.8627153E+001
  0
LINE
  8
106
  6
CENTERLINE
 62
1
 10
1.5485307E+002
 20
1.1382857E+002
 11
1.5485307E+002
 21
8.9235613E+001
  0
LINE
  8
104
  6
CONTINUOUS
 62
40
 10
1.4485307E+002
 20
1.0322713E+002
 11
1.4485307E+002
 21
1.0002718E+002
  0
LINE
  8
99
  6
CONTINUOUS
 62
1
 10
1.4485307E+002
 20
1.0337715E+002
 11
1.3735307E+002
 21
1.0337715E+002
  0
LINE
  8
99
  6
CONTINUOUS
 62
1
 10
1.4485307E+002
 20
9.9877153E+001
 11
1.3735307E+002
 21
9.9877153E+001
  0
LINE
  8
104
  6
CONTINUOUS
 62
40
 10
1.3735307E+002
 20
9.9127153E+001
 11
1.4485307E+002
 21
9.9127153E+001
  0
LINE
  8
104
  6
CONTINUOUS
 62
40
 10
1.4485307E+002
 20
9.9127153E+001
 11
1.4485307E+002
 21
1.0002718E+002
  0
LINE
  8
104
  6
CONTINUOUS
 62
40
 10
1.4485307E+002
 20
1.0002718E+002
 11
1.4685307E+002
 21
1.0002718E+002
  0
LINE
  8
104
  6
CONTINUOUS
 62
40
 10
1.4685307E+002
 20
1.0002718E+002
 11
1.4685307E+002
 21
1.0322713E+002
  0
LINE
  8
104
  6
CONTINUOUS
 62
40
 10
1.4685307E+002
 20
1.0322713E+002
 11
1.4485307E+002
 21
1.0322713E+002
  0
LINE
  8
104
  6
CONTINUOUS
 62
40
 10
1.4485307E+002
 20
1.0322713E+002
 11
1.4485307E+002
 21
1.0412715E+002
  0
LINE
  8
104
  6
CONTINUOUS
 62
40
 10
1.4485307E+002
 20
1.0412715E+002
 11
1.3735307E+002
 21
1.0412715E+002
  0
LINE
  8
104
  6
CONTINUOUS
 62
40
 10
1.3735307E+002
 20
1.0412715E+002
 11
1.3735307E+002
 21
9.9127153E+001
  0
LINE
  8
104
  6
CONTINUOUS
 62
40
 10
1.3735307E+002
 20
9.9127153E+001
 11
1.3735307E+002
 21
9.9127153E+001
  0
DIMENSION
  8
MED-0
  6
CONTINUOUS
 62
4
  2
*D533
  3
DSTYLE1
 10
1.5485307E+002
 20
1.2758416E+002
 11
1.7293087E+002
 21
1.3050066E+002
 70
128
 13
1.9085307E+002
 23
1.2837752E+002
 14
1.5485307E+002
 24
1.1229531E+002
 40
3.0
 50
0.0
  0
LINE
  8
104
  6
CONTINUOUS
 62
40
 10
1.8985307E+002
 20
1.1462715E+002
 11
1.3365309E+002
 21
1.1462715E+002
  0
LINE
  8
104
  6
CONTINUOUS
 62
40
 10
1.3365309E+002
 20
1.1462715E+002
 11
1.3365309E+002
 21
9.1627153E+001
  0
LINE
  8
104
  6
CONTINUOUS
 62
40
 10
1.3365309E+002
 20
9.1627153E+001
 11
1.3665309E+002
 21
9.1627153E+001
  0
LINE
  8
104
  6
CONTINUOUS
 62
40
 10
1.3665309E+002
 20
9.1627153E+001
 11
1.3665309E+002
 21
1.0962715E+002
  0
ARC
  8
104
  6
CONTINUOUS
 62
40
 10
1.386531E+002
 20
1.0962712E+002
 40
2.0000056
 50
9.000016E+001
 51
1.7999898E+002
  0
LINE
  8
104
  6
CONTINUOUS
 62
40
 10
1.3865309E+002
 20
1.1162712E+002
 11
1.8985307E+002
 21
1.1162712E+002
  0
LINE
  8
104
  6
CONTINUOUS
 62
40
 10
1.8985307E+002
 20
1.1162712E+002
 11
1.8985307E+002
 21
1.1462715E+002
  0
INSERT
  2
*XH44
  8
108
 10
1.386485E+002
 20
1.0314527E+002
  0
LINE
  8
104
  6
CONTINUOUS
 62
40
 10
1.8985307E+002
 20
1.1162715E+002
 11
1.9085307E+002
 21
1.1162715E+002
  0
LINE
  8
104
  6
CONTINUOUS
 62
40
 10
1.8985307E+002
 20
1.1462715E+002
 11
1.9085307E+002
 21
1.1462715E+002
  0
LINE
  8
104
  6
CONTINUOUS
 62
40
 10
1.6085307E+002
 20
6.7627153E+001
 11
1.5985307E+002
 21
6.7627153E+001
  0
LINE
  8
104
  6
CONTINUOUS
 62
40
 10
1.4685307E+002
 20
6.7627153E+001
 11
1.4785307E+002
 21
6.7627153E+001
  0
LINE
  8
104
  6
CONTINUOUS
 62
40
 10
1.4135307E+002
 20
8.7627153E+001
 11
1.3785307E+002
 21
8.7627153E+001
  0
LINE
  8
104
  6
CONTINUOUS
 62
40
 10
1.3785307E+002
 20
8.7627153E+001
 11
1.3785307E+002
 21
8.9627153E+001
  0
LINE
  8
104
  6
CONTINUOUS
 62
40
 10
1.3785307E+002
 20
8.9627153E+001
 11
1.4135307E+002
 21
8.9627153E+001
  0
LINE
  8
104
  6
CONTINUOUS
 62
40
 10
1.4135307E+002
 20
8.9627153E+001
 11
1.4135307E+002
 21
8.7627153E+001
  0
LINE
  8
104
  6
CONTINUOUS
 62
40
 10
1.4135307E+002
 20
8.7636552E+001
 11
1.4485307E+002
 21
8.7636552E+001
  0
LINE
  8
104
  6
CONTINUOUS
 62
40
 10
1.4485307E+002
 20
8.7636552E+001
 11
1.4485307E+002
 21
8.0627153E+001
  0
LINE
  8
104
  6
CONTINUOUS
 62
40
 10
1.4485307E+002
 20
8.0627153E+001
 11
1.4615309E+002
 21
8.0627153E+001
  0
LINE
  8
104
  6
CONTINUOUS
 62
40
 10
1.4615309E+002
 20
8.0627153E+001
 11
1.4615309E+002
 21
6.7627153E+001
  0
LINE
  8
104
  6
CONTINUOUS
 62
40
 10
1.4615309E+002
 20
6.7627153E+001
 11
1.4685307E+002
 21
6.7627153E+001
  0
LINE
  8
104
  6
CONTINUOUS
 62
40
 10
1.4685307E+002
 20
6.7627153E+001
 11
1.4685307E+002
 21
8.9627153E+001
  0
LINE
  8
104
  6
CONTINUOUS
 62
40
 10
1.4685307E+002
 20
8.9627153E+001
 11
1.4135307E+002
 21
8.9627153E+001
  0
LINE
  8
104
  6
CONTINUOUS
 62
40
 10
1.4135307E+002
 20
8.9627153E+001
 11
1.4135307E+002
 21
8.7636552E+001
  0
INSERT
  2
*XH45
  8
108
 10
1.4571527E+002
 20
7.9252867E+001
  0
INSERT
  2
*XH46
  8
108
 10
1.4586943E+002
 20
8.0300133E+001
  0
LINE
  8
104
  6
CONTINUOUS
 62
40
 10
1.6085307E+002
 20
8.9627153E+001
 11
1.6085307E+002
 21
6.7627153E+001
  0
LINE
  8
104
  6
CONTINUOUS
 62
40
 10
1.6085307E+002
 20
6.7627153E+001
 11
1.6155309E+002
 21
6.7627153E+001
  0
LINE
  8
104
  6
CONTINUOUS
 62
40
 10
1.6155309E+002
 20
6.7627153E+001
 11
1.6155309E+002
 21
8.0627153E+001
  0
LINE
  8
104
  6
CONTINUOUS
 62
40
 10
1.6155309E+002
 20
8.0627153E+001
 11
1.6485307E+002
 21
8.0627153E+001
  0
LINE
  8
104
  6
CONTINUOUS
 62
40
 10
1.6485307E+002
 20
8.0627153E+001
 11
1.6485307E+002
 21
8.7627153E+001
  0
LINE
  8
104
  6
CONTINUOUS
 62
40
 10
1.6485307E+002
 20
8.7627153E+001
 11
1.6635307E+002
 21
8.7627153E+001
  0
LINE
  8
104
  6
CONTINUOUS
 62
40
 10
1.6635307E+002
 20
8.7627153E+001
 11
1.6635307E+002
 21
8.9627153E+001
  0
LINE
  8
104
  6
CONTINUOUS
 62
40
 10
1.6635307E+002
 20
8.9627153E+001
 11
1.6085307E+002
 21
8.9627153E+001
  0
INSERT
  2
*XH47
  8
108
 10
1.6206643E+002
 20
8.0651147E+001
  0
INSERT
  2
*XH48
  8
108
 10
1.6241572E+002
 20
8.039243E+001
  0
LINE
  8
104
  6
CONTINUOUS
 62
40
 10
1.6635307E+002
 20
8.7627153E+001
 11
1.6985307E+002
 21
8.7627153E+001
  0
LINE
  8
104
  6
CONTINUOUS
 62
40
 10
1.6985307E+002
 20
8.7627153E+001
 11
1.6985307E+002
 21
8.9627153E+001
  0
LINE
  8
104
  6
CONTINUOUS
 62
40
 10
1.6985307E+002
 20
8.9627153E+001
 11
1.6635307E+002
 21
8.9627153E+001
  0
LINE
  8
106
  6
CENTERLINE
 62
1
 10
1.9085307E+002
 20
8.7627153E+001
 11
2.4085307E+002
 21
8.7627153E+001
  0
LINE
  8
106
  6
CENTERLINE
 62
1
 10
1.9085307E+002
 20
8.1627153E+001
 11
2.4085307E+002
 21
8.1627153E+001
  0
LINE
  8
106
  6
CENTERLINE
 62
1
 10
2.4085307E+002
 20
8.1627153E+001
 11
2.4085307E+002
 21
8.5852663E+001
  0
LINE
  8
104
  6
CONTINUOUS
 62
40
 10
1.3735307E+002
 20
7.3877153E+001
 11
1.3735307E+002
 21
8.1377153E+001
  0
ARC
  8
99
  6
CONTINUOUS
 62
1
 10
1.8072934E+002
 20
8.6539975E+001
 40
1.5869886
 50
3.5195327E+002
 51
4.0390317E+002
  0
ARC
  8
99
  6
CONTINUOUS
 62
1
 10
1.8072944E+002
 20
8.6540001E+001
 40
1.5868958
 50
3.1816022E+002
 51
3.5195184E+002
  0
ARC
  8
99
  6
CONTINUOUS
 62
1
 10
1.8309914E+002
 20
8.4416746E+001
 40
1.5948771
 50
1.3811904E+002
 51
1.5501623E+002
  0
ARC
  8
99
  6
CONTINUOUS
 62
1
 10
1.8305789E+002
 20
8.4435944E+001
 40
1.5493789
 50
1.5501549E+002
 51
1.7224187E+002
  0
ARC
  8
99
  6
CONTINUOUS
 62
1
 10
1.8297731E+002
 20
8.4449259E+001
 40
1.4677449
 50
1.7233227E+002
 51
1.8160217E+002
  0
ARC
  8
99
  6
CONTINUOUS
 62
1
 10
1.8308153E+002
 20
8.4452248E+001
 40
1.5720082
 50
1.8160487E+002
 51
1.9046029E+002
  0
ARC
  8
99
  6
CONTINUOUS
 62
1
 10
1.8325348E+002
 20
8.4488204E+001
 40
1.7476327
 50
1.9059601E+002
 51
2.0710166E+002
  0
ARC
  8
99
  6
CONTINUOUS
 62
1
 10
1.8017696E+002
 20
8.2920106E+001
 40
1.7054766
 50
3.5390319E+002
 51
3.869117E+002
  0
ARC
  8
99
  6
CONTINUOUS
 62
1
 10
1.80177E+002
 20
8.291992E+001
 40
1.7054152
 50
3.1070859E+002
 51
3.5390924E+002
  0
INSERT
  2
*XH49
  8
108
 10
1.728767E+002
 20
8.487787E+001
  0
LINE
  8
104
  6
CONTINUOUS
 62
40
 10
1.4485307E+002
 20
6.7627153E+001
 11
1.6485307E+002
 21
6.7627153E+001
  0
LINE
  8
106
  6
CENTERLINE
 62
1
 10
1.361704E+002
 20
7.7627153E+001
 11
1.4771935E+002
 21
7.7627153E+001
  0
LINE
  8
104
  6
CONTINUOUS
 62
40
 10
1.6485307E+002
 20
8.7627153E+001
 11
1.9085307E+002
 21
8.7627153E+001
  0
LINE
  8
104
  6
CONTINUOUS
 62
40
 10
1.6485307E+002
 20
8.1627153E+001
 11
1.9085307E+002
 21
8.1627153E+001
  0
LINE
  8
104
  6
CONTINUOUS
 62
40
 10
1.9085307E+002
 20
8.1627153E+001
 11
1.9085307E+002
 21
8.7627153E+001
  0
LINE
  8
104
  6
CONTINUOUS
 62
40
 10
1.7235307E+002
 20
8.1627153E+001
 11
1.6485307E+002
 21
8.1627153E+001
  0
LINE
  8
104
  6
CONTINUOUS
 62
40
 10
1.6485307E+002
 20
8.1627153E+001
 11
1.6485307E+002
 21
6.7627153E+001
  0
LINE
  8
104
  6
CONTINUOUS
 62
40
 10
1.6485307E+002
 20
6.7627153E+001
 11
1.7135307E+002
 21
6.7627153E+001
  0
LINE
  8
104
  6
CONTINUOUS
 62
40
 10
1.7135307E+002
 20
6.7627153E+001
 11
1.7235307E+002
 21
6.8627153E+001
  0
LINE
  8
104
  6
CONTINUOUS
 62
40
 10
1.7235307E+002
 20
6.8627153E+001
 11
1.7235307E+002
 21
8.1627153E+001
  0
INSERT
  2
*XH50
  8
108
 10
1.6866542E+002
 20
7.4743968E+001
  0
LINE
  8
104
  6
CONTINUOUS
 62
40
 10
1.3735307E+002
 20
7.3877153E+001
 11
1.3985307E+002
 21
7.3877153E+001
  0
LINE
  8
104
  6
CONTINUOUS
 62
40
 10
1.3985307E+002
 20
7.3877153E+001
 11
1.3985307E+002
 21
7.5127153E+001
  0
LINE
  8
104
  6
CONTINUOUS
 62
40
 10
1.3985307E+002
 20
7.5127153E+001
 11
1.4485307E+002
 21
7.5127153E+001
  0
LINE
  8
104
  6
CONTINUOUS
 62
40
 10
1.4485307E+002
 20
7.5127153E+001
 11
1.4485307E+002
 21
6.7627153E+001
  0
LINE
  8
104
  6
CONTINUOUS
 62
40
 10
1.4485307E+002
 20
6.7627153E+001
 11
1.3835307E+002
 21
6.7627153E+001
  0
LINE
  8
104
  6
CONTINUOUS
 62
40
 10
1.3835307E+002
 20
6.7627153E+001
 11
1.3735307E+002
 21
6.8627153E+001
  0
LINE
  8
104
  6
CONTINUOUS
 62
40
 10
1.3735307E+002
 20
6.8627153E+001
 11
1.3735307E+002
 21
7.3877153E+001
  0
INSERT
  2
*XH51
  8
108
 10
1.4192675E+002
 20
7.1784156E+001
  0
LINE
  8
104
  6
CONTINUOUS
 62
40
 10
1.4485307E+002
 20
8.1627153E+001
 11
1.3735307E+002
 21
8.1627153E+001
  0
LINE
  8
104
  6
CONTINUOUS
 62
40
 10
1.3735307E+002
 20
8.1627153E+001
 11
1.3735307E+002
 21
8.1377153E+001
  0
LINE
  8
104
  6
CONTINUOUS
 62
40
 10
1.3735307E+002
 20
8.1377153E+001
 11
1.3985307E+002
 21
8.1377153E+001
  0
LINE
  8
104
  6
CONTINUOUS
 62
40
 10
1.3985307E+002
 20
8.1377153E+001
 11
1.3985307E+002
 21
8.0127153E+001
  0
LINE
  8
104
  6
CONTINUOUS
 62
40
 10
1.3985307E+002
 20
8.0127153E+001
 11
1.4485307E+002
 21
8.0127153E+001
  0
LINE
  8
104
  6
CONTINUOUS
 62
40
 10
1.4485307E+002
 20
8.0127153E+001
 11
1.4485307E+002
 21
8.1627153E+001
  0
INSERT
  2
*XH52
  8
108
 10
1.4307571E+002
 20
8.1241808E+001
  0
LINE
  8
104
  6
CONTINUOUS
 62
40
 10
1.4485307E+002
 20
8.1627153E+001
 11
1.3735307E+002
 21
8.1627153E+001
  0
LINE
  8
104
  6
CONTINUOUS
 62
40
 10
1.3735307E+002
 20
8.1627153E+001
 11
1.3735307E+002
 21
8.7627153E+001
  0
LINE
  8
104
  6
CONTINUOUS
 62
40
 10
1.3735307E+002
 20
8.7627153E+001
 11
1.4485307E+002
 21
8.7627153E+001
  0
LINE
  8
104
  6
CONTINUOUS
 62
40
 10
1.4485307E+002
 20
8.7627153E+001
 11
1.4485307E+002
 21
8.1627153E+001
  0
INSERT
  2
*XH53
  8
108
 10
1.4090514E+002
 20
8.4726122E+001
  0
LINE
  8
99
  6
CONTINUOUS
 62
1
 10
1.3985307E+002
 20
7.9377153E+001
 11
1.4615309E+002
 21
7.9377153E+001
  0
LINE
  8
99
  6
CONTINUOUS
 62
1
 10
1.3985307E+002
 20
7.5877153E+001
 11
1.4615309E+002
 21
7.5877153E+001
  0
LINE
  8
104
  6
CONTINUOUS
 62
40
 10
1.3735307E+002
 20
7.3877153E+001
 11
1.3985307E+002
 21
7.3877153E+001
  0
LINE
  8
104
  6
CONTINUOUS
 62
40
 10
1.3985307E+002
 20
7.3877153E+001
 11
1.3985307E+002
 21
7.5127153E+001
  0
LINE
  8
104
  6
CONTINUOUS
 62
40
 10
1.3985307E+002
 20
7.5127153E+001
 11
1.4615309E+002
 21
7.5127153E+001
  0
LINE
  8
104
  6
CONTINUOUS
 62
40
 10
1.4615309E+002
 20
7.5127153E+001
 11
1.4615309E+002
 21
8.0127153E+001
  0
LINE
  8
104
  6
CONTINUOUS
 62
40
 10
1.4615309E+002
 20
8.0127153E+001
 11
1.3985307E+002
 21
8.0127153E+001
  0
LINE
  8
104
  6
CONTINUOUS
 62
40
 10
1.3985307E+002
 20
8.0127153E+001
 11
1.3985307E+002
 21
8.1377153E+001
  0
LINE
  8
104
  6
CONTINUOUS
 62
40
 10
1.3985307E+002
 20
8.1377153E+001
 11
1.3735307E+002
 21
8.1377153E+001
  0
LINE
  8
104
  6
CONTINUOUS
 62
40
 10
1.3735307E+002
 20
8.1377153E+001
 11
1.3735307E+002
 21
7.3877153E+001
  0
LINE
  8
104
  6
CONTINUOUS
 62
40
 10
1.3985307E+002
 20
8.0127153E+001
 11
1.3985307E+002
 21
7.5127153E+001
  0
LINE
  8
104
  6
CONTINUOUS
 62
40
 10
1.8985307E+002
 20
6.4627153E+001
 11
1.3365309E+002
 21
6.4627153E+001
  0
LINE
  8
104
  6
CONTINUOUS
 62
40
 10
1.3365309E+002
 20
6.4627153E+001
 11
1.3365309E+002
 21
8.7627153E+001
  0
LINE
  8
104
  6
CONTINUOUS
 62
40
 10
1.3365309E+002
 20
8.7627153E+001
 11
1.3665309E+002
 21
8.7627153E+001
  0
LINE
  8
104
  6
CONTINUOUS
 62
40
 10
1.3665309E+002
 20
8.7627153E+001
 11
1.3665309E+002
 21
6.9627153E+001
  0
ARC
  8
104
  6
CONTINUOUS
 62
40
 10
1.386531E+002
 20
6.9627149E+001
 40
2.0000108
 50
1.7999987E+002
 51
2.6999969E+002
  0
LINE
  8
104
  6
CONTINUOUS
 62
40
 10
1.3865309E+002
 20
6.7627138E+001
 11
1.8985307E+002
 21
6.7627138E+001
  0
LINE
  8
104
  6
CONTINUOUS
 62
40
 10
1.8985307E+002
 20
6.7627138E+001
 11
1.8985307E+002
 21
6.4627153E+001
  0
INSERT
  2
*XH54
  8
108
 10
1.386485E+002
 20
7.6109036E+001
  0
LINE
  8
104
  6
CONTINUOUS
 62
40
 10
1.8985307E+002
 20
6.7627153E+001
 11
1.9085307E+002
 21
6.7627153E+001
  0
LINE
  8
104
  6
CONTINUOUS
 62
40
 10
1.8985307E+002
 20
6.4627153E+001
 11
1.9085307E+002
 21
6.4627153E+001
  0
LINE
  8
106
  6
CENTERLINE
 62
1
 10
7.2587877E+001
 20
9.8564768E+001
 11
7.2587862E+001
 21
1.4856477E+002
  0
LINE
  8
106
  6
CENTERLINE
 62
1
 10
7.2587862E+001
 20
1.4856477E+002
 11
1.0758786E+002
 21
1.4856477E+002
  0
LINE
  8
106
  6
CENTERLINE
 62
1
 10
1.0758786E+002
 20
1.4856477E+002
 11
1.0758786E+002
 21
9.8564768E+001
  0
ARC
  8
105
  6
HIDDEN
 62
1
 10
3.9587877E+001
 20
6.2564781E+001
 40
1.750001E+001
 50
2.7E+002
 51
4.5E+002
  0
LINE
  8
105
  6
HIDDEN
 62
1
 10
3.7587877E+001
 20
4.7564768E+001
 11
3.7587877E+001
 21
5.2794336E+001
  0
LINE
  8
105
  6
HIDDEN
 62
1
 10
4.2087877E+001
 20
4.7564768E+001
 11
4.2087877E+001
 21
5.2924966E+001
  0
LINE
  8
105
  6
HIDDEN
 62
1
 10
4.1587877E+001
 20
4.7564768E+001
 11
4.1587877E+001
 21
5.2781274E+001
  0
LINE
  8
105
  6
HIDDEN
 62
1
 10
4.3337877E+001
 20
4.5471296E+001
 11
4.3337877E+001
 21
4.7564768E+001
  0
LINE
  8
105
  6
HIDDEN
 62
1
 10
4.3337877E+001
 20
4.7564768E+001
 11
3.5837877E+001
 21
4.7564768E+001
  0
LINE
  8
105
  6
HIDDEN
 62
1
 10
3.5837877E+001
 20
4.7564768E+001
 11
3.5837877E+001
 21
4.5471296E+001
  0
LINE
  8
105
  6
HIDDEN
 62
1
 10
3.7087877E+001
 20
4.7564768E+001
 11
3.7087877E+001
 21
5.2882318E+001
  0
CIRCLE
  8
104
  6
CONTINUOUS
 62
40
 10
3.9587877E+001
 20
6.2564768E+001
 40
1.1E+001
  0
CIRCLE
  8
104
  6
CONTINUOUS
 62
40
 10
3.9587877E+001
 20
6.2564768E+001
 40
1.0E+001
  0
CIRCLE
  8
104
  6
CONTINUOUS
 62
40
 10
7.9087877E+001
 20
6.9564768E+001
 40
1.5
  0
ARC
  8
99
  6
CONTINUOUS
 62
1
 10
7.9087878E+001
 20
6.9564768E+001
 40
2.500005
 50
1.5000008E+002
 51
4.7999995E+002
  0
LINE
  8
106
  6
CENTERLINE
 62
1
 10
7.5652925E+001
 20
6.9564768E+001
 11
8.2120394E+001
 21
6.9564768E+001
  0
LINE
  8
106
  6
CENTERLINE
 62
1
 10
7.9087877E+001
 20
6.6412317E+001
 11
7.9087877E+001
 21
7.2879778E+001
  0
LINE
  8
104
  6
CONTINUOUS
 62
40
 10
1.0758789E+002
 20
9.8564775E+001
 11
9.1057024E+001
 21
5.9384851E+001
  0
ARC
  8
104
  6
CONTINUOUS
 62
40
 10
8.644336E+001
 20
6.1312089E+001
 40
5.0000136
 50
2.8393548E+002
 51
3.3732854E+002
  0
LINE
  8
104
  6
CONTINUOUS
 62
40
 10
8.7647509E+001
 20
5.6459238E+001
 11
4.3802385E+001
 21
4.5579847E+001
  0
ARC
  8
104
  6
CONTINUOUS
 62
40
 10
3.9587875E+001
 20
6.2564785E+001
 40
1.7500006E+001
 50
8.9999993E+001
 51
2.8393548E+002
  0
LINE
  8
104
  6
CONTINUOUS
 62
40
 10
3.9587877E+001
 20
8.006479E+001
 11
6.9587877E+001
 21
8.006479E+001
  0
ARC
  8
104
  6
CONTINUOUS
 62
40
 10
6.9587906E+001
 20
8.3064762E+001
 40
2.9999714
 50
2.6999945E+002
 51
3.5999996E+002
  0
LINE
  8
104
  6
CONTINUOUS
 62
40
 10
7.2587877E+001
 20
8.306476E+001
 11
7.2587877E+001
 21
9.856476E+001
  0
LINE
  8
104
  6
CONTINUOUS
 62
40
 10
7.2587877E+001
 20
9.856476E+001
 11
1.0758789E+002
 21
9.8564775E+001
  0
LINE
  8
104
  6
CONTINUOUS
 62
40
 10
1.0758786E+002
 20
9.8564768E+001
 11
7.2587862E+001
 21
9.856476E+001
  0
LINE
  8
106
  6
CENTERLINE
 62
1
 10
3.9587877E+001
 20
3.9361646E+001
 11
3.9587877E+001
 21
8.422101E+001
  0
LINE
  8
106
  6
CENTERLINE
 62
1
 10
1.715819E+001
 20
6.2564768E+001
 11
6.2791002E+001
 21
6.2564768E+001
  0
ARC
  8
105
  6
HIDDEN
 62
1
 10
1.5187986E+002
 20
2.0999812E+002
 40
1.7500011E+001
 50
2.7E+002
 51
4.5E+002
  0
LINE
  8
105
  6
HIDDEN
 62
1
 10
1.4987986E+002
 20
1.949981E+002
 11
1.4987986E+002
 21
2.0022767E+002
  0
LINE
  8
105
  6
HIDDEN
 62
1
 10
1.5437986E+002
 20
1.949981E+002
 11
1.5437986E+002
 21
2.003583E+002
  0
LINE
  8
105
  6
HIDDEN
 62
1
 10
1.5387986E+002
 20
1.949981E+002
 11
1.5387986E+002
 21
2.0021461E+002
  0
LINE
  8
105
  6
HIDDEN
 62
1
 10
1.5562986E+002
 20
1.9290463E+002
 11
1.5562986E+002
 21
1.949981E+002
  0
LINE
  8
105
  6
HIDDEN
 62
1
 10
1.5562986E+002
 20
1.949981E+002
 11
1.4812986E+002
 21
1.949981E+002
  0
LINE
  8
105
  6
HIDDEN
 62
1
 10
1.4812986E+002
 20
1.949981E+002
 11
1.4812986E+002
 21
1.9290463E+002
  0
LINE
  8
105
  6
HIDDEN
 62
1
 10
1.4937986E+002
 20
1.949981E+002
 11
1.4937986E+002
 21
2.0031565E+002
  0
CIRCLE
  8
104
  6
CONTINUOUS
 62
40
 10
1.5187986E+002
 20
2.099981E+002
 40
1.0999999E+001
  0
CIRCLE
  8
104
  6
CONTINUOUS
 62
40
 10
1.5187986E+002
 20
2.099981E+002
 40
9.999999
  0
CIRCLE
  8
104
  6
CONTINUOUS
 62
40
 10
2.0187986E+002
 20
2.659981E+002
 40
6.050003
  0
CIRCLE
  8
104
  6
CONTINUOUS
 62
40
 10
2.4787986E+002
 20
2.659981E+002
 40
6.049999
  0
CIRCLE
  8
104
  6
CONTINUOUS
 62
40
 10
2.9387986E+002
 20
2.659981E+002
 40
6.049988
  0
CIRCLE
  8
104
  6
CONTINUOUS
 62
40
 10
3.3987986E+002
 20
2.659981E+002
 40
6.049988
  0
CIRCLE
  8
104
  6
CONTINUOUS
 62
40
 10
1.9137986E+002
 20
2.169981E+002
 40
1.5
  0
ARC
  8
99
  6
CONTINUOUS
 62
1
 10
1.9137986E+002
 20
2.169981E+002
 40
2.5000052
 50
1.5000004E+002
 51
4.799999E+002
  0
LINE
  8
99
  6
CONTINUOUS
 62
1
 10
1.8487986E+002
 20
2.464981E+002
 11
2.1987988E+002
 21
2.464981E+002
  0
LINE
  8
99
  6
CONTINUOUS
 62
1
 10
2.1966891E+002
 20
2.454981E+002
 11
1.8487986E+002
 21
2.454981E+002
  0
LINE
  8
106
  6
CENTERLINE
 62
1
 10
1.8794491E+002
 20
2.169981E+002
 11
1.9441238E+002
 21
2.169981E+002
  0
LINE
  8
106
  6
CENTERLINE
 62
1
 10
1.9137986E+002
 20
2.1384565E+002
 11
1.9137986E+002
 21
2.2031312E+002
  0
ARC
  8
104
  6
CONTINUOUS
 62
40
 10
1.8787987E+002
 20
2.7299809E+002
 40
3.0000088
 50
9.0000167E+001
 51
1.7999983E+002
  0
LINE
  8
104
  6
CONTINUOUS
 62
40
 10
1.8787986E+002
 20
2.759981E+002
 11
3.4887986E+002
 21
2.759981E+002
  0
ARC
  8
104
  6
CONTINUOUS
 62
40
 10
3.4887985E+002
 20
2.7299809E+002
 40
3.0000106
 50
2.02678E-004
 51
8.9999797E+001
  0
LINE
  8
104
  6
CONTINUOUS
 62
40
 10
3.5187986E+002
 20
2.729981E+002
 11
3.5187986E+002
 21
2.589981E+002
  0
ARC
  8
104
  6
CONTINUOUS
 62
40
 10
3.4887986E+002
 20
2.5899811E+002
 40
2.9999987
 50
2.6999998E+002
 51
3.5999987E+002
  0
LINE
  8
104
  6
CONTINUOUS
 62
40
 10
3.4887986E+002
 20
2.5599811E+002
 11
2.2287988E+002
 21
2.5599811E+002
  0
ARC
  8
104
  6
CONTINUOUS
 62
40
 10
2.2287988E+002
 20
2.529981E+002
 40
3.0000122
 50
9.00001E+001
 51
1.7999992E+002
  0
LINE
  8
104
  6
CONTINUOUS
 62
40
 10
2.1987987E+002
 20
2.529981E+002
 11
2.1987987E+002
 21
2.4599812E+002
  0
LINE
  8
104
  6
CONTINUOUS
 62
40
 10
2.1987987E+002
 20
2.4599812E+002
 11
2.0334901E+002
 21
2.0681819E+002
  0
ARC
  8
104
  6
CONTINUOUS
 62
40
 10
1.9873535E+002
 20
2.0874542E+002
 40
5.0000137
 50
2.8393546E+002
 51
3.3732852E+002
  0
LINE
  8
104
  6
CONTINUOUS
 62
40
 10
1.9993949E+002
 20
2.0389257E+002
 11
1.5609437E+002
 21
1.9301318E+002
  0
ARC
  8
104
  6
CONTINUOUS
 62
40
 10
1.5187986E+002
 20
2.0999812E+002
 40
1.7500008E+001
 50
8.9999992E+001
 51
2.8393548E+002
  0
LINE
  8
104
  6
CONTINUOUS
 62
40
 10
1.5187986E+002
 20
2.2749813E+002
 11
1.8187986E+002
 21
2.2749813E+002
  0
ARC
  8
104
  6
CONTINUOUS
 62
40
 10
1.8187988E+002
 20
2.3049811E+002
 40
2.9999781
 50
2.6999973E+002
 51
3.5999985E+002
  0
LINE
  8
104
  6
CONTINUOUS
 62
40
 10
1.8487986E+002
 20
2.304981E+002
 11
1.8487986E+002
 21
2.729981E+002
  0
CIRCLE
  8
104
  6
CONTINUOUS
 62
40
 10
3.3987986E+002
 20
2.659981E+002
 40
3.25
  0
CIRCLE
  8
104
  6
CONTINUOUS
 62
40
 10
2.9387986E+002
 20
2.659981E+002
 40
3.25
  0
CIRCLE
  8
104
  6
CONTINUOUS
 62
40
 10
2.4787986E+002
 20
2.659981E+002
 40
3.25
  0
CIRCLE
  8
104
  6
CONTINUOUS
 62
40
 10
2.0187986E+002
 20
2.659981E+002
 40
3.25
  0
LINE
  8
106
  6
CENTERLINE
 62
1
 10
3.5713437E+002
 20
2.659981E+002
 11
1.8011033E+002
 21
2.659981E+002
  0
LINE
  8
106
  6
CENTERLINE
 62
1
 10
2.0187986E+002
 20
2.7361037E+002
 11
2.0187986E+002
 21
2.5746783E+002
  0
LINE
  8
106
  6
CENTERLINE
 62
1
 10
2.4787986E+002
 20
2.7332629E+002
 11
2.4787986E+002
 21
2.5766119E+002
  0
LINE
  8
106
  6
CENTERLINE
 62
1
 10
2.9387986E+002
 20
2.7361037E+002
 11
2.9387986E+002
 21
2.5766119E+002
  0
LINE
  8
106
  6
CENTERLINE
 62
1
 10
3.3987986E+002
 20
2.7304217E+002
 11
3.3987986E+002
 21
2.5688775E+002
  0
LINE
  8
106
  6
CENTERLINE
 62
1
 10
1.5187986E+002
 20
1.8679498E+002
 11
1.5187986E+002
 21
2.3165435E+002
  0
LINE
  8
106
  6
CENTERLINE
 62
1
 10
1.2945018E+002
 20
2.099981E+002
 11
1.7508299E+002
 21
2.099981E+002
  0
DIMENSION
  8
MED-0
  6
CONTINUOUS
 62
4
  2
*D1083
  3
DSTYLE1
 10
4.4477889E+002
 20
1.84341E+002
 11
4.2185665E+002
 21
1.872565E+002
 70
128
 13
3.9877889E+002
 23
2.065595E+002
 14
4.4477889E+002
 24
1.9515835E+002
 40
3.0
 50
0.0
  0
DIMENSION
  8
MED-0
  6
CONTINUOUS
 62
4
  2
*D1092
  3
DSTYLE1
 10
3.9877889E+002
 20
2.7154863E+002
 11
4.2385665E+002
 21
2.7446413E+002
 70
128
 13
4.4877889E+002
 23
2.5206149E+002
 14
3.9877889E+002
 24
2.4606149E+002
 40
3.0
 50
1.8E+002
  0
DIMENSION
  8
MED-0
  6
CONTINUOUS
 62
4
  2
*D1101
  3
DSTYLE1
 10
4.5477889E+002
 20
3.9357189E+002
 11
4.2685667E+002
 21
3.9648739E+002
 70
128
 13
3.9877889E+002
 23
3.6808474E+002
 14
4.5477889E+002
 24
3.7698787E+002
 40
3.0
 50
0.0
  0
LINE
  8
104
  6
CONTINUOUS
 62
40
 10
3.8127889E+002
 20
2.4081149E+002
 11
3.8127889E+002
 21
2.3331149E+002
  0
LINE
  8
104
  6
CONTINUOUS
 62
40
 10
4.5477889E+002
 20
2.3306149E+002
 11
4.5177889E+002
 21
2.3306149E+002
  0
LINE
  8
104
  6
CONTINUOUS
 62
40
 10
4.4277889E+002
 20
2.3306149E+002
 11
4.4577889E+002
 21
2.3306149E+002
  0
ARC
  8
99
  6
CONTINUOUS
 62
1
 10
4.2465525E+002
 20
2.2814863E+002
 40
1.5868826
 50
3.1609501E+002
 51
3.6804863E+002
  0
ARC
  8
99
  6
CONTINUOUS
 62
1
 10
4.2465525E+002
 20
2.2814864E+002
 40
1.5868838
 50
8.0479664
 51
4.1839847E+001
  0
ARC
  8
99
  6
CONTINUOUS
 62
1
 10
4.2702452E+002
 20
2.3027168E+002
 40
1.594422
 50
2.049837E+002
 51
2.2188541E+002
  0
ARC
  8
99
  6
CONTINUOUS
 62
1
 10
4.269835E+002
 20
2.3025258E+002
 40
1.5491749
 50
1.8775505E+002
 51
2.0498426E+002
  0
ARC
  8
99
  6
CONTINUOUS
 62
1
 10
4.2690281E+002
 20
2.3023938E+002
 40
1.4674492
 50
1.7839818E+002
 51
1.8766934E+002
  0
ARC
  8
99
  6
CONTINUOUS
 62
1
 10
4.2700722E+002
 20
2.3023639E+002
 40
1.5718947
 50
1.6953961E+002
 51
1.7839548E+002
  0
ARC
  8
99
  6
CONTINUOUS
 62
1
 10
4.2717948E+002
 20
2.3020037E+002
 40
1.7478384
 50
1.5289927E+002
 51
1.6940367E+002
  0
ARC
  8
99
  6
CONTINUOUS
 62
1
 10
4.2410229E+002
 20
2.3176862E+002
 40
1.7059335
 50
3.3309279E+002
 51
3.6609218E+002
  0
ARC
  8
99
  6
CONTINUOUS
 62
1
 10
4.2410269E+002
 20
2.3176866E+002
 40
1.7055337
 50
6.09231
 51
4.9289835E+001
  0
INSERT
  2
*XH58
  8
108
 10
4.1680251E+002
 20
2.2981077E+002
  0
LINE
  8
104
  6
CONTINUOUS
 62
40
 10
4.3877889E+002
 20
2.2706149E+002
 11
4.4277889E+002
 21
2.2706149E+002
  0
LINE
  8
104
  6
CONTINUOUS
 62
40
 10
4.4277889E+002
 20
2.2706149E+002
 11
4.4577889E+002
 21
2.3006149E+002
  0
LINE
  8
104
  6
CONTINUOUS
 62
40
 10
4.4577889E+002
 20
2.3006149E+002
 11
4.4277889E+002
 21
2.3306149E+002
  0
LINE
  8
104
  6
CONTINUOUS
 62
40
 10
4.4277889E+002
 20
2.3306149E+002
 11
4.3877889E+002
 21
2.3306149E+002
  0
LINE
  8
104
  6
CONTINUOUS
 62
40
 10
4.3877889E+002
 20
2.3306149E+002
 11
4.3877889E+002
 21
2.2706149E+002
  0
LINE
  8
104
  6
CONTINUOUS
 62
40
 10
4.4277889E+002
 20
2.2706149E+002
 11
4.4577889E+002
 21
2.2706149E+002
  0
INSERT
  2
*XH59
  8
108
 10
4.4083867E+002
 20
2.2947308E+002
  0
LINE
  8
104
  6
CONTINUOUS
 62
40
 10
4.5177889E+002
 20
2.3006149E+002
 11
4.5477889E+002
 21
2.3306149E+002
  0
LINE
  8
104
  6
CONTINUOUS
 62
40
 10
4.5477889E+002
 20
2.3306149E+002
 11
4.5877889E+002
 21
2.3306149E+002
  0
LINE
  8
104
  6
CONTINUOUS
 62
40
 10
4.5877889E+002
 20
2.3306149E+002
 11
4.5877889E+002
 21
2.2706149E+002
  0
LINE
  8
104
  6
CONTINUOUS
 62
40
 10
4.5877889E+002
 20
2.2706149E+002
 11
4.5477889E+002
 21
2.2706149E+002
  0
LINE
  8
104
  6
CONTINUOUS
 62
40
 10
4.5477889E+002
 20
2.2706149E+002
 11
4.5177889E+002
 21
2.3006149E+002
  0
LINE
  8
104
  6
CONTINUOUS
 62
40
 10
4.547789E+002
 20
2.2706149E+002
 11
4.5177889E+002
 21
2.2706149E+002
  0
INSERT
  2
*XH60
  8
108
 10
4.5666495E+002
 20
2.3061739E+002
  0
LINE
  8
104
  6
CONTINUOUS
 62
40
 10
3.8877889E+002
 20
2.4706149E+002
 11
4.0877889E+002
 21
2.4706149E+002
  0
LINE
  8
106
  6
CENTERLINE
 62
1
 10
3.800962E+002
 20
2.3706149E+002
 11
3.9164515E+002
 21
2.3706149E+002
  0
LINE
  8
104
  6
CONTINUOUS
 62
40
 10
4.0877889E+002
 20
2.2706149E+002
 11
4.3877889E+002
 21
2.2706149E+002
  0
LINE
  8
104
  6
CONTINUOUS
 62
40
 10
4.0877889E+002
 20
2.3306149E+002
 11
4.3877889E+002
 21
2.3306149E+002
  0
LINE
  8
104
  6
CONTINUOUS
 62
40
 10
4.1627889E+002
 20
2.3306149E+002
 11
4.0877889E+002
 21
2.3306149E+002
  0
LINE
  8
104
  6
CONTINUOUS
 62
40
 10
4.0877889E+002
 20
2.3306149E+002
 11
4.0877889E+002
 21
2.4706149E+002
  0
LINE
  8
104
  6
CONTINUOUS
 62
40
 10
4.0877889E+002
 20
2.4706149E+002
 11
4.1527889E+002
 21
2.4706149E+002
  0
LINE
  8
104
  6
CONTINUOUS
 62
40
 10
4.1527889E+002
 20
2.4706149E+002
 11
4.1627889E+002
 21
2.4606149E+002
  0
LINE
  8
104
  6
CONTINUOUS
 62
40
 10
4.1627889E+002
 20
2.4606149E+002
 11
4.1627889E+002
 21
2.3306149E+002
  0
INSERT
  2
*XH61
  8
108
 10
4.1259123E+002
 20
2.3994467E+002
  0
LINE
  8
104
  6
CONTINUOUS
 62
40
 10
3.8127889E+002
 20
2.4081149E+002
 11
3.8377889E+002
 21
2.4081149E+002
  0
LINE
  8
104
  6
CONTINUOUS
 62
40
 10
3.8377889E+002
 20
2.4081149E+002
 11
3.8377889E+002
 21
2.3956149E+002
  0
LINE
  8
104
  6
CONTINUOUS
 62
40
 10
3.8377889E+002
 20
2.3956149E+002
 11
3.8877889E+002
 21
2.3956149E+002
  0
LINE
  8
104
  6
CONTINUOUS
 62
40
 10
3.8877889E+002
 20
2.3956149E+002
 11
3.8877889E+002
 21
2.4706149E+002
  0
LINE
  8
104
  6
CONTINUOUS
 62
40
 10
3.8877889E+002
 20
2.4706149E+002
 11
3.8227889E+002
 21
2.4706149E+002
  0
LINE
  8
104
  6
CONTINUOUS
 62
40
 10
3.8227889E+002
 20
2.4706149E+002
 11
3.8127889E+002
 21
2.4606149E+002
  0
LINE
  8
104
  6
CONTINUOUS
 62
40
 10
3.8127889E+002
 20
2.4606149E+002
 11
3.8127889E+002
 21
2.4081149E+002
  0
INSERT
  2
*XH62
  8
108
 10
3.8585256E+002
 20
2.4290448E+002
  0
LINE
  8
104
  6
CONTINUOUS
 62
40
 10
3.8877889E+002
 20
2.3306149E+002
 11
3.8127889E+002
 21
2.3306149E+002
  0
LINE
  8
104
  6
CONTINUOUS
 62
40
 10
3.8127889E+002
 20
2.3306149E+002
 11
3.8127889E+002
 21
2.3331149E+002
  0
LINE
  8
104
  6
CONTINUOUS
 62
40
 10
3.8127889E+002
 20
2.3331149E+002
 11
3.8377889E+002
 21
2.3331149E+002
  0
LINE
  8
104
  6
CONTINUOUS
 62
40
 10
3.8377889E+002
 20
2.3331149E+002
 11
3.8377889E+002
 21
2.3456149E+002
  0
LINE
  8
104
  6
CONTINUOUS
 62
40
 10
3.8377889E+002
 20
2.3456149E+002
 11
3.8877889E+002
 21
2.3456149E+002
  0
LINE
  8
104
  6
CONTINUOUS
 62
40
 10
3.8877889E+002
 20
2.3456149E+002
 11
3.8877889E+002
 21
2.3306149E+002
  0
INSERT
  2
*XH63
  8
108
 10
3.8700151E+002
 20
2.3344683E+002
  0
LINE
  8
104
  6
CONTINUOUS
 62
40
 10
3.8877889E+002
 20
2.3306149E+002
 11
3.8127889E+002
 21
2.3306149E+002
  0
LINE
  8
104
  6
CONTINUOUS
 62
40
 10
3.8127889E+002
 20
2.3306149E+002
 11
3.8127889E+002
 21
2.2706149E+002
  0
LINE
  8
104
  6
CONTINUOUS
 62
40
 10
3.8127889E+002
 20
2.2706149E+002
 11
3.8877889E+002
 21
2.2706149E+002
  0
LINE
  8
104
  6
CONTINUOUS
 62
40
 10
3.8877889E+002
 20
2.2706149E+002
 11
3.8877889E+002
 21
2.3306149E+002
  0
INSERT
  2
*XH64
  8
108
 10
3.8483095E+002
 20
2.2996252E+002
  0
LINE
  8
MED-0
  6
CENTERLINE
 62
150
 10
4.5177889E+002
 20
2.3006149E+002
 11
4.5177889E+002
 21
2.5206149E+002
  0
LINE
  8
MED-0
  6
CENTERLINE
 62
150
 10
4.5177889E+002
 20
2.5206149E+002
 11
4.4577889E+002
 21
2.5206149E+002
  0
LINE
  8
MED-0
  6
CENTERLINE
 62
150
 10
4.4577889E+002
 20
2.5206149E+002
 11
4.4577889E+002
 21
2.3006149E+002
  0
LINE
  8
MED-0
  6
CENTERLINE
 62
150
 10
4.4577889E+002
 20
2.3006149E+002
 11
4.5177889E+002
 21
2.3006149E+002
  0
LINE
  8
99
  6
CONTINUOUS
 62
1
 10
4.5102889E+002
 20
2.3006149E+002
 11
4.5102889E+002
 21
2.5206149E+002
  0
LINE
  8
99
  6
CONTINUOUS
 62
1
 10
4.4652889E+002
 20
2.3006149E+002
 11
4.4652889E+002
 21
2.5206149E+002
  0
LINE
  8
106
  6
CENTERLINE
 62
1
 10
4.4877889E+002
 20
2.2611599E+002
 11
4.4877889E+002
 21
2.5496462E+002
  0
LINE
  8
104
  6
CONTINUOUS
 62
40
 10
4.5477889E+002
 20
2.2706149E+002
 11
4.5177889E+002
 21
2.3006149E+002
  0
LINE
  8
104
  6
CONTINUOUS
 62
40
 10
4.5177889E+002
 20
2.3006149E+002
 11
4.5177889E+002
 21
2.5206149E+002
  0
LINE
  8
104
  6
CONTINUOUS
 62
40
 10
4.5177889E+002
 20
2.5206149E+002
 11
4.4577889E+002
 21
2.5206149E+002
  0
LINE
  8
104
  6
CONTINUOUS
 62
40
 10
4.4577889E+002
 20
2.5206149E+002
 11
4.4577889E+002
 21
2.3006149E+002
  0
LINE
  8
104
  6
CONTINUOUS
 62
40
 10
4.4577889E+002
 20
2.3006149E+002
 11
4.4277889E+002
 21
2.2706149E+002
  0
LINE
  8
104
  6
CONTINUOUS
 62
40
 10
4.4277889E+002
 20
2.2706149E+002
 11
4.5477889E+002
 21
2.2706149E+002
  0
LINE
  8
104
  6
CONTINUOUS
 62
40
 10
4.5177889E+002
 20
2.3006149E+002
 11
4.4577889E+002
 21
2.3006149E+002
  0
LINE
  8
106
  6
CENTERLINE
 62
1
 10
3.9777889E+002
 20
2.2948598E+002
 11
3.9777889E+002
 21
2.0013662E+002
  0
LINE
  8
104
  6
CONTINUOUS
 62
40
 10
4.0877889E+002
 20
2.4606149E+002
 11
4.0777889E+002
 21
2.4706149E+002
  0
LINE
  8
104
  6
CONTINUOUS
 62
40
 10
4.0777889E+002
 20
2.4706149E+002
 11
3.8977889E+002
 21
2.4706149E+002
  0
LINE
  8
104
  6
CONTINUOUS
 62
40
 10
3.8977889E+002
 20
2.4706149E+002
 11
3.8877889E+002
 21
2.4606149E+002
  0
LINE
  8
104
  6
CONTINUOUS
 62
40
 10
3.8877889E+002
 20
2.4606149E+002
 11
3.8877889E+002
 21
2.3866146E+002
  0
LINE
  8
104
  6
CONTINUOUS
 62
40
 10
3.8877889E+002
 20
2.3866146E+002
 11
4.0877889E+002
 21
2.3866146E+002
  0
LINE
  8
104
  6
CONTINUOUS
 62
40
 10
4.0877889E+002
 20
2.3866146E+002
 11
4.0877889E+002
 21
2.4606149E+002
  0
LINE
  8
104
  6
CONTINUOUS
 62
40
 10
3.8877889E+002
 20
2.4606149E+002
 11
4.0877889E+002
 21
2.4606149E+002
  0
LINE
  8
104
  6
CONTINUOUS
 62
40
 10
3.8877889E+002
 20
2.3546151E+002
 11
4.0877889E+002
 21
2.3546151E+002
  0
LINE
  8
104
  6
CONTINUOUS
 62
40
 10
4.0877889E+002
 20
2.3546151E+002
 11
4.0877889E+002
 21
2.2706149E+002
  0
LINE
  8
104
  6
CONTINUOUS
 62
40
 10
4.0877889E+002
 20
2.2706149E+002
 11
3.8877889E+002
 21
2.2706149E+002
  0
LINE
  8
104
  6
CONTINUOUS
 62
40
 10
3.8877889E+002
 20
2.2706149E+002
 11
3.8877889E+002
 21
2.3546151E+002
  0
LINE
  8
104
  6
CONTINUOUS
 62
40
 10
3.9077889E+002
 20
2.3546151E+002
 11
3.9077889E+002
 21
2.3866146E+002
  0
LINE
  8
104
  6
CONTINUOUS
 62
40
 10
4.0677889E+002
 20
2.3546151E+002
 11
4.0677889E+002
 21
2.3866146E+002
  0
LINE
  8
104
  6
CONTINUOUS
 62
40
 10
4.0477889E+002
 20
2.2706149E+002
 11
4.0477889E+002
 21
2.0406149E+002
  0
LINE
  8
104
  6
CONTINUOUS
 62
40
 10
4.0477889E+002
 20
2.0406149E+002
 11
4.0377889E+002
 21
2.0306149E+002
  0
LINE
  8
104
  6
CONTINUOUS
 62
40
 10
4.0377889E+002
 20
2.0306149E+002
 11
3.9177889E+002
 21
2.0306149E+002
  0
LINE
  8
104
  6
CONTINUOUS
 62
40
 10
3.9177889E+002
 20
2.0306149E+002
 11
3.9077889E+002
 21
2.0406149E+002
  0
LINE
  8
104
  6
CONTINUOUS
 62
40
 10
3.9077889E+002
 20
2.0406149E+002
 11
3.9077889E+002
 21
2.2706149E+002
  0
LINE
  8
104
  6
CONTINUOUS
 62
40
 10
4.0477889E+002
 20
2.0406149E+002
 11
3.9077889E+002
 21
2.0406149E+002
  0
LINE
  8
106
  6
CENTERLINE
 62
1
 10
3.9877889E+002
 20
2.492629E+002
 11
3.9877889E+002
 21
2.2466994E+002
  0
LINE
  8
104
  6
CONTINUOUS
 62
40
 10
3.8877889E+002
 20
2.3866146E+002
 11
3.8877889E+002
 21
2.3546151E+002
  0
LINE
  8
99
  6
CONTINUOUS
 62
1
 10
3.8877889E+002
 20
2.3881149E+002
 11
3.8127889E+002
 21
2.3881149E+002
  0
LINE
  8
99
  6
CONTINUOUS
 62
1
 10
3.8877889E+002
 20
2.3531149E+002
 11
3.8127889E+002
 21
2.3531149E+002
  0
LINE
  8
104
  6
CONTINUOUS
 62
40
 10
3.8127889E+002
 20
2.3456149E+002
 11
3.8877889E+002
 21
2.3456149E+002
  0
LINE
  8
104
  6
CONTINUOUS
 62
40
 10
3.8877889E+002
 20
2.3456149E+002
 11
3.8877889E+002
 21
2.3546151E+002
  0
LINE
  8
104
  6
CONTINUOUS
 62
40
 10
3.8877889E+002
 20
2.3546151E+002
 11
3.9077889E+002
 21
2.3546151E+002
  0
LINE
  8
104
  6
CONTINUOUS
 62
40
 10
3.9077889E+002
 20
2.3546151E+002
 11
3.9077889E+002
 21
2.3866146E+002
  0
LINE
  8
104
  6
CONTINUOUS
 62
40
 10
3.9077889E+002
 20
2.3866146E+002
 11
3.8877889E+002
 21
2.3866146E+002
  0
LINE
  8
104
  6
CONTINUOUS
 62
40
 10
3.8877889E+002
 20
2.3866146E+002
 11
3.8877889E+002
 21
2.3956149E+002
  0
LINE
  8
104
  6
CONTINUOUS
 62
40
 10
3.8877889E+002
 20
2.3956149E+002
 11
3.8127889E+002
 21
2.3956149E+002
  0
LINE
  8
104
  6
CONTINUOUS
 62
40
 10
3.8127889E+002
 20
2.3956149E+002
 11
3.8127889E+002
 21
2.3456149E+002
  0
LINE
  8
104
  6
CONTINUOUS
 62
40
 10
3.8127889E+002
 20
2.3456149E+002
 11
3.8127889E+002
 21
2.3456149E+002
  0
LINE
  8
104
  6
CONTINUOUS
 62
40
 10
4.3477889E+002
 20
2.5006149E+002
 11
4.3477889E+002
 21
2.3306149E+002
  0
LINE
  8
104
  6
CONTINUOUS
 62
40
 10
4.3477889E+002
 20
2.0006149E+002
 11
4.3477889E+002
 21
2.1706149E+002
  0
LINE
  8
104
  6
CONTINUOUS
 62
40
 10
4.3377889E+002
 20
2.5006149E+002
 11
3.7757889E+002
 21
2.5006149E+002
  0
LINE
  8
104
  6
CONTINUOUS
 62
40
 10
3.7757889E+002
 20
2.5006149E+002
 11
3.7757889E+002
 21
2.2706149E+002
  0
LINE
  8
104
  6
CONTINUOUS
 62
40
 10
3.7757889E+002
 20
2.2706149E+002
 11
3.8057889E+002
 21
2.2706149E+002
  0
LINE
  8
104
  6
CONTINUOUS
 62
40
 10
3.8057889E+002
 20
2.2706149E+002
 11
3.8057889E+002
 21
2.4506149E+002
  0
ARC
  8
104
  6
CONTINUOUS
 62
40
 10
3.8257889E+002
 20
2.4506149E+002
 40
1.9999994
 50
8.9999983E+001
 51
1.8000025E+002
  0
LINE
  8
104
  6
CONTINUOUS
 62
40
 10
3.8257889E+002
 20
2.4706149E+002
 11
4.3377889E+002
 21
2.4706149E+002
  0
LINE
  8
104
  6
CONTINUOUS
 62
40
 10
4.3377889E+002
 20
2.4706149E+002
 11
4.3377889E+002
 21
2.5006149E+002
  0
INSERT
  2
*XH65
  8
108
 10
3.825743E+002
 20
2.385796E+002
  0
LINE
  8
104
  6
CONTINUOUS
 62
40
 10
4.3377889E+002
 20
2.4706149E+002
 11
4.3477889E+002
 21
2.4706149E+002
  0
LINE
  8
104
  6
CONTINUOUS
 62
40
 10
4.3377889E+002
 20
2.5006149E+002
 11
4.3477889E+002
 21
2.5006149E+002
  0
LINE
  8
104
  6
CONTINUOUS
 62
40
 10
4.0477889E+002
 20
2.0306149E+002
 11
4.0377889E+002
 21
2.0306149E+002
  0
LINE
  8
104
  6
CONTINUOUS
 62
40
 10
3.9077889E+002
 20
2.0306149E+002
 11
3.9177889E+002
 21
2.0306149E+002
  0
LINE
  8
104
  6
CONTINUOUS
 62
40
 10
3.8527889E+002
 20
2.2306149E+002
 11
3.8177887E+002
 21
2.2306149E+002
  0
LINE
  8
104
  6
CONTINUOUS
 62
40
 10
3.8177887E+002
 20
2.2306149E+002
 11
3.8177887E+002
 21
2.2506149E+002
  0
LINE
  8
104
  6
CONTINUOUS
 62
40
 10
3.8177887E+002
 20
2.2506149E+002
 11
3.8527889E+002
 21
2.2506149E+002
  0
LINE
  8
104
  6
CONTINUOUS
 62
40
 10
3.8527889E+002
 20
2.2506149E+002
 11
3.8527889E+002
 21
2.2306149E+002
  0
LINE
  8
104
  6
CONTINUOUS
 62
40
 10
3.8527889E+002
 20
2.2307088E+002
 11
3.8877889E+002
 21
2.2307088E+002
  0
LINE
  8
104
  6
CONTINUOUS
 62
40
 10
3.8877889E+002
 20
2.2307088E+002
 11
3.8877889E+002
 21
2.1606149E+002
  0
LINE
  8
104
  6
CONTINUOUS
 62
40
 10
3.8877889E+002
 20
2.1606149E+002
 11
3.9007889E+002
 21
2.1606149E+002
  0
LINE
  8
104
  6
CONTINUOUS
 62
40
 10
3.9007889E+002
 20
2.1606149E+002
 11
3.9007889E+002
 21
2.0306149E+002
  0
LINE
  8
104
  6
CONTINUOUS
 62
40
 10
3.9007889E+002
 20
2.0306149E+002
 11
3.9077889E+002
 21
2.0306149E+002
  0
LINE
  8
104
  6
CONTINUOUS
 62
40
 10
3.9077889E+002
 20
2.0306149E+002
 11
3.9077889E+002
 21
2.2506149E+002
  0
LINE
  8
104
  6
CONTINUOUS
 62
40
 10
3.9077889E+002
 20
2.2506149E+002
 11
3.8527889E+002
 21
2.2506149E+002
  0
LINE
  8
104
  6
CONTINUOUS
 62
40
 10
3.8527889E+002
 20
2.2506149E+002
 11
3.8527889E+002
 21
2.2307088E+002
  0
INSERT
  2
*XH66
  8
108
 10
3.8964108E+002
 20
2.146872E+002
  0
INSERT
  2
*XH67
  8
108
 10
3.8979524E+002
 20
2.1573447E+002
  0
LINE
  8
104
  6
CONTINUOUS
 62
40
 10
4.0477889E+002
 20
2.2506149E+002
 11
4.0477889E+002
 21
2.0306149E+002
  0
LINE
  8
104
  6
CONTINUOUS
 62
40
 10
4.0477889E+002
 20
2.0306149E+002
 11
4.0547889E+002
 21
2.0306149E+002
  0
LINE
  8
104
  6
CONTINUOUS
 62
40
 10
4.0547889E+002
 20
2.0306149E+002
 11
4.0547889E+002
 21
2.1606149E+002
  0
LINE
  8
104
  6
CONTINUOUS
 62
40
 10
4.0547889E+002
 20
2.1606149E+002
 11
4.0877889E+002
 21
2.1606149E+002
  0
LINE
  8
104
  6
CONTINUOUS
 62
40
 10
4.0877889E+002
 20
2.1606149E+002
 11
4.0877889E+002
 21
2.2306149E+002
  0
LINE
  8
104
  6
CONTINUOUS
 62
40
 10
4.0877889E+002
 20
2.2306149E+002
 11
4.1027889E+002
 21
2.2306149E+002
  0
LINE
  8
104
  6
CONTINUOUS
 62
40
 10
4.1027889E+002
 20
2.2306149E+002
 11
4.1027889E+002
 21
2.2506149E+002
  0
LINE
  8
104
  6
CONTINUOUS
 62
40
 10
4.1027889E+002
 20
2.2506149E+002
 11
4.0477889E+002
 21
2.2506149E+002
  0
INSERT
  2
*XH68
  8
108
 10
4.0599224E+002
 20
2.1608548E+002
  0
INSERT
  2
*XH69
  8
108
 10
4.0634153E+002
 20
2.1582676E+002
  0
LINE
  8
104
  6
CONTINUOUS
 62
40
 10
4.1027889E+002
 20
2.2306149E+002
 11
4.1377889E+002
 21
2.2306149E+002
  0
LINE
  8
104
  6
CONTINUOUS
 62
40
 10
4.1377889E+002
 20
2.2306149E+002
 11
4.1377889E+002
 21
2.2506149E+002
  0
LINE
  8
104
  6
CONTINUOUS
 62
40
 10
4.1377889E+002
 20
2.2506149E+002
 11
4.1027889E+002
 21
2.2506149E+002
  0
LINE
  8
104
  6
CONTINUOUS
 62
40
 10
3.8127889E+002
 20
2.0931149E+002
 11
3.8127889E+002
 21
2.1681149E+002
  0
LINE
  8
104
  6
CONTINUOUS
 62
40
 10
4.5077889E+002
 20
2.1706149E+002
 11
4.4777889E+002
 21
2.1706149E+002
  0
LINE
  8
104
  6
CONTINUOUS
 62
40
 10
4.3877889E+002
 20
2.1706149E+002
 11
4.4177889E+002
 21
2.1706149E+002
  0
ARC
  8
99
  6
CONTINUOUS
 62
1
 10
4.2465524E+002
 20
2.2197434E+002
 40
1.5868979
 50
3.5195164E+002
 51
4.0390472E+002
  0
ARC
  8
99
  6
CONTINUOUS
 62
1
 10
4.2465517E+002
 20
2.2197436E+002
 40
1.5869705
 50
3.181611E+002
 51
3.5195108E+002
  0
ARC
  8
99
  6
CONTINUOUS
 62
1
 10
4.2702472E+002
 20
2.1985118E+002
 40
1.5946452
 50
1.381164E+002
 51
1.5501608E+002
  0
ARC
  8
99
  6
CONTINUOUS
 62
1
 10
4.2698348E+002
 20
2.1987037E+002
 40
1.5491651
 50
1.5501545E+002
 51
1.7224428E+002
  0
ARC
  8
99
  6
CONTINUOUS
 62
1
 10
4.2690296E+002
 20
2.1988358E+002
 40
1.4675976
 50
1.7233106E+002
 51
1.816017E+002
  0
ARC
  8
99
  6
CONTINUOUS
 62
1
 10
4.2700723E+002
 20
2.1988657E+002
 40
1.5719098
 50
1.8160441E+002
 51
1.9046033E+002
  0
ARC
  8
99
  6
CONTINUOUS
 62
1
 10
4.2717928E+002
 20
2.1992255E+002
 40
1.7476387
 50
1.9059614E+002
 51
2.0710198E+002
  0
ARC
  8
99
  6
CONTINUOUS
 62
1
 10
4.2410234E+002
 20
2.1835436E+002
 40
1.70588
 50
3.5390726E+002
 51
3.8690775E+002
  0
ARC
  8
99
  6
CONTINUOUS
 62
1
 10
4.2410274E+002
 20
2.1835429E+002
 40
1.7054817
 50
3.1070947E+002
 51
3.5390835E+002
  0
INSERT
  2
*XH70
  8
108
 10
4.1680251E+002
 20
2.203122E+002
  0
LINE
  8
104
  6
CONTINUOUS
 62
40
 10
4.3477889E+002
 20
2.2306149E+002
 11
4.3877889E+002
 21
2.2306149E+002
  0
LINE
  8
104
  6
CONTINUOUS
 62
40
 10
4.3877889E+002
 20
2.2306149E+002
 11
4.4177889E+002
 21
2.2006149E+002
  0
LINE
  8
104
  6
CONTINUOUS
 62
40
 10
4.4177889E+002
 20
2.2006149E+002
 11
4.3877889E+002
 21
2.1706149E+002
  0
LINE
  8
104
  6
CONTINUOUS
 62
40
 10
4.3877889E+002
 20
2.1706149E+002
 11
4.3477889E+002
 21
2.1706149E+002
  0
LINE
  8
104
  6
CONTINUOUS
 62
40
 10
4.3477889E+002
 20
2.1706149E+002
 11
4.3477889E+002
 21
2.2306149E+002
  0
LINE
  8
104
  6
CONTINUOUS
 62
40
 10
4.3877889E+002
 20
2.2306149E+002
 11
4.4177889E+002
 21
2.2306149E+002
  0
INSERT
  2
*XH71
  8
108
 10
4.3683867E+002
 20
2.2064989E+002
  0
LINE
  8
104
  6
CONTINUOUS
 62
40
 10
4.4777889E+002
 20
2.2006149E+002
 11
4.5077889E+002
 21
2.1706149E+002
  0
LINE
  8
104
  6
CONTINUOUS
 62
40
 10
4.5077889E+002
 20
2.1706149E+002
 11
4.5477889E+002
 21
2.1706149E+002
  0
LINE
  8
104
  6
CONTINUOUS
 62
40
 10
4.5477889E+002
 20
2.1706149E+002
 11
4.5477889E+002
 21
2.2306149E+002
  0
LINE
  8
104
  6
CONTINUOUS
 62
40
 10
4.5477889E+002
 20
2.2306149E+002
 11
4.5077889E+002
 21
2.2306149E+002
  0
LINE
  8
104
  6
CONTINUOUS
 62
40
 10
4.5077889E+002
 20
2.2306149E+002
 11
4.4777889E+002
 21
2.2006149E+002
  0
LINE
  8
104
  6
CONTINUOUS
 62
40
 10
4.507789E+002
 20
2.2306149E+002
 11
4.4777889E+002
 21
2.2306149E+002
  0
INSERT
  2
*XH72
  8
108
 10
4.5266495E+002
 20
2.1950558E+002
  0
LINE
  8
104
  6
CONTINUOUS
 62
40
 10
3.8877889E+002
 20
2.0306149E+002
 11
4.0877889E+002
 21
2.0306149E+002
  0
LINE
  8
106
  6
CENTERLINE
 62
1
 10
3.800962E+002
 20
2.1306149E+002
 11
3.9164515E+002
 21
2.1306149E+002
  0
LINE
  8
104
  6
CONTINUOUS
 62
40
 10
4.0877889E+002
 20
2.2306149E+002
 11
4.3477889E+002
 21
2.2306149E+002
  0
LINE
  8
104
  6
CONTINUOUS
 62
40
 10
4.0877889E+002
 20
2.1706149E+002
 11
4.3477889E+002
 21
2.1706149E+002
  0
LINE
  8
104
  6
CONTINUOUS
 62
40
 10
4.1627889E+002
 20
2.1706149E+002
 11
4.0877889E+002
 21
2.1706149E+002
  0
LINE
  8
104
  6
CONTINUOUS
 62
40
 10
4.0877889E+002
 20
2.1706149E+002
 11
4.0877889E+002
 21
2.0306149E+002
  0
LINE
  8
104
  6
CONTINUOUS
 62
40
 10
4.0877889E+002
 20
2.0306149E+002
 11
4.1527889E+002
 21
2.0306149E+002
  0
LINE
  8
104
  6
CONTINUOUS
 62
40
 10
4.1527889E+002
 20
2.0306149E+002
 11
4.1627889E+002
 21
2.0406149E+002
  0
LINE
  8
104
  6
CONTINUOUS
 62
40
 10
4.1627889E+002
 20
2.0406149E+002
 11
4.1627889E+002
 21
2.1706149E+002
  0
INSERT
  2
*XH73
  8
108
 10
4.1259123E+002
 20
2.101783E+002
  0
LINE
  8
104
  6
CONTINUOUS
 62
40
 10
3.8127889E+002
 20
2.0931149E+002
 11
3.8377889E+002
 21
2.0931149E+002
  0
LINE
  8
104
  6
CONTINUOUS
 62
40
 10
3.8377889E+002
 20
2.0931149E+002
 11
3.8377889E+002
 21
2.1056149E+002
  0
LINE
  8
104
  6
CONTINUOUS
 62
40
 10
3.8377889E+002
 20
2.1056149E+002
 11
3.8877889E+002
 21
2.1056149E+002
  0
LINE
  8
104
  6
CONTINUOUS
 62
40
 10
3.8877889E+002
 20
2.1056149E+002
 11
3.8877889E+002
 21
2.0306149E+002
  0
LINE
  8
104
  6
CONTINUOUS
 62
40
 10
3.8877889E+002
 20
2.0306149E+002
 11
3.8227889E+002
 21
2.0306149E+002
  0
LINE
  8
104
  6
CONTINUOUS
 62
40
 10
3.8227889E+002
 20
2.0306149E+002
 11
3.8127889E+002
 21
2.0406149E+002
  0
LINE
  8
104
  6
CONTINUOUS
 62
40
 10
3.8127889E+002
 20
2.0406149E+002
 11
3.8127889E+002
 21
2.0931149E+002
  0
INSERT
  2
*XH74
  8
108
 10
3.8585256E+002
 20
2.0721849E+002
  0
LINE
  8
104
  6
CONTINUOUS
 62
40
 10
3.8877889E+002
 20
2.1706149E+002
 11
3.8127889E+002
 21
2.1706149E+002
  0
LINE
  8
104
  6
CONTINUOUS
 62
40
 10
3.8127889E+002
 20
2.1706149E+002
 11
3.8127889E+002
 21
2.1681149E+002
  0
LINE
  8
104
  6
CONTINUOUS
 62
40
 10
3.8127889E+002
 20
2.1681149E+002
 11
3.8377889E+002
 21
2.1681149E+002
  0
LINE
  8
104
  6
CONTINUOUS
 62
40
 10
3.8377889E+002
 20
2.1681149E+002
 11
3.8377889E+002
 21
2.1556149E+002
  0
LINE
  8
104
  6
CONTINUOUS
 62
40
 10
3.8377889E+002
 20
2.1556149E+002
 11
3.8877889E+002
 21
2.1556149E+002
  0
LINE
  8
104
  6
CONTINUOUS
 62
40
 10
3.8877889E+002
 20
2.1556149E+002
 11
3.8877889E+002
 21
2.1706149E+002
  0
INSERT
  2
*XH75
  8
108
 10
3.8700151E+002
 20
2.1667614E+002
  0
LINE
  8
104
  6
CONTINUOUS
 62
40
 10
3.8877889E+002
 20
2.1706149E+002
 11
3.8127889E+002
 21
2.1706149E+002
  0
LINE
  8
104
  6
CONTINUOUS
 62
40
 10
3.8127889E+002
 20
2.1706149E+002
 11
3.8127889E+002
 21
2.2306149E+002
  0
LINE
  8
104
  6
CONTINUOUS
 62
40
 10
3.8127889E+002
 20
2.2306149E+002
 11
3.8877889E+002
 21
2.2306149E+002
  0
LINE
  8
104
  6
CONTINUOUS
 62
40
 10
3.8877889E+002
 20
2.2306149E+002
 11
3.8877889E+002
 21
2.1706149E+002
  0
INSERT
  2
*XH76
  8
108
 10
3.8483095E+002
 20
2.2016045E+002
  0
LINE
  8
MED-0
  6
CENTERLINE
 62
150
 10
4.4177889E+002
 20
2.2006149E+002
 11
4.4177889E+002
 21
1.9806149E+002
  0
LINE
  8
MED-0
  6
CENTERLINE
 62
150
 10
4.4177889E+002
 20
1.9806149E+002
 11
4.4777889E+002
 21
1.9806149E+002
  0
LINE
  8
MED-0
  6
CENTERLINE
 62
150
 10
4.4777889E+002
 20
1.9806149E+002
 11
4.4777889E+002
 21
2.2006149E+002
  0
LINE
  8
MED-0
  6
CENTERLINE
 62
150
 10
4.4777889E+002
 20
2.2006149E+002
 11
4.4177889E+002
 21
2.2006149E+002
  0
LINE
  8
99
  6
CONTINUOUS
 62
1
 10
4.4252889E+002
 20
2.2006149E+002
 11
4.4252889E+002
 21
1.9806149E+002
  0
LINE
  8
99
  6
CONTINUOUS
 62
1
 10
4.4702889E+002
 20
2.2006149E+002
 11
4.4702889E+002
 21
1.9806149E+002
  0
LINE
  8
106
  6
CENTERLINE
 62
1
 10
4.4477889E+002
 20
2.2460696E+002
 11
4.4477889E+002
 21
1.9515835E+002
  0
LINE
  8
104
  6
CONTINUOUS
 62
40
 10
4.3877889E+002
 20
2.2306149E+002
 11
4.4177889E+002
 21
2.2006149E+002
  0
LINE
  8
104
  6
CONTINUOUS
 62
40
 10
4.4177889E+002
 20
2.2006149E+002
 11
4.4177889E+002
 21
1.9806149E+002
  0
LINE
  8
104
  6
CONTINUOUS
 62
40
 10
4.4177889E+002
 20
1.9806149E+002
 11
4.4777889E+002
 21
1.9806149E+002
  0
LINE
  8
104
  6
CONTINUOUS
 62
40
 10
4.4777889E+002
 20
1.9806149E+002
 11
4.4777889E+002
 21
2.2006149E+002
  0
LINE
  8
104
  6
CONTINUOUS
 62
40
 10
4.4777889E+002
 20
2.2006149E+002
 11
4.5077889E+002
 21
2.2306149E+002
  0
LINE
  8
104
  6
CONTINUOUS
 62
40
 10
4.5077889E+002
 20
2.2306149E+002
 11
4.3877889E+002
 21
2.2306149E+002
  0
LINE
  8
104
  6
CONTINUOUS
 62
40
 10
4.4177889E+002
 20
2.2006149E+002
 11
4.4777889E+002
 21
2.2006149E+002
  0
LINE
  8
99
  6
CONTINUOUS
 62
1
 10
3.8377889E+002
 20
2.1481149E+002
 11
3.9007889E+002
 21
2.1481149E+002
  0
LINE
  8
99
  6
CONTINUOUS
 62
1
 10
3.8377889E+002
 20
2.1131149E+002
 11
3.9007889E+002
 21
2.1131149E+002
  0
LINE
  8
104
  6
CONTINUOUS
 62
40
 10
3.8127889E+002
 20
2.0931149E+002
 11
3.8377889E+002
 21
2.0931149E+002
  0
LINE
  8
104
  6
CONTINUOUS
 62
40
 10
3.8377889E+002
 20
2.0931149E+002
 11
3.8377889E+002
 21
2.1056149E+002
  0
LINE
  8
104
  6
CONTINUOUS
 62
40
 10
3.8377889E+002
 20
2.1056149E+002
 11
3.9007889E+002
 21
2.1056149E+002
  0
LINE
  8
104
  6
CONTINUOUS
 62
40
 10
3.9007889E+002
 20
2.1056149E+002
 11
3.9007889E+002
 21
2.1556149E+002
  0
LINE
  8
104
  6
CONTINUOUS
 62
40
 10
3.9007889E+002
 20
2.1556149E+002
 11
3.8377889E+002
 21
2.1556149E+002
  0
LINE
  8
104
  6
CONTINUOUS
 62
40
 10
3.8377889E+002
 20
2.1556149E+002
 11
3.8377889E+002
 21
2.1681149E+002
  0
LINE
  8
104
  6
CONTINUOUS
 62
40
 10
3.8377889E+002
 20
2.1681149E+002
 11
3.8127889E+002
 21
2.1681149E+002
  0
LINE
  8
104
  6
CONTINUOUS
 62
40
 10
3.8127889E+002
 20
2.1681149E+002
 11
3.8127889E+002
 21
2.0931149E+002
  0
LINE
  8
104
  6
CONTINUOUS
 62
40
 10
3.8377889E+002
 20
2.1556149E+002
 11
3.8377889E+002
 21
2.1056149E+002
  0
LINE
  8
104
  6
CONTINUOUS
 62
40
 10
4.3377889E+002
 20
2.0006149E+002
 11
3.7757889E+002
 21
2.0006149E+002
  0
LINE
  8
104
  6
CONTINUOUS
 62
40
 10
3.7757889E+002
 20
2.0006149E+002
 11
3.7757889E+002
 21
2.2306149E+002
  0
LINE
  8
104
  6
CONTINUOUS
 62
40
 10
3.7757889E+002
 20
2.2306149E+002
 11
3.8057889E+002
 21
2.2306149E+002
  0
LINE
  8
104
  6
CONTINUOUS
 62
40
 10
3.8057889E+002
 20
2.2306149E+002
 11
3.8057889E+002
 21
2.0506149E+002
  0
ARC
  8
104
  6
CONTINUOUS
 62
40
 10
3.8257889E+002
 20
2.0506149E+002
 40
1.9999983
 50
1.8000018E+002
 51
2.7000005E+002
  0
LINE
  8
104
  6
CONTINUOUS
 62
40
 10
3.8257889E+002
 20
2.030615E+002
 11
4.3377889E+002
 21
2.030615E+002
  0
LINE
  8
104
  6
CONTINUOUS
 62
40
 10
4.3377889E+002
 20
2.030615E+002
 11
4.3377889E+002
 21
2.0006149E+002
  0
INSERT
  2
*XH77
  8
108
 10
3.825743E+002
 20
2.1154337E+002
  0
LINE
  8
104
  6
CONTINUOUS
 62
40
 10
4.3377889E+002
 20
2.0306149E+002
 11
4.3477889E+002
 21
2.0306149E+002
  0
LINE
  8
104
  6
CONTINUOUS
 62
40
 10
4.3377889E+002
 20
2.0006149E+002
 11
4.3477889E+002
 21
2.0006149E+002
  0
TEXT
  8
103
  6
CONTINUOUS
 62
40
 10
3.9793935E+002
 20
2.9044084E+002
 40
7.0
  1
7411K/46
 41
6.46875E-001
 72
1
 11
3.7982684E+002
 21
2.8694084E+002
 73
2
  0
LINE
  8
104
  6
CONTINUOUS
 62
40
 10
3.8127889E+002
 20
3.6283474E+002
 11
3.8127889E+002
 21
3.5533474E+002
  0
LINE
  8
104
  6
CONTINUOUS
 62
40
 10
4.6077889E+002
 20
3.5508474E+002
 11
4.5777889E+002
 21
3.5508474E+002
  0
LINE
  8
104
  6
CONTINUOUS
 62
40
 10
4.4877889E+002
 20
3.5508474E+002
 11
4.5177889E+002
 21
3.5508474E+002
  0
ARC
  8
99
  6
CONTINUOUS
 62
1
 10
4.2465522E+002
 20
3.5017189E+002
 40
1.5869177
 50
3.1609562E+002
 51
3.6804801E+002
  0
ARC
  8
99
  6
CONTINUOUS
 62
1
 10
4.2465502E+002
 20
3.5017179E+002
 40
1.5871265
 50
8.0506707
 51
4.1837195E+001
  0
ARC
  8
99
  6
CONTINUOUS
 62
1
 10
4.2702466E+002
 20
3.5229501E+002
 40
1.594582
 50
2.0498381E+002
 51
2.2188409E+002
  0
ARC
  8
99
  6
CONTINUOUS
 62
1
 10
4.2698349E+002
 20
3.5227585E+002
 40
1.5491725
 50
1.877555E+002
 51
2.0498442E+002
  0
ARC
  8
99
  6
CONTINUOUS
 62
1
 10
4.2690294E+002
 20
3.522626E+002
 40
1.467574
 50
1.7839724E+002
 51
1.8766754E+002
  0
ARC
  8
99
  6
CONTINUOUS
 62
1
 10
4.2700738E+002
 20
3.5225961E+002
 40
1.5720568
 50
1.6953961E+002
 51
1.7839455E+002
  0
ARC
  8
99
  6
CONTINUOUS
 62
1
 10
4.2717966E+002
 20
3.5222358E+002
 40
1.748014
 50
1.5290102E+002
 51
1.6940372E+002
  0
ARC
  8
99
  6
CONTINUOUS
 62
1
 10
4.2410232E+002
 20
3.5379187E+002
 40
1.7059061
 50
3.3309251E+002
 51
3.6609248E+002
  0
ARC
  8
99
  6
CONTINUOUS
 62
1
 10
4.2410258E+002
 20
3.5379185E+002
 40
1.7056423
 50
6.0937906
 51
4.9288396E+001
  0
INSERT
  2
*XH78
  8
108
 10
4.1680251E+002
 20
3.5183402E+002
  0
LINE
  8
104
  6
CONTINUOUS
 62
40
 10
4.4477889E+002
 20
3.4908474E+002
 11
4.4877889E+002
 21
3.4908474E+002
  0
LINE
  8
104
  6
CONTINUOUS
 62
40
 10
4.4877889E+002
 20
3.4908474E+002
 11
4.5177889E+002
 21
3.5208474E+002
  0
LINE
  8
104
  6
CONTINUOUS
 62
40
 10
4.5177889E+002
 20
3.5208474E+002
 11
4.4877889E+002
 21
3.5508474E+002
  0
LINE
  8
104
  6
CONTINUOUS
 62
40
 10
4.4877889E+002
 20
3.5508474E+002
 11
4.4477889E+002
 21
3.5508474E+002
  0
LINE
  8
104
  6
CONTINUOUS
 62
40
 10
4.4477889E+002
 20
3.5508474E+002
 11
4.4477889E+002
 21
3.4908474E+002
  0
LINE
  8
104
  6
CONTINUOUS
 62
40
 10
4.4877889E+002
 20
3.4908474E+002
 11
4.5177889E+002
 21
3.4908474E+002
  0
INSERT
  2
*XH79
  8
108
 10
4.4683867E+002
 20
3.5149633E+002
  0
LINE
  8
104
  6
CONTINUOUS
 62
40
 10
4.5777889E+002
 20
3.5208474E+002
 11
4.6077889E+002
 21
3.5508474E+002
  0
LINE
  8
104
  6
CONTINUOUS
 62
40
 10
4.6077889E+002
 20
3.5508474E+002
 11
4.6477889E+002
 21
3.5508474E+002
  0
LINE
  8
104
  6
CONTINUOUS
 62
40
 10
4.6477889E+002
 20
3.5508474E+002
 11
4.6477889E+002
 21
3.4908474E+002
  0
LINE
  8
104
  6
CONTINUOUS
 62
40
 10
4.6477889E+002
 20
3.4908474E+002
 11
4.6077889E+002
 21
3.4908474E+002
  0
LINE
  8
104
  6
CONTINUOUS
 62
40
 10
4.6077889E+002
 20
3.4908474E+002
 11
4.5777889E+002
 21
3.5208474E+002
  0
LINE
  8
104
  6
CONTINUOUS
 62
40
 10
4.607789E+002
 20
3.4908474E+002
 11
4.5777889E+002
 21
3.4908474E+002
  0
INSERT
  2
*XH80
  8
108
 10
4.6266495E+002
 20
3.5264064E+002
  0
LINE
  8
104
  6
CONTINUOUS
 62
40
 10
3.8877889E+002
 20
3.6908474E+002
 11
4.0877889E+002
 21
3.6908474E+002
  0
LINE
  8
106
  6
CENTERLINE
 62
1
 10
3.800962E+002
 20
3.5908474E+002
 11
3.9164515E+002
 21
3.5908474E+002
  0
LINE
  8
104
  6
CONTINUOUS
 62
40
 10
4.0877889E+002
 20
3.4908474E+002
 11
4.4477889E+002
 21
3.4908474E+002
  0
LINE
  8
104
  6
CONTINUOUS
 62
40
 10
4.0877889E+002
 20
3.5508474E+002
 11
4.4477889E+002
 21
3.5508474E+002
  0
LINE
  8
104
  6
CONTINUOUS
 62
40
 10
4.1627889E+002
 20
3.5508474E+002
 11
4.0877889E+002
 21
3.5508474E+002
  0
LINE
  8
104
  6
CONTINUOUS
 62
40
 10
4.0877889E+002
 20
3.5508474E+002
 11
4.0877889E+002
 21
3.6908474E+002
  0
LINE
  8
104
  6
CONTINUOUS
 62
40
 10
4.0877889E+002
 20
3.6908474E+002
 11
4.1527889E+002
 21
3.6908474E+002
  0
LINE
  8
104
  6
CONTINUOUS
 62
40
 10
4.1527889E+002
 20
3.6908474E+002
 11
4.1627889E+002
 21
3.6808474E+002
  0
LINE
  8
104
  6
CONTINUOUS
 62
40
 10
4.1627889E+002
 20
3.6808474E+002
 11
4.1627889E+002
 21
3.5508474E+002
  0
INSERT
  2
*XH81
  8
108
 10
4.1259123E+002
 20
3.6196792E+002
  0
LINE
  8
104
  6
CONTINUOUS
 62
40
 10
3.8127889E+002
 20
3.6283474E+002
 11
3.8377889E+002
 21
3.6283474E+002
  0
LINE
  8
104
  6
CONTINUOUS
 62
40
 10
3.8377889E+002
 20
3.6283474E+002
 11
3.8377889E+002
 21
3.6158474E+002
  0
LINE
  8
104
  6
CONTINUOUS
 62
40
 10
3.8377889E+002
 20
3.6158474E+002
 11
3.8877889E+002
 21
3.6158474E+002
  0
LINE
  8
104
  6
CONTINUOUS
 62
40
 10
3.8877889E+002
 20
3.6158474E+002
 11
3.8877889E+002
 21
3.6908474E+002
  0
LINE
  8
104
  6
CONTINUOUS
 62
40
 10
3.8877889E+002
 20
3.6908474E+002
 11
3.8227889E+002
 21
3.6908474E+002
  0
LINE
  8
104
  6
CONTINUOUS
 62
40
 10
3.8227889E+002
 20
3.6908474E+002
 11
3.8127889E+002
 21
3.6808474E+002
  0
LINE
  8
104
  6
CONTINUOUS
 62
40
 10
3.8127889E+002
 20
3.6808474E+002
 11
3.8127889E+002
 21
3.6283474E+002
  0
INSERT
  2
*XH82
  8
108
 10
3.8585256E+002
 20
3.6492773E+002
  0
LINE
  8
104
  6
CONTINUOUS
 62
40
 10
3.8877889E+002
 20
3.5508474E+002
 11
3.8127889E+002
 21
3.5508474E+002
  0
LINE
  8
104
  6
CONTINUOUS
 62
40
 10
3.8127889E+002
 20
3.5508474E+002
 11
3.8127889E+002
 21
3.5533474E+002
  0
LINE
  8
104
  6
CONTINUOUS
 62
40
 10
3.8127889E+002
 20
3.5533474E+002
 11
3.8377889E+002
 21
3.5533474E+002
  0
LINE
  8
104
  6
CONTINUOUS
 62
40
 10
3.8377889E+002
 20
3.5533474E+002
 11
3.8377889E+002
 21
3.5658474E+002
  0
LINE
  8
104
  6
CONTINUOUS
 62
40
 10
3.8377889E+002
 20
3.5658474E+002
 11
3.8877889E+002
 21
3.5658474E+002
  0
LINE
  8
104
  6
CONTINUOUS
 62
40
 10
3.8877889E+002
 20
3.5658474E+002
 11
3.8877889E+002
 21
3.5508474E+002
  0
INSERT
  2
*XH83
  8
108
 10
3.8700151E+002
 20
3.5547008E+002
  0
LINE
  8
104
  6
CONTINUOUS
 62
40
 10
3.8877889E+002
 20
3.5508474E+002
 11
3.8127889E+002
 21
3.5508474E+002
  0
LINE
  8
104
  6
CONTINUOUS
 62
40
 10
3.8127889E+002
 20
3.5508474E+002
 11
3.8127889E+002
 21
3.4908474E+002
  0
LINE
  8
104
  6
CONTINUOUS
 62
40
 10
3.8127889E+002
 20
3.4908474E+002
 11
3.8877889E+002
 21
3.4908474E+002
  0
LINE
  8
104
  6
CONTINUOUS
 62
40
 10
3.8877889E+002
 20
3.4908474E+002
 11
3.8877889E+002
 21
3.5508474E+002
  0
INSERT
  2
*XH84
  8
108
 10
3.8483095E+002
 20
3.5198577E+002
  0
LINE
  8
MED-0
  6
CENTERLINE
 62
150
 10
4.5777889E+002
 20
3.5208474E+002
 11
4.5777889E+002
 21
3.7408474E+002
  0
LINE
  8
MED-0
  6
CENTERLINE
 62
150
 10
4.5777889E+002
 20
3.7408474E+002
 11
4.5177889E+002
 21
3.7408474E+002
  0
LINE
  8
MED-0
  6
CENTERLINE
 62
150
 10
4.5177889E+002
 20
3.7408474E+002
 11
4.5177889E+002
 21
3.5208474E+002
  0
LINE
  8
MED-0
  6
CENTERLINE
 62
150
 10
4.5177889E+002
 20
3.5208474E+002
 11
4.5777889E+002
 21
3.5208474E+002
  0
LINE
  8
99
  6
CONTINUOUS
 62
1
 10
4.5702889E+002
 20
3.5208474E+002
 11
4.5702889E+002
 21
3.7408474E+002
  0
LINE
  8
99
  6
CONTINUOUS
 62
1
 10
4.5252889E+002
 20
3.5208474E+002
 11
4.5252889E+002
 21
3.7408474E+002
  0
LINE
  8
106
  6
CENTERLINE
 62
1
 10
4.5477889E+002
 20
3.4603023E+002
 11
4.5477889E+002
 21
3.7698787E+002
  0
LINE
  8
104
  6
CONTINUOUS
 62
40
 10
4.6077889E+002
 20
3.4908474E+002
 11
4.5777889E+002
 21
3.5208474E+002
  0
LINE
  8
104
  6
CONTINUOUS
 62
40
 10
4.5777889E+002
 20
3.5208474E+002
 11
4.5777889E+002
 21
3.7408474E+002
  0
LINE
  8
104
  6
CONTINUOUS
 62
40
 10
4.5777889E+002
 20
3.7408474E+002
 11
4.5177889E+002
 21
3.7408474E+002
  0
LINE
  8
104
  6
CONTINUOUS
 62
40
 10
4.5177889E+002
 20
3.7408474E+002
 11
4.5177889E+002
 21
3.5208474E+002
  0
LINE
  8
104
  6
CONTINUOUS
 62
40
 10
4.5177889E+002
 20
3.5208474E+002
 11
4.4877889E+002
 21
3.4908474E+002
  0
LINE
  8
104
  6
CONTINUOUS
 62
40
 10
4.4877889E+002
 20
3.4908474E+002
 11
4.6077889E+002
 21
3.4908474E+002
  0
LINE
  8
104
  6
CONTINUOUS
 62
40
 10
4.5777889E+002
 20
3.5208474E+002
 11
4.5177889E+002
 21
3.5208474E+002
  0
LINE
  8
106
  6
CENTERLINE
 62
1
 10
3.9777889E+002
 20
3.5150923E+002
 11
3.9777889E+002
 21
3.2215987E+002
  0
LINE
  8
104
  6
CONTINUOUS
 62
40
 10
4.0877889E+002
 20
3.6808474E+002
 11
4.0777889E+002
 21
3.6908474E+002
  0
LINE
  8
104
  6
CONTINUOUS
 62
40
 10
4.0777889E+002
 20
3.6908474E+002
 11
3.8977889E+002
 21
3.6908474E+002
  0
LINE
  8
104
  6
CONTINUOUS
 62
40
 10
3.8977889E+002
 20
3.6908474E+002
 11
3.8877889E+002
 21
3.6808474E+002
  0
LINE
  8
104
  6
CONTINUOUS
 62
40
 10
3.8877889E+002
 20
3.6808474E+002
 11
3.8877889E+002
 21
3.6068471E+002
  0
LINE
  8
104
  6
CONTINUOUS
 62
40
 10
3.8877889E+002
 20
3.6068471E+002
 11
4.0877889E+002
 21
3.6068471E+002
  0
LINE
  8
104
  6
CONTINUOUS
 62
40
 10
4.0877889E+002
 20
3.6068471E+002
 11
4.0877889E+002
 21
3.6808474E+002
  0
LINE
  8
104
  6
CONTINUOUS
 62
40
 10
3.8877889E+002
 20
3.6808474E+002
 11
4.0877889E+002
 21
3.6808474E+002
  0
LINE
  8
104
  6
CONTINUOUS
 62
40
 10
3.8877889E+002
 20
3.5748476E+002
 11
4.0877889E+002
 21
3.5748476E+002
  0
LINE
  8
104
  6
CONTINUOUS
 62
40
 10
4.0877889E+002
 20
3.5748476E+002
 11
4.0877889E+002
 21
3.4908474E+002
  0
LINE
  8
104
  6
CONTINUOUS
 62
40
 10
4.0877889E+002
 20
3.4908474E+002
 11
3.8877889E+002
 21
3.4908474E+002
  0
LINE
  8
104
  6
CONTINUOUS
 62
40
 10
3.8877889E+002
 20
3.4908474E+002
 11
3.8877889E+002
 21
3.5748476E+002
  0
LINE
  8
104
  6
CONTINUOUS
 62
40
 10
3.9077889E+002
 20
3.5748476E+002
 11
3.9077889E+002
 21
3.6068471E+002
  0
LINE
  8
104
  6
CONTINUOUS
 62
40
 10
4.0677889E+002
 20
3.5748476E+002
 11
4.0677889E+002
 21
3.6068471E+002
  0
LINE
  8
104
  6
CONTINUOUS
 62
40
 10
4.0477889E+002
 20
3.4908474E+002
 11
4.0477889E+002
 21
3.2608474E+002
  0
LINE
  8
104
  6
CONTINUOUS
 62
40
 10
4.0477889E+002
 20
3.2608474E+002
 11
4.0377889E+002
 21
3.2508474E+002
  0
LINE
  8
104
  6
CONTINUOUS
 62
40
 10
4.0377889E+002
 20
3.2508474E+002
 11
3.9177889E+002
 21
3.2508474E+002
  0
LINE
  8
104
  6
CONTINUOUS
 62
40
 10
3.9177889E+002
 20
3.2508474E+002
 11
3.9077889E+002
 21
3.2608474E+002
  0
LINE
  8
104
  6
CONTINUOUS
 62
40
 10
3.9077889E+002
 20
3.2608474E+002
 11
3.9077889E+002
 21
3.4908474E+002
  0
LINE
  8
104
  6
CONTINUOUS
 62
40
 10
4.0477889E+002
 20
3.2608474E+002
 11
3.9077889E+002
 21
3.2608474E+002
  0
LINE
  8
106
  6
CENTERLINE
 62
1
 10
3.9877889E+002
 20
3.7128615E+002
 11
3.9877889E+002
 21
3.466932E+002
  0
LINE
  8
104
  6
CONTINUOUS
 62
40
 10
3.8877889E+002
 20
3.6068471E+002
 11
3.8877889E+002
 21
3.5748476E+002
  0
LINE
  8
99
  6
CONTINUOUS
 62
1
 10
3.8877889E+002
 20
3.6083474E+002
 11
3.8127889E+002
 21
3.6083474E+002
  0
LINE
  8
99
  6
CONTINUOUS
 62
1
 10
3.8877889E+002
 20
3.5733474E+002
 11
3.8127889E+002
 21
3.5733474E+002
  0
LINE
  8
104
  6
CONTINUOUS
 62
40
 10
3.8127889E+002
 20
3.5658474E+002
 11
3.8877889E+002
 21
3.5658474E+002
  0
LINE
  8
104
  6
CONTINUOUS
 62
40
 10
3.8877889E+002
 20
3.5658474E+002
 11
3.8877889E+002
 21
3.5748476E+002
  0
LINE
  8
104
  6
CONTINUOUS
 62
40
 10
3.8877889E+002
 20
3.5748476E+002
 11
3.9077889E+002
 21
3.5748476E+002
  0
LINE
  8
104
  6
CONTINUOUS
 62
40
 10
3.9077889E+002
 20
3.5748476E+002
 11
3.9077889E+002
 21
3.6068471E+002
  0
LINE
  8
104
  6
CONTINUOUS
 62
40
 10
3.9077889E+002
 20
3.6068471E+002
 11
3.8877889E+002
 21
3.6068471E+002
  0
LINE
  8
104
  6
CONTINUOUS
 62
40
 10
3.8877889E+002
 20
3.6068471E+002
 11
3.8877889E+002
 21
3.6158474E+002
  0
LINE
  8
104
  6
CONTINUOUS
 62
40
 10
3.8877889E+002
 20
3.6158474E+002
 11
3.8127889E+002
 21
3.6158474E+002
  0
LINE
  8
104
  6
CONTINUOUS
 62
40
 10
3.8127889E+002
 20
3.6158474E+002
 11
3.8127889E+002
 21
3.5658474E+002
  0
LINE
  8
104
  6
CONTINUOUS
 62
40
 10
3.8127889E+002
 20
3.5658474E+002
 11
3.8127889E+002
 21
3.5658474E+002
  0
LINE
  8
104
  6
CONTINUOUS
 62
40
 10
4.3477889E+002
 20
3.7208474E+002
 11
4.3477889E+002
 21
3.5508474E+002
  0
LINE
  8
104
  6
CONTINUOUS
 62
40
 10
4.3377889E+002
 20
3.7208474E+002
 11
3.7757889E+002
 21
3.7208474E+002
  0
LINE
  8
104
  6
CONTINUOUS
 62
40
 10
3.7757889E+002
 20
3.7208474E+002
 11
3.7757889E+002
 21
3.4908474E+002
  0
LINE
  8
104
  6
CONTINUOUS
 62
40
 10
3.7757889E+002
 20
3.4908474E+002
 11
3.8057889E+002
 21
3.4908474E+002
  0
LINE
  8
104
  6
CONTINUOUS
 62
40
 10
3.8057889E+002
 20
3.4908474E+002
 11
3.8057889E+002
 21
3.6708474E+002
  0
ARC
  8
104
  6
CONTINUOUS
 62
40
 10
3.8257889E+002
 20
3.6708473E+002
 40
2.0000008
 50
9.0000023E+001
 51
1.7999998E+002
  0
LINE
  8
104
  6
CONTINUOUS
 62
40
 10
3.8257889E+002
 20
3.6908474E+002
 11
4.3377889E+002
 21
3.6908474E+002
  0
LINE
  8
104
  6
CONTINUOUS
 62
40
 10
4.3377889E+002
 20
3.6908474E+002
 11
4.3377889E+002
 21
3.7208474E+002
  0
INSERT
  2
*XH85
  8
108
 10
3.825743E+002
 20
3.6060285E+002
  0
LINE
  8
104
  6
CONTINUOUS
 62
40
 10
4.3377889E+002
 20
3.6908474E+002
 11
4.3477889E+002
 21
3.6908474E+002
  0
LINE
  8
104
  6
CONTINUOUS
 62
40
 10
4.3377889E+002
 20
3.7208474E+002
 11
4.3477889E+002
 21
3.7208474E+002
  0
LINE
  8
104
  6
CONTINUOUS
 62
40
 10
4.0477889E+002
 20
3.2508474E+002
 11
4.0377889E+002
 21
3.2508474E+002
  0
LINE
  8
104
  6
CONTINUOUS
 62
40
 10
3.9077889E+002
 20
3.2508474E+002
 11
3.9177889E+002
 21
3.2508474E+002
  0
LINE
  8
104
  6
CONTINUOUS
 62
40
 10
3.8527889E+002
 20
3.4508474E+002
 11
3.8177887E+002
 21
3.4508474E+002
  0
LINE
  8
104
  6
CONTINUOUS
 62
40
 10
3.8177887E+002
 20
3.4508474E+002
 11
3.8177887E+002
 21
3.4708474E+002
  0
LINE
  8
104
  6
CONTINUOUS
 62
40
 10
3.8177887E+002
 20
3.4708474E+002
 11
3.8527889E+002
 21
3.4708474E+002
  0
LINE
  8
104
  6
CONTINUOUS
 62
40
 10
3.8527889E+002
 20
3.4708474E+002
 11
3.8527889E+002
 21
3.4508474E+002
  0
LINE
  8
104
  6
CONTINUOUS
 62
40
 10
3.8527889E+002
 20
3.4509413E+002
 11
3.8877889E+002
 21
3.4509413E+002
  0
LINE
  8
104
  6
CONTINUOUS
 62
40
 10
3.8877889E+002
 20
3.4509413E+002
 11
3.8877889E+002
 21
3.3808474E+002
  0
LINE
  8
104
  6
CONTINUOUS
 62
40
 10
3.8877889E+002
 20
3.3808474E+002
 11
3.9007889E+002
 21
3.3808474E+002
  0
LINE
  8
104
  6
CONTINUOUS
 62
40
 10
3.9007889E+002
 20
3.3808474E+002
 11
3.9007889E+002
 21
3.2508474E+002
  0
LINE
  8
104
  6
CONTINUOUS
 62
40
 10
3.9007889E+002
 20
3.2508474E+002
 11
3.9077889E+002
 21
3.2508474E+002
  0
LINE
  8
104
  6
CONTINUOUS
 62
40
 10
3.9077889E+002
 20
3.2508474E+002
 11
3.9077889E+002
 21
3.4708474E+002
  0
LINE
  8
104
  6
CONTINUOUS
 62
40
 10
3.9077889E+002
 20
3.4708474E+002
 11
3.8527889E+002
 21
3.4708474E+002
  0
LINE
  8
104
  6
CONTINUOUS
 62
40
 10
3.8527889E+002
 20
3.4708474E+002
 11
3.8527889E+002
 21
3.4509413E+002
  0
INSERT
  2
*XH86
  8
108
 10
3.8964108E+002
 20
3.3671045E+002
  0
INSERT
  2
*XH87
  8
108
 10
3.8979524E+002
 20
3.3775772E+002
  0
LINE
  8
104
  6
CONTINUOUS
 62
40
 10
4.0477889E+002
 20
3.4708474E+002
 11
4.0477889E+002
 21
3.2508474E+002
  0
LINE
  8
104
  6
CONTINUOUS
 62
40
 10
4.0477889E+002
 20
3.2508474E+002
 11
4.0547889E+002
 21
3.2508474E+002
  0
LINE
  8
104
  6
CONTINUOUS
 62
40
 10
4.0547889E+002
 20
3.2508474E+002
 11
4.0547889E+002
 21
3.3808474E+002
  0
LINE
  8
104
  6
CONTINUOUS
 62
40
 10
4.0547889E+002
 20
3.3808474E+002
 11
4.0877889E+002
 21
3.3808474E+002
  0
LINE
  8
104
  6
CONTINUOUS
 62
40
 10
4.0877889E+002
 20
3.3808474E+002
 11
4.0877889E+002
 21
3.4508474E+002
  0
LINE
  8
104
  6
CONTINUOUS
 62
40
 10
4.0877889E+002
 20
3.4508474E+002
 11
4.1027889E+002
 21
3.4508474E+002
  0
LINE
  8
104
  6
CONTINUOUS
 62
40
 10
4.1027889E+002
 20
3.4508474E+002
 11
4.1027889E+002
 21
3.4708474E+002
  0
LINE
  8
104
  6
CONTINUOUS
 62
40
 10
4.1027889E+002
 20
3.4708474E+002
 11
4.0477889E+002
 21
3.4708474E+002
  0
INSERT
  2
*XH88
  8
108
 10
4.0599224E+002
 20
3.3810873E+002
  0
INSERT
  2
*XH89
  8
108
 10
4.0634153E+002
 20
3.3785001E+002
  0
LINE
  8
104
  6
CONTINUOUS
 62
40
 10
4.1027889E+002
 20
3.4508474E+002
 11
4.1377889E+002
 21
3.4508474E+002
  0
LINE
  8
104
  6
CONTINUOUS
 62
40
 10
4.1377889E+002
 20
3.4508474E+002
 11
4.1377889E+002
 21
3.4708474E+002
  0
LINE
  8
104
  6
CONTINUOUS
 62
40
 10
4.1377889E+002
 20
3.4708474E+002
 11
4.1027889E+002
 21
3.4708474E+002
  0
LINE
  8
104
  6
CONTINUOUS
 62
40
 10
3.8127889E+002
 20
3.3133474E+002
 11
3.8127889E+002
 21
3.3883474E+002
  0
LINE
  8
104
  6
CONTINUOUS
 62
40
 10
4.6077889E+002
 20
3.3908474E+002
 11
4.5777889E+002
 21
3.3908474E+002
  0
LINE
  8
104
  6
CONTINUOUS
 62
40
 10
4.4877889E+002
 20
3.3908474E+002
 11
4.5177889E+002
 21
3.3908474E+002
  0
ARC
  8
99
  6
CONTINUOUS
 62
1
 10
4.2465515E+002
 20
3.4399756E+002
 40
1.5869804
 50
3.5195309E+002
 51
4.0390327E+002
  0
ARC
  8
99
  6
CONTINUOUS
 62
1
 10
4.2465509E+002
 20
3.4399765E+002
 40
1.5870512
 50
3.1816198E+002
 51
3.5195015E+002
  0
ARC
  8
99
  6
CONTINUOUS
 62
1
 10
4.2702465E+002
 20
3.4187447E+002
 40
1.5945728
 50
1.3811584E+002
 51
1.5501619E+002
  0
ARC
  8
99
  6
CONTINUOUS
 62
1
 10
4.2698349E+002
 20
3.4189363E+002
 40
1.5491727
 50
1.5501559E+002
 51
1.7224452E+002
  0
ARC
  8
99
  6
CONTINUOUS
 62
1
 10
4.2690308E+002
 20
3.4190686E+002
 40
1.467713
 50
1.7233283E+002
 51
1.8160265E+002
  0
ARC
  8
99
  6
CONTINUOUS
 62
1
 10
4.270074E+002
 20
3.4190985E+002
 40
1.5720709
 50
1.8160534E+002
 51
1.9046033E+002
  0
ARC
  8
99
  6
CONTINUOUS
 62
1
 10
4.2717947E+002
 20
3.4194583E+002
 40
1.747827
 50
1.905961E+002
 51
2.0710016E+002
  0
ARC
  8
99
  6
CONTINUOUS
 62
1
 10
4.2410235E+002
 20
3.4037761E+002
 40
1.7058755
 50
3.5390721E+002
 51
3.8690779E+002
  0
ARC
  8
99
  6
CONTINUOUS
 62
1
 10
4.2410267E+002
 20
3.4037757E+002
 40
1.7055514
 50
3.107104E+002
 51
3.5390746E+002
  0
INSERT
  2
*XH90
  8
108
 10
4.1680251E+002
 20
3.4233545E+002
  0
LINE
  8
104
  6
CONTINUOUS
 62
40
 10
4.4477889E+002
 20
3.4508474E+002
 11
4.4877889E+002
 21
3.4508474E+002
  0
LINE
  8
104
  6
CONTINUOUS
 62
40
 10
4.4877889E+002
 20
3.4508474E+002
 11
4.5177889E+002
 21
3.4208474E+002
  0
LINE
  8
104
  6
CONTINUOUS
 62
40
 10
4.5177889E+002
 20
3.4208474E+002
 11
4.4877889E+002
 21
3.3908474E+002
  0
LINE
  8
104
  6
CONTINUOUS
 62
40
 10
4.4877889E+002
 20
3.3908474E+002
 11
4.4477889E+002
 21
3.3908474E+002
  0
LINE
  8
104
  6
CONTINUOUS
 62
40
 10
4.4477889E+002
 20
3.3908474E+002
 11
4.4477889E+002
 21
3.4508474E+002
  0
LINE
  8
104
  6
CONTINUOUS
 62
40
 10
4.4877889E+002
 20
3.4508474E+002
 11
4.5177889E+002
 21
3.4508474E+002
  0
INSERT
  2
*XH91
  8
108
 10
4.4683867E+002
 20
3.4267314E+002
  0
LINE
  8
104
  6
CONTINUOUS
 62
40
 10
4.5777889E+002
 20
3.4208474E+002
 11
4.6077889E+002
 21
3.3908474E+002
  0
LINE
  8
104
  6
CONTINUOUS
 62
40
 10
4.6077889E+002
 20
3.3908474E+002
 11
4.6477889E+002
 21
3.3908474E+002
  0
LINE
  8
104
  6
CONTINUOUS
 62
40
 10
4.6477889E+002
 20
3.3908474E+002
 11
4.6477889E+002
 21
3.4508474E+002
  0
LINE
  8
104
  6
CONTINUOUS
 62
40
 10
4.6477889E+002
 20
3.4508474E+002
 11
4.6077889E+002
 21
3.4508474E+002
  0
LINE
  8
104
  6
CONTINUOUS
 62
40
 10
4.6077889E+002
 20
3.4508474E+002
 11
4.5777889E+002
 21
3.4208474E+002
  0
LINE
  8
104
  6
CONTINUOUS
 62
40
 10
4.607789E+002
 20
3.4508474E+002
 11
4.5777889E+002
 21
3.4508474E+002
  0
INSERT
  2
*XH92
  8
108
 10
4.6266495E+002
 20
3.4152883E+002
  0
LINE
  8
104
  6
CONTINUOUS
 62
40
 10
3.8877889E+002
 20
3.2508474E+002
 11
4.0877889E+002
 21
3.2508474E+002
  0
LINE
  8
106
  6
CENTERLINE
 62
1
 10
3.800962E+002
 20
3.3508474E+002
 11
3.9164515E+002
 21
3.3508474E+002
  0
LINE
  8
104
  6
CONTINUOUS
 62
40
 10
4.0877889E+002
 20
3.4508474E+002
 11
4.4477889E+002
 21
3.4508474E+002
  0
LINE
  8
104
  6
CONTINUOUS
 62
40
 10
4.0877889E+002
 20
3.3908474E+002
 11
4.4477889E+002
 21
3.3908474E+002
  0
LINE
  8
104
  6
CONTINUOUS
 62
40
 10
4.1627889E+002
 20
3.3908474E+002
 11
4.0877889E+002
 21
3.3908474E+002
  0
LINE
  8
104
  6
CONTINUOUS
 62
40
 10
4.0877889E+002
 20
3.3908474E+002
 11
4.0877889E+002
 21
3.2508474E+002
  0
LINE
  8
104
  6
CONTINUOUS
 62
40
 10
4.0877889E+002
 20
3.2508474E+002
 11
4.1527889E+002
 21
3.2508474E+002
  0
LINE
  8
104
  6
CONTINUOUS
 62
40
 10
4.1527889E+002
 20
3.2508474E+002
 11
4.1627889E+002
 21
3.2608474E+002
  0
LINE
  8
104
  6
CONTINUOUS
 62
40
 10
4.1627889E+002
 20
3.2608474E+002
 11
4.1627889E+002
 21
3.3908474E+002
  0
INSERT
  2
*XH93
  8
108
 10
4.1259123E+002
 20
3.3220155E+002
  0
LINE
  8
104
  6
CONTINUOUS
 62
40
 10
3.8127889E+002
 20
3.3133474E+002
 11
3.8377889E+002
 21
3.3133474E+002
  0
LINE
  8
104
  6
CONTINUOUS
 62
40
 10
3.8377889E+002
 20
3.3133474E+002
 11
3.8377889E+002
 21
3.3258474E+002
  0
LINE
  8
104
  6
CONTINUOUS
 62
40
 10
3.8377889E+002
 20
3.3258474E+002
 11
3.8877889E+002
 21
3.3258474E+002
  0
LINE
  8
104
  6
CONTINUOUS
 62
40
 10
3.8877889E+002
 20
3.3258474E+002
 11
3.8877889E+002
 21
3.2508474E+002
  0
LINE
  8
104
  6
CONTINUOUS
 62
40
 10
3.8877889E+002
 20
3.2508474E+002
 11
3.8227889E+002
 21
3.2508474E+002
  0
LINE
  8
104
  6
CONTINUOUS
 62
40
 10
3.8227889E+002
 20
3.2508474E+002
 11
3.8127889E+002
 21
3.2608474E+002
  0
LINE
  8
104
  6
CONTINUOUS
 62
40
 10
3.8127889E+002
 20
3.2608474E+002
 11
3.8127889E+002
 21
3.3133474E+002
  0
INSERT
  2
*XH94
  8
108
 10
3.8585256E+002
 20
3.2924174E+002
  0
LINE
  8
104
  6
CONTINUOUS
 62
40
 10
3.8877889E+002
 20
3.3908474E+002
 11
3.8127889E+002
 21
3.3908474E+002
  0
LINE
  8
104
  6
CONTINUOUS
 62
40
 10
3.8127889E+002
 20
3.3908474E+002
 11
3.8127889E+002
 21
3.3883474E+002
  0
LINE
  8
104
  6
CONTINUOUS
 62
40
 10
3.8127889E+002
 20
3.3883474E+002
 11
3.8377889E+002
 21
3.3883474E+002
  0
LINE
  8
104
  6
CONTINUOUS
 62
40
 10
3.8377889E+002
 20
3.3883474E+002
 11
3.8377889E+002
 21
3.3758474E+002
  0
LINE
  8
104
  6
CONTINUOUS
 62
40
 10
3.8377889E+002
 20
3.3758474E+002
 11
3.8877889E+002
 21
3.3758474E+002
  0
LINE
  8
104
  6
CONTINUOUS
 62
40
 10
3.8877889E+002
 20
3.3758474E+002
 11
3.8877889E+002
 21
3.3908474E+002
  0
INSERT
  2
*XH95
  8
108
 10
3.8700151E+002
 20
3.3869939E+002
  0
LINE
  8
104
  6
CONTINUOUS
 62
40
 10
3.8877889E+002
 20
3.3908474E+002
 11
3.8127889E+002
 21
3.3908474E+002
  0
LINE
  8
104
  6
CONTINUOUS
 62
40
 10
3.8127889E+002
 20
3.3908474E+002
 11
3.8127889E+002
 21
3.4508474E+002
  0
LINE
  8
104
  6
CONTINUOUS
 62
40
 10
3.8127889E+002
 20
3.4508474E+002
 11
3.8877889E+002
 21
3.4508474E+002
  0
LINE
  8
104
  6
CONTINUOUS
 62
40
 10
3.8877889E+002
 20
3.4508474E+002
 11
3.8877889E+002
 21
3.3908474E+002
  0
INSERT
  2
*XH96
  8
108
 10
3.8483095E+002
 20
3.421837E+002
  0
LINE
  8
MED-0
  6
CENTERLINE
 62
150
 10
4.5177889E+002
 20
3.4208474E+002
 11
4.5177889E+002
 21
3.2008474E+002
  0
LINE
  8
MED-0
  6
CENTERLINE
 62
150
 10
4.5177889E+002
 20
3.2008474E+002
 11
4.5777889E+002
 21
3.2008474E+002
  0
LINE
  8
MED-0
  6
CENTERLINE
 62
150
 10
4.5777889E+002
 20
3.2008474E+002
 11
4.5777889E+002
 21
3.4208474E+002
  0
LINE
  8
MED-0
  6
CENTERLINE
 62
150
 10
4.5777889E+002
 20
3.4208474E+002
 11
4.5177889E+002
 21
3.4208474E+002
  0
LINE
  8
99
  6
CONTINUOUS
 62
1
 10
4.5252889E+002
 20
3.4208474E+002
 11
4.5252889E+002
 21
3.2008474E+002
  0
LINE
  8
99
  6
CONTINUOUS
 62
1
 10
4.5702889E+002
 20
3.4208474E+002
 11
4.5702889E+002
 21
3.2008474E+002
  0
LINE
  8
106
  6
CENTERLINE
 62
1
 10
4.5477889E+002
 20
3.4813924E+002
 11
4.5477889E+002
 21
3.1718161E+002
  0
LINE
  8
104
  6
CONTINUOUS
 62
40
 10
4.4877889E+002
 20
3.4508474E+002
 11
4.5177889E+002
 21
3.4208474E+002
  0
LINE
  8
104
  6
CONTINUOUS
 62
40
 10
4.5177889E+002
 20
3.4208474E+002
 11
4.5177889E+002
 21
3.2008474E+002
  0
LINE
  8
104
  6
CONTINUOUS
 62
40
 10
4.5177889E+002
 20
3.2008474E+002
 11
4.5777889E+002
 21
3.2008474E+002
  0
LINE
  8
104
  6
CONTINUOUS
 62
40
 10
4.5777889E+002
 20
3.2008474E+002
 11
4.5777889E+002
 21
3.4208474E+002
  0
LINE
  8
104
  6
CONTINUOUS
 62
40
 10
4.5777889E+002
 20
3.4208474E+002
 11
4.6077889E+002
 21
3.4508474E+002
  0
LINE
  8
104
  6
CONTINUOUS
 62
40
 10
4.6077889E+002
 20
3.4508474E+002
 11
4.4877889E+002
 21
3.4508474E+002
  0
LINE
  8
104
  6
CONTINUOUS
 62
40
 10
4.5177889E+002
 20
3.4208474E+002
 11
4.5777889E+002
 21
3.4208474E+002
  0
LINE
  8
99
  6
CONTINUOUS
 62
1
 10
3.8377889E+002
 20
3.3683474E+002
 11
3.9007889E+002
 21
3.3683474E+002
  0
LINE
  8
99
  6
CONTINUOUS
 62
1
 10
3.8377889E+002
 20
3.3333474E+002
 11
3.9007889E+002
 21
3.3333474E+002
  0
LINE
  8
104
  6
CONTINUOUS
 62
40
 10
3.8127889E+002
 20
3.3133474E+002
 11
3.8377889E+002
 21
3.3133474E+002
  0
LINE
  8
104
  6
CONTINUOUS
 62
40
 10
3.8377889E+002
 20
3.3133474E+002
 11
3.8377889E+002
 21
3.3258474E+002
  0
LINE
  8
104
  6
CONTINUOUS
 62
40
 10
3.8377889E+002
 20
3.3258474E+002
 11
3.9007889E+002
 21
3.3258474E+002
  0
LINE
  8
104
  6
CONTINUOUS
 62
40
 10
3.9007889E+002
 20
3.3258474E+002
 11
3.9007889E+002
 21
3.3758474E+002
  0
LINE
  8
104
  6
CONTINUOUS
 62
40
 10
3.9007889E+002
 20
3.3758474E+002
 11
3.8377889E+002
 21
3.3758474E+002
  0
LINE
  8
104
  6
CONTINUOUS
 62
40
 10
3.8377889E+002
 20
3.3758474E+002
 11
3.8377889E+002
 21
3.3883474E+002
  0
LINE
  8
104
  6
CONTINUOUS
 62
40
 10
3.8377889E+002
 20
3.3883474E+002
 11
3.8127889E+002
 21
3.3883474E+002
  0
LINE
  8
104
  6
CONTINUOUS
 62
40
 10
3.8127889E+002
 20
3.3883474E+002
 11
3.8127889E+002
 21
3.3133474E+002
  0
LINE
  8
104
  6
CONTINUOUS
 62
40
 10
3.8377889E+002
 20
3.3758474E+002
 11
3.8377889E+002
 21
3.3258474E+002
  0
LINE
  8
104
  6
CONTINUOUS
 62
40
 10
4.3477889E+002
 20
3.2208474E+002
 11
4.3477889E+002
 21
3.3908474E+002
  0
LINE
  8
104
  6
CONTINUOUS
 62
40
 10
4.3377889E+002
 20
3.2208474E+002
 11
3.7757889E+002
 21
3.2208474E+002
  0
LINE
  8
104
  6
CONTINUOUS
 62
40
 10
3.7757889E+002
 20
3.2208474E+002
 11
3.7757889E+002
 21
3.4508474E+002
  0
LINE
  8
104
  6
CONTINUOUS
 62
40
 10
3.7757889E+002
 20
3.4508474E+002
 11
3.8057889E+002
 21
3.4508474E+002
  0
LINE
  8
104
  6
CONTINUOUS
 62
40
 10
3.8057889E+002
 20
3.4508474E+002
 11
3.8057889E+002
 21
3.2708474E+002
  0
ARC
  8
104
  6
CONTINUOUS
 62
40
 10
3.8257888E+002
 20
3.2708474E+002
 40
1.9999882
 50
1.8000012E+002
 51
2.7000034E+002
  0
LINE
  8
104
  6
CONTINUOUS
 62
40
 10
3.8257889E+002
 20
3.2508475E+002
 11
4.3377889E+002
 21
3.2508475E+002
  0
LINE
  8
104
  6
CONTINUOUS
 62
40
 10
4.3377889E+002
 20
3.2508475E+002
 11
4.3377889E+002
 21
3.2208474E+002
  0
INSERT
  2
*XH97
  8
108
 10
3.825743E+002
 20
3.3356662E+002
  0
LINE
  8
104
  6
CONTINUOUS
 62
40
 10
4.3377889E+002
 20
3.2508474E+002
 11
4.3477889E+002
 21
3.2508474E+002
  0
LINE
  8
104
  6
CONTINUOUS
 62
40
 10
4.3377889E+002
 20
3.2208474E+002
 11
4.3477889E+002
 21
3.2208474E+002
  0
TEXT
  8
103
  6
CONTINUOUS
 62
40
 10
3.9283835E+002
 20
3.9177489E+002
 40
7.0
  1
7411K/56
 41
6.46875E-001
 72
1
 11
3.7472585E+002
 21
3.8827489E+002
 73
2
  0
TEXT
  8
103
  6
CONTINUOUS
 62
40
 10
2.5358611E+002
 20
3.0070624E+002
 40
7.0
  1
Zapfenband 7411/56 (46)
 41
6.6521739E-001
 72
1
 11
2.0003611E+002
 21
2.9720624E+002
 73
2
  0
LINE
  8
104
  6
CONTINUOUS
 62
40
 10
1.4487987E+002
 20
3.4847185E+002
 11
1.4487987E+002
 21
3.4647185E+002
  0
LINE
  8
104
  6
CONTINUOUS
 62
40
 10
1.5887987E+002
 20
3.4847185E+002
 11
1.5887987E+002
 21
3.4647185E+002
  0
LINE
  8
105
  6
HIDDEN
 62
1
 10
3.4587986E+002
 20
3.5447185E+002
 11
3.4287986E+002
 21
3.5147185E+002
  0
LINE
  8
105
  6
HIDDEN
 62
1
 10
3.4287986E+002
 20
3.5147185E+002
 11
3.4587986E+002
 21
3.4847185E+002
  0
LINE
  8
105
  6
HIDDEN
 62
1
 10
2.4187986E+002
 20
3.5447185E+002
 11
2.4487986E+002
 21
3.5147185E+002
  0
LINE
  8
105
  6
HIDDEN
 62
1
 10
2.4487986E+002
 20
3.5147185E+002
 11
2.4187986E+002
 21
3.4847185E+002
  0
LINE
  8
105
  6
HIDDEN
 62
1
 10
2.4487986E+002
 20
3.5147185E+002
 11
2.5087986E+002
 21
3.5147185E+002
  0
LINE
  8
105
  6
HIDDEN
 62
1
 10
2.9087986E+002
 20
3.5147185E+002
 11
2.9687986E+002
 21
3.5147185E+002
  0
LINE
  8
105
  6
HIDDEN
 62
1
 10
3.3687986E+002
 20
3.5147185E+002
 11
3.4287986E+002
 21
3.5147185E+002
  0
LINE
  8
105
  6
HIDDEN
 62
1
 10
2.8787986E+002
 20
3.5447185E+002
 11
2.9087986E+002
 21
3.5147185E+002
  0
LINE
  8
105
  6
HIDDEN
 62
1
 10
2.9087986E+002
 20
3.5147185E+002
 11
2.8787986E+002
 21
3.4847185E+002
  0
LINE
  8
105
  6
HIDDEN
 62
1
 10
3.3387986E+002
 20
3.5447185E+002
 11
3.3687986E+002
 21
3.5147185E+002
  0
LINE
  8
105
  6
HIDDEN
 62
1
 10
3.3687986E+002
 20
3.5147185E+002
 11
3.3387986E+002
 21
3.4847185E+002
  0
LINE
  8
105
  6
HIDDEN
 62
1
 10
2.9987986E+002
 20
3.5447185E+002
 11
2.9687986E+002
 21
3.5147185E+002
  0
LINE
  8
105
  6
HIDDEN
 62
1
 10
2.9687986E+002
 20
3.5147185E+002
 11
2.9987986E+002
 21
3.4847185E+002
  0
LINE
  8
105
  6
HIDDEN
 62
1
 10
2.5387986E+002
 20
3.5447185E+002
 11
2.5087986E+002
 21
3.5147185E+002
  0
LINE
  8
105
  6
HIDDEN
 62
1
 10
2.5087986E+002
 20
3.5147185E+002
 11
2.5387986E+002
 21
3.4847185E+002
  0
LINE
  8
105
  6
HIDDEN
 62
1
 10
1.9887986E+002
 20
3.5147185E+002
 11
2.0487986E+002
 21
3.5147185E+002
  0
LINE
  8
105
  6
HIDDEN
 62
1
 10
2.0787986E+002
 20
3.5447185E+002
 11
2.0487986E+002
 21
3.5147185E+002
  0
LINE
  8
105
  6
HIDDEN
 62
1
 10
2.0487986E+002
 20
3.5147185E+002
 11
2.0787986E+002
 21
3.4847185E+002
  0
LINE
  8
105
  6
HIDDEN
 62
1
 10
1.9587986E+002
 20
3.5447185E+002
 11
1.9887986E+002
 21
3.5147185E+002
  0
LINE
  8
105
  6
HIDDEN
 62
1
 10
1.9887986E+002
 20
3.5147185E+002
 11
1.9587986E+002
 21
3.4847185E+002
  0
LINE
  8
104
  6
CONTINUOUS
 62
40
 10
2.1987986E+002
 20
3.5447185E+002
 11
1.3437987E+002
 21
3.5447185E+002
  0
LINE
  8
104
  6
CONTINUOUS
 62
40
 10
1.3437987E+002
 20
3.5447185E+002
 11
1.3437987E+002
 21
3.4847185E+002
  0
LINE
  8
104
  6
CONTINUOUS
 62
40
 10
1.3437987E+002
 20
3.4847185E+002
 11
2.1987986E+002
 21
3.4847185E+002
  0
LINE
  8
104
  6
CONTINUOUS
 62
40
 10
2.1987986E+002
 20
3.4847185E+002
 11
2.1987986E+002
 21
3.5447185E+002
  0
LINE
  8
105
  6
HIDDEN
 62
1
 10
1.8487986E+002
 20
3.5447185E+002
 11
1.8487986E+002
 21
3.4847185E+002
  0
LINE
  8
105
  6
HIDDEN
 62
1
 10
2.1987986E+002
 20
3.5447185E+002
 11
3.5187986E+002
 21
3.5447185E+002
  0
LINE
  8
105
  6
HIDDEN
 62
1
 10
3.5187986E+002
 20
3.5447185E+002
 11
3.5187986E+002
 21
3.4847185E+002
  0
LINE
  8
105
  6
HIDDEN
 62
1
 10
3.5187986E+002
 20
3.4847185E+002
 11
2.1987986E+002
 21
3.4847185E+002
  0
LINE
  8
106
  6
CENTERLINE
 62
1
 10
1.5187987E+002
 20
3.7310082E+002
 11
1.5187987E+002
 21
3.4640978E+002
  0
LINE
  8
104
  6
CONTINUOUS
 62
40
 10
1.6837987E+002
 20
3.6847185E+002
 11
1.6937987E+002
 21
3.6747185E+002
  0
LINE
  8
104
  6
CONTINUOUS
 62
40
 10
1.6937987E+002
 20
3.6747185E+002
 11
1.6937987E+002
 21
3.5447185E+002
  0
LINE
  8
104
  6
CONTINUOUS
 62
40
 10
1.6937987E+002
 20
3.5447185E+002
 11
1.3437987E+002
 21
3.5447185E+002
  0
LINE
  8
104
  6
CONTINUOUS
 62
40
 10
1.3437987E+002
 20
3.5447185E+002
 11
1.3437987E+002
 21
3.6747185E+002
  0
LINE
  8
104
  6
CONTINUOUS
 62
40
 10
1.3437987E+002
 20
3.6747185E+002
 11
1.3537987E+002
 21
3.6847185E+002
  0
LINE
  8
104
  6
CONTINUOUS
 62
40
 10
1.3537987E+002
 20
3.6847185E+002
 11
1.6837987E+002
 21
3.6847185E+002
  0
LINE
  8
104
  6
CONTINUOUS
 62
40
 10
1.3437987E+002
 20
3.6747185E+002
 11
1.6937987E+002
 21
3.6747185E+002
  0
CIRCLE
  8
104
  6
CONTINUOUS
 62
40
 10
1.5187987E+002
 20
3.5847185E+002
 40
3.75
  0
LINE
  8
106
  6
CENTERLINE
 62
1
 10
1.4670109E+002
 20
3.5847185E+002
 11
1.5709251E+002
 21
3.5847185E+002
  0
CIRCLE
  8
104
  6
CONTINUOUS
 62
40
 10
1.5187987E+002
 20
3.5847185E+002
 40
2.5
  0
LINE
  8
105
  6
HIDDEN
 62
1
 10
2.4487986E+002
 20
3.5147185E+002
 11
2.4487986E+002
 21
3.7347185E+002
  0
LINE
  8
105
  6
HIDDEN
 62
1
 10
2.4487986E+002
 20
3.7347185E+002
 11
2.5087986E+002
 21
3.7347185E+002
  0
LINE
  8
105
  6
HIDDEN
 62
1
 10
2.5087986E+002
 20
3.7347185E+002
 11
2.5087986E+002
 21
3.5147185E+002
  0
LINE
  8
106
  6
CENTERLINE
 62
1
 10
2.4787986E+002
 20
3.7558251E+002
 11
2.4787986E+002
 21
3.4675853E+002
  0
LINE
  8
105
  6
HIDDEN
 62
1
 10
2.9087986E+002
 20
3.5147185E+002
 11
2.9087986E+002
 21
3.7347185E+002
  0
LINE
  8
105
  6
HIDDEN
 62
1
 10
2.9087986E+002
 20
3.7347185E+002
 11
2.9687986E+002
 21
3.7347185E+002
  0
LINE
  8
105
  6
HIDDEN
 62
1
 10
2.9687986E+002
 20
3.7347185E+002
 11
2.9687986E+002
 21
3.5147185E+002
  0
LINE
  8
106
  6
CENTERLINE
 62
1
 10
2.9387986E+002
 20
3.7558251E+002
 11
2.9387986E+002
 21
3.4675853E+002
  0
LINE
  8
105
  6
HIDDEN
 62
1
 10
3.3687986E+002
 20
3.5147185E+002
 11
3.3687986E+002
 21
3.7347185E+002
  0
LINE
  8
105
  6
HIDDEN
 62
1
 10
3.3687986E+002
 20
3.7347185E+002
 11
3.4287986E+002
 21
3.7347185E+002
  0
LINE
  8
105
  6
HIDDEN
 62
1
 10
3.4287986E+002
 20
3.7347185E+002
 11
3.4287986E+002
 21
3.5147185E+002
  0
LINE
  8
106
  6
CENTERLINE
 62
1
 10
3.3987986E+002
 20
3.7558251E+002
 11
3.3987986E+002
 21
3.4675853E+002
  0
LINE
  8
105
  6
HIDDEN
 62
1
 10
1.9887986E+002
 20
3.5147185E+002
 11
1.9887986E+002
 21
3.7347185E+002
  0
LINE
  8
105
  6
HIDDEN
 62
1
 10
1.9887986E+002
 20
3.7347185E+002
 11
2.0487986E+002
 21
3.7347185E+002
  0
LINE
  8
105
  6
HIDDEN
 62
1
 10
2.0487986E+002
 20
3.7347185E+002
 11
2.0487986E+002
 21
3.5147185E+002
  0
LINE
  8
106
  6
CENTERLINE
 62
1
 10
2.0187986E+002
 20
3.7558251E+002
 11
2.0187986E+002
 21
3.4675853E+002
  0
LINE
  8
104
  6
CONTINUOUS
 62
40
 10
1.3587987E+002
 20
3.4447185E+002
 11
1.3587987E+002
 21
3.4647185E+002
  0
LINE
  8
104
  6
CONTINUOUS
 62
40
 10
1.3587987E+002
 20
3.4647185E+002
 11
1.6787987E+002
 21
3.4647185E+002
  0
LINE
  8
104
  6
CONTINUOUS
 62
40
 10
1.6787987E+002
 20
3.4647185E+002
 11
1.6787987E+002
 21
3.4447185E+002
  0
CIRCLE
  8
104
  6
CONTINUOUS
 62
40
 10
1.5187987E+002
 20
3.3447185E+002
 40
1.5
  0
LINE
  8
105
  6
HIDDEN
 62
1
 10
3.4587986E+002
 20
3.3847185E+002
 11
3.4287986E+002
 21
3.4147185E+002
  0
LINE
  8
105
  6
HIDDEN
 62
1
 10
3.4287986E+002
 20
3.4147185E+002
 11
3.4587986E+002
 21
3.4447185E+002
  0
LINE
  8
105
  6
HIDDEN
 62
1
 10
2.4187986E+002
 20
3.3847185E+002
 11
2.4487986E+002
 21
3.4147185E+002
  0
LINE
  8
105
  6
HIDDEN
 62
1
 10
2.4487986E+002
 20
3.4147185E+002
 11
2.4187986E+002
 21
3.4447185E+002
  0
LINE
  8
105
  6
HIDDEN
 62
1
 10
2.4487986E+002
 20
3.4147185E+002
 11
2.5087986E+002
 21
3.4147185E+002
  0
LINE
  8
105
  6
HIDDEN
 62
1
 10
2.9087986E+002
 20
3.4147185E+002
 11
2.9687986E+002
 21
3.4147185E+002
  0
LINE
  8
105
  6
HIDDEN
 62
1
 10
3.3687986E+002
 20
3.4147185E+002
 11
3.4287986E+002
 21
3.4147185E+002
  0
LINE
  8
105
  6
HIDDEN
 62
1
 10
2.8787986E+002
 20
3.3847185E+002
 11
2.9087986E+002
 21
3.4147185E+002
  0
LINE
  8
105
  6
HIDDEN
 62
1
 10
2.9087986E+002
 20
3.4147185E+002
 11
2.8787986E+002
 21
3.4447185E+002
  0
LINE
  8
105
  6
HIDDEN
 62
1
 10
3.3387986E+002
 20
3.3847185E+002
 11
3.3687986E+002
 21
3.4147185E+002
  0
LINE
  8
105
  6
HIDDEN
 62
1
 10
3.3687986E+002
 20
3.4147185E+002
 11
3.3387986E+002
 21
3.4447185E+002
  0
LINE
  8
105
  6
HIDDEN
 62
1
 10
2.9987986E+002
 20
3.3847185E+002
 11
2.9687986E+002
 21
3.4147185E+002
  0
LINE
  8
105
  6
HIDDEN
 62
1
 10
2.9687986E+002
 20
3.4147185E+002
 11
2.9987986E+002
 21
3.4447185E+002
  0
LINE
  8
105
  6
HIDDEN
 62
1
 10
2.5387986E+002
 20
3.3847185E+002
 11
2.5087986E+002
 21
3.4147185E+002
  0
LINE
  8
105
  6
HIDDEN
 62
1
 10
2.5087986E+002
 20
3.4147185E+002
 11
2.5387986E+002
 21
3.4447185E+002
  0
LINE
  8
105
  6
HIDDEN
 62
1
 10
1.9887986E+002
 20
3.4147185E+002
 11
2.0487986E+002
 21
3.4147185E+002
  0
LINE
  8
105
  6
HIDDEN
 62
1
 10
2.0787986E+002
 20
3.3847185E+002
 11
2.0487986E+002
 21
3.4147185E+002
  0
LINE
  8
105
  6
HIDDEN
 62
1
 10
2.0487986E+002
 20
3.4147185E+002
 11
2.0787986E+002
 21
3.4447185E+002
  0
LINE
  8
105
  6
HIDDEN
 62
1
 10
1.9587986E+002
 20
3.3847185E+002
 11
1.9887986E+002
 21
3.4147185E+002
  0
LINE
  8
105
  6
HIDDEN
 62
1
 10
1.9887986E+002
 20
3.4147185E+002
 11
1.9587986E+002
 21
3.4447185E+002
  0
LINE
  8
104
  6
CONTINUOUS
 62
40
 10
2.1987986E+002
 20
3.3847185E+002
 11
1.3437987E+002
 21
3.3847185E+002
  0
LINE
  8
104
  6
CONTINUOUS
 62
40
 10
1.3437987E+002
 20
3.3847185E+002
 11
1.3437987E+002
 21
3.4447185E+002
  0
LINE
  8
104
  6
CONTINUOUS
 62
40
 10
1.3437987E+002
 20
3.4447185E+002
 11
2.1987986E+002
 21
3.4447185E+002
  0
LINE
  8
104
  6
CONTINUOUS
 62
40
 10
2.1987986E+002
 20
3.4447185E+002
 11
2.1987986E+002
 21
3.3847185E+002
  0
LINE
  8
105
  6
HIDDEN
 62
1
 10
1.8487986E+002
 20
3.3847185E+002
 11
1.8487986E+002
 21
3.4447185E+002
  0
LINE
  8
105
  6
HIDDEN
 62
1
 10
2.1987986E+002
 20
3.3847185E+002
 11
3.5187986E+002
 21
3.3847185E+002
  0
LINE
  8
105
  6
HIDDEN
 62
1
 10
3.5187986E+002
 20
3.3847185E+002
 11
3.5187986E+002
 21
3.4447185E+002
  0
LINE
  8
105
  6
HIDDEN
 62
1
 10
3.5187986E+002
 20
3.4447185E+002
 11
2.1987986E+002
 21
3.4447185E+002
  0
LINE
  8
106
  6
CENTERLINE
 62
1
 10
1.5187987E+002
 20
3.198429E+002
 11
1.5187987E+002
 21
3.4653392E+002
  0
LINE
  8
104
  6
CONTINUOUS
 62
40
 10
1.6837987E+002
 20
3.2447185E+002
 11
1.6937987E+002
 21
3.2547185E+002
  0
LINE
  8
104
  6
CONTINUOUS
 62
40
 10
1.6937987E+002
 20
3.2547185E+002
 11
1.6937987E+002
 21
3.3847185E+002
  0
LINE
  8
104
  6
CONTINUOUS
 62
40
 10
1.6937987E+002
 20
3.3847185E+002
 11
1.3437987E+002
 21
3.3847185E+002
  0
LINE
  8
104
  6
CONTINUOUS
 62
40
 10
1.3437987E+002
 20
3.3847185E+002
 11
1.3437987E+002
 21
3.2547185E+002
  0
LINE
  8
104
  6
CONTINUOUS
 62
40
 10
1.3437987E+002
 20
3.2547185E+002
 11
1.3537987E+002
 21
3.2447185E+002
  0
LINE
  8
104
  6
CONTINUOUS
 62
40
 10
1.3537987E+002
 20
3.2447185E+002
 11
1.6837987E+002
 21
3.2447185E+002
  0
LINE
  8
104
  6
CONTINUOUS
 62
40
 10
1.3437987E+002
 20
3.2547185E+002
 11
1.6937987E+002
 21
3.2547185E+002
  0
CIRCLE
  8
104
  6
CONTINUOUS
 62
40
 10
1.5187987E+002
 20
3.3447185E+002
 40
3.75
  0
LINE
  8
106
  6
CENTERLINE
 62
1
 10
1.4670109E+002
 20
3.3447185E+002
 11
1.5709251E+002
 21
3.3447185E+002
  0
LINE
  8
105
  6
HIDDEN
 62
1
 10
2.4487986E+002
 20
3.4147185E+002
 11
2.4487986E+002
 21
3.1947187E+002
  0
LINE
  8
105
  6
HIDDEN
 62
1
 10
2.4487986E+002
 20
3.1947187E+002
 11
2.5087986E+002
 21
3.1947187E+002
  0
LINE
  8
105
  6
HIDDEN
 62
1
 10
2.5087986E+002
 20
3.1947187E+002
 11
2.5087986E+002
 21
3.4147185E+002
  0
LINE
  8
106
  6
CENTERLINE
 62
1
 10
2.4787986E+002
 20
3.1736121E+002
 11
2.4787986E+002
 21
3.4618517E+002
  0
LINE
  8
105
  6
HIDDEN
 62
1
 10
2.9087986E+002
 20
3.4147185E+002
 11
2.9087986E+002
 21
3.1947187E+002
  0
LINE
  8
105
  6
HIDDEN
 62
1
 10
2.9087986E+002
 20
3.1947187E+002
 11
2.9687986E+002
 21
3.1947187E+002
  0
LINE
  8
105
  6
HIDDEN
 62
1
 10
2.9687986E+002
 20
3.1947187E+002
 11
2.9687986E+002
 21
3.4147185E+002
  0
LINE
  8
106
  6
CENTERLINE
 62
1
 10
2.9387986E+002
 20
3.1736121E+002
 11
2.9387986E+002
 21
3.4618517E+002
  0
LINE
  8
105
  6
HIDDEN
 62
1
 10
3.3687986E+002
 20
3.4147185E+002
 11
3.3687986E+002
 21
3.1947187E+002
  0
LINE
  8
105
  6
HIDDEN
 62
1
 10
3.3687986E+002
 20
3.1947187E+002
 11
3.4287986E+002
 21
3.1947187E+002
  0
LINE
  8
105
  6
HIDDEN
 62
1
 10
3.4287986E+002
 20
3.1947187E+002
 11
3.4287986E+002
 21
3.4147185E+002
  0
LINE
  8
106
  6
CENTERLINE
 62
1
 10
3.3987986E+002
 20
3.1736121E+002
 11
3.3987986E+002
 21
3.4618517E+002
  0
LINE
  8
105
  6
HIDDEN
 62
1
 10
1.9887986E+002
 20
3.4147185E+002
 11
1.9887986E+002
 21
3.1947187E+002
  0
LINE
  8
105
  6
HIDDEN
 62
1
 10
1.9887986E+002
 20
3.1947187E+002
 11
2.0487986E+002
 21
3.1947187E+002
  0
LINE
  8
105
  6
HIDDEN
 62
1
 10
2.0487986E+002
 20
3.1947187E+002
 11
2.0487986E+002
 21
3.4147185E+002
  0
LINE
  8
106
  6
CENTERLINE
 62
1
 10
2.0187986E+002
 20
3.1736121E+002
 11
2.0187986E+002
 21
3.4618517E+002
  0
LINE
  8
98
  6
CONTINUOUS
 62
1
 10
5.0
 20
5.0
 11
5.89E+002
 21
5.0
  0
LINE
  8
98
  6
CONTINUOUS
 62
1
 10
5.89E+002
 20
5.0
 11
5.89E+002
 21
4.15E+002
  0
LINE
  8
98
  6
CONTINUOUS
 62
1
 10
5.89E+002
 20
4.15E+002
 11
5.0
 21
4.15E+002
  0
LINE
  8
98
  6
CONTINUOUS
 62
1
 10
5.0
 20
4.15E+002
 11
5.0
 21
5.0
  0
ENDSEC
  0
EOF
