  0
SECTION
  2
HEADER
  9
$ACADVER
  1
AC1009
999
I-DEAS 11 NX Not Encoded
  9
$EXTMIN
 10
0.0
 20
0.0
  9
$EXTMAX
 10
4.2E+002
 20
2.97E+002
  9
$TEXTSIZE
 40
1.25E-001
  9
$LTSCALE
 40
1.0
  9
$CLAYER
  8
2D_SICHTBARE_KANTEN
  9
$CECOLOR
 62
40
  9
$DIMASZ
 40
1.25E-001
  9
$DIMEXO
 40
6.25E-002
  9
$DIMDLI
 40
2.5E-001
  9
$DIMEXE
 40
1.25E-001
  9
$DIMTP
 40
5.0E-003
  9
$DIMTM
 40
-5.0E-003
  9
$DIMTXT
 40
3.0
  9
$DIMLIM
 70
0
  9
$DIMTIH
 70
1
  9
$DIMTOH
 70
1
  9
$DIMSE1
 70
0
  9
$DIMSE2
 70
0
  9
$DIMTAD
 70
0
  9
$DIMASO
 70
1
  9
$DIMALT
 70
0
  9
$DIMALTD
 70
0
  9
$DIMTOFL
 70
1
  9
$DIMTIX
 70
0
  9
$DIMSAH
 70
0
  9
$DIMTFAC
 40
1.0
  9
$DIMGAP
 40
6.25E-002
  9
$LUNITS
 70
2
  9
$LUPREC
 70
3
  9
$FILLETRAD
 40
2.0
  9
$AUNITS
 70
0
  9
$AUPREC
 70
1
  9
$CHAMFERA
 40
1.0E+001
  9
$CHAMFERB
 40
1.0E+001
  9
$ANGBASE
 50
0.0
  9
$ANGDIR
 70
0
  9
$PEXTMIN
 10
0.0
 20
0.0
 30
0.0
  9
$PEXTMAX
 10
4.2E+002
 20
2.97E+002
 30
0.0
  9
$PLIMMIN
 10
0.0
 20
0.0
  9
$PLIMMAX
 10
4.2E+002
 20
2.97E+002
  9
$PDMODE
 70
2
  9
$PDSIZE
 40
-1.0E-002
  9
$SPLINETYPE
 70
6
  9
$TILEMODE
 70
1
  0
ENDSEC
  0
SECTION
  2
TABLES
  0
TABLE
  2
VPORT
 70
2
  0
VPORT
  2
*Active
 70
0
 10
0.0
 20
0.0
 11
4.2E+002
 21
2.97E+002
 12
2.1E+002
 22
1.485E+002
 13
0.0
 23
0.0
 14
1.0
 24
1.0
 15
0.0
 25
0.0
 16
0.0
 26
0.0
 36
1.0
 17
0.0
 27
0.0
 37
0.0
 40
2.97E+002
 41
1.4141414
 42
5.0E+001
 43
0.0
 44
0.0
 50
0.0
 51
0.0
 71
0
 72
100
 73
1
 74
3
 75
0
 76
0
 77
0
 78
0
  0
ENDTAB
  0
TABLE
  2
LTYPE
 70
7
  0
LTYPE
  2
HIDDENNEW0
  3
_ 
 70
64
 72
65
 73
3
 40
4.5
 49
1.5
 49
-1.5
 49
1.5
  0
LTYPE
  2
HIDDENNEW1
  3
_ 
 70
64
 72
65
 73
3
 40
4.5
 49
1.5
 49
-1.5
 49
1.5
  0
LTYPE
  2
HIDDEN
  3
_ 
 70
64
 72
65
 73
3
 40
4.5
 49
1.5
 49
-1.5
 49
1.5
  0
LTYPE
  2
CENTERLINE
  3
_ 
 70
64
 72
65
 73
5
 40
3.0E+001
 49
1.2E+001
 49
-1.5
 49
3.0
 49
-1.5
 49
1.2E+001
  0
LTYPE
  2
PHANTOM
  3
_ 
 70
64
 72
65
 73
7
 40
2.95E+001
 49
9.5
 49
-1.5
 49
3.0
 49
-1.5
 49
3.0
 49
-1.5
 49
9.5
  0
LTYPE
  2
SHORT_DASH
  3
_ 
 70
64
 72
65
 73
3
 40
3.0
 49
7.5E-001
 49
-1.5
 49
7.5E-001
  0
LTYPE
  2
LONG_DASH
  3
_ 
 70
64
 72
65
 73
3
 40
9.0
 49
2.25
 49
-4.5
 49
2.25
  0
ENDTAB
  0
TABLE
  2
LAYER
 70
258
  0
LAYER
  2
MED-1
 70
0
 62
3
  6
HIDDENNEW0
  0
LAYER
  2
2
 70
0
 62
7
  6
CONTINUOUS
  0
LAYER
  2
3
 70
0
 62
7
  6
CONTINUOUS
  0
LAYER
  2
MED-4
 70
0
 62
2
  6
HIDDENNEW0
  0
LAYER
  2
5
 70
0
 62
7
  6
CONTINUOUS
  0
LAYER
  2
MED-6
 70
0
 62
6
  6
HIDDENNEW0
  0
LAYER
  2
7
 70
0
 62
7
  6
CONTINUOUS
  0
LAYER
  2
8
 70
0
 62
7
  6
CONTINUOUS
  0
LAYER
  2
9
 70
0
 62
7
  6
CONTINUOUS
  0
LAYER
  2
10
 70
0
 62
7
  6
CONTINUOUS
  0
LAYER
  2
MED-11
 70
0
 62
70
  6
HIDDENNEW0
  0
LAYER
  2
12
 70
0
 62
7
  6
CONTINUOUS
  0
LAYER
  2
13
 70
0
 62
7
  6
CONTINUOUS
  0
LAYER
  2
14
 70
0
 62
7
  6
CONTINUOUS
  0
LAYER
  2
15
 70
0
 62
7
  6
CONTINUOUS
  0
LAYER
  2
16
 70
0
 62
7
  6
CONTINUOUS
  0
LAYER
  2
17
 70
0
 62
7
  6
CONTINUOUS
  0
LAYER
  2
18
 70
0
 62
7
  6
CONTINUOUS
  0
LAYER
  2
19
 70
0
 62
7
  6
CONTINUOUS
  0
LAYER
  2
20
 70
0
 62
7
  6
CONTINUOUS
  0
LAYER
  2
21
 70
0
 62
7
  6
CONTINUOUS
  0
LAYER
  2
22
 70
0
 62
7
  6
CONTINUOUS
  0
LAYER
  2
23
 70
0
 62
7
  6
CONTINUOUS
  0
LAYER
  2
24
 70
0
 62
7
  6
CONTINUOUS
  0
LAYER
  2
25
 70
0
 62
7
  6
CONTINUOUS
  0
LAYER
  2
26
 70
0
 62
7
  6
CONTINUOUS
  0
LAYER
  2
27
 70
0
 62
7
  6
CONTINUOUS
  0
LAYER
  2
28
 70
0
 62
7
  6
CONTINUOUS
  0
LAYER
  2
29
 70
0
 62
7
  6
CONTINUOUS
  0
LAYER
  2
30
 70
0
 62
7
  6
CONTINUOUS
  0
LAYER
  2
31
 70
0
 62
7
  6
CONTINUOUS
  0
LAYER
  2
32
 70
0
 62
7
  6
CONTINUOUS
  0
LAYER
  2
33
 70
0
 62
7
  6
CONTINUOUS
  0
LAYER
  2
34
 70
0
 62
7
  6
CONTINUOUS
  0
LAYER
  2
35
 70
0
 62
7
  6
CONTINUOUS
  0
LAYER
  2
36
 70
0
 62
7
  6
CONTINUOUS
  0
LAYER
  2
37
 70
0
 62
7
  6
CONTINUOUS
  0
LAYER
  2
38
 70
0
 62
7
  6
CONTINUOUS
  0
LAYER
  2
39
 70
0
 62
7
  6
CONTINUOUS
  0
LAYER
  2
40
 70
0
 62
7
  6
CONTINUOUS
  0
LAYER
  2
41
 70
0
 62
7
  6
CONTINUOUS
  0
LAYER
  2
42
 70
0
 62
7
  6
CONTINUOUS
  0
LAYER
  2
43
 70
0
 62
7
  6
CONTINUOUS
  0
LAYER
  2
44
 70
0
 62
7
  6
CONTINUOUS
  0
LAYER
  2
45
 70
0
 62
7
  6
CONTINUOUS
  0
LAYER
  2
46
 70
0
 62
7
  6
CONTINUOUS
  0
LAYER
  2
47
 70
0
 62
7
  6
CONTINUOUS
  0
LAYER
  2
48
 70
0
 62
7
  6
CONTINUOUS
  0
LAYER
  2
49
 70
0
 62
7
  6
CONTINUOUS
  0
LAYER
  2
50
 70
0
 62
7
  6
CONTINUOUS
  0
LAYER
  2
51
 70
0
 62
7
  6
CONTINUOUS
  0
LAYER
  2
52
 70
0
 62
7
  6
CONTINUOUS
  0
LAYER
  2
53
 70
0
 62
7
  6
CONTINUOUS
  0
LAYER
  2
54
 70
0
 62
7
  6
CONTINUOUS
  0
LAYER
  2
55
 70
0
 62
7
  6
CONTINUOUS
  0
LAYER
  2
56
 70
0
 62
7
  6
CONTINUOUS
  0
LAYER
  2
57
 70
0
 62
7
  6
CONTINUOUS
  0
LAYER
  2
58
 70
0
 62
7
  6
CONTINUOUS
  0
LAYER
  2
59
 70
0
 62
7
  6
CONTINUOUS
  0
LAYER
  2
60
 70
0
 62
7
  6
CONTINUOUS
  0
LAYER
  2
61
 70
0
 62
7
  6
CONTINUOUS
  0
LAYER
  2
62
 70
0
 62
7
  6
CONTINUOUS
  0
LAYER
  2
63
 70
0
 62
7
  6
CONTINUOUS
  0
LAYER
  2
64
 70
0
 62
7
  6
CONTINUOUS
  0
LAYER
  2
65
 70
0
 62
7
  6
CONTINUOUS
  0
LAYER
  2
66
 70
0
 62
7
  6
CONTINUOUS
  0
LAYER
  2
67
 70
0
 62
7
  6
CONTINUOUS
  0
LAYER
  2
68
 70
0
 62
7
  6
CONTINUOUS
  0
LAYER
  2
69
 70
0
 62
7
  6
CONTINUOUS
  0
LAYER
  2
70
 70
0
 62
7
  6
CONTINUOUS
  0
LAYER
  2
71
 70
0
 62
7
  6
CONTINUOUS
  0
LAYER
  2
72
 70
0
 62
7
  6
CONTINUOUS
  0
LAYER
  2
73
 70
0
 62
7
  6
CONTINUOUS
  0
LAYER
  2
74
 70
0
 62
7
  6
CONTINUOUS
  0
LAYER
  2
75
 70
0
 62
7
  6
CONTINUOUS
  0
LAYER
  2
76
 70
0
 62
7
  6
CONTINUOUS
  0
LAYER
  2
77
 70
0
 62
7
  6
CONTINUOUS
  0
LAYER
  2
78
 70
0
 62
7
  6
CONTINUOUS
  0
LAYER
  2
79
 70
0
 62
7
  6
CONTINUOUS
  0
LAYER
  2
80
 70
0
 62
7
  6
CONTINUOUS
  0
LAYER
  2
81
 70
0
 62
7
  6
CONTINUOUS
  0
LAYER
  2
82
 70
0
 62
7
  6
CONTINUOUS
  0
LAYER
  2
83
 70
0
 62
7
  6
CONTINUOUS
  0
LAYER
  2
84
 70
0
 62
7
  6
CONTINUOUS
  0
LAYER
  2
85
 70
0
 62
7
  6
CONTINUOUS
  0
LAYER
  2
86
 70
0
 62
7
  6
CONTINUOUS
  0
LAYER
  2
87
 70
0
 62
7
  6
CONTINUOUS
  0
LAYER
  2
88
 70
0
 62
7
  6
CONTINUOUS
  0
LAYER
  2
89
 70
0
 62
7
  6
CONTINUOUS
  0
LAYER
  2
90
 70
0
 62
7
  6
CONTINUOUS
  0
LAYER
  2
91
 70
0
 62
7
  6
CONTINUOUS
  0
LAYER
  2
92
 70
0
 62
7
  6
CONTINUOUS
  0
LAYER
  2
93
 70
0
 62
7
  6
CONTINUOUS
  0
LAYER
  2
94
 70
0
 62
7
  6
CONTINUOUS
  0
LAYER
  2
95
 70
0
 62
7
  6
CONTINUOUS
  0
LAYER
  2
96
 70
0
 62
7
  6
CONTINUOUS
  0
LAYER
  2
97
 70
0
 62
7
  6
CONTINUOUS
  0
LAYER
  2
98
 70
0
 62
7
  6
CONTINUOUS
  0
LAYER
  2
99
 70
0
 62
7
  6
CONTINUOUS
  0
LAYER
  2
2D_BEMASSUNG
 70
0
 62
1
  6
PHANTOM
  0
LAYER
  2
2D_SCHNITTVERLAUF_ETC
 70
0
 62
40
  6
CONTINUOUS
  0
LAYER
  2
102
 70
0
 62
7
  6
CONTINUOUS
  0
LAYER
  2
2D_TEXT
 70
0
 62
1
  6
CONTINUOUS
  0
LAYER
  2
2D_SICHTBARE_KANTEN
 70
0
 62
1
  6
HIDDENNEW0
  0
LAYER
  2
2D_VERDECKTE_KANTEN
 70
0
 62
1
  6
CONTINUOUS
  0
LAYER
  2
2D_MITTELLINIEN
 70
0
 62
1
  6
PHANTOM
  0
LAYER
  2
2D_REFERENZ-GEOMETRIE
 70
0
 62
1
  6
CONTINUOUS
  0
LAYER
  2
2D_SCHRAFFUR
 70
0
 62
1
  6
CONTINUOUS
  0
LAYER
  2
2D_SYMBOLE
 70
0
 62
1
  6
CONTINUOUS
  0
LAYER
  2
110
 70
0
 62
7
  6
CONTINUOUS
  0
LAYER
  2
111
 70
0
 62
7
  6
CONTINUOUS
  0
LAYER
  2
112
 70
0
 62
7
  6
CONTINUOUS
  0
LAYER
  2
113
 70
0
 62
7
  6
CONTINUOUS
  0
LAYER
  2
2D_TANGENT__KANTEN
 70
0
 62
150
  6
HIDDENNEW0
  0
LAYER
  2
115
 70
0
 62
7
  6
CONTINUOUS
  0
LAYER
  2
116
 70
0
 62
7
  6
CONTINUOUS
  0
LAYER
  2
117
 70
0
 62
7
  6
CONTINUOUS
  0
LAYER
  2
118
 70
0
 62
7
  6
CONTINUOUS
  0
LAYER
  2
119
 70
0
 62
7
  6
CONTINUOUS
  0
LAYER
  2
120
 70
0
 62
7
  6
CONTINUOUS
  0
LAYER
  2
121
 70
0
 62
7
  6
CONTINUOUS
  0
LAYER
  2
122
 70
0
 62
7
  6
CONTINUOUS
  0
LAYER
  2
123
 70
0
 62
7
  6
CONTINUOUS
  0
LAYER
  2
124
 70
0
 62
7
  6
CONTINUOUS
  0
LAYER
  2
125
 70
0
 62
7
  6
CONTINUOUS
  0
LAYER
  2
126
 70
0
 62
7
  6
CONTINUOUS
  0
LAYER
  2
127
 70
0
 62
7
  6
CONTINUOUS
  0
LAYER
  2
128
 70
0
 62
7
  6
CONTINUOUS
  0
LAYER
  2
129
 70
0
 62
7
  6
CONTINUOUS
  0
LAYER
  2
130
 70
0
 62
7
  6
CONTINUOUS
  0
LAYER
  2
131
 70
0
 62
7
  6
CONTINUOUS
  0
LAYER
  2
132
 70
0
 62
7
  6
CONTINUOUS
  0
LAYER
  2
133
 70
0
 62
7
  6
CONTINUOUS
  0
LAYER
  2
134
 70
0
 62
7
  6
CONTINUOUS
  0
LAYER
  2
135
 70
0
 62
7
  6
CONTINUOUS
  0
LAYER
  2
136
 70
0
 62
7
  6
CONTINUOUS
  0
LAYER
  2
137
 70
0
 62
7
  6
CONTINUOUS
  0
LAYER
  2
138
 70
0
 62
7
  6
CONTINUOUS
  0
LAYER
  2
139
 70
0
 62
7
  6
CONTINUOUS
  0
LAYER
  2
140
 70
0
 62
7
  6
CONTINUOUS
  0
LAYER
  2
141
 70
0
 62
7
  6
CONTINUOUS
  0
LAYER
  2
142
 70
0
 62
7
  6
CONTINUOUS
  0
LAYER
  2
143
 70
0
 62
7
  6
CONTINUOUS
  0
LAYER
  2
144
 70
0
 62
7
  6
CONTINUOUS
  0
LAYER
  2
145
 70
0
 62
7
  6
CONTINUOUS
  0
LAYER
  2
146
 70
0
 62
7
  6
CONTINUOUS
  0
LAYER
  2
147
 70
0
 62
7
  6
CONTINUOUS
  0
LAYER
  2
148
 70
0
 62
7
  6
CONTINUOUS
  0
LAYER
  2
149
 70
0
 62
7
  6
CONTINUOUS
  0
LAYER
  2
150
 70
0
 62
7
  6
CONTINUOUS
  0
LAYER
  2
151
 70
0
 62
7
  6
CONTINUOUS
  0
LAYER
  2
152
 70
0
 62
7
  6
CONTINUOUS
  0
LAYER
  2
153
 70
0
 62
7
  6
CONTINUOUS
  0
LAYER
  2
154
 70
0
 62
7
  6
CONTINUOUS
  0
LAYER
  2
155
 70
0
 62
7
  6
CONTINUOUS
  0
LAYER
  2
156
 70
0
 62
7
  6
CONTINUOUS
  0
LAYER
  2
157
 70
0
 62
7
  6
CONTINUOUS
  0
LAYER
  2
158
 70
0
 62
7
  6
CONTINUOUS
  0
LAYER
  2
159
 70
0
 62
7
  6
CONTINUOUS
  0
LAYER
  2
160
 70
0
 62
7
  6
CONTINUOUS
  0
LAYER
  2
161
 70
0
 62
7
  6
CONTINUOUS
  0
LAYER
  2
162
 70
0
 62
7
  6
CONTINUOUS
  0
LAYER
  2
163
 70
0
 62
7
  6
CONTINUOUS
  0
LAYER
  2
164
 70
0
 62
7
  6
CONTINUOUS
  0
LAYER
  2
165
 70
0
 62
7
  6
CONTINUOUS
  0
LAYER
  2
166
 70
0
 62
7
  6
CONTINUOUS
  0
LAYER
  2
167
 70
0
 62
7
  6
CONTINUOUS
  0
LAYER
  2
168
 70
0
 62
7
  6
CONTINUOUS
  0
LAYER
  2
169
 70
0
 62
7
  6
CONTINUOUS
  0
LAYER
  2
170
 70
0
 62
7
  6
CONTINUOUS
  0
LAYER
  2
171
 70
0
 62
7
  6
CONTINUOUS
  0
LAYER
  2
172
 70
0
 62
7
  6
CONTINUOUS
  0
LAYER
  2
173
 70
0
 62
7
  6
CONTINUOUS
  0
LAYER
  2
174
 70
0
 62
7
  6
CONTINUOUS
  0
LAYER
  2
175
 70
0
 62
7
  6
CONTINUOUS
  0
LAYER
  2
176
 70
0
 62
7
  6
CONTINUOUS
  0
LAYER
  2
177
 70
0
 62
7
  6
CONTINUOUS
  0
LAYER
  2
178
 70
0
 62
7
  6
CONTINUOUS
  0
LAYER
  2
179
 70
0
 62
7
  6
CONTINUOUS
  0
LAYER
  2
180
 70
0
 62
7
  6
CONTINUOUS
  0
LAYER
  2
181
 70
0
 62
7
  6
CONTINUOUS
  0
LAYER
  2
182
 70
0
 62
7
  6
CONTINUOUS
  0
LAYER
  2
183
 70
0
 62
7
  6
CONTINUOUS
  0
LAYER
  2
184
 70
0
 62
7
  6
CONTINUOUS
  0
LAYER
  2
185
 70
0
 62
7
  6
CONTINUOUS
  0
LAYER
  2
186
 70
0
 62
7
  6
CONTINUOUS
  0
LAYER
  2
187
 70
0
 62
7
  6
CONTINUOUS
  0
LAYER
  2
188
 70
0
 62
7
  6
CONTINUOUS
  0
LAYER
  2
189
 70
0
 62
7
  6
CONTINUOUS
  0
LAYER
  2
190
 70
0
 62
7
  6
CONTINUOUS
  0
LAYER
  2
191
 70
0
 62
7
  6
CONTINUOUS
  0
LAYER
  2
192
 70
0
 62
7
  6
CONTINUOUS
  0
LAYER
  2
193
 70
0
 62
7
  6
CONTINUOUS
  0
LAYER
  2
194
 70
0
 62
7
  6
CONTINUOUS
  0
LAYER
  2
195
 70
0
 62
7
  6
CONTINUOUS
  0
LAYER
  2
196
 70
0
 62
7
  6
CONTINUOUS
  0
LAYER
  2
197
 70
0
 62
7
  6
CONTINUOUS
  0
LAYER
  2
198
 70
0
 62
7
  6
CONTINUOUS
  0
LAYER
  2
199
 70
0
 62
7
  6
CONTINUOUS
  0
LAYER
  2
3D_BEMASSUNG
 70
0
 62
4
  6
CONTINUOUS
  0
LAYER
  2
3D_REF__BEMASSUNG
 70
0
 62
1
  6
CONTINUOUS
  0
LAYER
  2
3D_OFFPLANE_BEMASSUNG
 70
0
 62
4
  6
CONTINUOUS
  0
LAYER
  2
3D_TEXT
 70
0
 62
1
  6
CONTINUOUS
  0
LAYER
  2
3D_SICHTBARE_KANTEN
 70
0
 62
40
  6
HIDDENNEW0
  0
LAYER
  2
Drafting_Hidden_Entities
 70
1
 62
7
  6
CONTINUOUS
  0
ENDTAB
  0
TABLE
  2
STYLE
 70
1
  0
STYLE
  2
STANDARD
 70
64
 40
0.0
 41
1.0
 50
0.0
 71
0
 42
1.0
  3
monotxt.shx
  4

  0
ENDTAB
  0
TABLE
  2
VIEW
 70
0
  0
ENDTAB
  0
TABLE
  2
DIMSTYLE
 70
4
  0
DIMSTYLE
  2
DSTYLE1
 70
0
  3

  4

  5

  6

  7

 40
1.0
 41
8.0
 42
0.0
 43
3.8E-001
 44
3.0
 45
0.0
 46
0.0
 47
1.0E-001
 48
1.0E-001
 71
0
 72
0
 73
0
 74
0
 75
0
 76
0
 77
1
 78
11
140
7.0
141
9.0E-002
142
0.0
143
3.9370079E-002
144
1.0
145
0.0
146
1.0
147
3.0
170
0
171
2
172
0
173
0
174
0
175
0
176
0
177
0
178
0
  0
DIMSTYLE
  2
DSTYLE2
 70
0
  3

  4

  5

  6

  7

 40
1.0
 41
8.0
 42
0.0
 43
3.8E-001
 44
3.0
 45
1.0E-003
 46
0.0
 47
1.0E-001
 48
1.0E-001
 71
0
 72
0
 73
0
 74
0
 75
0
 76
0
 77
1
 78
11
140
7.0
141
9.0E-002
142
0.0
143
3.9370079E-002
144
1.0
145
0.0
146
1.0
147
3.0
170
0
171
2
172
0
173
0
174
0
175
0
176
0
177
0
178
0
  0
DIMSTYLE
  2
DSTYLE3
 70
0
  3

  4

  5

  6

  7

 40
1.0
 41
4.0
 42
0.0
 43
3.8E-001
 44
1.5
 45
0.0
 46
0.0
 47
1.0E-001
 48
1.0E-001
 71
0
 72
0
 73
0
 74
0
 75
0
 76
0
 77
1
 78
11
140
7.0
141
9.0E-002
142
0.0
143
3.9370079E-002
144
2.0
145
0.0
146
1.0
147
1.5
170
0
171
2
172
0
173
0
174
0
175
0
176
0
177
0
178
0
  0
DIMSTYLE
  2
DSTYLE4
 70
0
  3

  4

  5

  6

  7

 40
1.0
 41
4.0
 42
0.0
 43
3.8E-001
 44
1.5
 45
1.0E-003
 46
0.0
 47
1.0E-001
 48
1.0E-001
 71
0
 72
0
 73
0
 74
0
 75
0
 76
0
 77
1
 78
11
140
7.0
141
9.0E-002
142
0.0
143
3.9370079E-002
144
2.0
145
0.0
146
1.0
147
1.5
170
0
171
2
172
0
173
0
174
0
175
0
176
0
177
0
178
0
  0
ENDTAB
  0
ENDSEC
  0
SECTION
  2
BLOCKS
  0
BLOCK
  2
_AH12
  3
_AH
 10
0.0
 20
0.0
 70
64
  0
LINE
  8
0
  6
CONTINUOUS
 62
0
 10
0.0
 20
0.0
 11
1.0
 21
0.0
  0
LINE
  8
0
  6
CONTINUOUS
 62
0
 10
0.0
 20
0.0
 11
-1.0
 21
0.0
  0
ENDBLK
  0
BLOCK
  2
_AH13
  3
_AH
 10
0.0
 20
0.0
 70
64
  0
SOLID
  8
0
  6
CONTINUOUS
 62
0
 10
0.0
 20
0.0
 11
1.0
 21
-1.66667E-001
 12
1.0
 22
1.66667E-001
 13
0.0
 23
0.0
  0
ENDBLK
  0
BLOCK
  2
_AH14
  3
_AH
 10
0.0
 20
0.0
 70
64
  0
ENDBLK
  0
BLOCK
  2
_AH15
  3
_AH
 10
0.0
 20
0.0
 70
64
  0
CIRCLE
  8
0
  6
CONTINUOUS
 62
0
 10
0.0
 20
0.0
 40
1.66667E-001
  0
LINE
  8
0
  6
CONTINUOUS
 62
0
 10
0.0
 20
0.0
 11
-1.0
 21
0.0
  0
ENDBLK
  0
BLOCK
  2
_AH16
  3
_AH
 10
0.0
 20
0.0
 70
64
  0
POLYLINE
  8
0
  6
CONTINUOUS
 62
0
 66
1
 40
0.0
 41
0.0
 70
0
  0
VERTEX
  8
0
 42
1.0
 10
8.3335E-002
 20
0.0
 70
0
  0
VERTEX
  8
0
 42
1.0
 10
-8.3335E-002
 20
0.0
 70
0
  0
VERTEX
  8
0
 42
0.0
 10
8.3335E-002
 20
0.0
 70
0
  0
SEQEND
  0
LINE
  8
0
  6
CONTINUOUS
 62
0
 10
0.0
 20
0.0
 11
-1.0
 21
0.0
  0
ENDBLK
  0
BLOCK
  2
_AH17
  3
_AH
 10
0.0
 20
0.0
 70
64
  0
LINE
  8
0
  6
CONTINUOUS
 62
0
 10
-1.66667E-001
 20
-1.66667E-001
 11
1.66667E-001
 21
-1.66667E-001
  0
LINE
  8
0
  6
CONTINUOUS
 62
0
 10
1.66667E-001
 20
-1.66667E-001
 11
1.66667E-001
 21
1.66667E-001
  0
LINE
  8
0
  6
CONTINUOUS
 62
0
 10
1.66667E-001
 20
1.66667E-001
 11
-1.66667E-001
 21
1.66667E-001
  0
LINE
  8
0
  6
CONTINUOUS
 62
0
 10
-1.66667E-001
 20
1.66667E-001
 11
-1.66667E-001
 21
-1.66667E-001
  0
LINE
  8
0
  6
CONTINUOUS
 62
0
 10
0.0
 20
0.0
 11
-1.0
 21
0.0
  0
ENDBLK
  0
BLOCK
  2
_AH18
  3
_AH
 10
0.0
 20
0.0
 70
64
  0
SOLID
  8
0
  6
CONTINUOUS
 62
0
 10
-1.66667E-001
 20
-1.66667E-001
 11
1.66667E-001
 21
-1.66667E-001
 12
-1.66667E-001
 22
1.66667E-001
 13
1.66667E-001
 23
1.66667E-001
  0
LINE
  8
0
  6
CONTINUOUS
 62
0
 10
0.0
 20
0.0
 11
-1.0
 21
0.0
  0
ENDBLK
  0
BLOCK
  2
_AH19
  3
_AH
 10
0.0
 20
0.0
 70
64
  0
LINE
  8
0
  6
CONTINUOUS
 62
0
 10
-5.0E-001
 20
-5.0E-001
 11
5.0E-001
 21
5.0E-001
  0
LINE
  8
0
  6
CONTINUOUS
 62
0
 10
0.0
 20
0.0
 11
-1.0
 21
0.0
  0
ENDBLK
  0
BLOCK
  2
_AH20
  3
_AH
 10
0.0
 20
0.0
 70
64
  0
POLYLINE
  8
0
  6
CONTINUOUS
 62
0
 66
1
 40
5.0E-001
 41
5.0E-001
 70
0
  0
VERTEX
  8
0
 42
4.1421356E-001
 10
-1.66667E-001
 20
-1.66667E-001
 70
0
  0
VERTEX
  8
0
 42
0.0
 10
0.0
 20
0.0
 70
0
  0
SEQEND
  0
POLYLINE
  8
0
  6
CONTINUOUS
 62
0
 66
1
 40
5.0E-001
 41
5.0E-001
 70
0
  0
VERTEX
  8
0
 42
4.1421356E-001
 10
1.66667E-001
 20
1.66667E-001
 70
0
  0
VERTEX
  8
0
 42
0.0
 10
0.0
 20
0.0
 70
0
  0
SEQEND
  0
LINE
  8
0
  6
CONTINUOUS
 62
0
 10
0.0
 20
0.0
 11
-1.0
 21
0.0
  0
ENDBLK
  0
BLOCK
  2
_AH21
  3
_AH
 10
0.0
 20
0.0
 70
64
  0
LINE
  8
0
  6
CONTINUOUS
 62
0
 10
0.0
 20
0.0
 11
-1.0
 21
-1.66667E-001
  0
LINE
  8
0
  6
CONTINUOUS
 62
0
 10
-1.0
 20
-1.66667E-001
 11
-1.0
 21
1.66667E-001
  0
LINE
  8
0
  6
CONTINUOUS
 62
0
 10
-1.0
 20
1.66667E-001
 11
0.0
 21
0.0
  0
ENDBLK
  0
BLOCK
  2
555
 10
0.0
 20
0.0
 70
0
  0
CIRCLE
  8
3D_SICHTBARE_KANTEN
  6
CONTINUOUS
 62
1
 10
1.86E+001
 20
3.54E+001
 40
1.5
  0
CIRCLE
  8
3D_SICHTBARE_KANTEN
  6
CONTINUOUS
 62
1
 10
9.3
 20
3.54E+001
 40
1.5
  0
CIRCLE
  8
3D_SICHTBARE_KANTEN
  6
CONTINUOUS
 62
1
 10
0.0
 20
3.54E+001
 40
1.5
  0
CIRCLE
  8
3D_SICHTBARE_KANTEN
  6
CONTINUOUS
 62
1
 10
0.0
 20
2.61E+001
 40
1.5
  0
CIRCLE
  8
3D_SICHTBARE_KANTEN
  6
CONTINUOUS
 62
1
 10
-9.3
 20
3.54E+001
 40
1.5
  0
CIRCLE
  8
3D_SICHTBARE_KANTEN
  6
CONTINUOUS
 62
1
 10
-9.3
 20
2.61E+001
 40
1.5
  0
CIRCLE
  8
3D_SICHTBARE_KANTEN
  6
CONTINUOUS
 62
1
 10
-1.86E+001
 20
3.54E+001
 40
1.5
  0
CIRCLE
  8
3D_SICHTBARE_KANTEN
  6
CONTINUOUS
 62
1
 10
-1.86E+001
 20
2.61E+001
 40
1.5
  0
CIRCLE
  8
3D_SICHTBARE_KANTEN
  6
CONTINUOUS
 62
1
 10
-1.86E+001
 20
1.68E+001
 40
1.5
  0
CIRCLE
  8
3D_SICHTBARE_KANTEN
  6
CONTINUOUS
 62
1
 10
-1.86E+001
 20
7.5
 40
1.5
  0
CIRCLE
  8
3D_SICHTBARE_KANTEN
  6
CONTINUOUS
 62
1
 10
-9.3
 20
1.68E+001
 40
1.5
  0
CIRCLE
  8
3D_SICHTBARE_KANTEN
  6
CONTINUOUS
 62
1
 10
0.0
 20
1.68E+001
 40
1.5
  0
CIRCLE
  8
3D_SICHTBARE_KANTEN
  6
CONTINUOUS
 62
1
 10
0.0
 20
7.5
 40
1.5
  0
CIRCLE
  8
3D_SICHTBARE_KANTEN
  6
CONTINUOUS
 62
1
 10
-9.3
 20
7.5
 40
1.5
  0
CIRCLE
  8
3D_SICHTBARE_KANTEN
  6
CONTINUOUS
 62
1
 10
9.3
 20
7.5
 40
1.5
  0
CIRCLE
  8
3D_SICHTBARE_KANTEN
  6
CONTINUOUS
 62
1
 10
9.3
 20
1.68E+001
 40
1.5
  0
CIRCLE
  8
3D_SICHTBARE_KANTEN
  6
CONTINUOUS
 62
1
 10
9.3
 20
2.61E+001
 40
1.5
  0
CIRCLE
  8
3D_SICHTBARE_KANTEN
  6
CONTINUOUS
 62
1
 10
1.86E+001
 20
2.61E+001
 40
1.5
  0
CIRCLE
  8
3D_SICHTBARE_KANTEN
  6
CONTINUOUS
 62
1
 10
1.86E+001
 20
1.68E+001
 40
1.5
  0
CIRCLE
  8
3D_SICHTBARE_KANTEN
  6
CONTINUOUS
 62
1
 10
1.86E+001
 20
7.5
 40
1.5
  0
POINT
  8
Drafting_Hidden_Entities
  6
CONTINUOUS
 62
1
 10
0.0
 20
0.0
  0
ENDBLK
  0
BLOCK
  2
3
 10
0.0
 20
0.0
 70
0
  0
TEXT
  8
2D_TEXT
  6
CONTINUOUS
 62
40
 10
2.1506884E+002
 20
3.4691481E+001
 40
1.0E+001
  1
p439101.she
 41
6.5454545E-001
 72
1
 11
1.7906884E+002
 21
2.9691481E+001
 73
2
  0
TEXT
  8
2D_TEXT
  6
CONTINUOUS
 62
150
 10
1.3993183E+002
 20
1.2917903E+001
 40
7.0
  1
Maßstab:
 41
6.4687502E-001
 72
1
 11
1.2181933E+002
 21
9.4179026
 73
2
  0
LINE
  8
MED-1
  6
CONTINUOUS
 62
3
 10
0.0
 20
4.0E+001
 11
0.0
 21
7.56132E+001
  0
LINE
  8
MED-1
  6
CONTINUOUS
 62
3
 10
0.0
 20
7.56132E+001
 11
2.26714E+002
 21
7.56132E+001
  0
LINE
  8
MED-1
  6
CONTINUOUS
 62
3
 10
2.26714E+002
 20
7.56132E+001
 11
2.26714E+002
 21
4.0E+001
  0
TEXT
  8
2D_TEXT
  6
CONTINUOUS
 62
150
 10
4.6041464E+001
 20
5.1228346E+001
 40
7.0
  1
Benennung
 41
6.5000002E-001
 72
1
 11
2.5566463E+001
 21
4.7728346E+001
 73
2
  0
TEXT
  8
2D_TEXT
  6
CONTINUOUS
 62
40
 10
2.1063639E+001
 20
5.8891194E+001
 40
1.0E+001
  1
Montage Bandseite
 41
6.6176471E-001
  0
TEXT
  8
2D_TEXT
  6
CONTINUOUS
 62
150
 10
1.7089744E+002
 20
5.2493312E+001
 40
7.0
  1
verstellb. Gleitschiene
 41
6.6521741E-001
 72
1
 11
1.1734744E+002
 21
4.8993312E+001
 73
2
  0
TEXT
  8
2D_TEXT
  6
CONTINUOUS
 62
150
 10
1.3405737E+002
 20
3.2116202E+001
 40
7.0
  1
Zng.Nr.
 41
6.4285716E-001
 72
1
 11
1.1830737E+002
 21
2.8616202E+001
 73
2
  0
TEXT
  8
2D_TEXT
  6
CONTINUOUS
 62
40
 10
9.1858944E+001
 20
3.486946E+001
 40
1.0E+001
  1
M.Schell
 41
6.46875E-001
 72
1
 11
6.5983944E+001
 21
2.986946E+001
 73
2
  0
TEXT
  8
2D_TEXT
  6
CONTINUOUS
 62
40
 10
9.1069393E+001
 20
1.572172E+001
 40
1.0E+001
  1
01.10.97
 41
6.46875E-001
 72
1
 11
6.5194393E+001
 21
1.072172E+001
 73
2
  0
TEXT
  8
2D_TEXT
  6
CONTINUOUS
 62
150
 10
2.2949667E+001
 20
3.2429518E+001
 40
7.0
  1
gez.
 41
6.1875002E-001
 72
1
 11
1.4287167E+001
 21
2.8929518E+001
 73
2
  0
TEXT
  8
2D_TEXT
  6
CONTINUOUS
 62
150
 10
2.5938815E+001
 20
1.3630694E+001
 40
7.0
  1
Datum
 41
6.3000002E-001
 72
1
 11
1.4913814E+001
 21
1.0130694E+001
 73
2
  0
TEXT
  8
2D_TEXT
  6
CONTINUOUS
 62
40
 10
1.6272375E+002
 20
1.5031474E+001
 40
1.0E+001
  1
1:2
 41
6.0E-001
 72
1
 11
1.5372375E+002
 21
1.0031474E+001
 73
2
  0
LINE
  8
MED-1
  6
CONTINUOUS
 62
3
 10
1.79314E+002
 20
2.0E+001
 11
1.79314E+002
 21
0.0
  0
TEXT
  8
2D_TEXT
  6
CONTINUOUS
 62
40
 10
2.1114953E+002
 20
1.5442698E+001
 40
1.0E+001
  1
A 3
 41
6.0E-001
 72
1
 11
2.0214953E+002
 21
1.0442698E+001
 73
2
  0
LINE
  8
MED-1
  6
CONTINUOUS
 62
3
 10
0.0
 20
4.0E+001
 11
2.26714E+002
 21
4.0E+001
  0
LINE
  8
MED-1
  6
CONTINUOUS
 62
3
 10
2.26714E+002
 20
4.0E+001
 11
2.26714E+002
 21
0.0
  0
LINE
  8
MED-1
  6
CONTINUOUS
 62
3
 10
2.26714E+002
 20
0.0
 11
0.0
 21
0.0
  0
LINE
  8
MED-1
  6
CONTINUOUS
 62
3
 10
0.0
 20
0.0
 11
0.0
 21
4.0E+001
  0
LINE
  8
MED-1
  6
CONTINUOUS
 62
3
 10
9.962E+001
 20
4.0E+001
 11
9.962E+001
 21
0.0
  0
LINE
  8
MED-1
  6
CONTINUOUS
 62
3
 10
0.0
 20
2.0E+001
 11
2.26714E+002
 21
2.0E+001
  0
POINT
  8
Drafting_Hidden_Entities
  6
CONTINUOUS
 62
1
 10
0.0
 20
0.0
  0
ENDBLK
  0
BLOCK
  2
1
 10
0.0
 20
0.0
 70
0
  0
LINE
  8
2D_SICHTBARE_KANTEN
  6
CONTINUOUS
 62
40
 10
3.9949997E+002
 20
5.4999954E+001
 11
3.9949997E+002
 21
5.2699997E+001
  0
LINE
  8
2D_SICHTBARE_KANTEN
  6
CONTINUOUS
 62
40
 10
3.9949997E+002
 20
5.2699997E+001
 11
4.1649997E+002
 21
5.2699997E+001
  0
LINE
  8
2D_SICHTBARE_KANTEN
  6
CONTINUOUS
 62
40
 10
4.1649997E+002
 20
5.2699997E+001
 11
4.1649997E+002
 21
5.4999954E+001
  0
LINE
  8
2D_SICHTBARE_KANTEN
  6
CONTINUOUS
 62
40
 10
4.1402496E+002
 20
5.2699997E+001
 11
4.1402496E+002
 21
5.2249985E+001
  0
LINE
  8
2D_SICHTBARE_KANTEN
  6
CONTINUOUS
 62
40
 10
4.1402496E+002
 20
5.2249985E+001
 11
4.0197495E+002
 21
5.2249985E+001
  0
LINE
  8
2D_SICHTBARE_KANTEN
  6
CONTINUOUS
 62
40
 10
4.0197495E+002
 20
5.2249985E+001
 11
4.0197495E+002
 21
5.2699997E+001
  0
LINE
  8
2D_SICHTBARE_KANTEN
  6
CONTINUOUS
 62
40
 10
4.0302496E+002
 20
5.2249985E+001
 11
4.0302496E+002
 21
5.1249985E+001
  0
LINE
  8
2D_SICHTBARE_KANTEN
  6
CONTINUOUS
 62
40
 10
4.1297491E+002
 20
5.2249985E+001
 11
4.1297491E+002
 21
5.1249985E+001
  0
LINE
  8
2D_SICHTBARE_KANTEN
  6
CONTINUOUS
 62
40
 10
2.799999E+001
 20
5.1249985E+001
 11
2.799999E+001
 21
5.1749985E+001
  0
ARC
  8
2D_SICHTBARE_KANTEN
  6
CONTINUOUS
 62
40
 10
2.849999E+001
 20
5.1749984E+001
 40
5.0000028E-001
 50
9.0E+001
 51
1.8E+002
  0
LINE
  8
2D_SICHTBARE_KANTEN
  6
CONTINUOUS
 62
40
 10
2.849999E+001
 20
5.2249985E+001
 11
3.749999E+001
 21
5.2249985E+001
  0
ARC
  8
2D_SICHTBARE_KANTEN
  6
CONTINUOUS
 62
40
 10
3.7500001E+001
 20
5.1749996E+001
 40
4.9998907E-001
 50
3.5999875E+002
 51
4.5000125E+002
  0
LINE
  8
2D_SICHTBARE_KANTEN
  6
CONTINUOUS
 62
40
 10
3.799999E+001
 20
5.1749985E+001
 11
3.799999E+001
 21
5.1249985E+001
  0
LINE
  8
2D_SICHTBARE_KANTEN
  6
CONTINUOUS
 62
40
 10
2.2E+001
 20
4.6249985E+001
 11
4.4E+001
 21
4.6249985E+001
  0
LINE
  8
2D_SICHTBARE_KANTEN
  6
CONTINUOUS
 62
40
 10
4.4E+001
 20
4.6249985E+001
 11
4.4E+001
 21
3.825E+001
  0
LINE
  8
2D_SICHTBARE_KANTEN
  6
CONTINUOUS
 62
40
 10
4.1899994E+002
 20
4.6249985E+001
 11
4.1899994E+002
 21
5.1249985E+001
  0
LINE
  8
2D_SICHTBARE_KANTEN
  6
CONTINUOUS
 62
40
 10
2.2E+001
 20
5.1249985E+001
 11
4.1899994E+002
 21
5.1249985E+001
  0
LINE
  8
2D_SICHTBARE_KANTEN
  6
CONTINUOUS
 62
40
 10
2.2E+001
 20
3.825E+001
 11
2.2E+001
 21
5.1249985E+001
  0
LINE
  8
2D_SICHTBARE_KANTEN
  6
CONTINUOUS
 62
40
 10
2.2E+001
 20
4.6249985E+001
 11
4.1899994E+002
 21
4.6249985E+001
  0
LINE
  8
2D_SICHTBARE_KANTEN
  6
CONTINUOUS
 62
40
 10
4.0151495E+002
 20
4.6249985E+001
 11
4.0151495E+002
 21
4.5749954E+001
  0
ARC
  8
2D_SICHTBARE_KANTEN
  6
CONTINUOUS
 62
40
 10
4.0201495E+002
 20
4.5749948E+001
 40
4.9999411E-001
 50
1.7999933E+002
 51
2.7000067E+002
  0
LINE
  8
2D_SICHTBARE_KANTEN
  6
CONTINUOUS
 62
40
 10
4.0201495E+002
 20
4.5249954E+001
 11
4.1398492E+002
 21
4.5249954E+001
  0
ARC
  8
2D_SICHTBARE_KANTEN
  6
CONTINUOUS
 62
40
 10
4.1398494E+002
 20
4.5749935E+001
 40
4.9998037E-001
 50
2.6999775E+002
 51
3.6000225E+002
  0
LINE
  8
2D_SICHTBARE_KANTEN
  6
CONTINUOUS
 62
40
 10
4.1448492E+002
 20
4.5749954E+001
 11
4.1448492E+002
 21
4.6249985E+001
  0
LINE
  8
2D_MITTELLINIEN
  6
CENTERLINE
 62
1
 10
3.3E+001
 20
5.4296097E+001
 11
3.3E+001
 21
3.0957826E+001
  0
CIRCLE
  8
2D_VERDECKTE_KANTEN
  6
HIDDEN
 62
1
 10
0.0
 20
2.7E+001
 40
5.0
  0
CIRCLE
  8
2D_VERDECKTE_KANTEN
  6
HIDDEN
 62
1
 10
1.0799999E+002
 20
1.9E+001
 40
5.0
  0
LINE
  8
2D_MITTELLINIEN
  6
CENTERLINE
 62
1
 10
1.0799998E+002
 20
2.6166641E+001
 11
1.0799998E+002
 21
1.173114E+001
  0
LINE
  8
2D_MITTELLINIEN
  6
CENTERLINE
 62
1
 10
1.1499251E+002
 20
1.9E+001
 11
1.0075749E+002
 21
1.9E+001
  0
LINE
  8
2D_MITTELLINIEN
  6
CENTERLINE
 62
1
 10
5.2E+001
 20
2.6166641E+001
 11
5.2E+001
 21
1.173114E+001
  0
LINE
  8
2D_MITTELLINIEN
  6
CENTERLINE
 62
1
 10
5.8992523E+001
 20
1.9E+001
 11
4.4757507E+001
 21
1.9E+001
  0
CIRCLE
  8
2D_VERDECKTE_KANTEN
  6
HIDDEN
 62
1
 10
5.2E+001
 20
1.9E+001
 40
5.0
  0
CIRCLE
  8
2D_VERDECKTE_KANTEN
  6
HIDDEN
 62
1
 10
1.5999998E+002
 20
-1.6E+001
 40
5.0
  0
LINE
  8
99
  6
CONTINUOUS
 62
1
 10
0.0
 20
-2.3502838E+001
 11
0.0
 21
3.4773895E+001
  0
LINE
  8
2D_MITTELLINIEN
  6
CENTERLINE
 62
1
 10
-6.059021
 20
2.7E+001
 11
7.6042175
 21
2.7E+001
  0
LINE
  8
2D_MITTELLINIEN
  6
CENTERLINE
 62
1
 10
1.66059E+002
 20
-1.6E+001
 11
1.5239576E+002
 21
-1.6E+001
  0
LINE
  8
2D_MITTELLINIEN
  6
CENTERLINE
 62
1
 10
1.5999997E+002
 20
-2.3502838E+001
 11
1.5999997E+002
 21
3.4489731E+001
  0
LINE
  8
2D_MITTELLINIEN
  6
CENTERLINE
 62
1
 10
1.66059E+002
 20
0.0
 11
1.5239576E+002
 21
0.0
  0
LINE
  8
2D_MITTELLINIEN
  6
CENTERLINE
 62
1
 10
1.66059E+002
 20
1.1E+001
 11
1.5239576E+002
 21
1.1E+001
  0
LINE
  8
2D_MITTELLINIEN
  6
CENTERLINE
 62
1
 10
1.66059E+002
 20
2.7E+001
 11
1.5239576E+002
 21
2.7E+001
  0
LINE
  8
2D_MITTELLINIEN
  6
CENTERLINE
 62
1
 10
-6.059021
 20
-1.6E+001
 11
7.6042175
 21
-1.6E+001
  0
LINE
  8
2D_MITTELLINIEN
  6
CENTERLINE
 62
1
 10
-6.059021
 20
0.0
 11
7.6042175
 21
0.0
  0
LINE
  8
2D_MITTELLINIEN
  6
CENTERLINE
 62
1
 10
-6.059021
 20
1.1E+001
 11
7.6042175
 21
1.1E+001
  0
CIRCLE
  8
2D_VERDECKTE_KANTEN
  6
HIDDEN
 62
1
 10
1.5999998E+002
 20
0.0
 40
5.0
  0
CIRCLE
  8
2D_VERDECKTE_KANTEN
  6
HIDDEN
 62
1
 10
1.5999998E+002
 20
1.1E+001
 40
5.0
  0
CIRCLE
  8
2D_VERDECKTE_KANTEN
  6
HIDDEN
 62
1
 10
1.5999998E+002
 20
2.7E+001
 40
5.0
  0
CIRCLE
  8
2D_VERDECKTE_KANTEN
  6
HIDDEN
 62
1
 10
0.0
 20
-1.6E+001
 40
5.0
  0
CIRCLE
  8
2D_VERDECKTE_KANTEN
  6
HIDDEN
 62
1
 10
0.0
 20
0.0
 40
5.0
  0
CIRCLE
  8
2D_VERDECKTE_KANTEN
  6
HIDDEN
 62
1
 10
0.0
 20
1.1E+001
 40
5.0
  0
LINE
  8
2D_SICHTBARE_KANTEN
  6
CONTINUOUS
 62
40
 10
-5.2E+001
 20
3.825E+001
 11
2.21E+002
 21
3.825E+001
  0
LINE
  8
2D_MITTELLINIEN
  6
CENTERLINE
 62
1
 10
1.5999998E+002
 20
-2.3502838E+001
 11
1.5999998E+002
 21
3.1755005E+001
  0
LINE
  8
2D_VERDECKTE_KANTEN
  6
HIDDEN
 62
1
 10
1.0999985E+001
 20
6.7499985E+001
 11
1.0999985E+001
 21
6.2499985E+001
  0
ARC
  8
2D_VERDECKTE_KANTEN
  6
HIDDEN
 62
1
 10
7.9999847
 20
6.2499969E+001
 40
3.0
 50
1.8E+002
 51
3.6000029E+002
  0
LINE
  8
2D_VERDECKTE_KANTEN
  6
HIDDEN
 62
1
 10
4.9999847
 20
6.2499969E+001
 11
4.9999847
 21
6.7499985E+001
  0
ARC
  8
2D_VERDECKTE_KANTEN
  6
HIDDEN
 62
1
 10
7.9999847
 20
6.7499985E+001
 40
3.0
 50
0.0
 51
1.8E+002
  0
LINE
  8
2D_MITTELLINIEN
  6
CENTERLINE
 62
1
 10
4.3601175E+002
 20
7.2074231E+001
 11
4.3599799E+002
 21
5.7675157E+001
  0
LINE
  8
2D_MITTELLINIEN
  6
CENTERLINE
 62
1
 10
4.4124997E+002
 20
6.4999985E+001
 11
4.3099997E+002
 21
6.4999985E+001
  0
LINE
  8
2D_MITTELLINIEN
  6
CENTERLINE
 62
1
 10
8.0
 20
5.7835068E+001
 11
7.9999695
 21
7.200174E+001
  0
LINE
  8
2D_VERDECKTE_KANTEN
  6
HIDDEN
 62
1
 10
4.3900498E+002
 20
6.7499985E+001
 11
4.3900498E+002
 21
6.2499985E+001
  0
ARC
  8
2D_VERDECKTE_KANTEN
  6
HIDDEN
 62
1
 10
4.3600498E+002
 20
6.2499969E+001
 40
3.0
 50
1.8E+002
 51
3.6000029E+002
  0
LINE
  8
2D_VERDECKTE_KANTEN
  6
HIDDEN
 62
1
 10
4.3300498E+002
 20
6.2499969E+001
 11
4.3300498E+002
 21
6.7499985E+001
  0
ARC
  8
2D_VERDECKTE_KANTEN
  6
HIDDEN
 62
1
 10
4.3600498E+002
 20
6.7499985E+001
 40
3.0
 50
0.0
 51
1.8E+002
  0
LINE
  8
2D_MITTELLINIEN
  6
CENTERLINE
 62
1
 10
1.3E+001
 20
6.4999985E+001
 11
2.75
 21
6.4999985E+001
  0
ARC
  8
2D_SICHTBARE_KANTEN
  6
CONTINUOUS
 62
40
 10
4.417538E+002
 20
7.3999965E+001
 40
9.9998906E-001
 50
3.5999937E+002
 51
4.5000063E+002
  0
LINE
  8
2D_SICHTBARE_KANTEN
  6
CONTINUOUS
 62
40
 10
4.4275378E+002
 20
7.3999954E+001
 11
4.4275378E+002
 21
5.5999954E+001
  0
ARC
  8
2D_SICHTBARE_KANTEN
  6
CONTINUOUS
 62
40
 10
4.4175379E+002
 20
5.5999948E+001
 40
9.999935E-001
 50
2.6999963E+002
 51
3.6000037E+002
  0
LINE
  8
2D_SICHTBARE_KANTEN
  6
CONTINUOUS
 62
40
 10
4.4175378E+002
 20
5.4999954E+001
 11
2.2462006
 21
5.4999954E+001
  0
ARC
  8
2D_SICHTBARE_KANTEN
  6
CONTINUOUS
 62
40
 10
2.2462007
 20
5.5999954E+001
 40
1.0000001
 50
1.8E+002
 51
2.7E+002
  0
LINE
  8
2D_SICHTBARE_KANTEN
  6
CONTINUOUS
 62
40
 10
1.2462006
 20
5.5999954E+001
 11
1.2462006
 21
7.4999954E+001
  0
LINE
  8
2D_SICHTBARE_KANTEN
  6
CONTINUOUS
 62
40
 10
1.2462006
 20
7.4999954E+001
 11
4.4175378E+002
 21
7.4999954E+001
  0
LINE
  8
2D_SICHTBARE_KANTEN
  6
CONTINUOUS
 62
40
 10
1.3246185E+001
 20
7.4999954E+001
 11
1.3246185E+001
 21
5.4999985E+001
  0
LINE
  8
2D_SICHTBARE_KANTEN
  6
CONTINUOUS
 62
40
 10
4.3075375E+002
 20
7.4999954E+001
 11
4.3075375E+002
 21
5.4999954E+001
  0
LINE
  8
2D_SICHTBARE_KANTEN
  6
CONTINUOUS
 62
40
 10
2.975E+001
 20
4.625E+001
 11
3.6249992E+001
 21
4.625E+001
  0
LINE
  8
2D_MITTELLINIEN
  6
CENTERLINE
 62
1
 10
4.0799994E+002
 20
4.4457382E+001
 11
4.0799994E+002
 21
5.8200241E+001
  0
LINE
  8
2D_SICHTBARE_KANTEN
  6
CONTINUOUS
 62
40
 10
2.7099998E+001
 20
4.625E+001
 11
3.8899994E+001
 21
4.625E+001
  0
LINE
  8
2D_SICHTBARE_KANTEN
  6
CONTINUOUS
 62
40
 10
-5.2E+001
 20
-2.675E+001
 11
2.21E+002
 21
-2.675E+001
  0
LINE
  8
2D_SICHTBARE_KANTEN
  6
CONTINUOUS
 62
40
 10
-5.5E+001
 20
3.525E+001
 11
-5.5E+001
 21
-2.375E+001
  0
LINE
  8
2D_SICHTBARE_KANTEN
  6
CONTINUOUS
 62
40
 10
2.24E+002
 20
3.525E+001
 11
2.24E+002
 21
-2.375E+001
  0
LINE
  8
2D_SICHTBARE_KANTEN
  6
CONTINUOUS
 62
40
 10
-4.45E+001
 20
3.825E+001
 11
-4.45E+001
 21
-2.675E+001
  0
LINE
  8
2D_SICHTBARE_KANTEN
  6
CONTINUOUS
 62
40
 10
2.135E+002
 20
3.825E+001
 11
2.135E+002
 21
-2.675E+001
  0
ARC
  8
2D_SICHTBARE_KANTEN
  6
CONTINUOUS
 62
40
 10
2.21E+002
 20
3.525E+001
 40
3.0
 50
0.0
 51
9.0E+001
  0
ARC
  8
2D_SICHTBARE_KANTEN
  6
CONTINUOUS
 62
40
 10
2.21E+002
 20
-2.375E+001
 40
3.0
 50
2.7E+002
 51
3.6E+002
  0
ARC
  8
2D_SICHTBARE_KANTEN
  6
CONTINUOUS
 62
40
 10
-5.2E+001
 20
-2.375E+001
 40
3.0
 50
1.8E+002
 51
2.7E+002
  0
ARC
  8
2D_SICHTBARE_KANTEN
  6
CONTINUOUS
 62
40
 10
-5.2E+001
 20
3.525E+001
 40
3.0
 50
9.0E+001
 51
1.8E+002
  0
POINT
  8
Drafting_Hidden_Entities
  6
CONTINUOUS
 62
1
 10
0.0
 20
0.0
  0
ENDBLK
  0
BLOCK
  2
TTZU
 10
0.0
 20
0.0
 70
0
  0
ARC
  8
3D_SICHTBARE_KANTEN
  6
CONTINUOUS
 62
40
 10
2.8E+001
 20
7.0
 40
3.0
 50
3.5999999E+002
 51
4.5000001E+002
  0
ARC
  8
3D_SICHTBARE_KANTEN
  6
CONTINUOUS
 62
40
 10
2.8E+001
 20
-7.0
 40
3.0
 50
2.6999999E+002
 51
3.6000001E+002
  0
LINE
  8
3D_SICHTBARE_KANTEN
  6
CONTINUOUS
 62
40
 10
2.8E+001
 20
-1.0E+001
 11
0.0
 21
-1.0E+001
  0
LINE
  8
3D_SICHTBARE_KANTEN
  6
CONTINUOUS
 62
40
 10
3.1E+001
 20
7.0
 11
3.1E+001
 21
-7.0
  0
LINE
  8
3D_SICHTBARE_KANTEN
  6
CONTINUOUS
 62
40
 10
0.0
 20
1.0E+001
 11
2.8E+001
 21
1.0E+001
  0
LINE
  8
3D_SICHTBARE_KANTEN
  6
CONTINUOUS
 62
1
 10
2.8E+001
 20
7.5
 11
0.0
 21
7.5
  0
ARC
  8
3D_SICHTBARE_KANTEN
  6
CONTINUOUS
 62
1
 10
2.8E+001
 20
7.0
 40
5.0E-001
 50
0.0
 51
9.0E+001
  0
LINE
  8
3D_SICHTBARE_KANTEN
  6
CONTINUOUS
 62
1
 10
2.85E+001
 20
-7.0
 11
2.85E+001
 21
7.0
  0
ARC
  8
3D_SICHTBARE_KANTEN
  6
CONTINUOUS
 62
1
 10
2.8E+001
 20
-7.0
 40
5.0E-001
 50
2.7E+002
 51
3.6E+002
  0
LINE
  8
3D_SICHTBARE_KANTEN
  6
CONTINUOUS
 62
1
 10
0.0
 20
-7.5
 11
2.8E+001
 21
-7.5
  0
LINE
  8
3D_SICHTBARE_KANTEN
  6
CONTINUOUS
 62
1
 10
2.8E+001
 20
-8.5
 11
0.0
 21
-8.5
  0
ARC
  8
3D_SICHTBARE_KANTEN
  6
CONTINUOUS
 62
1
 10
2.8E+001
 20
-7.0
 40
1.5
 50
2.7E+002
 51
3.6E+002
  0
LINE
  8
3D_SICHTBARE_KANTEN
  6
CONTINUOUS
 62
1
 10
2.95E+001
 20
7.0
 11
2.95E+001
 21
-7.0
  0
ARC
  8
3D_SICHTBARE_KANTEN
  6
CONTINUOUS
 62
1
 10
2.8E+001
 20
7.0
 40
1.5
 50
0.0
 51
9.0E+001
  0
LINE
  8
3D_SICHTBARE_KANTEN
  6
CONTINUOUS
 62
1
 10
0.0
 20
8.5
 11
2.8E+001
 21
8.5
  0
LINE
  8
3D_SICHTBARE_KANTEN
  6
CONTINUOUS
 62
40
 10
0.0
 20
9.7
 11
0.0
 21
1.0E+001
  0
LINE
  8
3D_SICHTBARE_KANTEN
  6
CONTINUOUS
 62
40
 10
0.0
 20
-1.0E+001
 11
0.0
 21
-9.7
  0
LINE
  8
3D_SICHTBARE_KANTEN
  6
CONTINUOUS
 62
40
 10
0.0
 20
-9.7
 11
0.0
 21
-8.5
  0
LINE
  8
3D_SICHTBARE_KANTEN
  6
CONTINUOUS
 62
1
 10
0.0
 20
-8.5
 11
0.0
 21
-7.5
  0
LINE
  8
3D_SICHTBARE_KANTEN
  6
CONTINUOUS
 62
40
 10
0.0
 20
-7.5
 11
0.0
 21
7.5
  0
LINE
  8
3D_SICHTBARE_KANTEN
  6
CONTINUOUS
 62
1
 10
0.0
 20
7.5
 11
0.0
 21
8.5
  0
LINE
  8
3D_SICHTBARE_KANTEN
  6
CONTINUOUS
 62
40
 10
0.0
 20
8.5
 11
0.0
 21
9.7
  0
POINT
  8
Drafting_Hidden_Entities
  6
CONTINUOUS
 62
1
 10
0.0
 20
0.0
  0
ENDBLK
  0
BLOCK
  2
UU
 10
0.0
 20
0.0
 70
0
  0
TEXT
  8
2D_TEXT
  6
CONTINUOUS
 62
1
 10
-1.4380094E+001
 20
1.4994001
 40
1.8000001
  1
"Weitergabe sowie Vervielfältigung dieser Unterlage,
 41
6.7067308E-001
 50
9.0E+001
 11
-1.4380094E+001
 21
5.9940003E-001
 73
2
  0
TEXT
  8
2D_TEXT
  6
CONTINUOUS
 62
1
 10
-1.1380094E+001
 20
1.4994001
 40
1.8000001
  1
Verwertung und Mitteilung ihres Inhalts nicht gestattet,
 41
6.7098214E-001
 50
9.0E+001
 11
-1.1380094E+001
 21
5.9940003E-001
 73
2
  0
TEXT
  8
2D_TEXT
  6
CONTINUOUS
 62
1
 10
-8.3800941
 20
1.4994001
 40
1.8000001
  1
soweit nicht ausdrücklich zugestanden. Zuwiederhandlungen
 41
6.7105263E-001
 50
9.0E+001
 11
-8.3800941
 21
5.9940003E-001
 73
2
  0
TEXT
  8
2D_TEXT
  6
CONTINUOUS
 62
1
 10
-5.3800941
 20
1.4994001
 40
1.8000001
  1
verpflichten zu Schadenersatz. Alle Rechte für den Fall
 41
6.7090909E-001
 50
9.0E+001
 11
-5.3800941
 21
5.9940003E-001
 73
2
  0
TEXT
  8
2D_TEXT
  6
CONTINUOUS
 62
1
 10
-2.3800941
 20
1.4994001
 40
1.8000001
  1
der Patenterteilung oder Gebrauchsmuster-Eintragung vorbehalten."
 41
6.7153846E-001
 50
9.0E+001
 11
-2.3800941
 21
5.9940003E-001
 73
2
  0
POINT
  8
Drafting_Hidden_Entities
  6
CONTINUOUS
 62
1
 10
0.0
 20
0.0
  0
ENDBLK
  0
BLOCK
  2
44
 10
0.0
 20
0.0
 70
0
  0
ARC
  8
2D_SICHTBARE_KANTEN
  6
CONTINUOUS
 62
40
 10
0.0
 20
-6.7008E+001
 40
1.5001402E+001
 50
2.4000309E+002
 51
2.9999691E+002
  0
ARC
  8
2D_SICHTBARE_KANTEN
  6
CONTINUOUS
 62
40
 10
0.0
 20
-1.299E+001
 40
1.499967E+001
 50
5.9999272E+001
 51
1.2000073E+002
  0
LINE
  8
2D_SICHTBARE_KANTEN
  6
CONTINUOUS
 62
40
 10
7.5
 20
-8.0E+001
 11
-7.5
 21
-8.0E+001
  0
LINE
  8
2D_SICHTBARE_KANTEN
  6
CONTINUOUS
 62
40
 10
-7.5
 20
-8.0E+001
 11
-7.5
 21
-4.0E+001
  0
LINE
  8
2D_SICHTBARE_KANTEN
  6
CONTINUOUS
 62
40
 10
-7.5
 20
-4.0E+001
 11
7.5
 21
-4.0E+001
  0
LINE
  8
2D_SICHTBARE_KANTEN
  6
CONTINUOUS
 62
40
 10
7.5
 20
-4.0E+001
 11
7.5
 21
-8.0E+001
  0
LINE
  8
2D_SICHTBARE_KANTEN
  6
CONTINUOUS
 62
40
 10
7.5
 20
-4.0E+001
 11
-7.5
 21
-4.0E+001
  0
LINE
  8
2D_SICHTBARE_KANTEN
  6
CONTINUOUS
 62
40
 10
-7.5
 20
-4.0E+001
 11
-7.5
 21
0.0
  0
LINE
  8
2D_SICHTBARE_KANTEN
  6
CONTINUOUS
 62
40
 10
-7.5
 20
0.0
 11
7.5
 21
0.0
  0
LINE
  8
2D_SICHTBARE_KANTEN
  6
CONTINUOUS
 62
40
 10
7.5
 20
0.0
 11
7.5
 21
-4.0E+001
  0
LINE
  8
2D_MITTELLINIEN
  6
CENTERLINE
 62
1
 10
0.0
 20
-8.9134E+001
 11
0.0
 21
7.166
  0
POINT
  8
Drafting_Hidden_Entities
  6
CONTINUOUS
 62
1
 10
0.0
 20
0.0
  0
ENDBLK
  0
BLOCK
  2
77
 10
0.0
 20
0.0
 70
0
  0
LINE
  8
2D_SICHTBARE_KANTEN
  6
CONTINUOUS
 62
40
 10
4.0025591E+001
 20
1.5512818E+002
 11
4.0025591E+001
 21
1.5282823E+002
  0
LINE
  8
2D_SICHTBARE_KANTEN
  6
CONTINUOUS
 62
40
 10
4.0025591E+001
 20
1.5282823E+002
 11
5.7025591E+001
 21
1.5282823E+002
  0
LINE
  8
2D_SICHTBARE_KANTEN
  6
CONTINUOUS
 62
40
 10
5.7025591E+001
 20
1.5282823E+002
 11
5.7025591E+001
 21
1.5512818E+002
  0
LINE
  8
2D_SICHTBARE_KANTEN
  6
CONTINUOUS
 62
40
 10
5.4550585E+001
 20
1.5282823E+002
 11
5.4550585E+001
 21
1.5237821E+002
  0
LINE
  8
2D_SICHTBARE_KANTEN
  6
CONTINUOUS
 62
40
 10
5.4550585E+001
 20
1.5237821E+002
 11
4.2500567E+001
 21
1.5237821E+002
  0
LINE
  8
2D_SICHTBARE_KANTEN
  6
CONTINUOUS
 62
40
 10
4.2500567E+001
 20
1.5237821E+002
 11
4.2500567E+001
 21
1.5282823E+002
  0
LINE
  8
2D_SICHTBARE_KANTEN
  6
CONTINUOUS
 62
40
 10
4.3550585E+001
 20
1.5237821E+002
 11
4.3550585E+001
 21
1.5137821E+002
  0
LINE
  8
2D_SICHTBARE_KANTEN
  6
CONTINUOUS
 62
40
 10
5.3500536E+001
 20
1.5237821E+002
 11
5.3500536E+001
 21
1.5137821E+002
  0
LINE
  8
2D_SICHTBARE_KANTEN
  6
CONTINUOUS
 62
40
 10
-3.3147439E+002
 20
1.5137821E+002
 11
-3.3147439E+002
 21
1.5187821E+002
  0
ARC
  8
2D_SICHTBARE_KANTEN
  6
CONTINUOUS
 62
40
 10
-3.3097439E+002
 20
1.5187821E+002
 40
5.0000028E-001
 50
9.0E+001
 51
1.8E+002
  0
LINE
  8
2D_SICHTBARE_KANTEN
  6
CONTINUOUS
 62
40
 10
-3.3097439E+002
 20
1.5237821E+002
 11
-3.2197439E+002
 21
1.5237821E+002
  0
ARC
  8
2D_SICHTBARE_KANTEN
  6
CONTINUOUS
 62
40
 10
-3.2197438E+002
 20
1.5187823E+002
 40
4.9998907E-001
 50
3.5999875E+002
 51
4.5000125E+002
  0
LINE
  8
2D_SICHTBARE_KANTEN
  6
CONTINUOUS
 62
40
 10
-3.2147439E+002
 20
1.5187821E+002
 11
-3.2147439E+002
 21
1.5137821E+002
  0
LINE
  8
2D_SICHTBARE_KANTEN
  6
CONTINUOUS
 62
40
 10
-3.3747438E+002
 20
1.4637821E+002
 11
-3.1547438E+002
 21
1.4637821E+002
  0
LINE
  8
2D_SICHTBARE_KANTEN
  6
CONTINUOUS
 62
40
 10
-3.1547438E+002
 20
1.4637821E+002
 11
-3.1547438E+002
 21
1.3837823E+002
  0
LINE
  8
2D_SICHTBARE_KANTEN
  6
CONTINUOUS
 62
40
 10
5.9525561E+001
 20
1.4637821E+002
 11
5.9525561E+001
 21
1.5137821E+002
  0
LINE
  8
2D_SICHTBARE_KANTEN
  6
CONTINUOUS
 62
40
 10
-3.3747438E+002
 20
1.5137821E+002
 11
5.9525561E+001
 21
1.5137821E+002
  0
LINE
  8
2D_SICHTBARE_KANTEN
  6
CONTINUOUS
 62
40
 10
-3.3747438E+002
 20
1.3837823E+002
 11
-3.3747438E+002
 21
1.5137821E+002
  0
LINE
  8
2D_SICHTBARE_KANTEN
  6
CONTINUOUS
 62
40
 10
-3.3747438E+002
 20
1.4637821E+002
 11
5.9525561E+001
 21
1.4637821E+002
  0
LINE
  8
2D_SICHTBARE_KANTEN
  6
CONTINUOUS
 62
40
 10
4.2040576E+001
 20
1.4637821E+002
 11
4.2040576E+001
 21
1.4587818E+002
  0
ARC
  8
2D_SICHTBARE_KANTEN
  6
CONTINUOUS
 62
40
 10
4.254057E+001
 20
1.4587818E+002
 40
4.9999411E-001
 50
1.7999933E+002
 51
2.7000067E+002
  0
LINE
  8
2D_SICHTBARE_KANTEN
  6
CONTINUOUS
 62
40
 10
4.2540576E+001
 20
1.4537818E+002
 11
5.4510546E+001
 21
1.4537818E+002
  0
ARC
  8
2D_SICHTBARE_KANTEN
  6
CONTINUOUS
 62
40
 10
5.4510566E+001
 20
1.4587816E+002
 40
4.9998037E-001
 50
2.6999775E+002
 51
3.6000225E+002
  0
LINE
  8
2D_SICHTBARE_KANTEN
  6
CONTINUOUS
 62
40
 10
5.5010546E+001
 20
1.4587818E+002
 11
5.5010546E+001
 21
1.4637821E+002
  0
LINE
  8
2D_MITTELLINIEN
  6
CENTERLINE
 62
1
 10
-3.2647438E+002
 20
1.5442433E+002
 11
-3.2647438E+002
 21
1.3108606E+002
  0
CIRCLE
  8
2D_VERDECKTE_KANTEN
  6
HIDDEN
 62
1
 10
-3.5947438E+002
 20
1.2712823E+002
 40
5.0
  0
CIRCLE
  8
2D_VERDECKTE_KANTEN
  6
HIDDEN
 62
1
 10
-2.5147439E+002
 20
1.1912823E+002
 40
5.0
  0
LINE
  8
2D_MITTELLINIEN
  6
CENTERLINE
 62
1
 10
-2.5147439E+002
 20
1.2629487E+002
 11
-2.5147439E+002
 21
1.1185937E+002
  0
LINE
  8
2D_MITTELLINIEN
  6
CENTERLINE
 62
1
 10
-2.4448187E+002
 20
1.1912823E+002
 11
-2.5871689E+002
 21
1.1912823E+002
  0
LINE
  8
2D_MITTELLINIEN
  6
CENTERLINE
 62
1
 10
-3.0747438E+002
 20
1.2629487E+002
 11
-3.0747438E+002
 21
1.1185937E+002
  0
LINE
  8
2D_MITTELLINIEN
  6
CENTERLINE
 62
1
 10
-3.0048185E+002
 20
1.1912823E+002
 11
-3.1471687E+002
 21
1.1912823E+002
  0
CIRCLE
  8
2D_VERDECKTE_KANTEN
  6
HIDDEN
 62
1
 10
-3.0747438E+002
 20
1.1912823E+002
 40
5.0
  0
CIRCLE
  8
2D_VERDECKTE_KANTEN
  6
HIDDEN
 62
1
 10
-1.994744E+002
 20
8.412823E+001
 40
5.0
  0
LINE
  8
99
  6
CONTINUOUS
 62
1
 10
-3.5947438E+002
 20
7.6625392E+001
 11
-3.5947438E+002
 21
1.3490213E+002
  0
LINE
  8
2D_MITTELLINIEN
  6
CENTERLINE
 62
1
 10
-3.655334E+002
 20
1.2712823E+002
 11
-3.5187016E+002
 21
1.2712823E+002
  0
LINE
  8
2D_MITTELLINIEN
  6
CENTERLINE
 62
1
 10
-1.9341538E+002
 20
8.412823E+001
 11
-2.0707862E+002
 21
8.412823E+001
  0
LINE
  8
2D_MITTELLINIEN
  6
CENTERLINE
 62
1
 10
-1.9947441E+002
 20
7.6625392E+001
 11
-1.9947441E+002
 21
1.3461796E+002
  0
LINE
  8
2D_MITTELLINIEN
  6
CENTERLINE
 62
1
 10
-1.9341538E+002
 20
1.0012823E+002
 11
-2.0707862E+002
 21
1.0012823E+002
  0
LINE
  8
2D_MITTELLINIEN
  6
CENTERLINE
 62
1
 10
-1.9341538E+002
 20
1.1112823E+002
 11
-2.0707862E+002
 21
1.1112823E+002
  0
LINE
  8
2D_MITTELLINIEN
  6
CENTERLINE
 62
1
 10
-1.9341538E+002
 20
1.2712823E+002
 11
-2.0707862E+002
 21
1.2712823E+002
  0
LINE
  8
2D_MITTELLINIEN
  6
CENTERLINE
 62
1
 10
-3.655334E+002
 20
8.412823E+001
 11
-3.5187016E+002
 21
8.412823E+001
  0
LINE
  8
2D_MITTELLINIEN
  6
CENTERLINE
 62
1
 10
-3.655334E+002
 20
1.0012823E+002
 11
-3.5187016E+002
 21
1.0012823E+002
  0
LINE
  8
2D_MITTELLINIEN
  6
CENTERLINE
 62
1
 10
-3.655334E+002
 20
1.1112823E+002
 11
-3.5187016E+002
 21
1.1112823E+002
  0
CIRCLE
  8
2D_VERDECKTE_KANTEN
  6
HIDDEN
 62
1
 10
-1.994744E+002
 20
1.0012823E+002
 40
5.0
  0
CIRCLE
  8
2D_VERDECKTE_KANTEN
  6
HIDDEN
 62
1
 10
-1.994744E+002
 20
1.1112823E+002
 40
5.0
  0
CIRCLE
  8
2D_VERDECKTE_KANTEN
  6
HIDDEN
 62
1
 10
-1.994744E+002
 20
1.2712823E+002
 40
5.0
  0
CIRCLE
  8
2D_VERDECKTE_KANTEN
  6
HIDDEN
 62
1
 10
-3.5947438E+002
 20
8.412823E+001
 40
5.0
  0
CIRCLE
  8
2D_VERDECKTE_KANTEN
  6
HIDDEN
 62
1
 10
-3.5947438E+002
 20
1.0012823E+002
 40
5.0
  0
CIRCLE
  8
2D_VERDECKTE_KANTEN
  6
HIDDEN
 62
1
 10
-3.5947438E+002
 20
1.1112823E+002
 40
5.0
  0
LINE
  8
2D_SICHTBARE_KANTEN
  6
CONTINUOUS
 62
40
 10
-4.1147438E+002
 20
1.3837823E+002
 11
-1.3847438E+002
 21
1.3837823E+002
  0
LINE
  8
2D_MITTELLINIEN
  6
CENTERLINE
 62
1
 10
-1.994744E+002
 20
7.6625392E+001
 11
-1.994744E+002
 21
1.3188323E+002
  0
LINE
  8
2D_VERDECKTE_KANTEN
  6
HIDDEN
 62
1
 10
-3.4847439E+002
 20
1.6762821E+002
 11
-3.4847439E+002
 21
1.6262821E+002
  0
ARC
  8
2D_VERDECKTE_KANTEN
  6
HIDDEN
 62
1
 10
-3.5147439E+002
 20
1.626282E+002
 40
3.0
 50
1.8E+002
 51
3.6000029E+002
  0
LINE
  8
2D_VERDECKTE_KANTEN
  6
HIDDEN
 62
1
 10
-3.5447439E+002
 20
1.626282E+002
 11
-3.5447439E+002
 21
1.6762821E+002
  0
ARC
  8
2D_VERDECKTE_KANTEN
  6
HIDDEN
 62
1
 10
-3.5147439E+002
 20
1.6762821E+002
 40
3.0
 50
0.0
 51
1.8E+002
  0
LINE
  8
2D_MITTELLINIEN
  6
CENTERLINE
 62
1
 10
7.6537376E+001
 20
1.7220246E+002
 11
7.6523607E+001
 21
1.5780339E+002
  0
LINE
  8
2D_MITTELLINIEN
  6
CENTERLINE
 62
1
 10
8.1775591E+001
 20
1.6512821E+002
 11
7.1525591E+001
 21
1.6512821E+002
  0
LINE
  8
2D_MITTELLINIEN
  6
CENTERLINE
 62
1
 10
-3.5147438E+002
 20
1.579633E+002
 11
-3.5147441E+002
 21
1.7212997E+002
  0
LINE
  8
2D_VERDECKTE_KANTEN
  6
HIDDEN
 62
1
 10
7.9530604E+001
 20
1.6762821E+002
 11
7.9530604E+001
 21
1.6262821E+002
  0
ARC
  8
2D_VERDECKTE_KANTEN
  6
HIDDEN
 62
1
 10
7.6530604E+001
 20
1.626282E+002
 40
3.0
 50
1.8E+002
 51
3.6000029E+002
  0
LINE
  8
2D_VERDECKTE_KANTEN
  6
HIDDEN
 62
1
 10
7.3530604E+001
 20
1.626282E+002
 11
7.3530604E+001
 21
1.6762821E+002
  0
ARC
  8
2D_VERDECKTE_KANTEN
  6
HIDDEN
 62
1
 10
7.6530604E+001
 20
1.6762821E+002
 40
3.0
 50
0.0
 51
1.8E+002
  0
LINE
  8
2D_MITTELLINIEN
  6
CENTERLINE
 62
1
 10
-3.4647438E+002
 20
1.6512821E+002
 11
-3.5672438E+002
 21
1.6512821E+002
  0
ARC
  8
2D_SICHTBARE_KANTEN
  6
CONTINUOUS
 62
40
 10
8.2279417E+001
 20
1.741282E+002
 40
9.9998906E-001
 50
3.5999937E+002
 51
4.5000063E+002
  0
LINE
  8
2D_SICHTBARE_KANTEN
  6
CONTINUOUS
 62
40
 10
8.3279406E+001
 20
1.7412818E+002
 11
8.3279406E+001
 21
1.5612818E+002
  0
ARC
  8
2D_SICHTBARE_KANTEN
  6
CONTINUOUS
 62
40
 10
8.2279413E+001
 20
1.5612818E+002
 40
9.999935E-001
 50
2.6999963E+002
 51
3.6000037E+002
  0
LINE
  8
2D_SICHTBARE_KANTEN
  6
CONTINUOUS
 62
40
 10
8.2279406E+001
 20
1.5512818E+002
 11
-3.5722818E+002
 21
1.5512818E+002
  0
ARC
  8
2D_SICHTBARE_KANTEN
  6
CONTINUOUS
 62
40
 10
-3.5722818E+002
 20
1.5612818E+002
 40
1.0000001
 50
1.8E+002
 51
2.7E+002
  0
LINE
  8
2D_SICHTBARE_KANTEN
  6
CONTINUOUS
 62
40
 10
-3.5822818E+002
 20
1.5612818E+002
 11
-3.5822818E+002
 21
1.7512818E+002
  0
LINE
  8
2D_SICHTBARE_KANTEN
  6
CONTINUOUS
 62
40
 10
-3.5822818E+002
 20
1.7512818E+002
 11
8.2279406E+001
 21
1.7512818E+002
  0
LINE
  8
2D_SICHTBARE_KANTEN
  6
CONTINUOUS
 62
40
 10
-3.4622819E+002
 20
1.7512818E+002
 11
-3.4622819E+002
 21
1.5512821E+002
  0
LINE
  8
2D_SICHTBARE_KANTEN
  6
CONTINUOUS
 62
40
 10
7.1279376E+001
 20
1.7512818E+002
 11
7.1279376E+001
 21
1.5512818E+002
  0
LINE
  8
2D_SICHTBARE_KANTEN
  6
CONTINUOUS
 62
40
 10
-3.2972438E+002
 20
1.4637823E+002
 11
-3.2322439E+002
 21
1.4637823E+002
  0
LINE
  8
2D_MITTELLINIEN
  6
CENTERLINE
 62
1
 10
4.8525561E+001
 20
1.4458561E+002
 11
4.8525561E+001
 21
1.5832847E+002
  0
LINE
  8
2D_SICHTBARE_KANTEN
  6
CONTINUOUS
 62
40
 10
-3.3237438E+002
 20
1.4637823E+002
 11
-3.2057438E+002
 21
1.4637823E+002
  0
LINE
  8
2D_SICHTBARE_KANTEN
  6
CONTINUOUS
 62
40
 10
-4.1147438E+002
 20
7.337823E+001
 11
-1.3847438E+002
 21
7.337823E+001
  0
LINE
  8
2D_SICHTBARE_KANTEN
  6
CONTINUOUS
 62
40
 10
-4.1447438E+002
 20
1.3537823E+002
 11
-4.1447438E+002
 21
7.637823E+001
  0
LINE
  8
2D_SICHTBARE_KANTEN
  6
CONTINUOUS
 62
40
 10
-1.3547438E+002
 20
1.3537823E+002
 11
-1.3547438E+002
 21
7.637823E+001
  0
LINE
  8
2D_SICHTBARE_KANTEN
  6
CONTINUOUS
 62
40
 10
-4.0397438E+002
 20
1.3837823E+002
 11
-4.0397438E+002
 21
7.337823E+001
  0
LINE
  8
2D_SICHTBARE_KANTEN
  6
CONTINUOUS
 62
40
 10
-1.4597438E+002
 20
1.3837823E+002
 11
-1.4597438E+002
 21
7.337823E+001
  0
ARC
  8
2D_SICHTBARE_KANTEN
  6
CONTINUOUS
 62
40
 10
-1.3847438E+002
 20
1.3537823E+002
 40
3.0
 50
0.0
 51
9.0E+001
  0
ARC
  8
2D_SICHTBARE_KANTEN
  6
CONTINUOUS
 62
40
 10
-1.3847438E+002
 20
7.637823E+001
 40
3.0
 50
2.7E+002
 51
3.6E+002
  0
ARC
  8
2D_SICHTBARE_KANTEN
  6
CONTINUOUS
 62
40
 10
-4.1147438E+002
 20
7.637823E+001
 40
3.0
 50
1.8E+002
 51
2.7E+002
  0
ARC
  8
2D_SICHTBARE_KANTEN
  6
CONTINUOUS
 62
40
 10
-4.1147438E+002
 20
1.3537823E+002
 40
3.0
 50
9.0E+001
 51
1.8E+002
  0
LINE
  8
2D_MITTELLINIEN
  6
CENTERLINE
 62
1
 10
-5.4697649E+002
 20
1.0037823E+002
 11
-5.367467E+002
 21
1.0037823E+002
  0
LINE
  8
2D_MITTELLINIEN
  6
CENTERLINE
 62
1
 10
-5.469765E+002
 20
8.4378219E+001
 11
-5.3929876E+002
 21
8.4378219E+001
  0
LINE
  8
2D_SICHTBARE_KANTEN
  6
CONTINUOUS
 62
40
 10
-5.7579876E+002
 20
1.3837823E+002
 11
-5.7579876E+002
 21
1.5137819E+002
  0
LINE
  8
2D_SICHTBARE_KANTEN
  6
CONTINUOUS
 62
40
 10
-5.5379876E+002
 20
1.4637819E+002
 11
-5.5379876E+002
 21
1.3837823E+002
  0
ARC
  8
2D_VERDECKTE_KANTEN
  6
HIDDEN
 62
1
 10
-5.3979874E+002
 20
1.3637821E+002
 40
4.999816E-001
 50
3.5999789E+002
 51
4.5000211E+002
  0
LINE
  8
2D_VERDECKTE_KANTEN
  6
HIDDEN
 62
1
 10
-5.3979876E+002
 20
1.3687819E+002
 11
-5.4139166E+002
 21
1.3687819E+002
  0
ARC
  8
2D_VERDECKTE_KANTEN
  6
HIDDEN
 62
1
 10
-5.4139162E+002
 20
1.3737821E+002
 40
5.0002333E-001
 50
2.2500241E+002
 51
2.6999548E+002
  0
LINE
  8
2D_VERDECKTE_KANTEN
  6
HIDDEN
 62
1
 10
-5.4174517E+002
 20
1.3702463E+002
 11
-5.4245233E+002
 21
1.3773173E+002
  0
ARC
  8
2D_VERDECKTE_KANTEN
  6
HIDDEN
 62
1
 10
-5.4280583E+002
 20
1.3737832E+002
 40
4.998634E-001
 50
4.499234E+001
 51
9.0001327E+001
  0
LINE
  8
2D_VERDECKTE_KANTEN
  6
HIDDEN
 62
1
 10
-5.4280584E+002
 20
1.3787819E+002
 11
-5.4299163E+002
 21
1.3787819E+002
  0
ARC
  8
2D_VERDECKTE_KANTEN
  6
HIDDEN
 62
1
 10
-5.4299171E+002
 20
1.3737833E+002
 40
4.9985856E-001
 50
8.9991448E+001
 51
1.3500789E+002
  0
LINE
  8
2D_VERDECKTE_KANTEN
  6
HIDDEN
 62
1
 10
-5.4334521E+002
 20
1.3773173E+002
 11
-5.4415228E+002
 21
1.3692465E+002
  0
ARC
  8
2D_VERDECKTE_KANTEN
  6
HIDDEN
 62
1
 10
-5.4379891E+002
 20
1.3657112E+002
 40
4.9985012E-001
 50
1.3498676E+002
 51
1.8000371E+002
  0
LINE
  8
2D_VERDECKTE_KANTEN
  6
HIDDEN
 62
1
 10
-5.4429876E+002
 20
1.3657109E+002
 11
-5.4429876E+002
 21
7.5185312E+001
  0
ARC
  8
2D_VERDECKTE_KANTEN
  6
HIDDEN
 62
1
 10
-5.437988E+002
 20
7.51853E+001
 40
4.9995942E-001
 50
1.8000148E+002
 51
2.2500805E+002
  0
LINE
  8
2D_VERDECKTE_KANTEN
  6
HIDDEN
 62
1
 10
-5.4415228E+002
 20
7.4831725E+001
 11
-5.4334521E+002
 21
7.4024642E+001
  0
ARC
  8
2D_VERDECKTE_KANTEN
  6
HIDDEN
 62
1
 10
-5.4299163E+002
 20
7.4378229E+001
 40
5.0004068E-001
 50
2.2500076E+002
 51
2.6999991E+002
  0
ARC
  8
2D_VERDECKTE_KANTEN
  6
HIDDEN
 62
1
 10
-5.4280586E+002
 20
7.4378118E+001
 40
4.9992995E-001
 50
2.7000183E+002
 51
3.150045E+002
  0
LINE
  8
2D_VERDECKTE_KANTEN
  6
HIDDEN
 62
1
 10
-5.4245233E+002
 20
7.4024642E+001
 11
-5.4174517E+002
 21
7.473175E+001
  0
ARC
  8
2D_VERDECKTE_KANTEN
  6
HIDDEN
 62
1
 10
-5.4139163E+002
 20
7.4378189E+001
 40
4.9999931E-001
 50
9.0003377E+001
 51
1.3499873E+002
  0
LINE
  8
2D_VERDECKTE_KANTEN
  6
HIDDEN
 62
1
 10
-5.4139166E+002
 20
7.4878188E+001
 11
-5.3979876E+002
 21
7.4878188E+001
  0
ARC
  8
2D_VERDECKTE_KANTEN
  6
HIDDEN
 62
1
 10
-5.3979876E+002
 20
7.5378187E+001
 40
4.9999906E-001
 50
2.6999989E+002
 51
3.6000011E+002
  0
LINE
  8
2D_MITTELLINIEN
  6
CENTERLINE
 62
1
 10
-5.4683978E+002
 20
1.2737823E+002
 11
-5.3634795E+002
 21
1.2737823E+002
  0
LINE
  8
2D_MITTELLINIEN
  6
CENTERLINE
 62
1
 10
-5.4656634E+002
 20
1.1137823E+002
 11
-5.3653649E+002
 21
1.1137823E+002
  0
LINE
  8
2D_MITTELLINIEN
  6
CENTERLINE
 62
1
 10
-5.4697649E+002
 20
8.437823E+001
 11
-5.3657806E+002
 21
8.4378215E+001
  0
LINE
  8
2D_VERDECKTE_KANTEN
  6
HIDDEN
 62
1
 10
-5.4429876E+002
 20
8.9878215E+001
 11
-5.4129876E+002
 21
8.6878215E+001
  0
LINE
  8
2D_VERDECKTE_KANTEN
  6
HIDDEN
 62
1
 10
-5.4129876E+002
 20
8.6878215E+001
 11
-5.4129876E+002
 21
8.1878215E+001
  0
LINE
  8
2D_VERDECKTE_KANTEN
  6
HIDDEN
 62
1
 10
-5.4129876E+002
 20
8.1878215E+001
 11
-5.4429876E+002
 21
7.887813E+001
  0
LINE
  8
2D_VERDECKTE_KANTEN
  6
HIDDEN
 62
1
 10
-5.4429876E+002
 20
1.0587823E+002
 11
-5.4129876E+002
 21
1.0287823E+002
  0
LINE
  8
2D_VERDECKTE_KANTEN
  6
HIDDEN
 62
1
 10
-5.4129876E+002
 20
1.0287823E+002
 11
-5.4129876E+002
 21
9.787823E+001
  0
LINE
  8
2D_VERDECKTE_KANTEN
  6
HIDDEN
 62
1
 10
-5.4129876E+002
 20
9.787823E+001
 11
-5.4429876E+002
 21
9.487823E+001
  0
LINE
  8
2D_VERDECKTE_KANTEN
  6
HIDDEN
 62
1
 10
-5.4129876E+002
 20
9.787823E+001
 11
-5.3929876E+002
 21
9.787823E+001
  0
LINE
  8
2D_VERDECKTE_KANTEN
  6
HIDDEN
 62
1
 10
-5.3929876E+002
 20
1.0287823E+002
 11
-5.4129876E+002
 21
1.0287823E+002
  0
LINE
  8
2D_VERDECKTE_KANTEN
  6
HIDDEN
 62
1
 10
-5.4129876E+002
 20
8.687823E+001
 11
-5.3929876E+002
 21
8.687823E+001
  0
LINE
  8
2D_VERDECKTE_KANTEN
  6
HIDDEN
 62
1
 10
-5.3929876E+002
 20
8.187823E+001
 11
-5.4129876E+002
 21
8.187823E+001
  0
LINE
  8
2D_VERDECKTE_KANTEN
  6
HIDDEN
 62
1
 10
-5.4429876E+002
 20
1.3287823E+002
 11
-5.4129876E+002
 21
1.2987823E+002
  0
LINE
  8
2D_VERDECKTE_KANTEN
  6
HIDDEN
 62
1
 10
-5.4129876E+002
 20
1.2987823E+002
 11
-5.4129876E+002
 21
1.2487823E+002
  0
LINE
  8
2D_VERDECKTE_KANTEN
  6
HIDDEN
 62
1
 10
-5.4129876E+002
 20
1.2487823E+002
 11
-5.4429876E+002
 21
1.2187823E+002
  0
LINE
  8
2D_VERDECKTE_KANTEN
  6
HIDDEN
 62
1
 10
-5.4129876E+002
 20
1.2987823E+002
 11
-5.3929876E+002
 21
1.2987823E+002
  0
LINE
  8
2D_VERDECKTE_KANTEN
  6
HIDDEN
 62
1
 10
-5.3929876E+002
 20
1.2487823E+002
 11
-5.4129876E+002
 21
1.2487823E+002
  0
LINE
  8
2D_VERDECKTE_KANTEN
  6
HIDDEN
 62
1
 10
-5.4429876E+002
 20
1.1687823E+002
 11
-5.4129876E+002
 21
1.1387823E+002
  0
LINE
  8
2D_VERDECKTE_KANTEN
  6
HIDDEN
 62
1
 10
-5.4129876E+002
 20
1.1387823E+002
 11
-5.4129876E+002
 21
1.0887823E+002
  0
LINE
  8
2D_VERDECKTE_KANTEN
  6
HIDDEN
 62
1
 10
-5.4129876E+002
 20
1.0887823E+002
 11
-5.4429876E+002
 21
1.0587823E+002
  0
LINE
  8
2D_VERDECKTE_KANTEN
  6
HIDDEN
 62
1
 10
-5.4129876E+002
 20
1.1387823E+002
 11
-5.3929876E+002
 21
1.1387823E+002
  0
LINE
  8
2D_VERDECKTE_KANTEN
  6
HIDDEN
 62
1
 10
-5.3929876E+002
 20
1.0887823E+002
 11
-5.4129876E+002
 21
1.0887823E+002
  0
LINE
  8
2D_SICHTBARE_KANTEN
  6
CONTINUOUS
 62
40
 10
-5.3929876E+002
 20
7.3378215E+001
 11
-5.3929876E+002
 21
1.3837823E+002
  0
LINE
  8
2D_SICHTBARE_KANTEN
  6
CONTINUOUS
 62
40
 10
-5.3929876E+002
 20
1.3837823E+002
 11
-5.8329876E+002
 21
1.3837823E+002
  0
LINE
  8
2D_SICHTBARE_KANTEN
  6
CONTINUOUS
 62
40
 10
-5.8329876E+002
 20
7.3378201E+001
 11
-5.3929876E+002
 21
7.3378215E+001
  0
LINE
  8
2D_SICHTBARE_KANTEN
  6
CONTINUOUS
 62
40
 10
-5.7579876E+002
 20
1.5137819E+002
 11
-5.4379876E+002
 21
1.5137819E+002
  0
LINE
  8
2D_SICHTBARE_KANTEN
  6
CONTINUOUS
 62
40
 10
-5.4379876E+002
 20
1.5137819E+002
 11
-5.4379876E+002
 21
1.4637818E+002
  0
LINE
  8
2D_SICHTBARE_KANTEN
  6
CONTINUOUS
 62
40
 10
-5.7579876E+002
 20
1.4637818E+002
 11
-5.4379876E+002
 21
1.4637818E+002
  0
LINE
  8
2D_SICHTBARE_KANTEN
  6
CONTINUOUS
 62
40
 10
-5.4629883E+002
 20
1.5537823E+002
 11
-5.4629883E+002
 21
1.5387818E+002
  0
LINE
  8
2D_SICHTBARE_KANTEN
  6
CONTINUOUS
 62
40
 10
-5.4629883E+002
 20
1.5387818E+002
 11
-5.6329883E+002
 21
1.5387818E+002
  0
LINE
  8
2D_SICHTBARE_KANTEN
  6
CONTINUOUS
 62
40
 10
-5.6329883E+002
 20
1.5387818E+002
 11
-5.6329883E+002
 21
1.5537823E+002
  0
LINE
  8
2D_SICHTBARE_KANTEN
  6
CONTINUOUS
 62
40
 10
-5.597738E+002
 20
1.5282824E+002
 11
-5.597738E+002
 21
1.5337818E+002
  0
LINE
  8
2D_SICHTBARE_KANTEN
  6
CONTINUOUS
 62
40
 10
-5.597738E+002
 20
1.5387818E+002
 11
-5.597738E+002
 21
1.5137819E+002
  0
LINE
  8
2D_SICHTBARE_KANTEN
  6
CONTINUOUS
 62
40
 10
-5.4982373E+002
 20
1.5282824E+002
 11
-5.4982373E+002
 21
1.5337818E+002
  0
LINE
  8
2D_SICHTBARE_KANTEN
  6
CONTINUOUS
 62
40
 10
-5.4982371E+002
 20
1.5387818E+002
 11
-5.4982379E+002
 21
1.5137819E+002
  0
ARC
  8
2D_SICHTBARE_KANTEN
  6
CONTINUOUS
 62
40
 10
-5.6829876E+002
 20
1.5737823E+002
 40
1.999998
 50
1.7999994E+002
 51
2.7000006E+002
  0
LINE
  8
2D_SICHTBARE_KANTEN
  6
CONTINUOUS
 62
40
 10
-5.7029876E+002
 20
1.5737823E+002
 11
-5.7029876E+002
 21
1.7337823E+002
  0
ARC
  8
2D_SICHTBARE_KANTEN
  6
CONTINUOUS
 62
40
 10
-5.6829878E+002
 20
1.7337824E+002
 40
1.9999862
 50
8.9999605E+001
 51
1.8000039E+002
  0
LINE
  8
2D_SICHTBARE_KANTEN
  6
CONTINUOUS
 62
40
 10
-5.6829876E+002
 20
1.7537823E+002
 11
-5.3929876E+002
 21
1.7537823E+002
  0
LINE
  8
2D_SICHTBARE_KANTEN
  6
CONTINUOUS
 62
40
 10
-5.3929876E+002
 20
1.7537823E+002
 11
-5.3929876E+002
 21
1.5537823E+002
  0
LINE
  8
2D_SICHTBARE_KANTEN
  6
CONTINUOUS
 62
40
 10
-5.3929876E+002
 20
1.5537823E+002
 11
-5.6829876E+002
 21
1.5537823E+002
  0
LINE
  8
2D_SICHTBARE_KANTEN
  6
CONTINUOUS
 62
40
 10
-5.8629876E+002
 20
7.6378201E+001
 11
-5.8629876E+002
 21
1.3537823E+002
  0
ARC
  8
2D_SICHTBARE_KANTEN
  6
CONTINUOUS
 62
40
 10
-5.8329876E+002
 20
1.3537823E+002
 40
3.0
 50
9.0E+001
 51
1.8E+002
  0
ARC
  8
2D_SICHTBARE_KANTEN
  6
CONTINUOUS
 62
40
 10
-5.8329876E+002
 20
7.6378201E+001
 40
3.0
 50
1.8E+002
 51
2.7000002E+002
  0
DIMENSION
  8
2D_BEMASSUNG
  6
CONTINUOUS
 62
1
  2
*D967
  3
DSTYLE1
 10
7.6537307E+001
 20
2.0431519E+002
 11
-1.1031111E+002
 21
2.1081679E+002
 70
128
 13
-3.5147441E+002
 23
1.7212997E+002
 14
7.6537376E+001
 24
1.7220246E+002
 40
1.0E+001
 50
1.234254E-004
1001
ACAD
1000
DSTYLE
1002
{
1070
173
1070
0
1070
5
1000
_AH13
1002
}
  0
DIMENSION
  8
2D_BEMASSUNG
  6
CONTINUOUS
 62
1
  2
*D968
  3
DSTYLE1
 10
-4.1447438E+002
 20
2.3699956E+002
 11
-1.3564181E+002
 21
2.4350156E+002
 70
128
 13
8.3279406E+001
 23
1.7412818E+002
 14
-4.1447438E+002
 24
1.3537823E+002
 40
1.0E+001
 50
0.0
1001
ACAD
1000
DSTYLE
1002
{
1070
173
1070
0
1070
5
1000
_AH13
1002
}
  0
DIMENSION
  8
2D_BEMASSUNG
  6
CONTINUOUS
 62
1
  2
*D969
  3
DSTYLE2
 10
-2.5147439E+002
 20
1.0188706E+002
 11
-2.781617E+002
 21
1.0838906E+002
 70
128
 13
-3.0747438E+002
 23
1.1185937E+002
 14
-2.5147439E+002
 24
1.1185937E+002
 40
1.0E+001
 50
0.0
1001
ACAD
1000
DSTYLE
1002
{
1070
173
1070
0
1070
5
1000
_AH13
1002
}
  0
DIMENSION
  8
2D_BEMASSUNG
  6
CONTINUOUS
 62
1
  2
*D970
  3
DSTYLE2
 10
-1.994744E+002
 20
4.9940792E+001
 11
-2.701224E+002
 21
5.6442792E+001
 70
128
 13
-3.5947438E+002
 23
7.6625392E+001
 14
-1.994744E+002
 24
7.6625392E+001
 40
1.0E+001
 50
0.0
1001
ACAD
1000
DSTYLE
1002
{
1070
173
1070
0
1070
5
1000
_AH13
1002
}
  0
DIMENSION
  8
2D_BEMASSUNG
  6
CONTINUOUS
 62
1
  2
*D971
  3
DSTYLE2
 10
-4.1447438E+002
 20
2.5204472E+001
 11
-3.6164678E+002
 21
3.1706472E+001
 70
128
 13
-3.2647438E+002
 23
1.3108606E+002
 14
-4.1447438E+002
 24
7.637823E+001
 40
1.0E+001
 50
0.0
1001
ACAD
1000
DSTYLE
1002
{
1070
173
1070
0
1070
5
1000
_AH13
1002
}
  0
DIMENSION
  8
2D_BEMASSUNG
  6
CONTINUOUS
 62
1
  2
*D972
  3
DSTYLE2
 10
-4.1447438E+002
 20
4.9940792E+001
 11
-3.8205425E+002
 21
5.6442792E+001
 70
128
 13
-3.5947438E+002
 23
7.6625392E+001
 14
-4.1447438E+002
 24
7.637823E+001
 40
1.0E+001
 50
0.0
1001
ACAD
1000
DSTYLE
1002
{
1070
173
1070
0
1070
5
1000
_AH13
1002
}
  0
DIMENSION
  8
2D_BEMASSUNG
  6
CONTINUOUS
 62
1
  2
*D973
  3
DSTYLE2
 10
-4.1447438E+002
 20
4.797008
 11
-2.8372737E+002
 21
1.1299008E+001
 70
128
 13
-1.3547438E+002
 23
7.637823E+001
 14
-4.1447438E+002
 24
7.637823E+001
 40
1.0E+001
 50
0.0
1001
ACAD
1000
DSTYLE
1002
{
1070
173
1070
0
1070
5
1000
_AH13
1002
}
  0
DIMENSION
  8
2D_BEMASSUNG
  6
CONTINUOUS
 62
1
  2
*D974
  3
DSTYLE2
 10
-5.8629876E+002
 20
4.9940792E+001
 11
-5.633075E+002
 21
5.6442792E+001
 70
128
 13
-5.3929876E+002
 23
7.3378215E+001
 14
-5.8629876E+002
 24
7.6378201E+001
 40
1.0E+001
 50
0.0
1001
ACAD
1000
DSTYLE
1002
{
1070
173
1070
0
1070
5
1000
_AH13
1002
}
  0
DIMENSION
  8
2D_BEMASSUNG
  6
CONTINUOUS
 62
1
  2
*D975
  3
DSTYLE2
 10
-5.7029876E+002
 20
2.0431386E+002
 11
-5.5041163E+002
 21
2.1081586E+002
 70
128
 13
-5.3929876E+002
 23
1.7537823E+002
 14
-5.7029876E+002
 24
1.7337823E+002
 40
1.0E+001
 50
0.0
1001
ACAD
1000
DSTYLE
1002
{
1070
173
1070
0
1070
5
1000
_AH13
1002
}
  0
DIMENSION
  8
2D_BEMASSUNG
  6
CONTINUOUS
 62
1
  2
*D976
  3
DSTYLE2
 10
-4.4173428E+002
 20
7.337823E+001
 11
-4.4823628E+002
 21
1.0651333E+002
 70
128
 13
-4.1147438E+002
 23
1.3837823E+002
 14
-4.1147438E+002
 24
7.337823E+001
 40
1.0E+001
 50
9.0E+001
1001
ACAD
1000
DSTYLE
1002
{
1070
173
1070
0
1070
5
1000
_AH13
1002
}
  0
DIMENSION
  8
2D_BEMASSUNG
  6
CONTINUOUS
 62
1
  2
*D977
  3
DSTYLE2
 10
-4.4173428E+002
 20
1.5512818E+002
 11
-4.4823628E+002
 21
1.9132876E+002
 70
128
 13
-3.5822818E+002
 23
1.7512818E+002
 14
-3.5722818E+002
 24
1.5512818E+002
 40
1.0E+001
 50
9.0E+001
1001
ACAD
1000
DSTYLE
1002
{
1070
173
1070
0
1070
5
1000
_AH13
1002
}
  0
DIMENSION
  8
2D_BEMASSUNG
  6
CONTINUOUS
 62
1
  2
*D978
  3
DSTYLE1
 10
-4.680221E+002
 20
7.337823E+001
 11
-4.745241E+002
 21
1.2288122E+002
 70
128
 13
-3.5822818E+002
 23
1.7512818E+002
 14
-4.1147438E+002
 24
7.337823E+001
 40
1.0E+001
 50
9.0E+001
1001
ACAD
1000
DSTYLE
1002
{
1070
173
1070
0
1070
5
1000
_AH13
1002
}
  0
DIMENSION
  8
2D_BEMASSUNG
  6
CONTINUOUS
 62
1
  2
*D979
  3
DSTYLE2
 10
-1.0020452E+002
 20
1.1112823E+002
 11
-1.0670652E+002
 21
1.3629182E+002
 70
128
 13
-1.9341538E+002
 23
1.2712823E+002
 14
-1.9341538E+002
 24
1.1112823E+002
 40
1.0E+001
 50
9.0E+001
1001
ACAD
1000
DSTYLE
1002
{
1070
173
1070
0
1070
5
1000
_AH13
1002
}
  0
DIMENSION
  8
2D_BEMASSUNG
  6
CONTINUOUS
 62
1
  2
*D980
  3
DSTYLE2
 10
-1.0020452E+002
 20
8.412823E+001
 11
-1.0670652E+002
 21
7.4168542E+001
 70
128
 13
-1.9341538E+002
 23
1.0012823E+002
 14
-1.9341538E+002
 24
8.412823E+001
 40
1.0E+001
 50
9.0E+001
1001
ACAD
1000
DSTYLE
1002
{
1070
173
1070
0
1070
5
1000
_AH13
1002
}
  0
DIMENSION
  8
2D_BEMASSUNG
  6
CONTINUOUS
 62
1
  2
*D981
  3
DSTYLE2
 10
-6.2257297E+001
 20
8.412823E+001
 11
-6.8759297E+001
 21
1.0691332E+002
 70
128
 13
-1.9341538E+002
 23
1.2712823E+002
 14
-1.9341538E+002
 24
8.412823E+001
 40
1.0E+001
 50
9.0E+001
1001
ACAD
1000
DSTYLE
1002
{
1070
173
1070
0
1070
5
1000
_AH13
1002
}
  0
DIMENSION
  8
2D_BEMASSUNG
  6
CONTINUOUS
 62
1
  2
*D982
  3
DSTYLE2
 10
-1.0020452E+002
 20
1.0012823E+002
 11
-1.0670652E+002
 21
1.0568922E+002
 70
128
 13
-1.9341538E+002
 23
1.1112823E+002
 14
-1.9341538E+002
 24
1.0012823E+002
 40
1.0E+001
 50
9.0E+001
1001
ACAD
1000
DSTYLE
1002
{
1070
173
1070
0
1070
5
1000
_AH13
1002
}
  0
DIMENSION
  8
2D_BEMASSUNG
  6
CONTINUOUS
 62
1
  2
*D983
  3
DSTYLE2
 10
1.2089871E+002
 20
1.2712823E+002
 11
1.1439671E+002
 21
1.4708148E+002
 70
128
 13
8.1775591E+001
 23
1.6512821E+002
 14
-1.9341538E+002
 24
1.2712823E+002
 40
1.0E+001
 50
9.0E+001
1001
ACAD
1000
DSTYLE
1002
{
1070
173
1070
0
1070
5
1000
_AH13
1002
}
  0
TEXT
  8
2D_TEXT
  6
CONTINUOUS
 62
40
 10
1.2845419E+002
 20
-1.802109E+002
 40
1.0E+001
  1
p430101.she
 41
6.5454545E-001
 72
1
 11
9.2454195E+001
 21
-1.852109E+002
 73
2
  0
TEXT
  8
2D_TEXT
  6
CONTINUOUS
 62
150
 10
5.3317184E+001
 20
-2.0198448E+002
 40
7.0
  1
Maßstab:
 41
6.4687502E-001
 72
1
 11
3.5204683E+001
 21
-2.0548448E+002
 73
2
  0
LINE
  8
MED-1
  6
CONTINUOUS
 62
3
 10
-8.6614649E+001
 20
-1.7490238E+002
 11
-8.6614649E+001
 21
-1.3928918E+002
  0
LINE
  8
MED-1
  6
CONTINUOUS
 62
3
 10
-8.6614649E+001
 20
-1.3928918E+002
 11
1.4009935E+002
 21
-1.3928918E+002
  0
LINE
  8
MED-1
  6
CONTINUOUS
 62
3
 10
1.4009935E+002
 20
-1.3928918E+002
 11
1.4009935E+002
 21
-1.7490238E+002
  0
TEXT
  8
2D_TEXT
  6
CONTINUOUS
 62
150
 10
-4.0573185E+001
 20
-1.6367404E+002
 40
7.0
  1
Benennung
 41
6.5000002E-001
 72
1
 11
-6.1048186E+001
 21
-1.6717404E+002
 73
2
  0
TEXT
  8
2D_TEXT
  6
CONTINUOUS
 62
40
 10
-6.555101E+001
 20
-1.5601119E+002
 40
1.0E+001
  1
Ansicht TS 92 EN 2-4
 41
6.6176471E-001
  0
TEXT
  8
2D_TEXT
  6
CONTINUOUS
 62
150
 10
4.7442721E+001
 20
-1.8278618E+002
 40
7.0
  1
Zng.Nr.
 41
6.4285716E-001
 72
1
 11
3.169272E+001
 21
-1.8628618E+002
 73
2
  0
TEXT
  8
2D_TEXT
  6
CONTINUOUS
 62
40
 10
5.2442948
 20
-1.8003292E+002
 40
1.0E+001
  1
M.Schell
 41
6.46875E-001
 72
1
 11
-2.0630705E+001
 21
-1.8503292E+002
 73
2
  0
TEXT
  8
2D_TEXT
  6
CONTINUOUS
 62
40
 10
4.4547441
 20
-1.9918066E+002
 40
1.0E+001
  1
03.12.01
 41
6.46875E-001
 72
1
 11
-2.1420256E+001
 21
-2.0418066E+002
 73
2
  0
TEXT
  8
2D_TEXT
  6
CONTINUOUS
 62
150
 10
-6.3664982E+001
 20
-1.8247287E+002
 40
7.0
  1
gez.
 41
6.1875002E-001
 72
1
 11
-7.2327482E+001
 21
-1.8597287E+002
 73
2
  0
TEXT
  8
2D_TEXT
  6
CONTINUOUS
 62
150
 10
-6.0675834E+001
 20
-2.0127169E+002
 40
7.0
  1
Datum
 41
6.3000002E-001
 72
1
 11
-7.1700835E+001
 21
-2.0477169E+002
 73
2
  0
TEXT
  8
2D_TEXT
  6
CONTINUOUS
 62
40
 10
7.6109102E+001
 20
-1.9987091E+002
 40
1.0E+001
  1
1:2
 41
6.0E-001
 72
1
 11
6.7109102E+001
 21
-2.0487091E+002
 73
2
  0
LINE
  8
MED-1
  6
CONTINUOUS
 62
3
 10
9.2699351E+001
 20
-1.9490238E+002
 11
9.2699351E+001
 21
-2.1490238E+002
  0
TEXT
  8
2D_TEXT
  6
CONTINUOUS
 62
40
 10
1.2453488E+002
 20
-1.9945969E+002
 40
1.0E+001
  1
A 3
 41
6.0E-001
 72
1
 11
1.1553488E+002
 21
-2.0445969E+002
 73
2
  0
LINE
  8
MED-1
  6
CONTINUOUS
 62
3
 10
-8.6614649E+001
 20
-1.7490238E+002
 11
1.4009935E+002
 21
-1.7490238E+002
  0
LINE
  8
MED-1
  6
CONTINUOUS
 62
3
 10
1.4009935E+002
 20
-1.7490238E+002
 11
1.4009935E+002
 21
-2.1490238E+002
  0
LINE
  8
MED-1
  6
CONTINUOUS
 62
3
 10
1.4009935E+002
 20
-2.1490238E+002
 11
-8.6614649E+001
 21
-2.1490238E+002
  0
LINE
  8
MED-1
  6
CONTINUOUS
 62
3
 10
-8.6614649E+001
 20
-2.1490238E+002
 11
-8.6614649E+001
 21
-1.7490238E+002
  0
LINE
  8
MED-1
  6
CONTINUOUS
 62
3
 10
1.3005351E+001
 20
-1.7490238E+002
 11
1.3005351E+001
 21
-2.1490238E+002
  0
LINE
  8
MED-1
  6
CONTINUOUS
 62
3
 10
-8.6614649E+001
 20
-1.9490238E+002
 11
1.4009935E+002
 21
-1.9490238E+002
  0
POINT
  8
Drafting_Hidden_Entities
  6
CONTINUOUS
 62
1
 10
0.0
 20
0.0
  0
ENDBLK
  0
BLOCK
  2
_AH1
 70
0
 10
0.0
 20
0.0
  3
_AH1
  0
LINE
  8
0
  6
CONTINUOUS
 62
0
 10
-1.0
 20
1.66667E-001
 11
0.0
 21
0.0
  0
LINE
  8
0
  6
CONTINUOUS
 62
0
 10
0.0
 20
0.0
 11
-1.0
 21
-1.66667E-001
  0
LINE
  8
0
  6
CONTINUOUS
 62
0
 10
-1.0
 20
1.66667E-001
 11
-1.0
 21
-1.66667E-001
  0
LINE
  8
0
  6
CONTINUOUS
 62
0
 10
0.0
 20
0.0
 11
-1.0
 21
0.0
  0
ENDBLK
  0
BLOCK
  2
_AH2
 70
0
 10
0.0
 20
0.0
  3
_AH2
  0
LINE
  8
0
  6
CONTINUOUS
 62
0
 10
-1.0
 20
1.66667E-001
 11
0.0
 21
0.0
  0
LINE
  8
0
  6
CONTINUOUS
 62
0
 10
0.0
 20
0.0
 11
-1.0
 21
-1.66667E-001
  0
LINE
  8
0
  6
CONTINUOUS
 62
0
 10
0.0
 20
0.0
 11
-1.0
 21
0.0
  0
ENDBLK
  0
BLOCK
  2
*D967
  3
*D
 10
0.0
 20
0.0
 70
65
  0
LINE
  8
2D_BEMASSUNG
  6
CONTINUOUS
 62
1
 10
-1.757372E+002
 20
8.6064985E+001
 11
-1.7573724E+002
 21
1.0365713E+002
  0
LINE
  8
2D_BEMASSUNG
  6
CONTINUOUS
 62
1
 10
3.8268688E+001
 20
8.610123E+001
 11
3.826865E+001
 21
1.036576E+002
  0
LINE
  8
2D_BEMASSUNG
  6
CONTINUOUS
 62
1
 10
-1.7573724E+002
 20
1.0215713E+002
 11
-5.5155548E+001
 21
1.0215739E+002
  0
LINE
  8
2D_BEMASSUNG
  6
CONTINUOUS
 62
1
 10
3.8268653E+001
 20
1.021576E+002
 11
-5.5155548E+001
 21
1.0215739E+002
  0
TEXT
  8
2D_BEMASSUNG
  6
CONTINUOUS
 62
1
 10
-5.9355551E+001
 20
1.0365838E+002
 40
3.5
  1
428
 41
8.0E-001
 50
1.234254E-004
  0
INSERT
  2
_AH13
  8
2D_BEMASSUNG
 62
1
 10
-3.5147448E+002
 20
2.0431427E+002
 41
8.0
 42
8.0
 43
8.0
 50
1.234254E-004
  0
INSERT
  2
_AH13
  8
2D_BEMASSUNG
 62
1
 10
7.6537307E+001
 20
2.0431519E+002
 41
8.0
 42
8.0
 43
8.0
 50
1.8000012E+002
  0
ENDBLK
  0
BLOCK
  2
*D968
  3
*D
 10
0.0
 20
0.0
 70
65
  0
LINE
  8
2D_BEMASSUNG
  6
CONTINUOUS
 62
1
 10
4.1639703E+001
 20
8.7064092E+001
 11
4.1639703E+001
 21
1.1999978E+002
  0
LINE
  8
2D_BEMASSUNG
  6
CONTINUOUS
 62
1
 10
-2.0723719E+002
 20
6.7689115E+001
 11
-2.0723719E+002
 21
1.1999978E+002
  0
LINE
  8
2D_BEMASSUNG
  6
CONTINUOUS
 62
1
 10
4.1639703E+001
 20
1.1849978E+002
 11
-6.7820904E+001
 21
1.1849978E+002
  0
LINE
  8
2D_BEMASSUNG
  6
CONTINUOUS
 62
1
 10
-2.0723719E+002
 20
1.1849978E+002
 11
-6.7820904E+001
 21
1.1849978E+002
  0
TEXT
  8
2D_BEMASSUNG
  6
CONTINUOUS
 62
1
 10
-7.2020905E+001
 20
1.2000078E+002
 40
3.5
  1
498
 41
8.0E-001
 50
3.6E+002
  0
INSERT
  2
_AH13
  8
2D_BEMASSUNG
 62
1
 10
8.3279406E+001
 20
2.3699956E+002
 41
8.0
 42
8.0
 43
8.0
 50
1.8E+002
  0
INSERT
  2
_AH13
  8
2D_BEMASSUNG
 62
1
 10
-4.1447438E+002
 20
2.3699956E+002
 41
8.0
 42
8.0
 43
8.0
 50
3.6E+002
  0
ENDBLK
  0
BLOCK
  2
*D969
  3
*D
 10
0.0
 20
0.0
 70
65
  0
LINE
  8
2D_BEMASSUNG
  6
CONTINUOUS
 62
1
 10
-1.5373719E+002
 20
5.5929685E+001
 11
-1.5373719E+002
 21
4.9443532E+001
  0
LINE
  8
2D_BEMASSUNG
  6
CONTINUOUS
 62
1
 10
-1.257372E+002
 20
5.5929685E+001
 11
-1.257372E+002
 21
4.9443532E+001
  0
LINE
  8
2D_BEMASSUNG
  6
CONTINUOUS
 62
1
 10
-1.5373719E+002
 20
5.0943532E+001
 11
-1.3908085E+002
 21
5.0943532E+001
  0
LINE
  8
2D_BEMASSUNG
  6
CONTINUOUS
 62
1
 10
-1.257372E+002
 20
5.0943532E+001
 11
-1.3908085E+002
 21
5.0943532E+001
  0
TEXT
  8
2D_BEMASSUNG
  6
CONTINUOUS
 62
1
 10
-1.4188085E+002
 20
5.2444532E+001
 40
3.5
  1
56
 41
8.0E-001
  0
INSERT
  2
_AH13
  8
2D_BEMASSUNG
 62
1
 10
-3.0747438E+002
 20
1.0188706E+002
 41
8.0
 42
8.0
 43
8.0
 50
0.0
  0
INSERT
  2
_AH13
  8
2D_BEMASSUNG
 62
1
 10
-2.5147439E+002
 20
1.0188706E+002
 41
8.0
 42
8.0
 43
8.0
 50
1.8E+002
  0
ENDBLK
  0
BLOCK
  2
*D970
  3
*D
 10
0.0
 20
0.0
 70
65
  0
LINE
  8
2D_BEMASSUNG
  6
CONTINUOUS
 62
1
 10
-1.7973719E+002
 20
3.8312696E+001
 11
-1.7973719E+002
 21
2.3470396E+001
  0
LINE
  8
2D_BEMASSUNG
  6
CONTINUOUS
 62
1
 10
-9.9737201E+001
 20
3.8312696E+001
 11
-9.9737201E+001
 21
2.3470396E+001
  0
LINE
  8
2D_BEMASSUNG
  6
CONTINUOUS
 62
1
 10
-1.7973719E+002
 20
2.4970396E+001
 11
-1.350612E+002
 21
2.4970396E+001
  0
LINE
  8
2D_BEMASSUNG
  6
CONTINUOUS
 62
1
 10
-9.9737201E+001
 20
2.4970396E+001
 11
-1.350612E+002
 21
2.4970396E+001
  0
TEXT
  8
2D_BEMASSUNG
  6
CONTINUOUS
 62
1
 10
-1.392612E+002
 20
2.6471396E+001
 40
3.5
  1
160
 41
8.0E-001
  0
INSERT
  2
_AH13
  8
2D_BEMASSUNG
 62
1
 10
-3.5947438E+002
 20
4.9940792E+001
 41
8.0
 42
8.0
 43
8.0
 50
0.0
  0
INSERT
  2
_AH13
  8
2D_BEMASSUNG
 62
1
 10
-1.994744E+002
 20
4.9940792E+001
 41
8.0
 42
8.0
 43
8.0
 50
1.8E+002
  0
ENDBLK
  0
BLOCK
  2
*D971
  3
*D
 10
0.0
 20
0.0
 70
65
  0
LINE
  8
2D_BEMASSUNG
  6
CONTINUOUS
 62
1
 10
-1.6323719E+002
 20
6.5543028E+001
 11
-1.6323719E+002
 21
3.0695028E+001
  0
LINE
  8
2D_BEMASSUNG
  6
CONTINUOUS
 62
1
 10
-1.6323719E+002
 20
2.0491296E+001
 11
-1.6323719E+002
 21
1.1102236E+001
  0
LINE
  8
2D_BEMASSUNG
  6
CONTINUOUS
 62
1
 10
-2.0723719E+002
 20
3.8189115E+001
 11
-2.0723719E+002
 21
1.1102236E+001
  0
LINE
  8
2D_BEMASSUNG
  6
CONTINUOUS
 62
1
 10
-1.6323719E+002
 20
1.2602236E+001
 11
-1.8082339E+002
 21
1.2602236E+001
  0
LINE
  8
2D_BEMASSUNG
  6
CONTINUOUS
 62
1
 10
-2.0723719E+002
 20
1.2602236E+001
 11
-1.8082339E+002
 21
1.2602236E+001
  0
TEXT
  8
2D_BEMASSUNG
  6
CONTINUOUS
 62
1
 10
-1.8362339E+002
 20
1.4103236E+001
 40
3.5
  1
88
 41
8.0E-001
 50
3.6E+002
  0
INSERT
  2
_AH13
  8
2D_BEMASSUNG
 62
1
 10
-3.2647438E+002
 20
2.5204472E+001
 41
8.0
 42
8.0
 43
8.0
 50
1.8E+002
  0
INSERT
  2
_AH13
  8
2D_BEMASSUNG
 62
1
 10
-4.1447438E+002
 20
2.5204472E+001
 41
8.0
 42
8.0
 43
8.0
 50
3.6E+002
  0
ENDBLK
  0
BLOCK
  2
*D972
  3
*D
 10
0.0
 20
0.0
 70
65
  0
LINE
  8
2D_BEMASSUNG
  6
CONTINUOUS
 62
1
 10
-1.7973719E+002
 20
3.8312696E+001
 11
-1.7973719E+002
 21
2.3470396E+001
  0
LINE
  8
2D_BEMASSUNG
  6
CONTINUOUS
 62
1
 10
-2.0723719E+002
 20
3.8189115E+001
 11
-2.0723719E+002
 21
2.3470396E+001
  0
LINE
  8
2D_BEMASSUNG
  6
CONTINUOUS
 62
1
 10
-1.7973719E+002
 20
2.4970396E+001
 11
-1.9102712E+002
 21
2.4970396E+001
  0
LINE
  8
2D_BEMASSUNG
  6
CONTINUOUS
 62
1
 10
-2.0723719E+002
 20
2.4970396E+001
 11
-1.9102712E+002
 21
2.4970396E+001
  0
TEXT
  8
2D_BEMASSUNG
  6
CONTINUOUS
 62
1
 10
-1.9382712E+002
 20
2.6471396E+001
 40
3.5
  1
55
 41
8.0E-001
 50
3.6E+002
  0
INSERT
  2
_AH13
  8
2D_BEMASSUNG
 62
1
 10
-3.5947438E+002
 20
4.9940792E+001
 41
8.0
 42
8.0
 43
8.0
 50
1.8E+002
  0
INSERT
  2
_AH13
  8
2D_BEMASSUNG
 62
1
 10
-4.1447438E+002
 20
4.9940792E+001
 41
8.0
 42
8.0
 43
8.0
 50
3.6E+002
  0
ENDBLK
  0
BLOCK
  2
*D973
  3
*D
 10
0.0
 20
0.0
 70
65
  0
LINE
  8
2D_BEMASSUNG
  6
CONTINUOUS
 62
1
 10
-6.7737189E+001
 20
3.8189115E+001
 11
-6.7737189E+001
 21
8.98504E-001
  0
LINE
  8
2D_BEMASSUNG
  6
CONTINUOUS
 62
1
 10
-2.0723719E+002
 20
3.8189115E+001
 11
-2.0723719E+002
 21
8.98504E-001
  0
LINE
  8
2D_BEMASSUNG
  6
CONTINUOUS
 62
1
 10
-6.7737189E+001
 20
2.398504
 11
-1.4186369E+002
 21
2.398504
  0
LINE
  8
2D_BEMASSUNG
  6
CONTINUOUS
 62
1
 10
-2.0723719E+002
 20
2.398504
 11
-1.4186369E+002
 21
2.398504
  0
TEXT
  8
2D_BEMASSUNG
  6
CONTINUOUS
 62
1
 10
-1.4606369E+002
 20
3.899504
 40
3.5
  1
279
 41
8.0E-001
 50
3.6E+002
  0
INSERT
  2
_AH13
  8
2D_BEMASSUNG
 62
1
 10
-1.3547438E+002
 20
4.797008
 41
8.0
 42
8.0
 43
8.0
 50
1.8E+002
  0
INSERT
  2
_AH13
  8
2D_BEMASSUNG
 62
1
 10
-4.1447438E+002
 20
4.797008
 41
8.0
 42
8.0
 43
8.0
 50
3.6E+002
  0
ENDBLK
  0
BLOCK
  2
*D974
  3
*D
 10
0.0
 20
0.0
 70
65
  0
LINE
  8
2D_BEMASSUNG
  6
CONTINUOUS
 62
1
 10
-2.6964938E+002
 20
3.6689107E+001
 11
-2.6964938E+002
 21
2.3470396E+001
  0
LINE
  8
2D_BEMASSUNG
  6
CONTINUOUS
 62
1
 10
-2.9314938E+002
 20
3.8189101E+001
 11
-2.9314938E+002
 21
2.3470396E+001
  0
LINE
  8
2D_BEMASSUNG
  6
CONTINUOUS
 62
1
 10
-2.6964938E+002
 20
2.4970396E+001
 11
-2.8165375E+002
 21
2.4970396E+001
  0
LINE
  8
2D_BEMASSUNG
  6
CONTINUOUS
 62
1
 10
-2.9314938E+002
 20
2.4970396E+001
 11
-2.8165375E+002
 21
2.4970396E+001
  0
TEXT
  8
2D_BEMASSUNG
  6
CONTINUOUS
 62
1
 10
-2.8445375E+002
 20
2.6471396E+001
 40
3.5
  1
47
 41
8.0E-001
 50
3.6E+002
  0
INSERT
  2
_AH13
  8
2D_BEMASSUNG
 62
1
 10
-5.3929876E+002
 20
4.9940792E+001
 41
8.0
 42
8.0
 43
8.0
 50
1.8E+002
  0
INSERT
  2
_AH13
  8
2D_BEMASSUNG
 62
1
 10
-5.8629876E+002
 20
4.9940792E+001
 41
8.0
 42
8.0
 43
8.0
 50
3.6E+002
  0
ENDBLK
  0
BLOCK
  2
*D975
  3
*D
 10
0.0
 20
0.0
 70
65
  0
LINE
  8
2D_BEMASSUNG
  6
CONTINUOUS
 62
1
 10
-2.6964938E+002
 20
8.7689115E+001
 11
-2.6964938E+002
 21
1.0365693E+002
  0
LINE
  8
2D_BEMASSUNG
  6
CONTINUOUS
 62
1
 10
-2.8514938E+002
 20
8.6689115E+001
 11
-2.8514938E+002
 21
1.0365693E+002
  0
LINE
  8
2D_BEMASSUNG
  6
CONTINUOUS
 62
1
 10
-2.6964938E+002
 20
1.0215693E+002
 11
-2.7520581E+002
 21
1.0215693E+002
  0
LINE
  8
2D_BEMASSUNG
  6
CONTINUOUS
 62
1
 10
-2.8514938E+002
 20
1.0215693E+002
 11
-2.7520581E+002
 21
1.0215693E+002
  0
TEXT
  8
2D_BEMASSUNG
  6
CONTINUOUS
 62
1
 10
-2.7800581E+002
 20
1.0365793E+002
 40
3.5
  1
31
 41
8.0E-001
 50
3.6E+002
  0
INSERT
  2
_AH13
  8
2D_BEMASSUNG
 62
1
 10
-5.3929876E+002
 20
2.0431386E+002
 41
8.0
 42
8.0
 43
8.0
 50
1.8E+002
  0
INSERT
  2
_AH13
  8
2D_BEMASSUNG
 62
1
 10
-5.7029876E+002
 20
2.0431386E+002
 41
8.0
 42
8.0
 43
8.0
 50
3.6E+002
  0
ENDBLK
  0
BLOCK
  2
*D976
  3
*D
 10
0.0
 20
0.0
 70
65
  0
LINE
  8
2D_BEMASSUNG
  6
CONTINUOUS
 62
1
 10
-2.0573719E+002
 20
6.9189115E+001
 11
-2.2236714E+002
 21
6.9189115E+001
  0
LINE
  8
2D_BEMASSUNG
  6
CONTINUOUS
 62
1
 10
-2.0573719E+002
 20
3.6689115E+001
 11
-2.2236714E+002
 21
3.6689115E+001
  0
LINE
  8
2D_BEMASSUNG
  6
CONTINUOUS
 62
1
 10
-2.2086714E+002
 20
6.9189115E+001
 11
-2.2086714E+002
 21
5.3256663E+001
  0
LINE
  8
2D_BEMASSUNG
  6
CONTINUOUS
 62
1
 10
-2.2086714E+002
 20
3.6689115E+001
 11
-2.2086714E+002
 21
5.3256663E+001
  0
TEXT
  8
2D_BEMASSUNG
  6
CONTINUOUS
 62
1
 10
-2.2236814E+002
 20
5.0456663E+001
 40
3.5
  1
65
 41
8.0E-001
 50
9.0E+001
  0
INSERT
  2
_AH13
  8
2D_BEMASSUNG
 62
1
 10
-4.4173428E+002
 20
1.3837823E+002
 41
8.0
 42
8.0
 43
8.0
 50
2.7E+002
  0
INSERT
  2
_AH13
  8
2D_BEMASSUNG
 62
1
 10
-4.4173428E+002
 20
7.337823E+001
 41
8.0
 42
8.0
 43
8.0
 50
4.5E+002
  0
ENDBLK
  0
BLOCK
  2
*D977
  3
*D
 10
0.0
 20
0.0
 70
65
  0
LINE
  8
2D_BEMASSUNG
  6
CONTINUOUS
 62
1
 10
-1.7911409E+002
 20
8.7564092E+001
 11
-2.2236714E+002
 21
8.7564092E+001
  0
LINE
  8
2D_BEMASSUNG
  6
CONTINUOUS
 62
1
 10
-1.7861409E+002
 20
7.7564092E+001
 11
-2.2236714E+002
 21
7.7564092E+001
  0
LINE
  8
2D_BEMASSUNG
  6
CONTINUOUS
 62
1
 10
-2.2086714E+002
 20
8.7564092E+001
 11
-2.2086714E+002
 21
9.9964378E+001
  0
LINE
  8
2D_BEMASSUNG
  6
CONTINUOUS
 62
1
 10
-2.2086714E+002
 20
6.9564092E+001
 11
-2.2086714E+002
 21
8.7564092E+001
  0
TEXT
  8
2D_BEMASSUNG
  6
CONTINUOUS
 62
1
 10
-2.2236814E+002
 20
9.2864378E+001
 40
3.5
  1
20
 41
8.0E-001
 50
9.0E+001
  0
INSERT
  2
_AH13
  8
2D_BEMASSUNG
 62
1
 10
-4.4173428E+002
 20
1.7512818E+002
 41
8.0
 42
8.0
 43
8.0
 50
4.5E+002
  0
INSERT
  2
_AH13
  8
2D_BEMASSUNG
 62
1
 10
-4.4173428E+002
 20
1.5512818E+002
 41
8.0
 42
8.0
 43
8.0
 50
6.3E+002
  0
ENDBLK
  0
BLOCK
  2
*D978
  3
*D
 10
0.0
 20
0.0
 70
65
  0
LINE
  8
2D_BEMASSUNG
  6
CONTINUOUS
 62
1
 10
-1.7911409E+002
 20
8.7564092E+001
 11
-2.3551105E+002
 21
8.7564092E+001
  0
LINE
  8
2D_BEMASSUNG
  6
CONTINUOUS
 62
1
 10
-2.0573719E+002
 20
3.6689115E+001
 11
-2.3551105E+002
 21
3.6689115E+001
  0
LINE
  8
2D_BEMASSUNG
  6
CONTINUOUS
 62
1
 10
-2.3401105E+002
 20
8.7564092E+001
 11
-2.3401105E+002
 21
6.1440608E+001
  0
LINE
  8
2D_BEMASSUNG
  6
CONTINUOUS
 62
1
 10
-2.3401105E+002
 20
3.6689115E+001
 11
-2.3401105E+002
 21
6.1440608E+001
  0
TEXT
  8
2D_BEMASSUNG
  6
CONTINUOUS
 62
1
 10
-2.3551205E+002
 20
5.7240608E+001
 40
3.5
  1
102
 41
8.0E-001
 50
9.0E+001
  0
INSERT
  2
_AH13
  8
2D_BEMASSUNG
 62
1
 10
-4.680221E+002
 20
1.7512818E+002
 41
8.0
 42
8.0
 43
8.0
 50
2.7E+002
  0
INSERT
  2
_AH13
  8
2D_BEMASSUNG
 62
1
 10
-4.680221E+002
 20
7.337823E+001
 41
8.0
 42
8.0
 43
8.0
 50
4.5E+002
  0
ENDBLK
  0
BLOCK
  2
*D979
  3
*D
 10
0.0
 20
0.0
 70
65
  0
LINE
  8
2D_BEMASSUNG
  6
CONTINUOUS
 62
1
 10
-9.670769E+001
 20
6.3564115E+001
 11
-4.8602261E+001
 21
6.3564115E+001
  0
LINE
  8
2D_BEMASSUNG
  6
CONTINUOUS
 62
1
 10
-9.670769E+001
 20
5.5564115E+001
 11
-4.8602261E+001
 21
5.5564115E+001
  0
LINE
  8
2D_BEMASSUNG
  6
CONTINUOUS
 62
1
 10
-5.0102261E+001
 20
6.3564115E+001
 11
-5.0102261E+001
 21
7.244591E+001
  0
LINE
  8
2D_BEMASSUNG
  6
CONTINUOUS
 62
1
 10
-5.0102261E+001
 20
4.7564115E+001
 11
-5.0102261E+001
 21
6.3564115E+001
  0
TEXT
  8
2D_BEMASSUNG
  6
CONTINUOUS
 62
1
 10
-5.160326E+001
 20
6.534591E+001
 40
3.5
  1
16
 41
8.0E-001
 50
9.0E+001
  0
INSERT
  2
_AH13
  8
2D_BEMASSUNG
 62
1
 10
-1.0020452E+002
 20
1.2712823E+002
 41
8.0
 42
8.0
 43
8.0
 50
4.5E+002
  0
INSERT
  2
_AH13
  8
2D_BEMASSUNG
 62
1
 10
-1.0020452E+002
 20
1.1112823E+002
 41
8.0
 42
8.0
 43
8.0
 50
6.3E+002
  0
ENDBLK
  0
BLOCK
  2
*D980
  3
*D
 10
0.0
 20
0.0
 70
65
  0
LINE
  8
2D_BEMASSUNG
  6
CONTINUOUS
 62
1
 10
-9.670769E+001
 20
5.0064115E+001
 11
-4.8602261E+001
 21
5.0064115E+001
  0
LINE
  8
2D_BEMASSUNG
  6
CONTINUOUS
 62
1
 10
-9.670769E+001
 20
4.2064115E+001
 11
-4.8602261E+001
 21
4.2064115E+001
  0
LINE
  8
2D_BEMASSUNG
  6
CONTINUOUS
 62
1
 10
-5.0102261E+001
 20
5.8064115E+001
 11
-5.0102261E+001
 21
4.2064115E+001
  0
LINE
  8
2D_BEMASSUNG
  6
CONTINUOUS
 62
1
 10
-5.0102261E+001
 20
4.2064115E+001
 11
-5.0102261E+001
 21
3.2784271E+001
  0
TEXT
  8
2D_BEMASSUNG
  6
CONTINUOUS
 62
1
 10
-5.160326E+001
 20
3.4284271E+001
 40
3.5
  1
16
 41
8.0E-001
 50
9.0E+001
  0
INSERT
  2
_AH13
  8
2D_BEMASSUNG
 62
1
 10
-1.0020452E+002
 20
1.0012823E+002
 41
8.0
 42
8.0
 43
8.0
 50
4.5E+002
  0
INSERT
  2
_AH13
  8
2D_BEMASSUNG
 62
1
 10
-1.0020452E+002
 20
8.412823E+001
 41
8.0
 42
8.0
 43
8.0
 50
6.3E+002
  0
ENDBLK
  0
BLOCK
  2
*D981
  3
*D
 10
0.0
 20
0.0
 70
65
  0
LINE
  8
2D_BEMASSUNG
  6
CONTINUOUS
 62
1
 10
-9.670769E+001
 20
6.3564115E+001
 11
-2.9628649E+001
 21
6.3564115E+001
  0
LINE
  8
2D_BEMASSUNG
  6
CONTINUOUS
 62
1
 10
-9.670769E+001
 20
4.2064115E+001
 11
-2.9628649E+001
 21
4.2064115E+001
  0
LINE
  8
2D_BEMASSUNG
  6
CONTINUOUS
 62
1
 10
-3.1128649E+001
 20
6.3564115E+001
 11
-3.1128649E+001
 21
5.3456662E+001
  0
LINE
  8
2D_BEMASSUNG
  6
CONTINUOUS
 62
1
 10
-3.1128649E+001
 20
4.2064115E+001
 11
-3.1128649E+001
 21
5.3456662E+001
  0
TEXT
  8
2D_BEMASSUNG
  6
CONTINUOUS
 62
1
 10
-3.2629649E+001
 20
5.0656662E+001
 40
3.5
  1
43
 41
8.0E-001
 50
9.0E+001
  0
INSERT
  2
_AH13
  8
2D_BEMASSUNG
 62
1
 10
-6.2257297E+001
 20
1.2712823E+002
 41
8.0
 42
8.0
 43
8.0
 50
2.7E+002
  0
INSERT
  2
_AH13
  8
2D_BEMASSUNG
 62
1
 10
-6.2257297E+001
 20
8.412823E+001
 41
8.0
 42
8.0
 43
8.0
 50
4.5E+002
  0
ENDBLK
  0
BLOCK
  2
*D982
  3
*D
 10
0.0
 20
0.0
 70
65
  0
LINE
  8
2D_BEMASSUNG
  6
CONTINUOUS
 62
1
 10
-9.670769E+001
 20
5.5564115E+001
 11
-4.8602261E+001
 21
5.5564115E+001
  0
LINE
  8
2D_BEMASSUNG
  6
CONTINUOUS
 62
1
 10
-9.670769E+001
 20
5.0064115E+001
 11
-4.8602261E+001
 21
5.0064115E+001
  0
LINE
  8
2D_BEMASSUNG
  6
CONTINUOUS
 62
1
 10
-5.0102261E+001
 20
5.5564115E+001
 11
-5.0102261E+001
 21
5.284461E+001
  0
LINE
  8
2D_BEMASSUNG
  6
CONTINUOUS
 62
1
 10
-5.0102261E+001
 20
5.0064115E+001
 11
-5.0102261E+001
 21
5.284461E+001
  0
TEXT
  8
2D_BEMASSUNG
  6
CONTINUOUS
 62
1
 10
-5.160326E+001
 20
5.004461E+001
 40
3.5
  1
11
 41
8.0E-001
 50
9.0E+001
  0
INSERT
  2
_AH13
  8
2D_BEMASSUNG
 62
1
 10
-1.0020452E+002
 20
1.1112823E+002
 41
8.0
 42
8.0
 43
8.0
 50
2.7E+002
  0
INSERT
  2
_AH13
  8
2D_BEMASSUNG
 62
1
 10
-1.0020452E+002
 20
1.0012823E+002
 41
8.0
 42
8.0
 43
8.0
 50
4.5E+002
  0
ENDBLK
  0
BLOCK
  2
*D983
  3
*D
 10
0.0
 20
0.0
 70
65
  0
LINE
  8
2D_BEMASSUNG
  6
CONTINUOUS
 62
1
 10
4.0887796E+001
 20
8.2564107E+001
 11
6.1949354E+001
 21
8.2564107E+001
  0
LINE
  8
2D_BEMASSUNG
  6
CONTINUOUS
 62
1
 10
-9.670769E+001
 20
6.3564115E+001
 11
6.1949354E+001
 21
6.3564115E+001
  0
LINE
  8
2D_BEMASSUNG
  6
CONTINUOUS
 62
1
 10
6.0449354E+001
 20
8.2564107E+001
 11
6.0449354E+001
 21
7.354074E+001
  0
LINE
  8
2D_BEMASSUNG
  6
CONTINUOUS
 62
1
 10
6.0449354E+001
 20
6.3564115E+001
 11
6.0449354E+001
 21
7.354074E+001
  0
TEXT
  8
2D_BEMASSUNG
  6
CONTINUOUS
 62
1
 10
5.8948354E+001
 20
7.074074E+001
 40
3.5
  1
38
 41
8.0E-001
 50
9.0E+001
  0
INSERT
  2
_AH13
  8
2D_BEMASSUNG
 62
1
 10
1.2089871E+002
 20
1.6512821E+002
 41
8.0
 42
8.0
 43
8.0
 50
2.7E+002
  0
INSERT
  2
_AH13
  8
2D_BEMASSUNG
 62
1
 10
1.2089871E+002
 20
1.2712823E+002
 41
8.0
 42
8.0
 43
8.0
 50
4.5E+002
  0
ENDBLK
  0
BLOCK
  2
*D1158
  3
*D
 10
0.0
 20
0.0
 70
65
  0
LINE
  8
2D_BEMASSUNG
  6
CONTINUOUS
 62
1
 10
1.3354246E+002
 20
2.3927486E+002
 11
1.3354243E+002
 21
2.5686701E+002
  0
LINE
  8
2D_BEMASSUNG
  6
CONTINUOUS
 62
1
 10
3.4754836E+002
 20
2.393111E+002
 11
3.4754832E+002
 21
2.5686747E+002
  0
LINE
  8
2D_BEMASSUNG
  6
CONTINUOUS
 62
1
 10
1.3354243E+002
 20
2.5536701E+002
 11
2.5412412E+002
 21
2.5536727E+002
  0
LINE
  8
2D_BEMASSUNG
  6
CONTINUOUS
 62
1
 10
3.4754832E+002
 20
2.5536747E+002
 11
2.5412412E+002
 21
2.5536727E+002
  0
TEXT
  8
2D_BEMASSUNG
  6
CONTINUOUS
 62
1
 10
2.4992412E+002
 20
2.5686826E+002
 40
3.5
  1
428
 41
8.0E-001
 50
1.234254E-004
  0
INSERT
  2
_AH13
  8
2D_BEMASSUNG
 62
1
 10
1.3354243E+002
 20
2.5536701E+002
 41
4.0
 42
4.0
 43
4.0
 50
1.234254E-004
  0
INSERT
  2
_AH13
  8
2D_BEMASSUNG
 62
1
 10
3.4754832E+002
 20
2.5536747E+002
 41
4.0
 42
4.0
 43
4.0
 50
1.8000012E+002
  0
ENDBLK
  0
BLOCK
  2
*D1159
  3
*D
 10
0.0
 20
0.0
 70
65
  0
LINE
  8
2D_BEMASSUNG
  6
CONTINUOUS
 62
1
 10
3.5091937E+002
 20
2.4027397E+002
 11
3.5091937E+002
 21
2.7320966E+002
  0
LINE
  8
2D_BEMASSUNG
  6
CONTINUOUS
 62
1
 10
1.0204248E+002
 20
2.2089899E+002
 11
1.0204248E+002
 21
2.7320966E+002
  0
LINE
  8
2D_BEMASSUNG
  6
CONTINUOUS
 62
1
 10
3.5091937E+002
 20
2.7170966E+002
 11
2.4145876E+002
 21
2.7170966E+002
  0
LINE
  8
2D_BEMASSUNG
  6
CONTINUOUS
 62
1
 10
1.0204248E+002
 20
2.7170966E+002
 11
2.4145876E+002
 21
2.7170966E+002
  0
TEXT
  8
2D_BEMASSUNG
  6
CONTINUOUS
 62
1
 10
2.3725876E+002
 20
2.7321066E+002
 40
3.5
  1
498
 41
8.0E-001
 50
3.6E+002
  0
INSERT
  2
_AH13
  8
2D_BEMASSUNG
 62
1
 10
3.5091937E+002
 20
2.7170966E+002
 41
4.0
 42
4.0
 43
4.0
 50
1.8E+002
  0
INSERT
  2
_AH13
  8
2D_BEMASSUNG
 62
1
 10
1.0204248E+002
 20
2.7170966E+002
 41
4.0
 42
4.0
 43
4.0
 50
3.6E+002
  0
ENDBLK
  0
BLOCK
  2
*D1160
  3
*D
 10
0.0
 20
0.0
 70
65
  0
LINE
  8
2D_BEMASSUNG
  6
CONTINUOUS
 62
1
 10
1.5554248E+002
 20
2.0913956E+002
 11
1.5554248E+002
 21
2.0265341E+002
  0
LINE
  8
2D_BEMASSUNG
  6
CONTINUOUS
 62
1
 10
1.8354247E+002
 20
2.0913956E+002
 11
1.8354247E+002
 21
2.0265341E+002
  0
LINE
  8
2D_BEMASSUNG
  6
CONTINUOUS
 62
1
 10
1.5554248E+002
 20
2.0415341E+002
 11
1.7019882E+002
 21
2.0415341E+002
  0
LINE
  8
2D_BEMASSUNG
  6
CONTINUOUS
 62
1
 10
1.8354247E+002
 20
2.0415341E+002
 11
1.7019882E+002
 21
2.0415341E+002
  0
TEXT
  8
2D_BEMASSUNG
  6
CONTINUOUS
 62
1
 10
1.6739882E+002
 20
2.0565441E+002
 40
3.5
  1
56
 41
8.0E-001
  0
INSERT
  2
_AH13
  8
2D_BEMASSUNG
 62
1
 10
1.5554248E+002
 20
2.0415341E+002
 41
4.0
 42
4.0
 43
4.0
 50
0.0
  0
INSERT
  2
_AH13
  8
2D_BEMASSUNG
 62
1
 10
1.8354247E+002
 20
2.0415341E+002
 41
4.0
 42
4.0
 43
4.0
 50
1.8E+002
  0
ENDBLK
  0
BLOCK
  2
*D1161
  3
*D
 10
0.0
 20
0.0
 70
65
  0
LINE
  8
2D_BEMASSUNG
  6
CONTINUOUS
 62
1
 10
1.2954248E+002
 20
1.9152257E+002
 11
1.2954248E+002
 21
1.7668027E+002
  0
LINE
  8
2D_BEMASSUNG
  6
CONTINUOUS
 62
1
 10
2.0954247E+002
 20
1.9152257E+002
 11
2.0954247E+002
 21
1.7668027E+002
  0
LINE
  8
2D_BEMASSUNG
  6
CONTINUOUS
 62
1
 10
1.2954248E+002
 20
1.7818027E+002
 11
1.7421847E+002
 21
1.7818027E+002
  0
LINE
  8
2D_BEMASSUNG
  6
CONTINUOUS
 62
1
 10
2.0954247E+002
 20
1.7818027E+002
 11
1.7421847E+002
 21
1.7818027E+002
  0
TEXT
  8
2D_BEMASSUNG
  6
CONTINUOUS
 62
1
 10
1.7001847E+002
 20
1.7968127E+002
 40
3.5
  1
160
 41
8.0E-001
  0
INSERT
  2
_AH13
  8
2D_BEMASSUNG
 62
1
 10
1.2954248E+002
 20
1.7818027E+002
 41
4.0
 42
4.0
 43
4.0
 50
0.0
  0
INSERT
  2
_AH13
  8
2D_BEMASSUNG
 62
1
 10
2.0954247E+002
 20
1.7818027E+002
 41
4.0
 42
4.0
 43
4.0
 50
1.8E+002
  0
ENDBLK
  0
BLOCK
  2
*D1162
  3
*D
 10
0.0
 20
0.0
 70
65
  0
LINE
  8
2D_BEMASSUNG
  6
CONTINUOUS
 62
1
 10
1.4604248E+002
 20
2.187529E+002
 11
1.4604248E+002
 21
1.839049E+002
  0
LINE
  8
2D_BEMASSUNG
  6
CONTINUOUS
 62
1
 10
1.4604248E+002
 20
1.7370117E+002
 11
1.4604248E+002
 21
1.6431211E+002
  0
LINE
  8
2D_BEMASSUNG
  6
CONTINUOUS
 62
1
 10
1.0204248E+002
 20
1.9139899E+002
 11
1.0204248E+002
 21
1.6431211E+002
  0
LINE
  8
2D_BEMASSUNG
  6
CONTINUOUS
 62
1
 10
1.4604248E+002
 20
1.6581211E+002
 11
1.2845628E+002
 21
1.6581211E+002
  0
LINE
  8
2D_BEMASSUNG
  6
CONTINUOUS
 62
1
 10
1.0204248E+002
 20
1.6581211E+002
 11
1.2845628E+002
 21
1.6581211E+002
  0
TEXT
  8
2D_BEMASSUNG
  6
CONTINUOUS
 62
1
 10
1.2565628E+002
 20
1.6731311E+002
 40
3.5
  1
88
 41
8.0E-001
 50
3.6E+002
  0
INSERT
  2
_AH13
  8
2D_BEMASSUNG
 62
1
 10
1.4604248E+002
 20
1.6581211E+002
 41
4.0
 42
4.0
 43
4.0
 50
1.8E+002
  0
INSERT
  2
_AH13
  8
2D_BEMASSUNG
 62
1
 10
1.0204248E+002
 20
1.6581211E+002
 41
4.0
 42
4.0
 43
4.0
 50
3.6E+002
  0
ENDBLK
  0
BLOCK
  2
*D1163
  3
*D
 10
0.0
 20
0.0
 70
65
  0
LINE
  8
2D_BEMASSUNG
  6
CONTINUOUS
 62
1
 10
1.2954248E+002
 20
1.9152257E+002
 11
1.2954248E+002
 21
1.7668027E+002
  0
LINE
  8
2D_BEMASSUNG
  6
CONTINUOUS
 62
1
 10
1.0204248E+002
 20
1.9139899E+002
 11
1.0204248E+002
 21
1.7668027E+002
  0
LINE
  8
2D_BEMASSUNG
  6
CONTINUOUS
 62
1
 10
1.2954248E+002
 20
1.7818027E+002
 11
1.1825254E+002
 21
1.7818027E+002
  0
LINE
  8
2D_BEMASSUNG
  6
CONTINUOUS
 62
1
 10
1.0204248E+002
 20
1.7818027E+002
 11
1.1825254E+002
 21
1.7818027E+002
  0
TEXT
  8
2D_BEMASSUNG
  6
CONTINUOUS
 62
1
 10
1.1545254E+002
 20
1.7968127E+002
 40
3.5
  1
55
 41
8.0E-001
 50
3.6E+002
  0
INSERT
  2
_AH13
  8
2D_BEMASSUNG
 62
1
 10
1.2954248E+002
 20
1.7818027E+002
 41
4.0
 42
4.0
 43
4.0
 50
1.8E+002
  0
INSERT
  2
_AH13
  8
2D_BEMASSUNG
 62
1
 10
1.0204248E+002
 20
1.7818027E+002
 41
4.0
 42
4.0
 43
4.0
 50
3.6E+002
  0
ENDBLK
  0
BLOCK
  2
*D1164
  3
*D
 10
0.0
 20
0.0
 70
65
  0
LINE
  8
2D_BEMASSUNG
  6
CONTINUOUS
 62
1
 10
2.4154248E+002
 20
1.9139899E+002
 11
2.4154248E+002
 21
1.5410838E+002
  0
LINE
  8
2D_BEMASSUNG
  6
CONTINUOUS
 62
1
 10
1.0204248E+002
 20
1.9139899E+002
 11
1.0204248E+002
 21
1.5410838E+002
  0
LINE
  8
2D_BEMASSUNG
  6
CONTINUOUS
 62
1
 10
2.4154248E+002
 20
1.5560838E+002
 11
1.6741598E+002
 21
1.5560838E+002
  0
LINE
  8
2D_BEMASSUNG
  6
CONTINUOUS
 62
1
 10
1.0204248E+002
 20
1.5560838E+002
 11
1.6741598E+002
 21
1.5560838E+002
  0
TEXT
  8
2D_BEMASSUNG
  6
CONTINUOUS
 62
1
 10
1.6321598E+002
 20
1.5710938E+002
 40
3.5
  1
279
 41
8.0E-001
 50
3.6E+002
  0
INSERT
  2
_AH13
  8
2D_BEMASSUNG
 62
1
 10
2.4154248E+002
 20
1.5560838E+002
 41
4.0
 42
4.0
 43
4.0
 50
1.8E+002
  0
INSERT
  2
_AH13
  8
2D_BEMASSUNG
 62
1
 10
1.0204248E+002
 20
1.5560838E+002
 41
4.0
 42
4.0
 43
4.0
 50
3.6E+002
  0
ENDBLK
  0
BLOCK
  2
*D1165
  3
*D
 10
0.0
 20
0.0
 70
65
  0
LINE
  8
2D_BEMASSUNG
  6
CONTINUOUS
 62
1
 10
3.9630288E+001
 20
1.8989898E+002
 11
3.9630288E+001
 21
1.7668027E+002
  0
LINE
  8
2D_BEMASSUNG
  6
CONTINUOUS
 62
1
 10
1.6130288E+001
 20
1.9139898E+002
 11
1.6130288E+001
 21
1.7668027E+002
  0
LINE
  8
2D_BEMASSUNG
  6
CONTINUOUS
 62
1
 10
3.9630288E+001
 20
1.7818027E+002
 11
2.7625915E+001
 21
1.7818027E+002
  0
LINE
  8
2D_BEMASSUNG
  6
CONTINUOUS
 62
1
 10
1.6130288E+001
 20
1.7818027E+002
 11
2.7625915E+001
 21
1.7818027E+002
  0
TEXT
  8
2D_BEMASSUNG
  6
CONTINUOUS
 62
1
 10
2.4825915E+001
 20
1.7968127E+002
 40
3.5
  1
47
 41
8.0E-001
 50
3.6E+002
  0
INSERT
  2
_AH13
  8
2D_BEMASSUNG
 62
1
 10
3.9630288E+001
 20
1.7818027E+002
 41
4.0
 42
4.0
 43
4.0
 50
1.8E+002
  0
INSERT
  2
_AH13
  8
2D_BEMASSUNG
 62
1
 10
1.6130288E+001
 20
1.7818027E+002
 41
4.0
 42
4.0
 43
4.0
 50
3.6E+002
  0
ENDBLK
  0
BLOCK
  2
*D1166
  3
*D
 10
0.0
 20
0.0
 70
65
  0
LINE
  8
2D_BEMASSUNG
  6
CONTINUOUS
 62
1
 10
3.9630287E+001
 20
2.4089899E+002
 11
3.9630287E+001
 21
2.5686681E+002
  0
LINE
  8
2D_BEMASSUNG
  6
CONTINUOUS
 62
1
 10
2.4130287E+001
 20
2.3989899E+002
 11
2.4130287E+001
 21
2.5686681E+002
  0
LINE
  8
2D_BEMASSUNG
  6
CONTINUOUS
 62
1
 10
3.9630287E+001
 20
2.5536681E+002
 11
3.4073853E+001
 21
2.5536681E+002
  0
LINE
  8
2D_BEMASSUNG
  6
CONTINUOUS
 62
1
 10
2.4130287E+001
 20
2.5536681E+002
 11
3.4073853E+001
 21
2.5536681E+002
  0
TEXT
  8
2D_BEMASSUNG
  6
CONTINUOUS
 62
1
 10
3.1273853E+001
 20
2.5686781E+002
 40
3.5
  1
31
 41
8.0E-001
 50
3.6E+002
  0
INSERT
  2
_AH13
  8
2D_BEMASSUNG
 62
1
 10
3.9630287E+001
 20
2.5536681E+002
 41
4.0
 42
4.0
 43
4.0
 50
1.8E+002
  0
INSERT
  2
_AH13
  8
2D_BEMASSUNG
 62
1
 10
2.4130287E+001
 20
2.5536681E+002
 41
4.0
 42
4.0
 43
4.0
 50
3.6E+002
  0
ENDBLK
  0
BLOCK
  2
*D1167
  3
*D
 10
0.0
 20
0.0
 70
65
  0
LINE
  8
2D_BEMASSUNG
  6
CONTINUOUS
 62
1
 10
1.0354248E+002
 20
2.2239899E+002
 11
8.6912528E+001
 21
2.2239899E+002
  0
LINE
  8
2D_BEMASSUNG
  6
CONTINUOUS
 62
1
 10
1.0354248E+002
 20
1.8989899E+002
 11
8.6912528E+001
 21
1.8989899E+002
  0
LINE
  8
2D_BEMASSUNG
  6
CONTINUOUS
 62
1
 10
8.8412528E+001
 20
2.2239899E+002
 11
8.8412528E+001
 21
2.0646654E+002
  0
LINE
  8
2D_BEMASSUNG
  6
CONTINUOUS
 62
1
 10
8.8412528E+001
 20
1.8989899E+002
 11
8.8412528E+001
 21
2.0646654E+002
  0
TEXT
  8
2D_BEMASSUNG
  6
CONTINUOUS
 62
1
 10
8.6911529E+001
 20
2.0366654E+002
 40
3.5
  1
65
 41
8.0E-001
 50
9.0E+001
  0
INSERT
  2
_AH13
  8
2D_BEMASSUNG
 62
1
 10
8.8412528E+001
 20
2.2239899E+002
 41
4.0
 42
4.0
 43
4.0
 50
2.7E+002
  0
INSERT
  2
_AH13
  8
2D_BEMASSUNG
 62
1
 10
8.8412528E+001
 20
1.8989899E+002
 41
4.0
 42
4.0
 43
4.0
 50
4.5E+002
  0
ENDBLK
  0
BLOCK
  2
*D1168
  3
*D
 10
0.0
 20
0.0
 70
65
  0
LINE
  8
2D_BEMASSUNG
  6
CONTINUOUS
 62
1
 10
1.3016558E+002
 20
2.4077397E+002
 11
8.6912528E+001
 21
2.4077397E+002
  0
LINE
  8
2D_BEMASSUNG
  6
CONTINUOUS
 62
1
 10
1.3066558E+002
 20
2.3077397E+002
 11
8.6912528E+001
 21
2.3077397E+002
  0
LINE
  8
2D_BEMASSUNG
  6
CONTINUOUS
 62
1
 10
8.8412528E+001
 20
2.4077397E+002
 11
8.8412528E+001
 21
2.5317425E+002
  0
LINE
  8
2D_BEMASSUNG
  6
CONTINUOUS
 62
1
 10
8.8412528E+001
 20
2.2277397E+002
 11
8.8412528E+001
 21
2.4077397E+002
  0
TEXT
  8
2D_BEMASSUNG
  6
CONTINUOUS
 62
1
 10
8.6911529E+001
 20
2.4607425E+002
 40
3.5
  1
20
 41
8.0E-001
 50
9.0E+001
  0
INSERT
  2
_AH13
  8
2D_BEMASSUNG
 62
1
 10
8.8412528E+001
 20
2.4077397E+002
 41
4.0
 42
4.0
 43
4.0
 50
4.5E+002
  0
INSERT
  2
_AH13
  8
2D_BEMASSUNG
 62
1
 10
8.8412528E+001
 20
2.3077397E+002
 41
4.0
 42
4.0
 43
4.0
 50
6.3E+002
  0
ENDBLK
  0
BLOCK
  2
*D1169
  3
*D
 10
0.0
 20
0.0
 70
65
  0
LINE
  8
2D_BEMASSUNG
  6
CONTINUOUS
 62
1
 10
1.3016558E+002
 20
2.4077397E+002
 11
7.3768617E+001
 21
2.4077397E+002
  0
LINE
  8
2D_BEMASSUNG
  6
CONTINUOUS
 62
1
 10
1.0354248E+002
 20
1.8989899E+002
 11
7.3768617E+001
 21
1.8989899E+002
  0
LINE
  8
2D_BEMASSUNG
  6
CONTINUOUS
 62
1
 10
7.5268617E+001
 20
2.4077397E+002
 11
7.5268617E+001
 21
2.1465048E+002
  0
LINE
  8
2D_BEMASSUNG
  6
CONTINUOUS
 62
1
 10
7.5268617E+001
 20
1.8989899E+002
 11
7.5268617E+001
 21
2.1465048E+002
  0
TEXT
  8
2D_BEMASSUNG
  6
CONTINUOUS
 62
1
 10
7.3767617E+001
 20
2.1045048E+002
 40
3.5
  1
102
 41
8.0E-001
 50
9.0E+001
  0
INSERT
  2
_AH13
  8
2D_BEMASSUNG
 62
1
 10
7.5268617E+001
 20
2.4077397E+002
 41
4.0
 42
4.0
 43
4.0
 50
2.7E+002
  0
INSERT
  2
_AH13
  8
2D_BEMASSUNG
 62
1
 10
7.5268617E+001
 20
1.8989899E+002
 41
4.0
 42
4.0
 43
4.0
 50
4.5E+002
  0
ENDBLK
  0
BLOCK
  2
*D1170
  3
*D
 10
0.0
 20
0.0
 70
65
  0
LINE
  8
2D_BEMASSUNG
  6
CONTINUOUS
 62
1
 10
2.1257198E+002
 20
2.1677399E+002
 11
2.6067741E+002
 21
2.1677399E+002
  0
LINE
  8
2D_BEMASSUNG
  6
CONTINUOUS
 62
1
 10
2.1257198E+002
 20
2.0877399E+002
 11
2.6067741E+002
 21
2.0877399E+002
  0
LINE
  8
2D_BEMASSUNG
  6
CONTINUOUS
 62
1
 10
2.5917741E+002
 20
2.1677399E+002
 11
2.5917741E+002
 21
2.2565578E+002
  0
LINE
  8
2D_BEMASSUNG
  6
CONTINUOUS
 62
1
 10
2.5917741E+002
 20
2.0077399E+002
 11
2.5917741E+002
 21
2.1677399E+002
  0
TEXT
  8
2D_BEMASSUNG
  6
CONTINUOUS
 62
1
 10
2.5767641E+002
 20
2.1855578E+002
 40
3.5
  1
16
 41
8.0E-001
 50
9.0E+001
  0
INSERT
  2
_AH13
  8
2D_BEMASSUNG
 62
1
 10
2.5917741E+002
 20
2.1677399E+002
 41
4.0
 42
4.0
 43
4.0
 50
4.5E+002
  0
INSERT
  2
_AH13
  8
2D_BEMASSUNG
 62
1
 10
2.5917741E+002
 20
2.0877399E+002
 41
4.0
 42
4.0
 43
4.0
 50
6.3E+002
  0
ENDBLK
  0
BLOCK
  2
*D1171
  3
*D
 10
0.0
 20
0.0
 70
65
  0
LINE
  8
2D_BEMASSUNG
  6
CONTINUOUS
 62
1
 10
2.1257198E+002
 20
2.0327399E+002
 11
2.6067741E+002
 21
2.0327399E+002
  0
LINE
  8
2D_BEMASSUNG
  6
CONTINUOUS
 62
1
 10
2.1257198E+002
 20
1.9527399E+002
 11
2.6067741E+002
 21
1.9527399E+002
  0
LINE
  8
2D_BEMASSUNG
  6
CONTINUOUS
 62
1
 10
2.5917741E+002
 20
2.1127399E+002
 11
2.5917741E+002
 21
1.9527399E+002
  0
LINE
  8
2D_BEMASSUNG
  6
CONTINUOUS
 62
1
 10
2.5917741E+002
 20
1.9527399E+002
 11
2.5917741E+002
 21
1.8599415E+002
  0
TEXT
  8
2D_BEMASSUNG
  6
CONTINUOUS
 62
1
 10
2.5767641E+002
 20
1.8749415E+002
 40
3.5
  1
16
 41
8.0E-001
 50
9.0E+001
  0
INSERT
  2
_AH13
  8
2D_BEMASSUNG
 62
1
 10
2.5917741E+002
 20
2.0327399E+002
 41
4.0
 42
4.0
 43
4.0
 50
4.5E+002
  0
INSERT
  2
_AH13
  8
2D_BEMASSUNG
 62
1
 10
2.5917741E+002
 20
1.9527399E+002
 41
4.0
 42
4.0
 43
4.0
 50
6.3E+002
  0
ENDBLK
  0
BLOCK
  2
*D1172
  3
*D
 10
0.0
 20
0.0
 70
65
  0
LINE
  8
2D_BEMASSUNG
  6
CONTINUOUS
 62
1
 10
2.1257198E+002
 20
2.1677399E+002
 11
2.7965102E+002
 21
2.1677399E+002
  0
LINE
  8
2D_BEMASSUNG
  6
CONTINUOUS
 62
1
 10
2.1257198E+002
 20
1.9527399E+002
 11
2.7965102E+002
 21
1.9527399E+002
  0
LINE
  8
2D_BEMASSUNG
  6
CONTINUOUS
 62
1
 10
2.7815102E+002
 20
2.1677399E+002
 11
2.7815102E+002
 21
2.0666654E+002
  0
LINE
  8
2D_BEMASSUNG
  6
CONTINUOUS
 62
1
 10
2.7815102E+002
 20
1.9527399E+002
 11
2.7815102E+002
 21
2.0666654E+002
  0
TEXT
  8
2D_BEMASSUNG
  6
CONTINUOUS
 62
1
 10
2.7665002E+002
 20
2.0386654E+002
 40
3.5
  1
43
 41
8.0E-001
 50
9.0E+001
  0
INSERT
  2
_AH13
  8
2D_BEMASSUNG
 62
1
 10
2.7815102E+002
 20
2.1677399E+002
 41
4.0
 42
4.0
 43
4.0
 50
2.7E+002
  0
INSERT
  2
_AH13
  8
2D_BEMASSUNG
 62
1
 10
2.7815102E+002
 20
1.9527399E+002
 41
4.0
 42
4.0
 43
4.0
 50
4.5E+002
  0
ENDBLK
  0
BLOCK
  2
*D1173
  3
*D
 10
0.0
 20
0.0
 70
65
  0
LINE
  8
2D_BEMASSUNG
  6
CONTINUOUS
 62
1
 10
2.1257198E+002
 20
2.0877399E+002
 11
2.6067741E+002
 21
2.0877399E+002
  0
LINE
  8
2D_BEMASSUNG
  6
CONTINUOUS
 62
1
 10
2.1257198E+002
 20
2.0327399E+002
 11
2.6067741E+002
 21
2.0327399E+002
  0
LINE
  8
2D_BEMASSUNG
  6
CONTINUOUS
 62
1
 10
2.5917741E+002
 20
2.0877399E+002
 11
2.5917741E+002
 21
2.0605448E+002
  0
LINE
  8
2D_BEMASSUNG
  6
CONTINUOUS
 62
1
 10
2.5917741E+002
 20
2.0327399E+002
 11
2.5917741E+002
 21
2.0605448E+002
  0
TEXT
  8
2D_BEMASSUNG
  6
CONTINUOUS
 62
1
 10
2.5767641E+002
 20
2.0325448E+002
 40
3.5
  1
11
 41
8.0E-001
 50
9.0E+001
  0
INSERT
  2
_AH13
  8
2D_BEMASSUNG
 62
1
 10
2.5917741E+002
 20
2.0877399E+002
 41
4.0
 42
4.0
 43
4.0
 50
2.7E+002
  0
INSERT
  2
_AH13
  8
2D_BEMASSUNG
 62
1
 10
2.5917741E+002
 20
2.0327399E+002
 41
4.0
 42
4.0
 43
4.0
 50
4.5E+002
  0
ENDBLK
  0
BLOCK
  2
*D1174
  3
*D
 10
0.0
 20
0.0
 70
65
  0
LINE
  8
2D_BEMASSUNG
  6
CONTINUOUS
 62
1
 10
3.5016746E+002
 20
2.3577398E+002
 11
3.7122902E+002
 21
2.3577398E+002
  0
LINE
  8
2D_BEMASSUNG
  6
CONTINUOUS
 62
1
 10
2.1257198E+002
 20
2.1677399E+002
 11
3.7122902E+002
 21
2.1677399E+002
  0
LINE
  8
2D_BEMASSUNG
  6
CONTINUOUS
 62
1
 10
3.6972902E+002
 20
2.3577398E+002
 11
3.6972902E+002
 21
2.2675061E+002
  0
LINE
  8
2D_BEMASSUNG
  6
CONTINUOUS
 62
1
 10
3.6972902E+002
 20
2.1677399E+002
 11
3.6972902E+002
 21
2.2675061E+002
  0
TEXT
  8
2D_BEMASSUNG
  6
CONTINUOUS
 62
1
 10
3.6822802E+002
 20
2.2395061E+002
 40
3.5
  1
38
 41
8.0E-001
 50
9.0E+001
  0
INSERT
  2
_AH13
  8
2D_BEMASSUNG
 62
1
 10
3.6972902E+002
 20
2.3577398E+002
 41
4.0
 42
4.0
 43
4.0
 50
2.7E+002
  0
INSERT
  2
_AH13
  8
2D_BEMASSUNG
 62
1
 10
3.6972902E+002
 20
2.1677399E+002
 41
4.0
 42
4.0
 43
4.0
 50
4.5E+002
  0
ENDBLK
  0
ENDSEC
  0
SECTION
  2
ENTITIES
  0
INSERT
  2
555
  8
2D_SYMBOLE
 10
3.9630288E+001
 20
2.0614899E+002
 41
5.0E-001
 43
5.0E-001
 42
5.0E-001
 50
9.0E+001
  0
INSERT
  2
UU
  8
2D_SYMBOLE
 10
8.1950865
 20
9.014595
 50
2.7E+002
  0
INSERT
  2
TTZU
  8
2D_SYMBOLE
 10
3.9630288E+001
 20
2.3577398E+002
 41
5.0E-001
 43
5.0E-001
 42
-5.0E-001
 50
1.8E+002
  0
LINE
  8
2D_MITTELLINIEN
  6
CENTERLINE
 62
1
 10
4.110569E+001
 20
2.3573319E+002
 11
2.4130288E+001
 21
2.3573319E+002
  0
LINE
  8
98
  6
CONTINUOUS
 62
1
 10
0.0
 20
0.0
 11
4.2E+002
 21
0.0
  0
LINE
  8
98
  6
CONTINUOUS
 62
1
 10
4.2E+002
 20
0.0
 11
4.2E+002
 21
2.97E+002
  0
LINE
  8
98
  6
CONTINUOUS
 62
1
 10
4.2E+002
 20
2.97E+002
 11
0.0
 21
2.97E+002
  0
LINE
  8
98
  6
CONTINUOUS
 62
1
 10
0.0
 20
2.97E+002
 11
0.0
 21
0.0
  0
LINE
  8
2D_SICHTBARE_KANTEN
  6
CONTINUOUS
 62
40
 10
5.0
 20
5.0
 11
4.15E+002
 21
5.0
  0
LINE
  8
2D_SICHTBARE_KANTEN
  6
CONTINUOUS
 62
40
 10
4.15E+002
 20
5.0
 11
4.15E+002
 21
2.92E+002
  0
LINE
  8
2D_SICHTBARE_KANTEN
  6
CONTINUOUS
 62
40
 10
4.15E+002
 20
2.92E+002
 11
5.0
 21
2.92E+002
  0
LINE
  8
2D_SICHTBARE_KANTEN
  6
CONTINUOUS
 62
40
 10
5.0
 20
2.92E+002
 11
5.0
 21
5.0
  0
LINE
  8
2D_SICHTBARE_KANTEN
  6
CONTINUOUS
 62
40
 10
3.2929246E+002
 20
2.3077397E+002
 11
3.2929246E+002
 21
2.2962399E+002
  0
LINE
  8
2D_SICHTBARE_KANTEN
  6
CONTINUOUS
 62
40
 10
3.2929246E+002
 20
2.2962399E+002
 11
3.3779246E+002
 21
2.2962399E+002
  0
LINE
  8
2D_SICHTBARE_KANTEN
  6
CONTINUOUS
 62
40
 10
3.3779246E+002
 20
2.2962399E+002
 11
3.3779246E+002
 21
2.3077397E+002
  0
LINE
  8
2D_SICHTBARE_KANTEN
  6
CONTINUOUS
 62
40
 10
3.3655496E+002
 20
2.2962399E+002
 11
3.3655496E+002
 21
2.2939898E+002
  0
LINE
  8
2D_SICHTBARE_KANTEN
  6
CONTINUOUS
 62
40
 10
3.3655496E+002
 20
2.2939898E+002
 11
3.3052995E+002
 21
2.2939898E+002
  0
LINE
  8
2D_SICHTBARE_KANTEN
  6
CONTINUOUS
 62
40
 10
3.3052995E+002
 20
2.2939898E+002
 11
3.3052995E+002
 21
2.2962399E+002
  0
LINE
  8
2D_SICHTBARE_KANTEN
  6
CONTINUOUS
 62
40
 10
3.3105496E+002
 20
2.2939898E+002
 11
3.3105496E+002
 21
2.2889898E+002
  0
LINE
  8
2D_SICHTBARE_KANTEN
  6
CONTINUOUS
 62
40
 10
3.3602994E+002
 20
2.2939898E+002
 11
3.3602994E+002
 21
2.2889898E+002
  0
LINE
  8
2D_SICHTBARE_KANTEN
  6
CONTINUOUS
 62
40
 10
1.4354247E+002
 20
2.2889898E+002
 11
1.4354247E+002
 21
2.2914898E+002
  0
ARC
  8
2D_SICHTBARE_KANTEN
  6
CONTINUOUS
 62
40
 10
1.4379247E+002
 20
2.2914898E+002
 40
2.5000014E-001
 50
9.0E+001
 51
1.8E+002
  0
LINE
  8
2D_SICHTBARE_KANTEN
  6
CONTINUOUS
 62
40
 10
1.4379247E+002
 20
2.2939898E+002
 11
1.4829247E+002
 21
2.2939898E+002
  0
ARC
  8
2D_SICHTBARE_KANTEN
  6
CONTINUOUS
 62
40
 10
1.4829248E+002
 20
2.2914899E+002
 40
2.4999453E-001
 50
3.5999875E+002
 51
4.5000125E+002
  0
LINE
  8
2D_SICHTBARE_KANTEN
  6
CONTINUOUS
 62
40
 10
1.4854247E+002
 20
2.2914898E+002
 11
1.4854247E+002
 21
2.2889898E+002
  0
LINE
  8
2D_SICHTBARE_KANTEN
  6
CONTINUOUS
 62
40
 10
1.4054248E+002
 20
2.2639898E+002
 11
1.5154248E+002
 21
2.2639898E+002
  0
LINE
  8
2D_SICHTBARE_KANTEN
  6
CONTINUOUS
 62
40
 10
1.5154248E+002
 20
2.2639898E+002
 11
1.5154248E+002
 21
2.2239899E+002
  0
LINE
  8
2D_SICHTBARE_KANTEN
  6
CONTINUOUS
 62
40
 10
3.3904245E+002
 20
2.2639898E+002
 11
3.3904245E+002
 21
2.2889898E+002
  0
LINE
  8
2D_SICHTBARE_KANTEN
  6
CONTINUOUS
 62
40
 10
1.4054248E+002
 20
2.2889898E+002
 11
3.3904245E+002
 21
2.2889898E+002
  0
LINE
  8
2D_SICHTBARE_KANTEN
  6
CONTINUOUS
 62
40
 10
1.4054248E+002
 20
2.2239899E+002
 11
1.4054248E+002
 21
2.2889898E+002
  0
LINE
  8
2D_SICHTBARE_KANTEN
  6
CONTINUOUS
 62
40
 10
1.4054248E+002
 20
2.2639898E+002
 11
3.3904245E+002
 21
2.2639898E+002
  0
LINE
  8
2D_SICHTBARE_KANTEN
  6
CONTINUOUS
 62
40
 10
3.3029996E+002
 20
2.2639898E+002
 11
3.3029996E+002
 21
2.2614897E+002
  0
ARC
  8
2D_SICHTBARE_KANTEN
  6
CONTINUOUS
 62
40
 10
3.3054995E+002
 20
2.2614896E+002
 40
2.4999706E-001
 50
1.7999933E+002
 51
2.7000067E+002
  0
LINE
  8
2D_SICHTBARE_KANTEN
  6
CONTINUOUS
 62
40
 10
3.3054996E+002
 20
2.2589897E+002
 11
3.3653494E+002
 21
2.2589897E+002
  0
ARC
  8
2D_SICHTBARE_KANTEN
  6
CONTINUOUS
 62
40
 10
3.3653495E+002
 20
2.2614896E+002
 40
2.4999019E-001
 50
2.6999775E+002
 51
3.6000225E+002
  0
LINE
  8
2D_SICHTBARE_KANTEN
  6
CONTINUOUS
 62
40
 10
3.3678494E+002
 20
2.2614897E+002
 11
3.3678494E+002
 21
2.2639898E+002
  0
LINE
  8
2D_MITTELLINIEN
  6
CENTERLINE
 62
1
 10
1.4604248E+002
 20
2.3042204E+002
 11
1.4604248E+002
 21
2.187529E+002
  0
CIRCLE
  8
2D_VERDECKTE_KANTEN
  6
HIDDEN
 62
1
 10
1.2954248E+002
 20
2.1677399E+002
 40
2.5
  0
CIRCLE
  8
2D_VERDECKTE_KANTEN
  6
HIDDEN
 62
1
 10
1.8354247E+002
 20
2.1277399E+002
 40
2.5
  0
LINE
  8
2D_MITTELLINIEN
  6
CENTERLINE
 62
1
 10
1.8354247E+002
 20
2.1635731E+002
 11
1.8354247E+002
 21
2.0913956E+002
  0
LINE
  8
2D_MITTELLINIEN
  6
CENTERLINE
 62
1
 10
1.8703873E+002
 20
2.1277399E+002
 11
1.7992122E+002
 21
2.1277399E+002
  0
LINE
  8
2D_MITTELLINIEN
  6
CENTERLINE
 62
1
 10
1.5554248E+002
 20
2.1635731E+002
 11
1.5554248E+002
 21
2.0913956E+002
  0
LINE
  8
2D_MITTELLINIEN
  6
CENTERLINE
 62
1
 10
1.5903874E+002
 20
2.1277399E+002
 11
1.5192123E+002
 21
2.1277399E+002
  0
CIRCLE
  8
2D_VERDECKTE_KANTEN
  6
HIDDEN
 62
1
 10
1.5554248E+002
 20
2.1277399E+002
 40
2.5
  0
CIRCLE
  8
2D_VERDECKTE_KANTEN
  6
HIDDEN
 62
1
 10
2.0954247E+002
 20
1.9527399E+002
 40
2.5
  0
LINE
  8
99
  6
CONTINUOUS
 62
1
 10
1.2954248E+002
 20
1.9152257E+002
 11
1.2954248E+002
 21
2.2066094E+002
  0
LINE
  8
2D_MITTELLINIEN
  6
CENTERLINE
 62
1
 10
1.2651297E+002
 20
2.1677399E+002
 11
1.3334459E+002
 21
2.1677399E+002
  0
LINE
  8
2D_MITTELLINIEN
  6
CENTERLINE
 62
1
 10
2.1257198E+002
 20
1.9527399E+002
 11
2.0574036E+002
 21
1.9527399E+002
  0
LINE
  8
2D_MITTELLINIEN
  6
CENTERLINE
 62
1
 10
2.0954246E+002
 20
1.9152257E+002
 11
2.0954246E+002
 21
2.2051885E+002
  0
LINE
  8
2D_MITTELLINIEN
  6
CENTERLINE
 62
1
 10
2.1257198E+002
 20
2.0327399E+002
 11
2.0574036E+002
 21
2.0327399E+002
  0
LINE
  8
2D_MITTELLINIEN
  6
CENTERLINE
 62
1
 10
2.1257198E+002
 20
2.0877399E+002
 11
2.0574036E+002
 21
2.0877399E+002
  0
LINE
  8
2D_MITTELLINIEN
  6
CENTERLINE
 62
1
 10
2.1257198E+002
 20
2.1677399E+002
 11
2.0574036E+002
 21
2.1677399E+002
  0
LINE
  8
2D_MITTELLINIEN
  6
CENTERLINE
 62
1
 10
1.2651297E+002
 20
1.9527399E+002
 11
1.3334459E+002
 21
1.9527399E+002
  0
LINE
  8
2D_MITTELLINIEN
  6
CENTERLINE
 62
1
 10
1.2651297E+002
 20
2.0327399E+002
 11
1.3334459E+002
 21
2.0327399E+002
  0
LINE
  8
2D_MITTELLINIEN
  6
CENTERLINE
 62
1
 10
1.2651297E+002
 20
2.0877399E+002
 11
1.3334459E+002
 21
2.0877399E+002
  0
CIRCLE
  8
2D_VERDECKTE_KANTEN
  6
HIDDEN
 62
1
 10
2.0954247E+002
 20
2.0327399E+002
 40
2.5
  0
CIRCLE
  8
2D_VERDECKTE_KANTEN
  6
HIDDEN
 62
1
 10
2.0954247E+002
 20
2.0877399E+002
 40
2.5
  0
CIRCLE
  8
2D_VERDECKTE_KANTEN
  6
HIDDEN
 62
1
 10
2.0954247E+002
 20
2.1677399E+002
 40
2.5
  0
CIRCLE
  8
2D_VERDECKTE_KANTEN
  6
HIDDEN
 62
1
 10
1.2954248E+002
 20
1.9527399E+002
 40
2.5
  0
CIRCLE
  8
2D_VERDECKTE_KANTEN
  6
HIDDEN
 62
1
 10
1.2954248E+002
 20
2.0327399E+002
 40
2.5
  0
CIRCLE
  8
2D_VERDECKTE_KANTEN
  6
HIDDEN
 62
1
 10
1.2954248E+002
 20
2.0877399E+002
 40
2.5
  0
LINE
  8
2D_SICHTBARE_KANTEN
  6
CONTINUOUS
 62
40
 10
1.0204248E+002
 20
2.2239899E+002
 11
2.4154248E+002
 21
2.2239899E+002
  0
LINE
  8
2D_MITTELLINIEN
  6
CENTERLINE
 62
1
 10
2.0954247E+002
 20
1.9152257E+002
 11
2.0954247E+002
 21
2.1915149E+002
  0
LINE
  8
2D_VERDECKTE_KANTEN
  6
HIDDEN
 62
1
 10
1.3504247E+002
 20
2.3702398E+002
 11
1.3504247E+002
 21
2.3452398E+002
  0
ARC
  8
2D_VERDECKTE_KANTEN
  6
HIDDEN
 62
1
 10
1.3354247E+002
 20
2.3452397E+002
 40
1.5
 50
1.8E+002
 51
3.6000029E+002
  0
LINE
  8
2D_VERDECKTE_KANTEN
  6
HIDDEN
 62
1
 10
1.3204247E+002
 20
2.3452397E+002
 11
1.3204247E+002
 21
2.3702398E+002
  0
ARC
  8
2D_VERDECKTE_KANTEN
  6
HIDDEN
 62
1
 10
1.3354247E+002
 20
2.3702398E+002
 40
1.5
 50
0.0
 51
1.8E+002
  0
LINE
  8
2D_MITTELLINIEN
  6
CENTERLINE
 62
1
 10
3.4754836E+002
 20
2.393111E+002
 11
3.4754147E+002
 21
2.3211157E+002
  0
LINE
  8
2D_MITTELLINIEN
  6
CENTERLINE
 62
1
 10
3.5016746E+002
 20
2.3577398E+002
 11
3.4504246E+002
 21
2.3577398E+002
  0
LINE
  8
2D_MITTELLINIEN
  6
CENTERLINE
 62
1
 10
1.3354248E+002
 20
2.3219152E+002
 11
1.3354246E+002
 21
2.3927486E+002
  0
LINE
  8
2D_VERDECKTE_KANTEN
  6
HIDDEN
 62
1
 10
3.4904497E+002
 20
2.3702398E+002
 11
3.4904497E+002
 21
2.3452398E+002
  0
ARC
  8
2D_VERDECKTE_KANTEN
  6
HIDDEN
 62
1
 10
3.4754497E+002
 20
2.3452397E+002
 40
1.5
 50
1.8E+002
 51
3.6000029E+002
  0
LINE
  8
2D_VERDECKTE_KANTEN
  6
HIDDEN
 62
1
 10
3.4604497E+002
 20
2.3452397E+002
 11
3.4604497E+002
 21
2.3702398E+002
  0
ARC
  8
2D_VERDECKTE_KANTEN
  6
HIDDEN
 62
1
 10
3.4754497E+002
 20
2.3702398E+002
 40
1.5
 50
0.0
 51
1.8E+002
  0
LINE
  8
2D_MITTELLINIEN
  6
CENTERLINE
 62
1
 10
1.3604248E+002
 20
2.3577398E+002
 11
1.3091748E+002
 21
2.3577398E+002
  0
ARC
  8
2D_SICHTBARE_KANTEN
  6
CONTINUOUS
 62
40
 10
3.5041938E+002
 20
2.4027397E+002
 40
4.9999453E-001
 50
3.5999937E+002
 51
4.5000063E+002
  0
LINE
  8
2D_SICHTBARE_KANTEN
  6
CONTINUOUS
 62
40
 10
3.5091937E+002
 20
2.4027397E+002
 11
3.5091937E+002
 21
2.3127397E+002
  0
ARC
  8
2D_SICHTBARE_KANTEN
  6
CONTINUOUS
 62
40
 10
3.5041937E+002
 20
2.3127396E+002
 40
4.9999675E-001
 50
2.6999963E+002
 51
3.6000037E+002
  0
LINE
  8
2D_SICHTBARE_KANTEN
  6
CONTINUOUS
 62
40
 10
3.5041937E+002
 20
2.3077397E+002
 11
1.3066558E+002
 21
2.3077397E+002
  0
ARC
  8
2D_SICHTBARE_KANTEN
  6
CONTINUOUS
 62
40
 10
1.3066558E+002
 20
2.3127397E+002
 40
5.0000006E-001
 50
1.8E+002
 51
2.7E+002
  0
LINE
  8
2D_SICHTBARE_KANTEN
  6
CONTINUOUS
 62
40
 10
1.3016558E+002
 20
2.3127397E+002
 11
1.3016558E+002
 21
2.4077397E+002
  0
LINE
  8
2D_SICHTBARE_KANTEN
  6
CONTINUOUS
 62
40
 10
1.3016558E+002
 20
2.4077397E+002
 11
3.5041937E+002
 21
2.4077397E+002
  0
LINE
  8
2D_SICHTBARE_KANTEN
  6
CONTINUOUS
 62
40
 10
1.4441748E+002
 20
2.2639899E+002
 11
1.4766747E+002
 21
2.2639899E+002
  0
LINE
  8
2D_MITTELLINIEN
  6
CENTERLINE
 62
1
 10
3.3354245E+002
 20
2.2550268E+002
 11
3.3354245E+002
 21
2.3237411E+002
  0
LINE
  8
2D_SICHTBARE_KANTEN
  6
CONTINUOUS
 62
40
 10
1.4309248E+002
 20
2.2639899E+002
 11
1.4899248E+002
 21
2.2639899E+002
  0
LINE
  8
2D_SICHTBARE_KANTEN
  6
CONTINUOUS
 62
40
 10
1.0204248E+002
 20
1.8989899E+002
 11
2.4154248E+002
 21
1.8989899E+002
  0
LINE
  8
2D_SICHTBARE_KANTEN
  6
CONTINUOUS
 62
40
 10
1.0204248E+002
 20
2.2239899E+002
 11
1.0204248E+002
 21
1.8989899E+002
  0
LINE
  8
2D_SICHTBARE_KANTEN
  6
CONTINUOUS
 62
40
 10
2.4154248E+002
 20
2.2239899E+002
 11
2.4154248E+002
 21
1.8989899E+002
  0
LINE
  8
2D_MITTELLINIEN
  6
CENTERLINE
 62
1
 10
3.579142E+001
 20
2.0339899E+002
 11
4.0906315E+001
 21
2.0339899E+002
  0
LINE
  8
2D_MITTELLINIEN
  6
CENTERLINE
 62
1
 10
3.579142E+001
 20
1.9539898E+002
 11
3.9630287E+001
 21
1.9539898E+002
  0
LINE
  8
2D_SICHTBARE_KANTEN
  6
CONTINUOUS
 62
40
 10
2.1380285E+001
 20
2.2239899E+002
 11
2.1380285E+001
 21
2.2889897E+002
  0
LINE
  8
2D_SICHTBARE_KANTEN
  6
CONTINUOUS
 62
40
 10
3.2380287E+001
 20
2.2639897E+002
 11
3.2380287E+001
 21
2.2239899E+002
  0
ARC
  8
2D_VERDECKTE_KANTEN
  6
HIDDEN
 62
1
 10
3.9380296E+001
 20
2.2139898E+002
 40
2.499908E-001
 50
3.5999789E+002
 51
4.5000211E+002
  0
LINE
  8
2D_VERDECKTE_KANTEN
  6
HIDDEN
 62
1
 10
3.9380287E+001
 20
2.2164897E+002
 11
3.8583839E+001
 21
2.2164897E+002
  0
ARC
  8
2D_VERDECKTE_KANTEN
  6
HIDDEN
 62
1
 10
3.8583859E+001
 20
2.2189898E+002
 40
2.5001166E-001
 50
2.2500241E+002
 51
2.6999548E+002
  0
LINE
  8
2D_VERDECKTE_KANTEN
  6
HIDDEN
 62
1
 10
3.8407081E+001
 20
2.2172219E+002
 11
3.8053505E+001
 21
2.2207574E+002
  0
ARC
  8
2D_VERDECKTE_KANTEN
  6
HIDDEN
 62
1
 10
3.7876753E+001
 20
2.2189904E+002
 40
2.499317E-001
 50
4.499234E+001
 51
9.0001327E+001
  0
LINE
  8
2D_VERDECKTE_KANTEN
  6
HIDDEN
 62
1
 10
3.7876747E+001
 20
2.2214897E+002
 11
3.7783851E+001
 21
2.2214897E+002
  0
ARC
  8
2D_VERDECKTE_KANTEN
  6
HIDDEN
 62
1
 10
3.7783814E+001
 20
2.2189904E+002
 40
2.4992928E-001
 50
8.9991448E+001
 51
1.3500789E+002
  0
LINE
  8
2D_VERDECKTE_KANTEN
  6
HIDDEN
 62
1
 10
3.7607063E+001
 20
2.2207574E+002
 11
3.7203529E+001
 21
2.216722E+002
  0
ARC
  8
2D_VERDECKTE_KANTEN
  6
HIDDEN
 62
1
 10
3.7380212E+001
 20
2.2149544E+002
 40
2.4992506E-001
 50
1.3498676E+002
 51
1.8000371E+002
  0
LINE
  8
2D_VERDECKTE_KANTEN
  6
HIDDEN
 62
1
 10
3.7130287E+001
 20
2.2149542E+002
 11
3.7130287E+001
 21
1.9080253E+002
  0
ARC
  8
2D_VERDECKTE_KANTEN
  6
HIDDEN
 62
1
 10
3.7380266E+001
 20
1.9080252E+002
 40
2.4997971E-001
 50
1.8000148E+002
 51
2.2500805E+002
  0
LINE
  8
2D_VERDECKTE_KANTEN
  6
HIDDEN
 62
1
 10
3.7203529E+001
 20
1.9062574E+002
 11
3.7607063E+001
 21
1.902222E+002
  0
ARC
  8
2D_VERDECKTE_KANTEN
  6
HIDDEN
 62
1
 10
3.7783852E+001
 20
1.9039899E+002
 40
2.5002034E-001
 50
2.2500076E+002
 51
2.6999991E+002
  0
ARC
  8
2D_VERDECKTE_KANTEN
  6
HIDDEN
 62
1
 10
3.7876739E+001
 20
1.9039893E+002
 40
2.4996498E-001
 50
2.7000183E+002
 51
3.150045E+002
  0
LINE
  8
2D_VERDECKTE_KANTEN
  6
HIDDEN
 62
1
 10
3.8053505E+001
 20
1.902222E+002
 11
3.8407081E+001
 21
1.9057575E+002
  0
ARC
  8
2D_VERDECKTE_KANTEN
  6
HIDDEN
 62
1
 10
3.8583854E+001
 20
1.9039897E+002
 40
2.4999965E-001
 50
9.0003377E+001
 51
1.3499873E+002
  0
LINE
  8
2D_VERDECKTE_KANTEN
  6
HIDDEN
 62
1
 10
3.8583839E+001
 20
1.9064897E+002
 11
3.9380287E+001
 21
1.9064897E+002
  0
ARC
  8
2D_VERDECKTE_KANTEN
  6
HIDDEN
 62
1
 10
3.9380287E+001
 20
1.9089897E+002
 40
2.4999953E-001
 50
2.6999989E+002
 51
3.6000011E+002
  0
LINE
  8
2D_MITTELLINIEN
  6
CENTERLINE
 62
1
 10
3.585978E+001
 20
2.1689899E+002
 11
4.110569E+001
 21
2.1689899E+002
  0
LINE
  8
2D_MITTELLINIEN
  6
CENTERLINE
 62
1
 10
3.5996498E+001
 20
2.0889899E+002
 11
4.1011422E+001
 21
2.0889899E+002
  0
LINE
  8
2D_MITTELLINIEN
  6
CENTERLINE
 62
1
 10
3.579142E+001
 20
1.9539899E+002
 11
4.0990639E+001
 21
1.9539898E+002
  0
LINE
  8
2D_VERDECKTE_KANTEN
  6
HIDDEN
 62
1
 10
3.7130288E+001
 20
1.9814898E+002
 11
3.8630288E+001
 21
1.9664898E+002
  0
LINE
  8
2D_VERDECKTE_KANTEN
  6
HIDDEN
 62
1
 10
3.8630288E+001
 20
1.9664898E+002
 11
3.8630288E+001
 21
1.9414898E+002
  0
LINE
  8
2D_VERDECKTE_KANTEN
  6
HIDDEN
 62
1
 10
3.8630288E+001
 20
1.9414898E+002
 11
3.7130287E+001
 21
1.9264894E+002
  0
LINE
  8
2D_VERDECKTE_KANTEN
  6
HIDDEN
 62
1
 10
3.7130288E+001
 20
2.0614899E+002
 11
3.8630288E+001
 21
2.0464899E+002
  0
LINE
  8
2D_VERDECKTE_KANTEN
  6
HIDDEN
 62
1
 10
3.8630288E+001
 20
2.0464899E+002
 11
3.8630288E+001
 21
2.0214899E+002
  0
LINE
  8
2D_VERDECKTE_KANTEN
  6
HIDDEN
 62
1
 10
3.8630288E+001
 20
2.0214899E+002
 11
3.7130288E+001
 21
2.0064899E+002
  0
LINE
  8
2D_VERDECKTE_KANTEN
  6
HIDDEN
 62
1
 10
3.8630288E+001
 20
2.0214899E+002
 11
3.9630288E+001
 21
2.0214899E+002
  0
LINE
  8
2D_VERDECKTE_KANTEN
  6
HIDDEN
 62
1
 10
3.9630288E+001
 20
2.0464899E+002
 11
3.8630288E+001
 21
2.0464899E+002
  0
LINE
  8
2D_VERDECKTE_KANTEN
  6
HIDDEN
 62
1
 10
3.8630288E+001
 20
1.9664899E+002
 11
3.9630288E+001
 21
1.9664899E+002
  0
LINE
  8
2D_VERDECKTE_KANTEN
  6
HIDDEN
 62
1
 10
3.9630288E+001
 20
1.9414899E+002
 11
3.8630288E+001
 21
1.9414899E+002
  0
LINE
  8
2D_VERDECKTE_KANTEN
  6
HIDDEN
 62
1
 10
3.7130288E+001
 20
2.1964899E+002
 11
3.8630288E+001
 21
2.1814899E+002
  0
LINE
  8
2D_VERDECKTE_KANTEN
  6
HIDDEN
 62
1
 10
3.8630288E+001
 20
2.1814899E+002
 11
3.8630288E+001
 21
2.1564899E+002
  0
LINE
  8
2D_VERDECKTE_KANTEN
  6
HIDDEN
 62
1
 10
3.8630288E+001
 20
2.1564899E+002
 11
3.7130288E+001
 21
2.1414899E+002
  0
LINE
  8
2D_VERDECKTE_KANTEN
  6
HIDDEN
 62
1
 10
3.8630288E+001
 20
2.1814899E+002
 11
3.9630288E+001
 21
2.1814899E+002
  0
LINE
  8
2D_VERDECKTE_KANTEN
  6
HIDDEN
 62
1
 10
3.9630288E+001
 20
2.1564899E+002
 11
3.8630288E+001
 21
2.1564899E+002
  0
LINE
  8
2D_VERDECKTE_KANTEN
  6
HIDDEN
 62
1
 10
3.7130288E+001
 20
2.1164899E+002
 11
3.8630288E+001
 21
2.1014899E+002
  0
LINE
  8
2D_VERDECKTE_KANTEN
  6
HIDDEN
 62
1
 10
3.8630288E+001
 20
2.1014899E+002
 11
3.8630288E+001
 21
2.0764899E+002
  0
LINE
  8
2D_VERDECKTE_KANTEN
  6
HIDDEN
 62
1
 10
3.8630288E+001
 20
2.0764899E+002
 11
3.7130288E+001
 21
2.0614899E+002
  0
LINE
  8
2D_VERDECKTE_KANTEN
  6
HIDDEN
 62
1
 10
3.8630288E+001
 20
2.1014899E+002
 11
3.9630288E+001
 21
2.1014899E+002
  0
LINE
  8
2D_VERDECKTE_KANTEN
  6
HIDDEN
 62
1
 10
3.9630288E+001
 20
2.0764899E+002
 11
3.8630288E+001
 21
2.0764899E+002
  0
LINE
  8
2D_SICHTBARE_KANTEN
  6
CONTINUOUS
 62
40
 10
3.9630288E+001
 20
1.8989898E+002
 11
3.9630288E+001
 21
2.2239899E+002
  0
LINE
  8
2D_SICHTBARE_KANTEN
  6
CONTINUOUS
 62
40
 10
3.9630288E+001
 20
2.2239899E+002
 11
1.7630288E+001
 21
2.2239899E+002
  0
LINE
  8
2D_SICHTBARE_KANTEN
  6
CONTINUOUS
 62
40
 10
1.7630288E+001
 20
1.8989898E+002
 11
3.9630288E+001
 21
1.8989898E+002
  0
LINE
  8
2D_SICHTBARE_KANTEN
  6
CONTINUOUS
 62
40
 10
2.1380285E+001
 20
2.2889897E+002
 11
3.7380287E+001
 21
2.2889897E+002
  0
LINE
  8
2D_SICHTBARE_KANTEN
  6
CONTINUOUS
 62
40
 10
3.7380287E+001
 20
2.2889897E+002
 11
3.7380287E+001
 21
2.2639896E+002
  0
LINE
  8
2D_SICHTBARE_KANTEN
  6
CONTINUOUS
 62
40
 10
2.1380285E+001
 20
2.2639896E+002
 11
3.7380287E+001
 21
2.2639896E+002
  0
LINE
  8
2D_SICHTBARE_KANTEN
  6
CONTINUOUS
 62
40
 10
3.6130254E+001
 20
2.3089899E+002
 11
3.6130254E+001
 21
2.3014896E+002
  0
LINE
  8
2D_SICHTBARE_KANTEN
  6
CONTINUOUS
 62
40
 10
3.6130254E+001
 20
2.3014896E+002
 11
2.7630254E+001
 21
2.3014896E+002
  0
LINE
  8
2D_SICHTBARE_KANTEN
  6
CONTINUOUS
 62
40
 10
2.7630254E+001
 20
2.3014896E+002
 11
2.7630254E+001
 21
2.3089899E+002
  0
LINE
  8
2D_SICHTBARE_KANTEN
  6
CONTINUOUS
 62
40
 10
2.9392767E+001
 20
2.29624E+002
 11
2.9392767E+001
 21
2.2989896E+002
  0
LINE
  8
2D_SICHTBARE_KANTEN
  6
CONTINUOUS
 62
40
 10
2.9392767E+001
 20
2.3014896E+002
 11
2.9392767E+001
 21
2.2889897E+002
  0
LINE
  8
2D_SICHTBARE_KANTEN
  6
CONTINUOUS
 62
40
 10
3.4367803E+001
 20
2.29624E+002
 11
3.4367803E+001
 21
2.2989896E+002
  0
LINE
  8
2D_SICHTBARE_KANTEN
  6
CONTINUOUS
 62
40
 10
3.4367811E+001
 20
2.3014896E+002
 11
3.4367771E+001
 21
2.2889897E+002
  0
LINE
  8
2D_SICHTBARE_KANTEN
  6
CONTINUOUS
 62
40
 10
1.6130288E+001
 20
1.9139898E+002
 11
1.6130288E+001
 21
2.2089899E+002
  0
ARC
  8
2D_SICHTBARE_KANTEN
  6
CONTINUOUS
 62
40
 10
1.7630288E+001
 20
2.2089899E+002
 40
1.5
 50
9.0E+001
 51
1.8E+002
  0
ARC
  8
2D_SICHTBARE_KANTEN
  6
CONTINUOUS
 62
40
 10
1.7630288E+001
 20
1.9139898E+002
 40
1.5
 50
1.8E+002
 51
2.7000002E+002
  0
DIMENSION
  8
2D_BEMASSUNG
  6
CONTINUOUS
 62
1
  2
*D1158
  3
DSTYLE3
 10
3.4754832E+002
 20
2.5536747E+002
 11
2.5412411E+002
 21
2.5861827E+002
 70
128
 13
1.3354246E+002
 23
2.3927486E+002
 14
3.4754836E+002
 24
2.393111E+002
 40
5.0
 50
1.234254E-004
1001
ACAD
1000
DSTYLE
1002
{
1070
173
1070
0
1070
5
1000
_AH13
1002
}
  0
DIMENSION
  8
2D_BEMASSUNG
  6
CONTINUOUS
 62
1
  2
*D1159
  3
DSTYLE3
 10
1.0204248E+002
 20
2.7170966E+002
 11
2.4145876E+002
 21
2.7496066E+002
 70
128
 13
3.5091937E+002
 23
2.4027397E+002
 14
1.0204248E+002
 24
2.2089899E+002
 40
5.0
 50
0.0
1001
ACAD
1000
DSTYLE
1002
{
1070
173
1070
0
1070
5
1000
_AH13
1002
}
  0
DIMENSION
  8
2D_BEMASSUNG
  6
CONTINUOUS
 62
1
  2
*D1160
  3
DSTYLE4
 10
1.8354247E+002
 20
2.0415341E+002
 11
1.7019882E+002
 21
2.0740441E+002
 70
128
 13
1.5554248E+002
 23
2.0913956E+002
 14
1.8354247E+002
 24
2.0913956E+002
 40
5.0
 50
0.0
1001
ACAD
1000
DSTYLE
1002
{
1070
173
1070
0
1070
5
1000
_AH13
1002
}
  0
DIMENSION
  8
2D_BEMASSUNG
  6
CONTINUOUS
 62
1
  2
*D1161
  3
DSTYLE4
 10
2.0954247E+002
 20
1.7818027E+002
 11
1.7421847E+002
 21
1.8143127E+002
 70
128
 13
1.2954248E+002
 23
1.9152257E+002
 14
2.0954247E+002
 24
1.9152257E+002
 40
5.0
 50
0.0
1001
ACAD
1000
DSTYLE
1002
{
1070
173
1070
0
1070
5
1000
_AH13
1002
}
  0
DIMENSION
  8
2D_BEMASSUNG
  6
CONTINUOUS
 62
1
  2
*D1162
  3
DSTYLE4
 10
1.0204248E+002
 20
1.6581211E+002
 11
1.2845628E+002
 21
1.6906311E+002
 70
128
 13
1.4604248E+002
 23
2.187529E+002
 14
1.0204248E+002
 24
1.9139899E+002
 40
5.0
 50
0.0
1001
ACAD
1000
DSTYLE
1002
{
1070
173
1070
0
1070
5
1000
_AH13
1002
}
  0
DIMENSION
  8
2D_BEMASSUNG
  6
CONTINUOUS
 62
1
  2
*D1163
  3
DSTYLE4
 10
1.0204248E+002
 20
1.7818027E+002
 11
1.1825254E+002
 21
1.8143127E+002
 70
128
 13
1.2954248E+002
 23
1.9152257E+002
 14
1.0204248E+002
 24
1.9139899E+002
 40
5.0
 50
0.0
1001
ACAD
1000
DSTYLE
1002
{
1070
173
1070
0
1070
5
1000
_AH13
1002
}
  0
DIMENSION
  8
2D_BEMASSUNG
  6
CONTINUOUS
 62
1
  2
*D1164
  3
DSTYLE4
 10
1.0204248E+002
 20
1.5560838E+002
 11
1.6741598E+002
 21
1.5885938E+002
 70
128
 13
2.4154248E+002
 23
1.9139899E+002
 14
1.0204248E+002
 24
1.9139899E+002
 40
5.0
 50
0.0
1001
ACAD
1000
DSTYLE
1002
{
1070
173
1070
0
1070
5
1000
_AH13
1002
}
  0
DIMENSION
  8
2D_BEMASSUNG
  6
CONTINUOUS
 62
1
  2
*D1165
  3
DSTYLE4
 10
1.6130288E+001
 20
1.7818027E+002
 11
2.7625915E+001
 21
1.8143127E+002
 70
128
 13
3.9630288E+001
 23
1.8989898E+002
 14
1.6130288E+001
 24
1.9139898E+002
 40
5.0
 50
0.0
1001
ACAD
1000
DSTYLE
1002
{
1070
173
1070
0
1070
5
1000
_AH13
1002
}
  0
DIMENSION
  8
2D_BEMASSUNG
  6
CONTINUOUS
 62
1
  2
*D1166
  3
DSTYLE4
 10
2.4130287E+001
 20
2.5536681E+002
 11
3.4073853E+001
 21
2.5861781E+002
 70
128
 13
3.9630287E+001
 23
2.4089899E+002
 14
2.4130287E+001
 24
2.3989899E+002
 40
5.0
 50
0.0
1001
ACAD
1000
DSTYLE
1002
{
1070
173
1070
0
1070
5
1000
_AH13
1002
}
  0
DIMENSION
  8
2D_BEMASSUNG
  6
CONTINUOUS
 62
1
  2
*D1167
  3
DSTYLE4
 10
8.8412528E+001
 20
1.8989899E+002
 11
8.5161529E+001
 21
2.0646654E+002
 70
128
 13
1.0354248E+002
 23
2.2239899E+002
 14
1.0354248E+002
 24
1.8989899E+002
 40
5.0
 50
9.0E+001
1001
ACAD
1000
DSTYLE
1002
{
1070
173
1070
0
1070
5
1000
_AH13
1002
}
  0
DIMENSION
  8
2D_BEMASSUNG
  6
CONTINUOUS
 62
1
  2
*D1168
  3
DSTYLE4
 10
8.8412528E+001
 20
2.3077397E+002
 11
8.5161529E+001
 21
2.4887425E+002
 70
128
 13
1.3016558E+002
 23
2.4077397E+002
 14
1.3066558E+002
 24
2.3077397E+002
 40
5.0
 50
9.0E+001
1001
ACAD
1000
DSTYLE
1002
{
1070
173
1070
0
1070
5
1000
_AH13
1002
}
  0
DIMENSION
  8
2D_BEMASSUNG
  6
CONTINUOUS
 62
1
  2
*D1169
  3
DSTYLE3
 10
7.5268617E+001
 20
1.8989899E+002
 11
7.2017617E+001
 21
2.1465048E+002
 70
128
 13
1.3016558E+002
 23
2.4077397E+002
 14
1.0354248E+002
 24
1.8989899E+002
 40
5.0
 50
9.0E+001
1001
ACAD
1000
DSTYLE
1002
{
1070
173
1070
0
1070
5
1000
_AH13
1002
}
  0
DIMENSION
  8
2D_BEMASSUNG
  6
CONTINUOUS
 62
1
  2
*D1170
  3
DSTYLE4
 10
2.5917741E+002
 20
2.0877399E+002
 11
2.5592641E+002
 21
2.2135578E+002
 70
128
 13
2.1257198E+002
 23
2.1677399E+002
 14
2.1257198E+002
 24
2.0877399E+002
 40
5.0
 50
9.0E+001
1001
ACAD
1000
DSTYLE
1002
{
1070
173
1070
0
1070
5
1000
_AH13
1002
}
  0
DIMENSION
  8
2D_BEMASSUNG
  6
CONTINUOUS
 62
1
  2
*D1171
  3
DSTYLE4
 10
2.5917741E+002
 20
1.9527399E+002
 11
2.5592641E+002
 21
1.9029415E+002
 70
128
 13
2.1257198E+002
 23
2.0327399E+002
 14
2.1257198E+002
 24
1.9527399E+002
 40
5.0
 50
9.0E+001
1001
ACAD
1000
DSTYLE
1002
{
1070
173
1070
0
1070
5
1000
_AH13
1002
}
  0
DIMENSION
  8
2D_BEMASSUNG
  6
CONTINUOUS
 62
1
  2
*D1172
  3
DSTYLE4
 10
2.7815102E+002
 20
1.9527399E+002
 11
2.7490002E+002
 21
2.0666654E+002
 70
128
 13
2.1257198E+002
 23
2.1677399E+002
 14
2.1257198E+002
 24
1.9527399E+002
 40
5.0
 50
9.0E+001
1001
ACAD
1000
DSTYLE
1002
{
1070
173
1070
0
1070
5
1000
_AH13
1002
}
  0
DIMENSION
  8
2D_BEMASSUNG
  6
CONTINUOUS
 62
1
  2
*D1173
  3
DSTYLE4
 10
2.5917741E+002
 20
2.0327399E+002
 11
2.5592641E+002
 21
2.0605448E+002
 70
128
 13
2.1257198E+002
 23
2.0877399E+002
 14
2.1257198E+002
 24
2.0327399E+002
 40
5.0
 50
9.0E+001
1001
ACAD
1000
DSTYLE
1002
{
1070
173
1070
0
1070
5
1000
_AH13
1002
}
  0
DIMENSION
  8
2D_BEMASSUNG
  6
CONTINUOUS
 62
1
  2
*D1174
  3
DSTYLE4
 10
3.6972902E+002
 20
2.1677399E+002
 11
3.6647802E+002
 21
2.2675061E+002
 70
128
 13
3.5016746E+002
 23
2.3577398E+002
 14
2.1257198E+002
 24
2.1677399E+002
 40
5.0
 50
9.0E+001
1001
ACAD
1000
DSTYLE
1002
{
1070
173
1070
0
1070
5
1000
_AH13
1002
}
  0
LINE
  8
MED-1
  6
CONTINUOUS
 62
3
 10
2.9270954E+002
 20
3.3931647E+001
 11
2.9270954E+002
 21
5.1738248E+001
  0
LINE
  8
MED-1
  6
CONTINUOUS
 62
3
 10
2.9270954E+002
 20
5.1738248E+001
 11
4.0606654E+002
 21
5.1738248E+001
  0
LINE
  8
MED-1
  6
CONTINUOUS
 62
3
 10
4.0606654E+002
 20
5.1738248E+001
 11
4.0606654E+002
 21
3.3931647E+001
  0
TEXT
  8
2D_TEXT
  6
CONTINUOUS
 62
150
 10
3.1573028E+002
 20
3.9545821E+001
 40
3.5
  1
Benennung
 41
6.5000002E-001
 72
1
 11
3.0549278E+002
 21
3.7795821E+001
 73
2
  0
TEXT
  8
2D_TEXT
  6
CONTINUOUS
 62
40
 10
3.0324136E+002
 20
4.3377245E+001
 40
5.0
  1
Ansicht TS 92 EN 2-4
 41
6.6176471E-001
  0
LINE
  8
MED-1
  6
CONTINUOUS
 62
3
 10
2.9270954E+002
 20
3.3931647E+001
 11
4.0606654E+002
 21
3.3931647E+001
  0
ENDSEC
  0
EOF
