  0
SECTION
  2
HEADER
  9
$ACADVER
  1
AC1018
  9
$ACADMAINTVER
 70
   104
  9
$DWGCODEPAGE
  3
ANSI_1252
  9
$AUTHOR
  1
meslinja
  9
$CUSTOMPROPERTYTAG
  1
Responsable
  9
$CUSTOMPROPERTY
  1

  9
$CUSTOMPROPERTYTAG
  1
Société
  9
$CUSTOMPROPERTY
  1
AIGA Central CAD
  9
$CUSTOMPROPERTYTAG
  1
Catégorie
  9
$CUSTOMPROPERTY
  1

  9
$CUSTOMPROPERTYTAG
  1
Numéro de pièce
  9
$CUSTOMPROPERTY
  1
102151
  9
$CUSTOMPROPERTYTAG
  1
Description
  9
$CUSTOMPROPERTY
  1

  9
$CUSTOMPROPERTYTAG
  1
Projet
  9
$CUSTOMPROPERTY
  1

  9
$CUSTOMPROPERTYTAG
  1
Concepteur
  9
$CUSTOMPROPERTY
  1
meslinja
  9
$CUSTOMPROPERTYTAG
  1
Ingénieur
  9
$CUSTOMPROPERTY
  1

  9
$CUSTOMPROPERTYTAG
  1
Responsable
  9
$CUSTOMPROPERTY
  1

  9
$CUSTOMPROPERTYTAG
  1
Centre de gestion
  9
$CUSTOMPROPERTY
  1

  9
$CUSTOMPROPERTYTAG
  1
Constructeur
  9
$CUSTOMPROPERTY
  1

  9
$CUSTOMPROPERTYTAG
  1
Etat utilisateur
  9
$CUSTOMPROPERTY
  1

  9
$CUSTOMPROPERTYTAG
  1
Etat de la conception
  9
$CUSTOMPROPERTY
  1
En cours
  9
$CUSTOMPROPERTYTAG
  1
Vérifié par
  9
$CUSTOMPROPERTY
  1

  9
$CUSTOMPROPERTYTAG
  1
Appr. pr conception par
  9
$CUSTOMPROPERTY
  1

  9
$CUSTOMPROPERTYTAG
  1
Appr. pr fabrication par
  9
$CUSTOMPROPERTY
  1

  9
$INSBASE
 10
0.0
 20
0.0
 30
0.0
  9
$EXTMIN
 10
0.0
 20
0.0
 30
0.0
  9
$EXTMAX
 10
840.0
 20
1188.0
 30
0.0
  9
$LIMMIN
 10
0.0
 20
0.0
  9
$LIMMAX
 10
840.0
 20
1188.0
  9
$ORTHOMODE
 70
     0
  9
$REGENMODE
 70
     1
  9
$FILLMODE
 70
     1
  9
$QTEXTMODE
 70
     0
  9
$MIRRTEXT
 70
     0
  9
$LTSCALE
 40
4.0
  9
$ATTMODE
 70
     1
  9
$TEXTSIZE
 40
0.2
  9
$TRACEWID
 40
0.05
  9
$TEXTSTYLE
  7
Standard
  9
$CLAYER
  8
0
  9
$CELTYPE
  6
ByLayer
  9
$CECOLOR
 62
   256
  9
$CELTSCALE
 40
1.0
  9
$DISPSILH
 70
     0
  9
$DIMSCALE
 40
1.0
  9
$DIMASZ
 40
1.799999999999999
  9
$DIMEXO
 40
0.0625
  9
$DIMDLI
 40
0.38
  9
$DIMRND
 40
0.0
  9
$DIMDLE
 40
0.0
  9
$DIMEXE
 40
0.18
  9
$DIMTP
 40
0.0
  9
$DIMTM
 40
0.0
  9
$DIMTXT
 40
0.3499999940395355
  9
$DIMCEN
 40
0.09
  9
$DIMTSZ
 40
0.0
  9
$DIMTOL
 70
     0
  9
$DIMLIM
 70
     0
  9
$DIMTIH
 70
     1
  9
$DIMTOH
 70
     1
  9
$DIMSE1
 70
     0
  9
$DIMSE2
 70
     0
  9
$DIMTAD
 70
     0
  9
$DIMZIN
 70
     0
  9
$DIMBLK
  1

  9
$DIMASO
 70
     1
  9
$DIMSHO
 70
     1
  9
$DIMPOST
  1

  9
$DIMAPOST
  1

  9
$DIMALT
 70
     0
  9
$DIMALTD
 70
     2
  9
$DIMALTF
 40
25.4
  9
$DIMLFAC
 40
1.0
  9
$DIMTOFL
 70
     0
  9
$DIMTVP
 40
0.0
  9
$DIMTIX
 70
     0
  9
$DIMSOXD
 70
     0
  9
$DIMSAH
 70
     0
  9
$DIMBLK1
  1

  9
$DIMBLK2
  1

  9
$DIMSTYLE
  2
Standard
  9
$DIMCLRD
 70
     0
  9
$DIMCLRE
 70
     0
  9
$DIMCLRT
 70
     0
  9
$DIMTFAC
 40
1.0
  9
$DIMGAP
 40
0.09
  9
$DIMJUST
 70
     0
  9
$DIMSD1
 70
     0
  9
$DIMSD2
 70
     0
  9
$DIMTOLJ
 70
     1
  9
$DIMTZIN
 70
     0
  9
$DIMALTZ
 70
     0
  9
$DIMALTTZ
 70
     0
  9
$DIMUPT
 70
     0
  9
$DIMDEC
 70
     4
  9
$DIMTDEC
 70
     4
  9
$DIMALTU
 70
     2
  9
$DIMALTTD
 70
     2
  9
$DIMTXSTY
  7
Standard
  9
$DIMAUNIT
 70
     0
  9
$DIMADEC
 70
     0
  9
$DIMALTRND
 40
0.0
  9
$DIMAZIN
 70
     0
  9
$DIMDSEP
 70
    46
  9
$DIMATFIT
 70
     3
  9
$DIMFRAC
 70
     0
  9
$DIMLDRBLK
  1

  9
$DIMLUNIT
 70
     2
  9
$DIMLWD
 70
    -2
  9
$DIMLWE
 70
    -2
  9
$DIMTMOVE
 70
     0
  9
$LUNITS
 70
     2
  9
$LUPREC
 70
     4
  9
$SKETCHINC
 40
0.1
  9
$FILLETRAD
 40
0.0
  9
$AUNITS
 70
     0
  9
$AUPREC
 70
     0
  9
$MENU
  1
.
  9
$ELEVATION
 40
0.0
  9
$PELEVATION
 40
0.0
  9
$THICKNESS
 40
0.0
  9
$LIMCHECK
 70
     0
  9
$CHAMFERA
 40
0.0
  9
$CHAMFERB
 40
0.0
  9
$CHAMFERC
 40
0.0
  9
$CHAMFERD
 40
0.0
  9
$SKPOLY
 70
     0
  9
$TDCREATE
 40
2455302.412127824
  9
$TDUCREATE
 40
2455302.328794491
  9
$TDUPDATE
 40
2455302.412127824
  9
$TDUUPDATE
 40
2455302.328794491
  9
$TDINDWG
 40
0.0000442940
  9
$TDUSRTIMER
 40
0.0000442940
  9
$USRTIMER
 70
     1
  9
$ANGBASE
 50
0.0
  9
$ANGDIR
 70
     0
  9
$PDMODE
 70
     0
  9
$PDSIZE
 40
0.0
  9
$PLINEWID
 40
0.0
  9
$SPLFRAME
 70
     0
  9
$SPLINETYPE
 70
     6
  9
$SPLINESEGS
 70
     8
  9
$HANDSEED
  5
DF3
  9
$SURFTAB1
 70
     6
  9
$SURFTAB2
 70
     6
  9
$SURFTYPE
 70
     6
  9
$SURFU
 70
     6
  9
$SURFV
 70
     6
  9
$UCSBASE
  2

  9
$UCSNAME
  2

  9
$UCSORG
 10
0.0
 20
0.0
 30
0.0
  9
$UCSXDIR
 10
1.0
 20
0.0
 30
0.0
  9
$UCSYDIR
 10
0.0
 20
1.0
 30
0.0
  9
$UCSORTHOREF
  2

  9
$UCSORTHOVIEW
 70
     0
  9
$UCSORGTOP
 10
0.0
 20
0.0
 30
0.0
  9
$UCSORGBOTTOM
 10
0.0
 20
0.0
 30
0.0
  9
$UCSORGLEFT
 10
0.0
 20
0.0
 30
0.0
  9
$UCSORGRIGHT
 10
0.0
 20
0.0
 30
0.0
  9
$UCSORGFRONT
 10
0.0
 20
0.0
 30
0.0
  9
$UCSORGBACK
 10
0.0
 20
0.0
 30
0.0
  9
$PUCSBASE
  2

  9
$PUCSNAME
  2

  9
$PUCSORG
 10
0.0
 20
0.0
 30
0.0
  9
$PUCSXDIR
 10
1.0
 20
0.0
 30
0.0
  9
$PUCSYDIR
 10
0.0
 20
1.0
 30
0.0
  9
$PUCSORTHOREF
  2

  9
$PUCSORTHOVIEW
 70
     0
  9
$PUCSORGTOP
 10
0.0
 20
0.0
 30
0.0
  9
$PUCSORGBOTTOM
 10
0.0
 20
0.0
 30
0.0
  9
$PUCSORGLEFT
 10
0.0
 20
0.0
 30
0.0
  9
$PUCSORGRIGHT
 10
0.0
 20
0.0
 30
0.0
  9
$PUCSORGFRONT
 10
0.0
 20
0.0
 30
0.0
  9
$PUCSORGBACK
 10
0.0
 20
0.0
 30
0.0
  9
$USERI1
 70
     0
  9
$USERI2
 70
     0
  9
$USERI3
 70
     0
  9
$USERI4
 70
     0
  9
$USERI5
 70
     0
  9
$USERR1
 40
0.0
  9
$USERR2
 40
0.0
  9
$USERR3
 40
0.0
  9
$USERR4
 40
0.0
  9
$USERR5
 40
0.0
  9
$WORLDVIEW
 70
     1
  9
$SHADEDGE
 70
     3
  9
$SHADEDIF
 70
    70
  9
$TILEMODE
 70
     1
  9
$MAXACTVP
 70
    64
  9
$PINSBASE
 10
0.0
 20
0.0
 30
0.0
  9
$PLIMCHECK
 70
     0
  9
$PEXTMIN
 10
0.0
 20
0.0
 30
0.0
  9
$PEXTMAX
 10
840.0
 20
1188.0
 30
0.0
  9
$PLIMMIN
 10
0.0
 20
0.0
  9
$PLIMMAX
 10
840.0
 20
1188.0
  9
$UNITMODE
 70
     0
  9
$VISRETAIN
 70
     1
  9
$PLINEGEN
 70
     0
  9
$PSLTSCALE
 70
     1
  9
$TREEDEPTH
 70
  3020
  9
$CMLSTYLE
  2
Standard
  9
$CMLJUST
 70
     0
  9
$CMLSCALE
 40
1.0
  9
$PROXYGRAPHICS
 70
     1
  9
$MEASUREMENT
 70
     1
  9
$CELWEIGHT
370
    -1
  9
$ENDCAPS
280
     0
  9
$JOINSTYLE
280
     0
  9
$LWDISPLAY
290
     0
  9
$INSUNITS
 70
     4
  9
$HYPERLINKBASE
  1

  9
$STYLESHEET
  1

  9
$XEDIT
290
     1
  9
$CEPSNTYPE
380
     0
  9
$PSTYLEMODE
290
     1
  9
$FINGERPRINTGUID
  2
{2C39A10F-4D22-4CBD-A3B7-394CD8F9C5E8}
  9
$VERSIONGUID
  2
{3AA614A7-34A2-43A3-B0C0-745290547D92}
  9
$EXTNAMES
290
     1
  9
$PSVPSCALE
 40
0.0
  9
$OLESTARTUP
290
     0
  9
$SORTENTS
280
   127
  9
$INDEXCTL
280
     0
  9
$HIDETEXT
280
     1
  9
$XCLIPFRAME
290
     0
  9
$HALOGAP
280
     0
  9
$OBSCOLOR
 70
   257
  9
$OBSLTYPE
280
     0
  9
$INTERSECTIONDISPLAY
280
     0
  9
$INTERSECTIONCOLOR
 70
   257
  9
$DIMASSOC
280
     1
  9
$PROJECTNAME
  1

  0
ENDSEC
  0
SECTION
  2
CLASSES
  0
CLASS
  1
ACDBDICTIONARYWDFLT
  2
AcDbDictionaryWithDefault
  3
ObjectDBX Classes
 90
        0
 91
        1
280
     0
281
     0
  0
CLASS
  1
MATERIAL
  2
AcDbMaterial
  3
ObjectDBX Classes
 90
     1153
 91
        3
280
     0
281
     0
  0
CLASS
  1
VISUALSTYLE
  2
AcDbVisualStyle
  3
ObjectDBX Classes
 90
     4095
 91
       16
280
     0
281
     0
  0
CLASS
  1
SCALE
  2
AcDbScale
  3
ObjectDBX Classes
 90
     1153
 91
       33
280
     0
281
     0
  0
CLASS
  1
TABLESTYLE
  2
AcDbTableStyle
  3
ObjectDBX Classes
 90
     4095
 91
        1
280
     0
281
     0
  0
CLASS
  1
MLEADERSTYLE
  2
AcDbMLeaderStyle
  3
ACDB_MLEADERSTYLE_CLASS
 90
     4095
 91
        1
280
     0
281
     0
  0
CLASS
  1
IMAGE
  2
AcDbRasterImage
  3
ISM
 90
     2175
 91
        1
280
     0
281
     1
  0
CLASS
  1
IMAGEDEF
  2
AcDbRasterImageDef
  3
ISM
 90
        0
 91
        1
280
     0
281
     0
  0
CLASS
  1
IMAGEDEF_REACTOR
  2
AcDbRasterImageDefReactor
  3
ISM
 90
        1
 91
        1
280
     0
281
     0
  0
CLASS
  1
RASTERVARIABLES
  2
AcDbRasterVariables
  3
ISM
 90
        0
 91
        1
280
     0
281
     0
  0
CLASS
  1
SORTENTSTABLE
  2
AcDbSortentsTable
  3
ObjectDBX Classes
 90
        0
 91
        1
280
     0
281
     0
  0
CLASS
  1
DICTIONARYVAR
  2
AcDbDictionaryVar
  3
ObjectDBX Classes
 90
        0
 91
        5
280
     0
281
     0
  0
CLASS
  1
CELLSTYLEMAP
  2
AcDbCellStyleMap
  3
ObjectDBX Classes
 90
     1152
 91
        1
280
     0
281
     0
  0
ENDSEC
  0
SECTION
  2
TABLES
  0
TABLE
  2
VPORT
  5
8
330
0
100
AcDbSymbolTable
 70
     1
  0
VPORT
  5
5F
330
8
100
AcDbSymbolTableRecord
100
AcDbViewportTableRecord
  2
*Active
 70
     0
 10
0.0
 20
0.0
 11
1.0
 21
1.0
 12
420.0
 22
594.0
 13
0.0
 23
0.0
 14
1.0
 24
1.0
 15
0.0
 25
0.0
 16
0.0
 26
0.0
 36
1.0
 17
0.0
 27
0.0
 37
0.0
 40
1188.0
 41
0.7070707070707071
 42
50.0
 43
0.0
 44
0.0
 50
0.0
 51
0.0
 71
     0
 72
   100
 73
     1
 74
     1
 75
     0
 76
     0
 77
     0
 78
     0
281
     0
 65
     1
110
0.0
120
0.0
130
0.0
111
1.0
121
0.0
131
0.0
112
0.0
122
1.0
132
0.0
 79
     0
146
0.0
  0
ENDTAB
  0
TABLE
  2
LTYPE
  5
5
330
0
100
AcDbSymbolTable
 70
    59
  0
LTYPE
  5
63
330
5
100
AcDbSymbolTableRecord
100
AcDbLinetypeTableRecord
  2
ByBlock
 70
     0
  3

 72
    65
 73
     0
 40
0.0
  0
LTYPE
  5
64
330
5
100
AcDbSymbolTableRecord
100
AcDbLinetypeTableRecord
  2
ByLayer
 70
     0
  3

 72
    65
 73
     0
 40
0.0
  0
LTYPE
  5
65
330
5
100
AcDbSymbolTableRecord
100
AcDbLinetypeTableRecord
  2
Continuous
 70
     0
  3
Solid line
 72
    65
 73
     0
 40
0.0
  0
LTYPE
  5
7D
330
5
100
AcDbSymbolTableRecord
100
AcDbLinetypeTableRecord
  2
Section_View_Lines
 70
     0
  3
Section View Lines
 72
    65
 73
     4
 40
0.8406
 49
0.6614
 74
     0
 49
-0.0827
 74
     0
 49
0.0138
 74
     0
 49
-0.0827
 74
     0
  0
LTYPE
  5
7E
330
5
100
AcDbSymbolTableRecord
100
AcDbLinetypeTableRecord
  2
CHAIN
 70
     0
  3
Chain ____ _ ____ _ ____ _ ____ _ ____ _ ____
 72
    65
 73
     4
 40
0.3543
 49
0.2362
 74
     0
 49
-0.0295
 74
     0
 49
0.0591
 74
     0
 49
-0.0295
 74
     0
  0
LTYPE
  5
7F
330
5
100
AcDbSymbolTableRecord
100
AcDbLinetypeTableRecord
  2
DASH_DOT
 70
     0
  3
Dash dot _._._._._._._._._._._._._._._.
 72
    65
 73
     4
 40
0.182
 49
0.1181
 74
     0
 49
-0.0295
 74
     0
 49
0.0049
 74
     0
 49
-0.0295
 74
     0
  0
LTYPE
  5
80
330
5
100
AcDbSymbolTableRecord
100
AcDbLinetypeTableRecord
  2
DASH_DOUBLE_DOT
 70
     0
  3
Dash Double Dot __ __ . __ __ . __ __ . __ _
 72
    65
 73
     6
 40
0.2164
 49
0.1181
 74
     0
 49
-0.0295
 74
     0
 49
0.0049
 74
     0
 49
-0.0295
 74
     0
 49
0.0049
 74
     0
 49
-0.0295
 74
     0
  0
LTYPE
  5
81
330
5
100
AcDbSymbolTableRecord
100
AcDbLinetypeTableRecord
  2
DASH_TRIPLE_DOT
 70
     0
  3
Dash Triple-Dot _ . . . _ . . . _ . . . _
 72
    65
 73
     8
 40
0.2508
 49
0.1181
 74
     0
 49
-0.0295
 74
     0
 49
0.0049
 74
     0
 49
-0.0295
 74
     0
 49
0.0049
 74
     0
 49
-0.0295
 74
     0
 49
0.0049
 74
     0
 49
-0.0295
 74
     0
  0
LTYPE
  5
82
330
5
100
AcDbSymbolTableRecord
100
AcDbLinetypeTableRecord
  2
DASHED
 70
     0
  3
Dashed __ __ __ __ __ __ __ __ __ __ __ __ __ _
 72
    65
 73
     2
 40
0.2068
 49
0.1655
 74
     0
 49
-0.0413
 74
     0
  0
LTYPE
  5
83
330
5
100
AcDbSymbolTableRecord
100
AcDbLinetypeTableRecord
  2
DASHED_SPACE
 70
     0
  3
Dashed Space __ __ __ __ __ __ __ __ __ __ __ _
 72
    65
 73
     2
 40
0.2067
 49
0.1654
 74
     0
 49
-0.0413
 74
     0
  0
LTYPE
  5
84
330
5
100
AcDbSymbolTableRecord
100
AcDbLinetypeTableRecord
  2
DOTTED
 70
     0
  3
Dotted . . . . . . . . . . . . . . . . . . . . 
 72
    65
 73
     2
 40
0.0481
 49
0.0068
 74
     0
 49
-0.0413
 74
     0
  0
LTYPE
  5
85
330
5
100
AcDbSymbolTableRecord
100
AcDbLinetypeTableRecord
  2
DOUBLE_DASH_CHAIN
 70
     0
  3
Double Dash Chain ___ _ _ ___ _ _ ___ _ _ ___ _
 72
    65
 73
     6
 40
1.240299999999999
 49
0.6614
 74
     0
 49
-0.0827
 74
     0
 49
0.1654
 74
     0
 49
-0.0827
 74
     0
 49
0.1654
 74
     0
 49
-0.0827
 74
     0
  0
LTYPE
  5
86
330
5
100
AcDbSymbolTableRecord
100
AcDbLinetypeTableRecord
  2
DOUBLE_DASH_DOT
 70
     0
  3
Double Dash Dot __ __ . __ __ . __ __ . __ _
 72
    65
 73
     6
 40
0.3296
 49
0.1181
 74
     0
 49
-0.0295
 74
     0
 49
0.1181
 74
     0
 49
-0.0295
 74
     0
 49
0.0049
 74
     0
 49
-0.0295
 74
     0
  0
LTYPE
  5
87
330
5
100
AcDbSymbolTableRecord
100
AcDbLinetypeTableRecord
  2
DOUBLE_DASH_DOUBLE_DOT
 70
     0
  3
Double Dash Double Dot _ _ . . _ _ . . _ _
 72
    65
 73
     8
 40
0.364
 49
0.1181
 74
     0
 49
-0.0295
 74
     0
 49
0.1181
 74
     0
 49
-0.0295
 74
     0
 49
0.0049
 74
     0
 49
-0.0295
 74
     0
 49
0.0049
 74
     0
 49
-0.0295
 74
     0
  0
LTYPE
  5
88
330
5
100
AcDbSymbolTableRecord
100
AcDbLinetypeTableRecord
  2
DOUBLE_DASH_TRIPLE_DOT
 70
     0
  3
Double Dash Triple Dot __ __ . . . __ __ . . .
 72
    65
 73
    10
 40
0.3984
 49
0.1181
 74
     0
 49
-0.0295
 74
     0
 49
0.1181
 74
     0
 49
-0.0295
 74
     0
 49
0.0049
 74
     0
 49
-0.0295
 74
     0
 49
0.0049
 74
     0
 49
-0.0295
 74
     0
 49
0.0049
 74
     0
 49
-0.0295
 74
     0
  0
LTYPE
  5
89
330
5
100
AcDbSymbolTableRecord
100
AcDbLinetypeTableRecord
  2
LONG_DASH_DOTTED
 70
     0
  3
Long Dash Dotted ____ . ____ . ____ . ____ . _
 72
    65
 73
     4
 40
0.3001
 49
0.2362
 74
     0
 49
-0.0295
 74
     0
 49
0.0049
 74
     0
 49
-0.0295
 74
     0
  0
LTYPE
  5
8A
330
5
100
AcDbSymbolTableRecord
100
AcDbLinetypeTableRecord
  2
LONG_DASH_DOUBLE_DOT
 70
     0
  3
Long Dash Double Dot ____ . . ____ . . ____ . .
 72
    65
 73
     6
 40
0.3345
 49
0.2362
 74
     0
 49
-0.0295
 74
     0
 49
0.0049
 74
     0
 49
-0.0295
 74
     0
 49
0.0049
 74
     0
 49
-0.0295
 74
     0
  0
LTYPE
  5
8B
330
5
100
AcDbSymbolTableRecord
100
AcDbLinetypeTableRecord
  2
LONG_DASH_TRIPLE_DOT
 70
     0
  3
Long Dash Triple Dot ____ ... ____ ... ____
 72
    65
 73
     8
 40
0.3689
 49
0.2362
 74
     0
 49
-0.0295
 74
     0
 49
0.0049
 74
     0
 49
-0.0295
 74
     0
 49
0.0049
 74
     0
 49
-0.0295
 74
     0
 49
0.0049
 74
     0
 49
-0.0295
 74
     0
  0
LTYPE
  5
8C
330
5
100
AcDbSymbolTableRecord
100
AcDbLinetypeTableRecord
  2
BORDER
 70
     0
  3
Border __ __ . __ __ . __ __ . __ __ . __ __ .
 72
    65
 73
     6
 40
44.45
 49
12.7
 74
     0
 49
-6.349999999999999
 74
     0
 49
12.7
 74
     0
 49
-6.349999999999999
 74
     0
 49
0.0
 74
     0
 49
-6.349999999999999
 74
     0
  0
LTYPE
  5
8D
330
5
100
AcDbSymbolTableRecord
100
AcDbLinetypeTableRecord
  2
BORDER2
 70
     0
  3
Border (.5x) __.__.__.__.__.__.__.__.__.__.__.
 72
    65
 73
     6
 40
22.225
 49
6.349999999999999
 74
     0
 49
-3.174999999999999
 74
     0
 49
6.349999999999999
 74
     0
 49
-3.174999999999999
 74
     0
 49
0.0
 74
     0
 49
-3.174999999999999
 74
     0
  0
LTYPE
  5
8E
330
5
100
AcDbSymbolTableRecord
100
AcDbLinetypeTableRecord
  2
BORDERX2
 70
     0
  3
Border (2x) ____  ____  .  ____  ____  .  ___
 72
    65
 73
     6
 40
88.9
 49
25.4
 74
     0
 49
-12.7
 74
     0
 49
25.4
 74
     0
 49
-12.7
 74
     0
 49
0.0
 74
     0
 49
-12.7
 74
     0
  0
LTYPE
  5
8F
330
5
100
AcDbSymbolTableRecord
100
AcDbLinetypeTableRecord
  2
CENTER
 70
     0
  3
Center ____ _ ____ _ ____ _ ____ _ ____ _ ____
 72
    65
 73
     4
 40
50.8
 49
31.75
 74
     0
 49
-6.349999999999999
 74
     0
 49
6.349999999999999
 74
     0
 49
-6.349999999999999
 74
     0
  0
LTYPE
  5
90
330
5
100
AcDbSymbolTableRecord
100
AcDbLinetypeTableRecord
  2
CENTER2
 70
     0
  3
Center (.5x) ___ _ ___ _ ___ _ ___ _ ___ _ ___
 72
    65
 73
     4
 40
28.575
 49
19.05
 74
     0
 49
-3.174999999999999
 74
     0
 49
3.174999999999999
 74
     0
 49
-3.174999999999999
 74
     0
  0
LTYPE
  5
91
330
5
100
AcDbSymbolTableRecord
100
AcDbLinetypeTableRecord
  2
CENTERX2
 70
     0
  3
Center (2x) ________  __  ________  __  _____
 72
    65
 73
     4
 40
101.6
 49
63.5
 74
     0
 49
-12.7
 74
     0
 49
12.7
 74
     0
 49
-12.7
 74
     0
  0
LTYPE
  5
92
330
5
100
AcDbSymbolTableRecord
100
AcDbLinetypeTableRecord
  2
DASHDOT2
 70
     0
  3
Dash dot (.5x) _._._._._._._._._._._._._._._.
 72
    65
 73
     4
 40
12.7
 49
6.349999999999999
 74
     0
 49
-3.174999999999999
 74
     0
 49
0.0
 74
     0
 49
-3.174999999999999
 74
     0
  0
LTYPE
  5
93
330
5
100
AcDbSymbolTableRecord
100
AcDbLinetypeTableRecord
  2
DASHDOTX2
 70
     0
  3
Dash dot (2x) ____  .  ____  .  ____  .  ___
 72
    65
 73
     4
 40
50.8
 49
25.4
 74
     0
 49
-12.7
 74
     0
 49
0.0
 74
     0
 49
-12.7
 74
     0
  0
LTYPE
  5
94
330
5
100
AcDbSymbolTableRecord
100
AcDbLinetypeTableRecord
  2
DASHED2
 70
     0
  3
Dashed (.5x) _ _ _ _ _ _ _ _ _ _ _ _ _ _ _ _ _
 72
    65
 73
     2
 40
9.524999999999998
 49
6.349999999999999
 74
     0
 49
-3.174999999999999
 74
     0
  0
LTYPE
  5
95
330
5
100
AcDbSymbolTableRecord
100
AcDbLinetypeTableRecord
  2
DASHEDX2
 70
     0
  3
Dashed (2x) ____  ____  ____  ____  ____  ___
 72
    65
 73
     2
 40
38.1
 49
25.4
 74
     0
 49
-12.7
 74
     0
  0
LTYPE
  5
96
330
5
100
AcDbSymbolTableRecord
100
AcDbLinetypeTableRecord
  2
DIVIDE
 70
     0
  3
Divide ____ . . ____ . . ____ . . ____ . . ____
 72
    65
 73
     6
 40
31.75
 49
12.7
 74
     0
 49
-6.349999999999999
 74
     0
 49
0.0
 74
     0
 49
-6.349999999999999
 74
     0
 49
0.0
 74
     0
 49
-6.349999999999999
 74
     0
  0
LTYPE
  5
97
330
5
100
AcDbSymbolTableRecord
100
AcDbLinetypeTableRecord
  2
DIVIDE2
 70
     0
  3
Divide (.5x) __..__..__..__..__..__..__..__.._
 72
    65
 73
     6
 40
15.875
 49
6.349999999999999
 74
     0
 49
-3.174999999999999
 74
     0
 49
0.0
 74
     0
 49
-3.174999999999999
 74
     0
 49
0.0
 74
     0
 49
-3.174999999999999
 74
     0
  0
LTYPE
  5
98
330
5
100
AcDbSymbolTableRecord
100
AcDbLinetypeTableRecord
  2
DIVIDEX2
 70
     0
  3
Divide (2x) ________  .  .  ________  .  .  _
 72
    65
 73
     6
 40
63.49999999999999
 49
25.4
 74
     0
 49
-12.7
 74
     0
 49
0.0
 74
     0
 49
-12.7
 74
     0
 49
0.0
 74
     0
 49
-12.7
 74
     0
  0
LTYPE
  5
99
330
5
100
AcDbSymbolTableRecord
100
AcDbLinetypeTableRecord
  2
DOT
 70
     0
  3
Dot . . . . . . . . . . . . . . . . . . . . . .
 72
    65
 73
     2
 40
6.349999999999999
 49
0.0
 74
     0
 49
-6.349999999999999
 74
     0
  0
LTYPE
  5
9A
330
5
100
AcDbSymbolTableRecord
100
AcDbLinetypeTableRecord
  2
DOT2
 70
     0
  3
Dot (.5x) .....................................
 72
    65
 73
     2
 40
3.174999999999999
 49
0.0
 74
     0
 49
-3.174999999999999
 74
     0
  0
LTYPE
  5
9B
330
5
100
AcDbSymbolTableRecord
100
AcDbLinetypeTableRecord
  2
DOTX2
 70
     0
  3
Dot (2x) .  .  .  .  .  .  .  .  .  .  .  .  . 
 72
    65
 73
     2
 40
12.7
 49
0.0
 74
     0
 49
-12.7
 74
     0
  0
LTYPE
  5
9C
330
5
100
AcDbSymbolTableRecord
100
AcDbLinetypeTableRecord
  2
HIDDEN
 70
     0
  3
Hidden __ __ __ __ __ __ __ __ __ __ __ __ __ _
 72
    65
 73
     2
 40
9.524999999999998
 49
6.349999999999999
 74
     0
 49
-3.174999999999999
 74
     0
  0
LTYPE
  5
9D
330
5
100
AcDbSymbolTableRecord
100
AcDbLinetypeTableRecord
  2
HIDDEN2
 70
     0
  3
Hidden (.5x) _ _ _ _ _ _ _ _ _ _ _ _ _ _ _ _ _
 72
    65
 73
     2
 40
4.762499999999999
 49
3.174999999999999
 74
     0
 49
-1.587499999999999
 74
     0
  0
LTYPE
  5
9E
330
5
100
AcDbSymbolTableRecord
100
AcDbLinetypeTableRecord
  2
HIDDENX2
 70
     0
  3
Hidden (2x) ____ ____ ____ ____ ____ ____ ____
 72
    65
 73
     2
 40
19.05
 49
12.7
 74
     0
 49
-6.349999999999999
 74
     0
  0
LTYPE
  5
9F
330
5
100
AcDbSymbolTableRecord
100
AcDbLinetypeTableRecord
  2
PHANTOM
 70
     0
  3
Phantom ______  __  __  ______  __  __  ______
 72
    65
 73
     6
 40
63.5
 49
31.75
 74
     0
 49
-6.349999999999999
 74
     0
 49
6.349999999999999
 74
     0
 49
-6.349999999999999
 74
     0
 49
6.349999999999999
 74
     0
 49
-6.349999999999999
 74
     0
  0
LTYPE
  5
A0
330
5
100
AcDbSymbolTableRecord
100
AcDbLinetypeTableRecord
  2
PHANTOM2
 70
     0
  3
Phantom (.5x) ___ _ _ ___ _ _ ___ _ _ ___ _ _
 72
    65
 73
     6
 40
31.75
 49
15.875
 74
     0
 49
-3.174999999999999
 74
     0
 49
3.174999999999999
 74
     0
 49
-3.174999999999999
 74
     0
 49
3.174999999999999
 74
     0
 49
-3.174999999999999
 74
     0
  0
LTYPE
  5
A1
330
5
100
AcDbSymbolTableRecord
100
AcDbLinetypeTableRecord
  2
PHANTOMX2
 70
     0
  3
Phantom (2x) ____________    ____    ____   _
 72
    65
 73
     6
 40
127.0
 49
63.5
 74
     0
 49
-12.7
 74
     0
 49
12.7
 74
     0
 49
-12.7
 74
     0
 49
12.7
 74
     0
 49
-12.7
 74
     0
  0
LTYPE
  5
A2
330
5
100
AcDbSymbolTableRecord
100
AcDbLinetypeTableRecord
  2
ACAD_ISO02W100
 70
     0
  3
ISO dash __ __ __ __ __ __ __ __ __ __ __ __ __
 72
    65
 73
     2
 40
15.0
 49
12.0
 74
     0
 49
-3.0
 74
     0
  0
LTYPE
  5
A3
330
5
100
AcDbSymbolTableRecord
100
AcDbLinetypeTableRecord
  2
ACAD_ISO03W100
 70
     0
  3
ISO dash space __    __    __    __    __    __
 72
    65
 73
     2
 40
30.0
 49
12.0
 74
     0
 49
-18.0
 74
     0
  0
LTYPE
  5
A4
330
5
100
AcDbSymbolTableRecord
100
AcDbLinetypeTableRecord
  2
ACAD_ISO04W100
 70
     0
  3
ISO long-dash dot ____ . ____ . ____ . ____ . _
 72
    65
 73
     4
 40
30.0
 49
24.0
 74
     0
 49
-3.0
 74
     0
 49
0.0
 74
     0
 49
-3.0
 74
     0
  0
LTYPE
  5
A5
330
5
100
AcDbSymbolTableRecord
100
AcDbLinetypeTableRecord
  2
ACAD_ISO05W100
 70
     0
  3
ISO long-dash double-dot ____ .. ____ .. ____ .
 72
    65
 73
     6
 40
33.0
 49
24.0
 74
     0
 49
-3.0
 74
     0
 49
0.0
 74
     0
 49
-3.0
 74
     0
 49
0.0
 74
     0
 49
-3.0
 74
     0
  0
LTYPE
  5
A6
330
5
100
AcDbSymbolTableRecord
100
AcDbLinetypeTableRecord
  2
ACAD_ISO06W100
 70
     0
  3
ISO long-dash triple-dot ____ ... ____ ... ____
 72
    65
 73
     8
 40
36.0
 49
24.0
 74
     0
 49
-3.0
 74
     0
 49
0.0
 74
     0
 49
-3.0
 74
     0
 49
0.0
 74
     0
 49
-3.0
 74
     0
 49
0.0
 74
     0
 49
-3.0
 74
     0
  0
LTYPE
  5
A7
330
5
100
AcDbSymbolTableRecord
100
AcDbLinetypeTableRecord
  2
ACAD_ISO07W100
 70
     0
  3
ISO dot . . . . . . . . . . . . . . . . . . . .
 72
    65
 73
     2
 40
3.0
 49
0.0
 74
     0
 49
-3.0
 74
     0
  0
LTYPE
  5
A8
330
5
100
AcDbSymbolTableRecord
100
AcDbLinetypeTableRecord
  2
ACAD_ISO08W100
 70
     0
  3
ISO long-dash short-dash ____ __ ____ __ ____ _
 72
    65
 73
     4
 40
36.0
 49
24.0
 74
     0
 49
-3.0
 74
     0
 49
6.0
 74
     0
 49
-3.0
 74
     0
  0
LTYPE
  5
A9
330
5
100
AcDbSymbolTableRecord
100
AcDbLinetypeTableRecord
  2
ACAD_ISO09W100
 70
     0
  3
ISO long-dash double-short-dash ____ __ __ ____
 72
    65
 73
     6
 40
45.0
 49
24.0
 74
     0
 49
-3.0
 74
     0
 49
6.0
 74
     0
 49
-3.0
 74
     0
 49
6.0
 74
     0
 49
-3.0
 74
     0
  0
LTYPE
  5
AA
330
5
100
AcDbSymbolTableRecord
100
AcDbLinetypeTableRecord
  2
ACAD_ISO10W100
 70
     0
  3
ISO dash dot __ . __ . __ . __ . __ . __ . __ .
 72
    65
 73
     4
 40
18.0
 49
12.0
 74
     0
 49
-3.0
 74
     0
 49
0.0
 74
     0
 49
-3.0
 74
     0
  0
LTYPE
  5
AB
330
5
100
AcDbSymbolTableRecord
100
AcDbLinetypeTableRecord
  2
ACAD_ISO11W100
 70
     0
  3
ISO double-dash dot __ __ . __ __ . __ __ . __ 
 72
    65
 73
     6
 40
33.0
 49
12.0
 74
     0
 49
-3.0
 74
     0
 49
12.0
 74
     0
 49
-3.0
 74
     0
 49
0.0
 74
     0
 49
-3.0
 74
     0
  0
LTYPE
  5
AC
330
5
100
AcDbSymbolTableRecord
100
AcDbLinetypeTableRecord
  2
ACAD_ISO12W100
 70
     0
  3
ISO dash double-dot __ . . __ . . __ . . __ . .
 72
    65
 73
     6
 40
21.0
 49
12.0
 74
     0
 49
-3.0
 74
     0
 49
0.0
 74
     0
 49
-3.0
 74
     0
 49
0.0
 74
     0
 49
-3.0
 74
     0
  0
LTYPE
  5
AD
330
5
100
AcDbSymbolTableRecord
100
AcDbLinetypeTableRecord
  2
ACAD_ISO13W100
 70
     0
  3
ISO double-dash double-dot __ __ . . __ __ . . 
 72
    65
 73
     8
 40
36.0
 49
12.0
 74
     0
 49
-3.0
 74
     0
 49
12.0
 74
     0
 49
-3.0
 74
     0
 49
0.0
 74
     0
 49
-3.0
 74
     0
 49
0.0
 74
     0
 49
-3.0
 74
     0
  0
LTYPE
  5
AE
330
5
100
AcDbSymbolTableRecord
100
AcDbLinetypeTableRecord
  2
ACAD_ISO14W100
 70
     0
  3
ISO dash triple-dot __ . . . __ . . . __ . . . 
 72
    65
 73
     8
 40
24.0
 49
12.0
 74
     0
 49
-3.0
 74
     0
 49
0.0
 74
     0
 49
-3.0
 74
     0
 49
0.0
 74
     0
 49
-3.0
 74
     0
 49
0.0
 74
     0
 49
-3.0
 74
     0
  0
LTYPE
  5
AF
330
5
100
AcDbSymbolTableRecord
100
AcDbLinetypeTableRecord
  2
ACAD_ISO15W100
 70
     0
  3
ISO double-dash triple-dot __ __ . . . __ __ . 
 72
    65
 73
    10
 40
39.0
 49
12.0
 74
     0
 49
-3.0
 74
     0
 49
12.0
 74
     0
 49
-3.0
 74
     0
 49
0.0
 74
     0
 49
-3.0
 74
     0
 49
0.0
 74
     0
 49
-3.0
 74
     0
 49
0.0
 74
     0
 49
-3.0
 74
     0
  0
LTYPE
  5
B2
330
5
100
AcDbSymbolTableRecord
100
AcDbLinetypeTableRecord
  2
FENCELINE1
 70
     0
  3
Fenceline circle ----0-----0----0-----0----0---
 72
    65
 73
     4
 40
36.83
 49
6.349999999999999
 74
     0
 49
-2.54
 74
     4
 75
   133
340
B1
 46
2.54
 50
0.0
 44
-2.54
 45
0.0
 49
-2.54
 74
     0
 49
25.4
 74
     0
  0
LTYPE
  5
B3
330
5
100
AcDbSymbolTableRecord
100
AcDbLinetypeTableRecord
  2
FENCELINE2
 70
     0
  3
Fenceline square ----[]-----[]----[]-----[]----
 72
    65
 73
     4
 40
36.83
 49
6.349999999999999
 74
     0
 49
-2.54
 74
     4
 75
   132
340
B1
 46
2.54
 50
0.0
 44
-2.54
 45
0.0
 49
-2.54
 74
     0
 49
25.4
 74
     0
  0
LTYPE
  5
B4
330
5
100
AcDbSymbolTableRecord
100
AcDbLinetypeTableRecord
  2
TRACKS
 70
     0
  3
Tracks -|-|-|-|-|-|-|-|-|-|-|-|-|-|-|-|-|-|-|-|
 72
    65
 73
     2
 40
7.62
 49
3.81
 74
     4
 75
   130
340
B1
 46
6.349999999999999
 50
0.0
 44
0.0
 45
0.0
 49
3.81
 74
     0
  0
LTYPE
  5
B5
330
5
100
AcDbSymbolTableRecord
100
AcDbLinetypeTableRecord
  2
BATTING
 70
     0
  3
Batting SSSSSSSSSSSSSSSSSSSSSSSSSSSSSSSSSSSSSSS
 72
    65
 73
     4
 40
10.16254
 49
0.00254
 74
     0
 49
-2.54
 74
     4
 75
   134
340
B1
 46
2.54
 50
0.0
 44
-2.54
 45
0.0
 49
-5.08
 74
     4
 75
   134
340
B1
 46
2.54
 50
180.0
 44
2.54
 45
0.0
 49
-2.54
 74
     0
  0
LTYPE
  5
B6
330
5
100
AcDbSymbolTableRecord
100
AcDbLinetypeTableRecord
  2
HOT_WATER_SUPPLY
 70
     0
  3
Hot water supply ---- HW ---- HW ---- HW ----
 72
    65
 73
     3
 40
22.86
 49
12.7
 74
     0
 49
-5.08
 74
     2
 75
     0
340
5D
 46
2.54
 50
0.0
 44
-2.54
 45
-1.27
  9
HW
 49
-5.08
 74
     0
  0
LTYPE
  5
B7
330
5
100
AcDbSymbolTableRecord
100
AcDbLinetypeTableRecord
  2
GAS_LINE
 70
     0
  3
Gas line ----GAS----GAS----GAS----GAS----GAS---
 72
    65
 73
     3
 40
24.13
 49
12.7
 74
     0
 49
-5.08
 74
     2
 75
     0
340
5D
 46
2.54
 50
0.0
 44
-2.54
 45
-1.27
  9
GAS
 49
-6.349999999999999
 74
     0
  0
LTYPE
  5
B8
330
5
100
AcDbSymbolTableRecord
100
AcDbLinetypeTableRecord
  2
ZIGZAG
 70
     0
  3
Zig zag /\/\/\/\/\/\/\/\/\/\/\/\/\/\/\/\/\/\/\/
 72
    65
 73
     4
 40
20.32254
 49
0.00254
 74
     0
 49
-5.08
 74
     4
 75
   131
340
B1
 46
5.08
 50
0.0
 44
-5.08
 45
0.0
 49
-10.16
 74
     4
 75
   131
340
B1
 46
5.08
 50
180.0
 44
5.08
 45
0.0
 49
-5.08
 74
     0
  0
ENDTAB
  0
TABLE
  2
LAYER
  5
2
330
0
100
AcDbSymbolTable
 70
    27
  0
LAYER
  5
5C
330
2
100
AcDbSymbolTableRecord
100
AcDbLayerTableRecord
  2
0
 70
     0
 62
     7
  6
Continuous
370
    18
390
F
  0
LAYER
  5
BC
330
2
100
AcDbSymbolTableRecord
100
AcDbLayerTableRecord
  2
Cadre (ISO)
 70
     0
 62
     7
  6
Continuous
370
    70
390
F
  0
LAYER
  5
BD
330
2
100
AcDbSymbolTableRecord
100
AcDbLayerTableRecord
  2
CARTOUCHE
 70
     0
 62
     7
  6
Continuous
370
    25
390
F
  0
LAYER
  5
BF
330
2
100
AcDbSymbolTableRecord
100
AcDbLayerTableRecord
  2
Cote (ISO)
 70
     0
 62
     7
  6
Continuous
370
    25
390
F
  0
LAYER
  5
C1
330
2
100
AcDbSymbolTableRecord
100
AcDbLayerTableRecord
  2
Etroit visible (ISO)
 70
     0
 62
     7
  6
Continuous
370
    35
390
F
  0
LAYER
  5
C2
330
2
100
AcDbSymbolTableRecord
100
AcDbLayerTableRecord
  2
Géométrie d'esquisse (ISO)
 70
     0
 62
     7
  6
Continuous
370
    25
390
F
  0
LAYER
  5
C7
330
2
100
AcDbSymbolTableRecord
100
AcDbLayerTableRecord
  2
Marque de centre (ISO)
 70
     0
 62
     7
  6
Continuous
370
    25
390
F
  0
LAYER
  5
CD
330
2
100
AcDbSymbolTableRecord
100
AcDbLayerTableRecord
  2
Symbole (ISO)
 70
     0
 62
     7
  6
Continuous
370
    25
390
F
  0
LAYER
  5
CE
330
2
100
AcDbSymbolTableRecord
100
AcDbLayerTableRecord
  2
Titre (ISO)
 70
     0
 62
     7
  6
Continuous
370
    50
390
F
  0
LAYER
  5
CF
330
2
100
AcDbSymbolTableRecord
100
AcDbLayerTableRecord
  2
Trait d'axe (ISO)
 70
     0
 62
     7
  6
Continuous
370
    25
390
F
  0
LAYER
  5
D1
330
2
100
AcDbSymbolTableRecord
100
AcDbLayerTableRecord
  2
Visible (ISO)
 70
     0
 62
     7
  6
Continuous
370
    50
390
F
  0
LAYER
  5
3B6
330
2
100
AcDbSymbolTableRecord
100
AcDbLayerTableRecord
  2
Defpoints
 70
     0
 62
     7
  6
Continuous
290
     0
370
    -3
390
F
  0
ENDTAB
  0
TABLE
  2
STYLE
  5
3
330
0
100
AcDbSymbolTable
 70
    15
  0
STYLE
  5
5D
330
3
100
AcDbSymbolTableRecord
100
AcDbTextStyleTableRecord
  2
Standard
 70
     0
 40
0.0
 41
1.0
 50
0.0
 71
     0
 42
0.2
  3
txt.shx
  4

  0
STYLE
  5
62
330
3
100
AcDbSymbolTableRecord
100
AcDbTextStyleTableRecord
  2
Annotative
 70
     0
 40
0.0
 41
1.0
 50
0.0
 71
     0
 42
0.2
  3

  4

1001
AcadAnnotative
1000
AnnotativeData
1002
{
1070
     1
1070
     1
1002
}
  0
STYLE
  5
B1
330
3
100
AcDbSymbolTableRecord
100
AcDbTextStyleTableRecord
  2

 70
     1
 40
0.0
 41
1.0
 50
0.0
 71
     0
 42
0.2
  3
ltypeshp.shx
  4

  0
STYLE
  5
D2
330
3
100
AcDbSymbolTableRecord
100
AcDbTextStyleTableRecord
  2
ARIAL_51
 70
     0
 40
0.0
 41
1.0
 50
0.0
 71
     0
 42
0.2
  3
ARIAL.TTF
  4

1001
ACAD
1000
Arial
1071
      256
  0
STYLE
  5
D3
330
3
100
AcDbSymbolTableRecord
100
AcDbTextStyleTableRecord
  2
StandardStandard
 70
     0
 40
0.0
 41
1.0
 50
0.0
 71
     0
 42
0.2
  3
txt.shx
  4

  0
STYLE
  5
D4
330
3
100
AcDbSymbolTableRecord
100
AcDbTextStyleTableRecord
  2
Texte de libell_ (ISO)
 70
     0
 40
0.0
 41
1.0
 50
0.0
 71
     0
 42
0.2
  3
TAHOMA.TTF
  4

1001
ACAD
1000
Tahoma
1071
      256
  0
STYLE
  5
D5
330
3
100
AcDbSymbolTableRecord
100
AcDbTextStyleTableRecord
  2
Texte de libellé (ANSI)
 70
     0
 40
0.0
 41
1.0
 50
0.0
 71
     0
 42
0.2
  3
TAHOMA.TTF
  4

1001
ACAD
1000
Tahoma
1071
      256
  0
STYLE
  5
D6
330
3
100
AcDbSymbolTableRecord
100
AcDbTextStyleTableRecord
  2
Texte de libellé (DIN)
 70
     0
 40
0.0
 41
1.0
 50
0.0
 71
     0
 42
0.2
  3
isocpeur.ttf
  4

1001
ACAD
1000
ISOCPEUR
1071
      256
  0
STYLE
  5
D7
330
3
100
AcDbSymbolTableRecord
100
AcDbTextStyleTableRecord
  2
Texte de libellé (ISO)
 70
     0
 40
0.0
 41
1.0
 50
0.0
 71
     0
 42
0.2
  3
TAHOMA.TTF
  4

1001
ACAD
1000
Tahoma
1071
      256
  0
STYLE
  5
D8
330
3
100
AcDbSymbolTableRecord
100
AcDbTextStyleTableRecord
  2
Texte de libellé (JIS)
 70
     0
 40
0.0
 41
1.0
 50
0.0
 71
     0
 42
0.2
  3
TAHOMA.TTF
  4

1001
ACAD
1000
Tahoma
1071
      256
  0
STYLE
  5
D9
330
3
100
AcDbSymbolTableRecord
100
AcDbTextStyleTableRecord
  2
Texte de note (ANSI)
 70
     0
 40
0.0
 41
1.0
 50
0.0
 71
     0
 42
0.2
  3
TAHOMA.TTF
  4

1001
ACAD
1000
Tahoma
1071
      256
  0
STYLE
  5
DA
330
3
100
AcDbSymbolTableRecord
100
AcDbTextStyleTableRecord
  2
Texte de note (DIN)
 70
     0
 40
0.0
 41
1.0
 50
0.0
 71
     0
 42
0.2
  3
isocpeur.ttf
  4

1001
ACAD
1000
ISOCPEUR
1071
      256
  0
STYLE
  5
DB
330
3
100
AcDbSymbolTableRecord
100
AcDbTextStyleTableRecord
  2
Texte de note (ISO)
 70
     0
 40
0.0
 41
1.0
 50
0.0
 71
     0
 42
0.2
  3
TAHOMA.TTF
  4

1001
ACAD
1000
Tahoma
1071
      256
  0
STYLE
  5
DC
330
3
100
AcDbSymbolTableRecord
100
AcDbTextStyleTableRecord
  2
Texte de note (JIS)
 70
     0
 40
0.0
 41
1.0
 50
0.0
 71
     0
 42
0.2
  3
TAHOMA.TTF
  4

1001
ACAD
1000
Tahoma
1071
      256
  0
STYLE
  5
16C
330
3
100
AcDbSymbolTableRecord
100
AcDbTextStyleTableRecord
  2
Texte de note (ISO)-Arial
 70
     0
 40
0.0
 41
1.0
 50
0.0
 71
     0
 42
0.2
  3
ARIAL.TTF
  4

1001
ACAD
1000
Arial
1071
      256
  0
ENDTAB
  0
TABLE
  2
VIEW
  5
6
330
0
100
AcDbSymbolTable
 70
     0
  0
ENDTAB
  0
TABLE
  2
UCS
  5
7
330
0
100
AcDbSymbolTable
 70
     0
  0
ENDTAB
  0
TABLE
  2
APPID
  5
9
330
0
100
AcDbSymbolTable
 70
     3
  0
APPID
  5
5E
330
9
100
AcDbSymbolTableRecord
100
AcDbRegAppTableRecord
  2
ACAD
 70
     0
  0
APPID
  5
66
330
9
100
AcDbSymbolTableRecord
100
AcDbRegAppTableRecord
  2
AcadAnnotative
 70
     0
  0
APPID
  5
70
330
9
100
AcDbSymbolTableRecord
100
AcDbRegAppTableRecord
  2
ACAD_MLEADERVER
 70
     0
  0
ENDTAB
  0
TABLE
  2
DIMSTYLE
  5
A
330
0
100
AcDbSymbolTable
 70
    21
100
AcDbDimStyleTable
 71
     2
340
DF
340
60
  0
DIMSTYLE
105
60
330
A
100
AcDbSymbolTableRecord
100
AcDbDimStyleTableRecord
  2
Standard
 70
     0
 40
4.0
 41
0.1800000071525574
 43
0.3800000000000001
 44
0.18
 45
0.00000001
140
0.1800000071525574
143
1.0
147
0.0900000035762787
176
   256
177
   256
178
   256
340
D3
371
    -1
372
    -1
  0
DIMSTYLE
105
61
330
A
100
AcDbSymbolTableRecord
100
AcDbDimStyleTableRecord
  2
Annotative
 70
     0
340
5D
1001
AcadAnnotative
1000
AnnotativeData
1002
{
1070
     1
1070
     1
1002
}
  0
DIMSTYLE
105
DD
330
A
100
AcDbSymbolTableRecord
100
AcDbDimStyleTableRecord
  2
Cote
 70
     0
 40
4.0
 41
2.5
 42
1.0
 43
5.999999999999999
 44
2.5
 45
0.00000001
 46
10.0
 73
     0
 77
     1
 78
     8
 79
     2
140
3.5
143
0.03937
146
0.4285714285714286
147
0.5
171
     3
172
     1
176
   150
177
   150
178
   256
179
     2
271
     2
272
     2
274
     3
278
    44
284
     8
340
DB
371
    -1
372
    -1
  0
DIMSTYLE
105
DE
330
A
100
AcDbSymbolTableRecord
100
AcDbDimStyleTableRecord
  2
Cote$7
 70
     0
 40
4.0
 41
2.5
 42
1.0
 43
5.999999999999999
 44
2.5
 45
0.00000001
 46
10.0
 73
     0
 77
     1
 78
     8
 79
     2
140
3.5
143
0.03937
146
0.4285714285714286
147
0.5
171
     3
172
     1
176
   256
177
   150
178
   256
179
     2
271
     2
272
     2
274
     3
278
    44
284
     8
340
DB
371
    -1
372
    -1
  0
DIMSTYLE
105
DF
102
{ACAD_REACTORS
330
3B5
330
491
330
579
330
652
330
724
330
7F4
330
8C6
330
998
330
A78
330
B4A
330
C32
330
D04
102
}
330
A
100
AcDbSymbolTableRecord
100
AcDbDimStyleTableRecord
  2
Groom
 70
     0
 40
4.0
 41
2.5
 42
1.0
 43
5.999999999999999
 44
2.5
 45
0.00000001
 46
10.0
 73
     0
 77
     1
 78
     8
 79
     2
140
3.5
143
0.03937
146
0.4285714285714286
147
0.5
171
     3
176
   150
177
   150
178
   256
179
     2
271
     2
272
     2
274
     3
278
    44
284
     8
340
DB
342
FC
371
    -1
372
    -1
  0
DIMSTYLE
105
E0
330
A
100
AcDbSymbolTableRecord
100
AcDbDimStyleTableRecord
  2
Groom$7
 70
     0
 40
4.0
 41
2.5
 42
1.0
 43
5.999999999999999
 44
2.5
 45
0.00000001
 46
10.0
 73
     0
 77
     1
 78
     8
 79
     2
140
3.5
143
0.03937
146
0.4285714285714286
147
0.5
171
     3
172
     1
176
   256
177
   150
178
   256
179
     2
271
     2
272
     2
274
     3
278
    44
284
     8
340
DB
371
    -1
372
    -1
  0
DIMSTYLE
105
EF
330
A
100
AcDbSymbolTableRecord
100
AcDbDimStyleTableRecord
  2
Objet divers (ISO)
 70
     0
 40
4.0
 41
2.5
 42
0.0
 43
5.999999999999999
 44
3.174999999999999
 45
0.00000001
 46
10.0
 73
     0
 74
     0
 77
     1
140
5.25
143
0.03937
146
0.6676571709769112
147
0.762
171
     3
172
     1
176
   256
177
   256
178
   256
179
     2
271
     2
272
     2
274
     3
278
    44
340
D7
341
E1
371
    -1
372
    -1
  0
DIMSTYLE
105
F0
330
A
100
AcDbSymbolTableRecord
100
AcDbDimStyleTableRecord
  2
Objet divers (ISO)$7
 70
     0
 40
4.0
 41
5.0
 42
0.0
 43
5.999999999999999
 44
3.174999999999999
 45
0.00000001
 46
10.0
 73
     0
 74
     0
 77
     1
140
5.25
143
0.03937
146
0.6676571709769112
147
0.762
171
     3
172
     1
176
   256
177
   256
178
   256
179
     2
271
     2
272
     2
274
     3
278
    44
340
D7
341
E1
371
    25
372
    -1
  0
DIMSTYLE
105
F1
330
A
100
AcDbSymbolTableRecord
100
AcDbDimStyleTableRecord
  2
Par défaut - Méthode 1b (ISO)
 70
     0
 40
4.0
 41
2.5
 42
0.0
 43
5.999999999999999
 44
3.174999999999999
 45
0.00000001
 46
10.0
 73
     0
 77
     1
 78
     8
 79
     2
140
3.5
143
0.03937
147
0.762
171
     3
172
     1
176
   256
177
   256
178
   256
179
     2
271
     2
272
     2
274
     3
278
    44
284
     8
286
     8
340
DB
371
    -1
372
    -1
  0
DIMSTYLE
105
F2
330
A
100
AcDbSymbolTableRecord
100
AcDbDimStyleTableRecord
  2
Par défaut - Méthode 1b (ISO)$7
 70
     0
 40
4.0
 41
2.5
 42
0.0
 43
5.999999999999999
 44
3.174999999999999
 45
0.00000001
 46
10.0
 73
     0
 77
     1
 78
     8
 79
     2
140
3.5
143
0.03937
147
0.762
171
     3
172
     1
176
   256
177
   256
178
   256
179
     2
271
     2
272
     2
274
     3
278
    44
284
     8
286
     8
340
DB
371
    -1
372
    -1
  0
DIMSTYLE
105
F3
330
A
100
AcDbSymbolTableRecord
100
AcDbDimStyleTableRecord
  2
Par défaut - Méthode 2a (ISO)
 70
     0
 40
4.0
 41
2.5
 42
0.0
 43
5.999999999999999
 44
3.174999999999999
 45
0.00000001
 46
10.0
 77
     1
 78
     8
 79
     2
140
3.5
143
0.03937
147
0.762
171
     3
172
     1
176
   256
177
   256
178
   256
179
     2
271
     2
272
     2
274
     3
278
    44
284
     8
286
     8
340
DB
371
    -1
372
    -1
  0
DIMSTYLE
105
F4
330
A
100
AcDbSymbolTableRecord
100
AcDbDimStyleTableRecord
  2
Par défaut - Méthode 2a (ISO)$7
 70
     0
 40
4.0
 41
2.5
 42
0.0
 43
5.999999999999999
 44
3.174999999999999
 45
0.00000001
 46
10.0
 77
     1
 78
     8
 79
     2
140
3.5
143
0.03937
147
0.762
171
     3
172
     1
176
   256
177
   256
178
   256
179
     2
271
     2
272
     2
274
     3
278
    44
284
     8
286
     8
340
DB
371
    -1
372
    -1
  0
DIMSTYLE
105
F5
330
A
100
AcDbSymbolTableRecord
100
AcDbDimStyleTableRecord
  2
Par défaut - Méthode 2b (ISO)
 70
     0
 40
4.0
 41
2.5
 42
0.0
 43
5.999999999999999
 44
3.174999999999999
 45
0.00000001
 46
10.0
 77
     1
 78
     8
 79
     2
140
3.5
143
0.03937
147
0.762
171
     3
172
     1
176
   256
177
   256
178
   256
179
     2
271
     2
272
     2
274
     3
278
    44
284
     8
286
     8
340
DB
371
    -1
372
    -1
  0
DIMSTYLE
105
F6
330
A
100
AcDbSymbolTableRecord
100
AcDbDimStyleTableRecord
  2
Par défaut - Méthode 2b (ISO)$7
 70
     0
 40
4.0
 41
2.5
 42
0.0
 43
5.999999999999999
 44
3.174999999999999
 45
0.00000001
 46
10.0
 77
     1
 78
     8
 79
     2
140
3.5
143
0.03937
147
0.762
171
     3
172
     1
176
   256
177
   256
178
   256
179
     2
271
     2
272
     2
274
     3
278
    44
284
     8
286
     8
340
DB
371
    -1
372
    -1
  0
DIMSTYLE
105
F7
330
A
100
AcDbSymbolTableRecord
100
AcDbDimStyleTableRecord
  2
Par défaut - mm [po] (ISO)
 70
     0
  4
 po
 40
4.0
 41
2.5
 42
0.0
 43
5.999999999999999
 44
3.174999999999999
 45
0.00000001
 46
10.0
 73
     0
 74
     0
 77
     1
 78
     8
 79
     2
140
3.5
143
0.03937
147
0.762
170
     1
171
     3
172
     1
176
   256
177
   256
178
   256
179
     3
271
     3
272
     2
274
     3
275
     1
278
    44
284
     8
285
     8
286
     8
340
DB
371
    -1
372
    -1
  0
DIMSTYLE
105
F8
330
A
100
AcDbSymbolTableRecord
100
AcDbDimStyleTableRecord
  2
Par défaut - mm [po] (ISO)$7
 70
     0
  4
 po
 40
4.0
 41
2.5
 42
0.0
 43
5.999999999999999
 44
3.174999999999999
 45
0.00000001
 46
10.0
 73
     0
 74
     0
 77
     1
 78
     8
 79
     2
140
3.5
143
0.03937
147
0.762
170
     1
171
     3
172
     1
176
   256
177
   256
178
   256
179
     3
271
     3
272
     2
274
     3
275
     1
278
    44
284
     8
285
     8
286
     8
340
DB
371
    -1
372
    -1
  0
DIMSTYLE
105
F9
330
A
100
AcDbSymbolTableRecord
100
AcDbDimStyleTableRecord
  2
Par défaut (ISO)
 70
     0
 40
4.0
 41
2.5
 42
0.0
 43
5.999999999999999
 44
3.174999999999999
 45
0.00000001
 46
10.0
 73
     0
 74
     0
 77
     1
140
3.5
143
0.03937
146
1.001485756465366
147
0.762
171
     3
172
     1
176
   256
177
   256
178
   256
179
     2
271
     2
272
     2
274
     3
278
    44
340
DB
371
    -1
372
    -1
  0
DIMSTYLE
105
FA
330
A
100
AcDbSymbolTableRecord
100
AcDbDimStyleTableRecord
  2
Par défaut (ISO)$7
 70
     0
 40
4.0
 41
2.5
 42
0.0
 43
5.999999999999999
 44
3.174999999999999
 45
0.00000001
 46
10.0
 73
     0
 74
     0
 77
     1
140
3.5
143
0.03937
146
1.001485756465366
147
0.762
171
     3
172
     1
176
   256
177
   256
178
   256
179
     2
271
     2
272
     2
274
     3
278
    44
340
DB
371
    -1
372
    -1
  0
DIMSTYLE
105
FB
330
A
100
AcDbSymbolTableRecord
100
AcDbDimStyleTableRecord
  2
Standard$7
 70
     0
 40
4.0
 41
0.1800000071525574
 43
0.3800000000000001
 44
0.18
 45
0.00000001
140
0.1800000071525574
143
1.0
147
0.0900000035762787
176
   256
177
   256
178
   256
340
D3
371
    -1
372
    -1
  0
DIMSTYLE
105
10D
330
A
100
AcDbSymbolTableRecord
100
AcDbDimStyleTableRecord
  2
Référence (ISO)
 70
     0
 40
4.0
 41
2.5
340
5D
342
FC
  0
DIMSTYLE
105
10E
330
A
100
AcDbSymbolTableRecord
100
AcDbDimStyleTableRecord
  2
Secondaire (ISO)
 70
     0
 40
4.0
 41
2.5
340
5D
342
FC
  0
ENDTAB
  0
TABLE
  2
BLOCK_RECORD
  5
1
330
0
100
AcDbSymbolTable
 70
    20
  0
BLOCK_RECORD
  5
75
102
{ACAD_XDICTIONARY
360
DDB
102
}
330
1
100
AcDbSymbolTableRecord
100
AcDbBlockTableRecord
  2
*Model_Space
340
78
  0
BLOCK_RECORD
  5
71
330
1
100
AcDbSymbolTableRecord
100
AcDbBlockTableRecord
  2
*Paper_Space
340
74
  0
BLOCK_RECORD
  5
79
330
1
100
AcDbSymbolTableRecord
100
AcDbBlockTableRecord
  2
*Paper_Space0
340
7C
  0
BLOCK_RECORD
  5
E1
330
1
100
AcDbSymbolTableRecord
100
AcDbBlockTableRecord
  2
Filled-1
340
0
  0
BLOCK_RECORD
  5
FC
330
1
100
AcDbSymbolTableRecord
100
AcDbBlockTableRecord
  2
_Closed
340
0
102
{BLKREFS
331
489
331
48A
331
573
331
574
331
64C
331
64D
331
71E
331
71F
331
7EE
331
7EF
331
8C0
331
8C1
331
992
331
993
331
A72
331
A73
331
B44
331
B45
331
C2C
331
C2D
331
CFE
331
CFF
331
DD0
331
DD1
102
}
  0
BLOCK_RECORD
  5
103
330
1
100
AcDbSymbolTableRecord
100
AcDbBlockTableRecord
  2
DatumFilled45
340
0
  0
BLOCK_RECORD
  5
10F
330
1
100
AcDbSymbolTableRecord
100
AcDbBlockTableRecord
  2
Dessus
340
0
  0
BLOCK_RECORD
  5
117
330
1
100
AcDbSymbolTableRecord
100
AcDbBlockTableRecord
  2
Dessous
340
0
  0
BLOCK_RECORD
  5
11E
330
1
100
AcDbSymbolTableRecord
100
AcDbBlockTableRecord
  2
Cadres Default Border
340
0
102
{BLKREFS
331
144
102
}
  0
BLOCK_RECORD
  5
145
330
1
100
AcDbSymbolTableRecord
100
AcDbBlockTableRecord
  2
Cartouches Groom
340
0
102
{BLKREFS
331
186
102
}
  0
BLOCK_RECORD
  5
3B7
330
1
100
AcDbSymbolTableRecord
100
AcDbBlockTableRecord
  2
*D8
340
0
  0
BLOCK_RECORD
  5
492
330
1
100
AcDbSymbolTableRecord
100
AcDbBlockTableRecord
  2
*D9
340
0
  0
BLOCK_RECORD
  5
57A
330
1
100
AcDbSymbolTableRecord
100
AcDbBlockTableRecord
  2
*D10
340
0
  0
BLOCK_RECORD
  5
653
330
1
100
AcDbSymbolTableRecord
100
AcDbBlockTableRecord
  2
*D11
340
0
  0
BLOCK_RECORD
  5
725
330
1
100
AcDbSymbolTableRecord
100
AcDbBlockTableRecord
  2
*D12
340
0
  0
BLOCK_RECORD
  5
7F5
330
1
100
AcDbSymbolTableRecord
100
AcDbBlockTableRecord
  2
*D13
340
0
  0
BLOCK_RECORD
  5
8C7
330
1
100
AcDbSymbolTableRecord
100
AcDbBlockTableRecord
  2
*D14
340
0
  0
BLOCK_RECORD
  5
999
330
1
100
AcDbSymbolTableRecord
100
AcDbBlockTableRecord
  2
*D15
340
0
  0
BLOCK_RECORD
  5
A79
330
1
100
AcDbSymbolTableRecord
100
AcDbBlockTableRecord
  2
*D16
340
0
  0
BLOCK_RECORD
  5
B4B
330
1
100
AcDbSymbolTableRecord
100
AcDbBlockTableRecord
  2
*D17
340
0
  0
BLOCK_RECORD
  5
C33
330
1
100
AcDbSymbolTableRecord
100
AcDbBlockTableRecord
  2
*D18
340
0
  0
BLOCK_RECORD
  5
D05
330
1
100
AcDbSymbolTableRecord
100
AcDbBlockTableRecord
  2
*D19
340
0
  0
ENDTAB
  0
ENDSEC
  0
SECTION
  2
BLOCKS
  0
BLOCK
  5
76
330
75
100
AcDbEntity
  8
0
100
AcDbBlockBegin
  2
*Model_Space
 70
     0
 10
0.0
 20
0.0
 30
0.0
  3
*Model_Space
  1

  0
ENDBLK
  5
77
330
75
100
AcDbEntity
  8
0
100
AcDbBlockEnd
  0
BLOCK
  5
72
330
71
100
AcDbEntity
 67
     1
  8
0
100
AcDbBlockBegin
  2
*Paper_Space
 70
     0
 10
0.0
 20
0.0
 30
0.0
  3
*Paper_Space
  1

  0
ENDBLK
  5
73
330
71
100
AcDbEntity
 67
     1
  8
0
100
AcDbBlockEnd
  0
BLOCK
  5
7A
330
79
100
AcDbEntity
 67
     1
  8
0
100
AcDbBlockBegin
  2
*Paper_Space0
 70
     0
 10
0.0
 20
0.0
 30
0.0
  3
*Paper_Space0
  1

  0
ENDBLK
  5
7B
330
79
100
AcDbEntity
 67
     1
  8
0
100
AcDbBlockEnd
  0
BLOCK
  5
E2
330
E1
100
AcDbEntity
  8
0
100
AcDbBlockBegin
  2
Filled-1
 70
     0
 10
0.0
 20
0.0
 30
0.0
  3
Filled-1
  1

  0
LINE
  5
E4
330
E1
100
AcDbEntity
  8
0
 62
     0
100
AcDbLine
 10
-1.0
 20
0.0
 30
0.0
 11
0.0
 21
0.0
 31
0.0
  0
POLYLINE
  5
E5
330
E1
100
AcDbEntity
  8
0
 62
     0
100
AcDb2dPolyline
 66
     1
 10
0.0
 20
0.0
 30
0.0
 70
   128
  0
VERTEX
  5
E6
330
E5
100
AcDbEntity
  8
0
 62
     0
100
AcDbVertex
100
AcDb2dVertex
 10
-1.0
 20
-0.1
 30
0.0
  0
VERTEX
  5
E7
330
E5
100
AcDbEntity
  8
0
 62
     0
100
AcDbVertex
100
AcDb2dVertex
 10
0.0
 20
0.0
 30
0.0
  0
VERTEX
  5
E9
330
E5
100
AcDbEntity
  8
0
 62
     0
100
AcDbVertex
100
AcDb2dVertex
 10
-1.0
 20
0.1
 30
0.0
  0
VERTEX
  5
EA
330
E5
100
AcDbEntity
  8
0
 62
     0
100
AcDbVertex
100
AcDb2dVertex
 10
-1.0
 20
-0.1
 30
0.0
  0
SEQEND
  5
E8
330
E5
100
AcDbEntity
  8
0
 62
     0
  0
SOLID
  5
EB
330
E1
100
AcDbEntity
  8
0
 62
     0
100
AcDbTrace
 10
-1.0
 20
-0.1
 30
0.0
 11
0.0
 21
0.0
 31
0.0
 12
-1.0
 22
0.1
 32
0.0
 13
-1.0
 23
-0.1
 33
0.0
  0
LINE
  5
EC
330
E1
100
AcDbEntity
  8
0
 62
     0
100
AcDbLine
 10
-1.0
 20
-0.1
 30
0.0
 11
0.0
 21
0.0
 31
0.0
  0
LINE
  5
ED
330
E1
100
AcDbEntity
  8
0
 62
     0
100
AcDbLine
 10
0.0
 20
0.0
 30
0.0
 11
-1.0
 21
0.1
 31
0.0
  0
LINE
  5
EE
330
E1
100
AcDbEntity
  8
0
 62
     0
100
AcDbLine
 10
-1.0
 20
0.1
 30
0.0
 11
-1.0
 21
-0.1
 31
0.0
  0
ENDBLK
  5
E3
330
E1
100
AcDbEntity
  8
0
100
AcDbBlockEnd
  0
BLOCK
  5
101
330
FC
100
AcDbEntity
  8
0
100
AcDbBlockBegin
  2
_Closed
 70
     0
 10
0.0
 20
0.0
 30
0.0
  3
_Closed
  1

  0
LINE
  5
FD
330
FC
100
AcDbEntity
  8
0
  6
ByBlock
 62
     0
370
    -2
100
AcDbLine
 10
-1.0
 20
0.1666666666666666
 30
0.0
 11
0.0
 21
0.0
 31
0.0
  0
LINE
  5
FE
330
FC
100
AcDbEntity
  8
0
  6
ByBlock
 62
     0
370
    -2
100
AcDbLine
 10
0.0
 20
0.0
 30
0.0
 11
-1.0
 21
-0.1666666666666666
 31
0.0
  0
LINE
  5
FF
330
FC
100
AcDbEntity
  8
0
  6
ByBlock
 62
     0
370
    -2
100
AcDbLine
 10
-1.0
 20
0.1666666666666666
 30
0.0
 11
-1.0
 21
-0.1666666666666666
 31
0.0
  0
LINE
  5
100
330
FC
100
AcDbEntity
  8
0
  6
ByBlock
 62
     0
370
    -2
100
AcDbLine
 10
0.0
 20
0.0
 30
0.0
 11
-1.0
 21
0.0
 31
0.0
  0
ENDBLK
  5
102
330
FC
100
AcDbEntity
  8
0
100
AcDbBlockEnd
  0
BLOCK
  5
104
330
103
100
AcDbEntity
  8
0
100
AcDbBlockBegin
  2
DatumFilled45
 70
     0
 10
0.0
 20
0.0
 30
0.0
  3
DatumFilled45
  1

  0
POLYLINE
  5
106
330
103
100
AcDbEntity
  8
0
 62
     0
100
AcDb2dPolyline
 66
     1
 10
0.0
 20
0.0
 30
0.0
 70
   128
  0
VERTEX
  5
107
330
106
100
AcDbEntity
  8
0
 62
     0
100
AcDbVertex
100
AcDb2dVertex
 10
0.0
 20
1.0
 30
0.0
  0
VERTEX
  5
108
330
106
100
AcDbEntity
  8
0
 62
     0
100
AcDbVertex
100
AcDb2dVertex
 10
0.0
 20
-1.0
 30
0.0
  0
VERTEX
  5
10A
330
106
100
AcDbEntity
  8
0
 62
     0
100
AcDbVertex
100
AcDb2dVertex
 10
-1.0
 20
0.0
 30
0.0
  0
VERTEX
  5
10B
330
106
100
AcDbEntity
  8
0
 62
     0
100
AcDbVertex
100
AcDb2dVertex
 10
0.0
 20
1.0
 30
0.0
  0
SEQEND
  5
109
330
106
100
AcDbEntity
  8
0
 62
     0
  0
SOLID
  5
10C
330
103
100
AcDbEntity
  8
0
 62
     0
100
AcDbTrace
 10
0.0
 20
1.0
 30
0.0
 11
0.0
 21
-1.0
 31
0.0
 12
-1.0
 22
0.0
 32
0.0
 13
0.0
 23
1.0
 33
0.0
  0
ENDBLK
  5
105
330
103
100
AcDbEntity
  8
0
100
AcDbBlockEnd
  0
BLOCK
  5
110
330
10F
100
AcDbEntity
  8
0
100
AcDbBlockBegin
  2
Dessus
 70
     0
 10
0.0
 20
0.0
 30
0.0
  3
Dessus
  1

  0
LINE
  5
112
330
10F
100
AcDbEntity
  8
Géométrie d'esquisse (ISO)
100
AcDbLine
 10
0.0
 20
-1.25
 30
0.0
 11
0.0
 21
1.25
 31
0.0
  0
LINE
  5
113
330
10F
100
AcDbEntity
  8
Géométrie d'esquisse (ISO)
100
AcDbLine
 10
0.0
 20
1.25
 30
0.0
 11
-0.9999999999999964
 21
0.2499999999999858
 31
0.0
  0
LINE
  5
114
330
10F
100
AcDbEntity
  8
Géométrie d'esquisse (ISO)
100
AcDbLine
 10
0.0
 20
1.25
 30
0.0
 11
0.9999999999999964
 21
0.2500000000000035
 31
0.0
  0
MTEXT
  5
115
330
10F
100
AcDbEntity
  8
Symbole (ISO)
100
AcDbMText
 10
-10.10438013709993
 20
0.0
 30
0.0
 40
3.499999940395355
 41
0.0
 71
     5
 72
     1
  1
DESSUS
  7
Texte de note (ISO)
 73
     1
 44
1.0
  0
ENDBLK
  5
111
330
10F
100
AcDbEntity
  8
0
100
AcDbBlockEnd
  0
BLOCK
  5
118
330
117
100
AcDbEntity
  8
0
100
AcDbBlockBegin
  2
Dessous
 70
     0
 10
0.0
 20
0.0
 30
0.0
  3
Dessous
  1

  0
LINE
  5
11A
330
117
100
AcDbEntity
  8
Géométrie d'esquisse (ISO)
100
AcDbLine
 10
0.0
 20
1.25
 30
0.0
 11
0.0
 21
-1.25
 31
0.0
  0
LINE
  5
11B
330
117
100
AcDbEntity
  8
Géométrie d'esquisse (ISO)
100
AcDbLine
 10
0.0
 20
-1.25
 30
0.0
 11
0.9999999999999964
 21
-0.2500000000000035
 31
0.0
  0
LINE
  5
11C
330
117
100
AcDbEntity
  8
Géométrie d'esquisse (ISO)
100
AcDbLine
 10
0.0
 20
-1.25
 30
0.0
 11
-0.9999999999999964
 21
-0.2500000000000035
 31
0.0
  0
MTEXT
  5
11D
330
117
100
AcDbEntity
  8
Symbole (ISO)
100
AcDbMText
 10
-11.10465200524032
 20
0.0
 30
0.0
 40
3.499999940395355
 41
0.0
 71
     5
 72
     1
  1
DESSOUS
  7
Texte de note (ISO)
 73
     1
 44
1.0
  0
ENDBLK
  5
119
330
117
100
AcDbEntity
  8
0
100
AcDbBlockEnd
  0
BLOCK
  5
11F
330
11E
100
AcDbEntity
  8
0
100
AcDbBlockBegin
  2
Cadres Default Border
 70
     0
 10
0.0
 20
0.0
 30
0.0
  3
Cadres Default Border
  1

  0
POLYLINE
  5
121
330
11E
100
AcDbEntity
  8
Cadre (ISO)
100
AcDb2dPolyline
 66
     1
 10
0.0
 20
0.0
 30
0.0
 70
   128
  0
VERTEX
  5
122
330
121
100
AcDbEntity
  8
Cadre (ISO)
100
AcDbVertex
100
AcDb2dVertex
 10
10.0
 20
10.0
 30
0.0
  0
VERTEX
  5
123
330
121
100
AcDbEntity
  8
Cadre (ISO)
100
AcDbVertex
100
AcDb2dVertex
 10
10.0
 20
287.0000076293946
 30
0.0
  0
VERTEX
  5
125
330
121
100
AcDbEntity
  8
Cadre (ISO)
100
AcDbVertex
100
AcDb2dVertex
 10
200.0
 20
287.0000076293946
 30
0.0
  0
VERTEX
  5
126
330
121
100
AcDbEntity
  8
Cadre (ISO)
100
AcDbVertex
100
AcDb2dVertex
 10
200.0
 20
10.0
 30
0.0
  0
VERTEX
  5
127
330
121
100
AcDbEntity
  8
Cadre (ISO)
100
AcDbVertex
100
AcDb2dVertex
 10
10.0
 20
10.0
 30
0.0
  0
SEQEND
  5
124
330
121
100
AcDbEntity
  8
Cadre (ISO)
  0
POLYLINE
  5
128
330
11E
100
AcDbEntity
  8
Cadre (ISO)
100
AcDb2dPolyline
 66
     1
 10
0.0
 20
0.0
 30
0.0
 70
   128
  0
VERTEX
  5
129
330
128
100
AcDbEntity
  8
Cadre (ISO)
100
AcDbVertex
100
AcDb2dVertex
 10
105.0
 20
0.0
 30
0.0
  0
VERTEX
  5
12A
330
128
100
AcDbEntity
  8
Cadre (ISO)
100
AcDbVertex
100
AcDb2dVertex
 10
105.0
 20
10.0
 30
0.0
  0
VERTEX
  5
12C
330
128
100
AcDbEntity
  8
Cadre (ISO)
100
AcDbVertex
100
AcDb2dVertex
 10
102.1132469177246
 20
5.0
 30
0.0
  0
VERTEX
  5
12D
330
128
100
AcDbEntity
  8
Cadre (ISO)
100
AcDbVertex
100
AcDb2dVertex
 10
107.8867530822754
 20
5.0
 30
0.0
  0
VERTEX
  5
12E
330
128
100
AcDbEntity
  8
Cadre (ISO)
100
AcDbVertex
100
AcDb2dVertex
 10
105.0
 20
10.0
 30
0.0
  0
SEQEND
  5
12B
330
128
100
AcDbEntity
  8
Cadre (ISO)
  0
POLYLINE
  5
12F
330
11E
100
AcDbEntity
  8
Cadre (ISO)
100
AcDb2dPolyline
 66
     1
 10
0.0
 20
0.0
 30
0.0
 70
   128
  0
VERTEX
  5
130
330
12F
100
AcDbEntity
  8
Cadre (ISO)
100
AcDbVertex
100
AcDb2dVertex
 10
105.0
 20
297.0000076293946
 30
0.0
  0
VERTEX
  5
131
330
12F
100
AcDbEntity
  8
Cadre (ISO)
100
AcDbVertex
100
AcDb2dVertex
 10
105.0
 20
287.0000076293946
 30
0.0
  0
VERTEX
  5
133
330
12F
100
AcDbEntity
  8
Cadre (ISO)
100
AcDbVertex
100
AcDb2dVertex
 10
102.1132469177246
 20
292.0000076293945
 30
0.0
  0
VERTEX
  5
134
330
12F
100
AcDbEntity
  8
Cadre (ISO)
100
AcDbVertex
100
AcDb2dVertex
 10
107.8867530822754
 20
292.0000076293945
 30
0.0
  0
VERTEX
  5
135
330
12F
100
AcDbEntity
  8
Cadre (ISO)
100
AcDbVertex
100
AcDb2dVertex
 10
105.0
 20
287.0000076293946
 30
0.0
  0
SEQEND
  5
132
330
12F
100
AcDbEntity
  8
Cadre (ISO)
  0
POLYLINE
  5
136
330
11E
100
AcDbEntity
  8
Cadre (ISO)
100
AcDb2dPolyline
 66
     1
 10
0.0
 20
0.0
 30
0.0
 70
   128
  0
VERTEX
  5
137
330
136
100
AcDbEntity
  8
Cadre (ISO)
100
AcDbVertex
100
AcDb2dVertex
 10
0.0
 20
148.5000038146973
 30
0.0
  0
VERTEX
  5
138
330
136
100
AcDbEntity
  8
Cadre (ISO)
100
AcDbVertex
100
AcDb2dVertex
 10
10.0
 20
148.5000038146973
 30
0.0
  0
VERTEX
  5
13A
330
136
100
AcDbEntity
  8
Cadre (ISO)
100
AcDbVertex
100
AcDb2dVertex
 10
5.0
 20
151.3867473602295
 30
0.0
  0
VERTEX
  5
13B
330
136
100
AcDbEntity
  8
Cadre (ISO)
100
AcDbVertex
100
AcDb2dVertex
 10
5.0
 20
145.6132507324219
 30
0.0
  0
VERTEX
  5
13C
330
136
100
AcDbEntity
  8
Cadre (ISO)
100
AcDbVertex
100
AcDb2dVertex
 10
10.0
 20
148.5000038146973
 30
0.0
  0
SEQEND
  5
139
330
136
100
AcDbEntity
  8
Cadre (ISO)
  0
POLYLINE
  5
13D
330
11E
100
AcDbEntity
  8
Cadre (ISO)
100
AcDb2dPolyline
 66
     1
 10
0.0
 20
0.0
 30
0.0
 70
   128
  0
VERTEX
  5
13E
330
13D
100
AcDbEntity
  8
Cadre (ISO)
100
AcDbVertex
100
AcDb2dVertex
 10
210.0
 20
148.5000038146973
 30
0.0
  0
VERTEX
  5
13F
330
13D
100
AcDbEntity
  8
Cadre (ISO)
100
AcDbVertex
100
AcDb2dVertex
 10
200.0
 20
148.5000038146973
 30
0.0
  0
VERTEX
  5
141
330
13D
100
AcDbEntity
  8
Cadre (ISO)
100
AcDbVertex
100
AcDb2dVertex
 10
205.0
 20
151.3867473602295
 30
0.0
  0
VERTEX
  5
142
330
13D
100
AcDbEntity
  8
Cadre (ISO)
100
AcDbVertex
100
AcDb2dVertex
 10
205.0
 20
145.6132507324219
 30
0.0
  0
VERTEX
  5
143
330
13D
100
AcDbEntity
  8
Cadre (ISO)
100
AcDbVertex
100
AcDb2dVertex
 10
200.0
 20
148.5000038146973
 30
0.0
  0
SEQEND
  5
140
330
13D
100
AcDbEntity
  8
Cadre (ISO)
  0
ENDBLK
  5
120
330
11E
100
AcDbEntity
  8
0
100
AcDbBlockEnd
  0
BLOCK
  5
146
330
145
100
AcDbEntity
  8
0
100
AcDbBlockBegin
  2
Cartouches Groom
 70
     2
 10
0.0
 20
0.0
 30
0.0
  3
Cartouches Groom
  1

  0
IMAGE
  5
148
330
145
100
AcDbEntity
  8
0
 92
      140
310
8C000000010000008400000006000000050000006EC9DE23D5B35B40C6BB7DBF8B8761400000000000000000ECC8DE23D5B35B4075115C846EC3634000000000000000005AEB4262010B624075115C846EC3634000000000000000009AEB4262010B6240C6BB7DBF8B87614000000000000000006EC9DE23D5B35B40C6BB7D
310
BF8B8761400000000000000000
100
AcDbRasterImage
 90
        0
 10
110.8098840404179
 20
140.2358090835316
 30
0.0
 11
0.1004013020496554
 21
0.0
 31
0.0
 12
-0.0000000000000104
 22
0.1004013020496554
 32
0.0
 13
334.0
 23
178.0
340
14A
 70
     7
280
     0
281
    50
282
    50
283
     0
360
14B
 71
     1
 91
        2
 14
-0.5
 24
-0.5
 14
333.5
 24
177.5
  0
LINE
  5
14C
330
145
100
AcDbEntity
  8
0
  6
Continuous
 62
     7
100
AcDbLine
 10
272.4444576563382
 20
151.1646153831583
 30
0.0
 11
272.4444576563381
 21
158.1646153831583
 31
0.0
  0
LINE
  5
14D
330
145
100
AcDbEntity
  8
0
  6
Continuous
 62
     7
100
AcDbLine
 10
300.4444576563382
 20
196.1646153831583
 30
0.0
 11
110.7044576563382
 21
196.1646153831583
 31
0.0
  0
LINE
  5
14E
330
145
100
AcDbEntity
  8
0
  6
Continuous
 62
     7
100
AcDbLine
 10
300.4444576563382
 20
190.1646153831583
 30
0.0
 11
110.7044576563381
 21
190.1646153831583
 31
0.0
  0
LINE
  5
14F
330
145
100
AcDbEntity
  8
0
  6
Continuous
 62
     7
100
AcDbLine
 10
289.4444576563381
 20
178.1646153831582
 30
0.0
 11
289.4444576563382
 21
208.1646153831584
 31
0.0
  0
LINE
  5
150
330
145
100
AcDbEntity
  8
0
  6
Continuous
 62
     7
100
AcDbLine
 10
137.7044576563381
 20
178.1646153831583
 30
0.0
 11
137.7044576563379
 21
208.1646153831582
 31
0.0
  0
LINE
  5
151
330
145
100
AcDbEntity
  8
0
  6
Continuous
 62
     7
100
AcDbLine
 10
120.7044576563382
 20
178.1646153831583
 30
0.0
 11
120.7044576563381
 21
208.1646153831582
 31
0.0
  0
LINE
  5
152
330
145
100
AcDbEntity
  8
0
  6
Continuous
100
AcDbLine
 10
245.4444576563381
 20
171.4979487164916
 30
0.0
 11
300.4444576563382
 21
171.4979487164916
 31
0.0
  0
LINE
  5
153
330
145
100
AcDbEntity
  8
0
  6
Continuous
100
AcDbLine
 10
245.4444576563381
 20
164.8312820498249
 30
0.0
 11
300.4444576563382
 21
164.8312820498249
 31
0.0
  0
LINE
  5
154
330
145
100
AcDbEntity
  8
0
  6
Continuous
 62
     7
100
AcDbLine
 10
220.4444576563381
 20
151.1646153831583
 30
0.0
 11
300.4444576563382
 21
151.1646153831583
 31
0.0
  0
LINE
  5
155
330
145
100
AcDbEntity
  8
0
  6
Continuous
100
AcDbLine
 10
220.4444576563381
 20
158.1646153831583
 30
0.0
 11
220.4444576563381
 21
140.1646153831583
 31
0.0
  0
LINE
  5
156
330
145
100
AcDbEntity
  8
0
  6
Continuous
 62
     7
100
AcDbLine
 10
110.7044576563382
 20
158.1646153831583
 30
0.0
 11
300.4444576563382
 21
158.1646153831583
 31
0.0
  0
LINE
  5
157
330
145
100
AcDbEntity
  8
0
  6
Continuous
 62
     7
100
AcDbLine
 10
245.4444576563381
 20
178.1646153831583
 30
0.0
 11
245.4444576563381
 21
140.1646153831583
 31
0.0
  0
LINE
  5
158
330
145
100
AcDbEntity
  8
0
  6
Continuous
 62
     7
100
AcDbLine
 10
110.7044576563382
 20
178.1646153831583
 30
0.0
 11
300.4444576563382
 21
178.1646153831582
 31
0.0
  0
LINE
  5
159
330
145
100
AcDbEntity
  8
0
  6
Continuous
 62
     7
100
AcDbLine
 10
300.4444576563382
 20
184.1646153831583
 30
0.0
 11
110.7044576563382
 21
184.1646153831583
 31
0.0
  0
LINE
  5
15A
330
145
100
AcDbEntity
  8
0
  6
Continuous
 62
     7
100
AcDbLine
 10
110.7044576563382
 20
208.1646153831583
 30
0.0
 11
110.7044576563381
 21
140.1646153831583
 31
0.0
  0
LINE
  5
15B
330
145
100
AcDbEntity
  8
0
  6
Continuous
 62
     7
100
AcDbLine
 10
110.4444576563381
 20
140.1646153831582
 30
0.0
 11
300.4444576563382
 21
140.1646153831583
 31
0.0
  0
LINE
  5
15C
330
145
100
AcDbEntity
  8
0
  6
Continuous
 62
     7
100
AcDbLine
 10
300.4444576563382
 20
139.8869525466101
 30
0.0
 11
300.4444576563384
 21
208.1646153831584
 31
0.0
  0
LINE
  5
15D
330
145
100
AcDbEntity
  8
0
100
AcDbLine
 10
300.4444576563383
 20
202.1646153831583
 30
0.0
 11
110.7044576563382
 21
202.1646153831583
 31
0.0
  0
LINE
  5
15E
330
145
100
AcDbEntity
  8
0
100
AcDbLine
 10
110.7044576563382
 20
208.1646153831583
 30
0.0
 11
300.4444576563384
 21
208.1646153831584
 31
0.0
  0
MTEXT
  5
15F
330
145
100
AcDbEntity
  8
Titre (ISO)
100
AcDbMText
 10
277.7307924354409
 20
154.6646153831583
 30
0.0
 40
3.499999940395355
 41
10.57266955820552
 71
     5
 72
     1
  1
\fArial|b0|i0;\H3.5000;Ech:
  7
Texte de note (ISO)
 73
     1
 44
1.0
  0
MTEXT
  5
160
102
{ACAD_XDICTIONARY
360
DEB
102
}
330
145
100
AcDbEntity
  8
Titre (ISO)
100
AcDbMText
 10
245.4444576563381
 20
174.8312820498249
 30
0.0
 40
3.499999940395355
 41
55.0
 71
     4
 72
     1
  1
\fArial|b0|i0;\H3.5000; Tol. g\U+00E9n. : +/-0.2
  7
Texte de note (ISO)
 73
     1
 44
1.0
  0
MTEXT
  5
161
102
{ACAD_XDICTIONARY
360
DED
102
}
330
145
100
AcDbEntity
  8
Titre (ISO)
100
AcDbMText
 10
245.4444576563381
 20
168.1646153831582
 30
0.0
 40
3.499999940395355
 41
19.60288265958627
 71
     4
 72
     1
  1
 Mati\U+00E8re:
  7
Texte de note (ISO)
 73
     1
 44
1.0
  0
MTEXT
  5
162
330
145
100
AcDbEntity
  8
Titre (ISO)
100
AcDbMText
 10
245.4444576563381
 20
161.4979487164916
 30
0.0
 40
3.499999940395355
 41
29.92026857253407
 71
     4
 72
     1
  1
\fArial|b0|i0;\H3.5000; Traitement:
  7
Texte de note (ISO)
 73
     1
 44
1.0
  0
MTEXT
  5
163
330
145
100
AcDbEntity
  8
Titre (ISO)
100
AcDbMText
 10
115.7044576563382
 20
181.1646153831583
 30
0.0
 40
3.499999940395355
 41
10.0
 71
     5
 72
     1
  1
\fArial|b0|i0;\H3.5000;Inc.
  7
Texte de note (ISO)
 73
     1
 44
1.0
  0
MTEXT
  5
164
330
145
100
AcDbEntity
  8
Titre (ISO)
100
AcDbMText
 10
129.2044576563382
 20
181.1646153831583
 30
0.0
 40
3.499999940395355
 41
16.99999999999999
 71
     5
 72
     1
  1
\fArial|b0|i0;\H3.5000;Date
  7
Texte de note (ISO)
 73
     1
 44
1.0
  0
MTEXT
  5
165
330
145
100
AcDbEntity
  8
Titre (ISO)
100
AcDbMText
 10
213.6694576563382
 20
181.1646153831583
 30
0.0
 40
3.499999940395355
 41
151.9300000000001
 71
     5
 72
     1
  1
\fArial|b0|i0;\H3.5000;Modifications
  7
Texte de note (ISO)
 73
     1
 44
1.0
  0
MTEXT
  5
166
330
145
100
AcDbEntity
  8
Titre (ISO)
100
AcDbMText
 10
294.9444576563382
 20
181.1646153831583
 30
0.0
 40
3.499999940395355
 41
11.00000000000001
 71
     5
 72
     1
  1
\fArial|b0|i0;\H3.5000;Par
  7
Texte de note (ISO)
 73
     1
 44
1.0
  0
TEXT
  5
167
330
145
100
AcDbEntity
  8
CARTOUCHE
100
AcDbText
 10
160.3377407043086
 20
149.2882988488137
 30
0.0
 40
1.889999955892562
  1
94046 CRETEIL
  7
ARIAL_51
100
AcDbText
  0
TEXT
  5
16A
330
145
100
AcDbEntity
  8
CARTOUCHE
100
AcDbText
 10
152.0235340679694
 20
144.8243084063567
 30
0.0
 40
1.889999955892562
  1
TEL 01 41 94 24 00 - FAX 01 41 94 24 01
  7
ARIAL_51
100
AcDbText
  0
TEXT
  5
16B
330
145
100
AcDbEntity
  8
CARTOUCHE
100
AcDbText
 10
151.2440771958126
 20
153.2326513732303
 30
0.0
 40
1.889999955892562
  1
42, RUE EUGENE DUPUIS, EUROPARC
  7
ARIAL_51
100
AcDbText
  0
ATTDEF
  5
16D
330
145
100
AcDbEntity
  8
Titre (ISO)
100
AcDbText
 10
258.9594639219068
 20
142.664615263949
 30
0.0
 40
6.000000238418579
  1
102151
  7
Texte de note (ISO)-Arial
 72
     1
 11
272.9444576563381
 21
145.6646153831583
 31
0.0
100
AcDbAttributeDefinition
  3
N° DE PIECE
  2
N°_DE_PIECE
 70
     0
 74
     2
  0
ATTDEF
  5
16E
330
145
100
AcDbEntity
  8
Titre (ISO)
100
AcDbText
 10
229.5310878919688
 20
143.6646153533559
 30
0.0
 40
4.000000059604644
  1
A4
  7
Texte de note (ISO)-Arial
 72
     1
 11
232.9444576563381
 21
145.6646153831583
 31
0.0
100
AcDbAttributeDefinition
  3
Taille de la feuille
  2
Taille_de_la_feuille
 70
     0
 74
     2
  0
ATTDEF
  5
16F
330
145
100
AcDbEntity
  8
Titre (ISO)
100
AcDbText
 10
158.2773908077706
 20
170.6646153831583
 30
0.0
 40
5.0
  1
ML 632-RPT
  7
Texte de note (ISO)-Arial
 72
     1
 11
178.0744576563381
 21
173.1646153831583
 31
0.0
100
AcDbAttributeDefinition
  3
<Titre 1 ?>
  2
<Titre_1_?>
 70
     0
 74
     2
  0
ATTDEF
  5
170
330
145
100
AcDbEntity
  8
Titre (ISO)
100
AcDbText
 10
152.6396009032685
 20
160.6646153831583
 30
0.0
 40
5.0
  1
2 pênes, rupture
  7
Texte de note (ISO)-Arial
 72
     1
 11
178.0744576563381
 21
163.1646153831583
 31
0.0
100
AcDbAttributeDefinition
  3
<Titre 2 ?>
  2
<Titre_2_?>
 70
     0
 74
     2
  0
ATTDEF
  5
171
330
145
100
AcDbEntity
  8
Titre (ISO)
100
AcDbText
 10
246.7087825577527
 20
152.9146154129606
 30
0.0
 40
3.499999940395355
  1
07/04/2010
  7
Texte de note (ISO)-Arial
 72
     1
 11
258.9444576563382
 21
154.6646153831583
 31
0.0
100
AcDbAttributeDefinition
  3
<Date>
  2
<Date>
 70
     0
 74
     2
  0
ATTDEF
  5
172
330
145
100
AcDbEntity
  8
Titre (ISO)
100
AcDbText
 10
228.0549625145035
 20
152.9146154129606
 30
0.0
 40
3.499999940395355
  1
JME
  7
Texte de note (ISO)-Arial
 72
     1
 11
232.9444576563381
 21
154.6646153831583
 31
0.0
100
AcDbAttributeDefinition
  3
<Dessinateur>
  2
<Dessinateur>
 70
     0
 74
     2
  0
ATTDEF
  5
173
330
145
100
AcDbEntity
  8
Titre (ISO)
100
AcDbText
 10
286.2933777940696
 20
152.9146154129606
 30
0.0
 40
3.499999940395355
  1
.25/1
  7
Texte de note (ISO)-Arial
 72
     1
 11
291.7307924354409
 21
154.6646153831583
 31
0.0
100
AcDbAttributeDefinition
  3
<Echelle>
  2
<Echelle>
 70
     0
 74
     2
  0
ATTDEF
  5
174
330
145
100
AcDbEntity
  8
Titre (ISO)
100
AcDbText
 10
282.5010829702257
 20
166.9146153831582
 30
0.0
 40
2.5
  1

  7
Texte de note (ISO)-Arial
 72
     1
 11
282.5010829702257
 21
168.1646153831582
 31
0.0
100
AcDbAttributeDefinition
  3
<Matière>
  2
<Matière>
 70
     0
 74
     2
  0
ATTDEF
  5
175
330
145
100
AcDbEntity
  8
Titre (ISO)
100
AcDbText
 10
286.2660724304398
 20
160.2479487164916
 30
0.0
 40
2.5
  1

  7
Texte de note (ISO)-Arial
 72
     1
 11
286.2660724304398
 21
161.4979487164916
 31
0.0
100
AcDbAttributeDefinition
  3
<Traitement>
  2
<Traitement>
 70
     0
 74
     2
  0
ATTDEF
  5
176
330
145
100
AcDbEntity
  8
Titre (ISO)
100
AcDbText
 10
115.7044576563381
 20
185.6646153235536
 30
0.0
 40
3.000000119209289
  1

  7
Texte de note (ISO)-Arial
 72
     1
 11
115.7044576563381
 21
187.1646153831583
 31
0.0
100
AcDbAttributeDefinition
  3
<Ind1>
  2
<Ind1>
 70
     0
 74
     2
  0
ATTDEF
  5
177
330
145
100
AcDbEntity
  8
Titre (ISO)
100
AcDbText
 10
129.2044576563382
 20
185.6646153235536
 30
0.0
 40
3.000000119209289
  1

  7
Texte de note (ISO)-Arial
 72
     1
 11
129.2044576563382
 21
187.1646153831583
 31
0.0
100
AcDbAttributeDefinition
  3
<Date1>
  2
<Date1>
 70
     0
 74
     2
  0
ATTDEF
  5
178
330
145
100
AcDbEntity
  8
Titre (ISO)
100
AcDbText
 10
213.6694576563382
 20
185.6646153235536
 30
0.0
 40
3.000000119209289
  1

  7
Texte de note (ISO)-Arial
 72
     1
 11
213.6694576563382
 21
187.1646153831583
 31
0.0
100
AcDbAttributeDefinition
  3
<Modif1>
  2
<Modif1>
 70
     0
 74
     2
  0
ATTDEF
  5
179
330
145
100
AcDbEntity
  8
Titre (ISO)
100
AcDbText
 10
294.9454576563381
 20
185.6646153235536
 30
0.0
 40
3.000000119209289
  1

  7
Texte de note (ISO)-Arial
 72
     1
 11
294.9454576563381
 21
187.1646153831583
 31
0.0
100
AcDbAttributeDefinition
  3
<Par1>
  2
<Par1>
 70
     0
 74
     2
  0
ATTDEF
  5
17A
330
145
100
AcDbEntity
  8
Titre (ISO)
100
AcDbText
 10
115.7044576563381
 20
191.6646153235537
 30
0.0
 40
3.000000119209289
  1

  7
Texte de note (ISO)-Arial
 72
     1
 11
115.7044576563381
 21
193.1646153831583
 31
0.0
100
AcDbAttributeDefinition
  3
<Ind2>
  2
<Ind2>
 70
     0
 74
     2
  0
ATTDEF
  5
17B
330
145
100
AcDbEntity
  8
Titre (ISO)
100
AcDbText
 10
129.2044576563382
 20
191.6646153235537
 30
0.0
 40
3.000000119209289
  1

  7
Texte de note (ISO)-Arial
 72
     1
 11
129.2044576563382
 21
193.1646153831583
 31
0.0
100
AcDbAttributeDefinition
  3
<Date2>
  2
<Date2>
 70
     0
 74
     2
  0
ATTDEF
  5
17C
330
145
100
AcDbEntity
  8
Titre (ISO)
100
AcDbText
 10
213.7054576563381
 20
191.6646153235536
 30
0.0
 40
3.000000119209289
  1

  7
Texte de note (ISO)-Arial
 72
     1
 11
213.7054576563381
 21
193.1646153831582
 31
0.0
100
AcDbAttributeDefinition
  3
<Modif2>
  2
<Modif2>
 70
     0
 74
     2
  0
ATTDEF
  5
17D
330
145
100
AcDbEntity
  8
Titre (ISO)
100
AcDbText
 10
294.9444576563382
 20
191.6646153235537
 30
0.0
 40
3.000000119209289
  1

  7
Texte de note (ISO)-Arial
 72
     1
 11
294.9444576563382
 21
193.1646153831583
 31
0.0
100
AcDbAttributeDefinition
  3
<Par2>
  2
<Par2>
 70
     0
 74
     2
  0
ATTDEF
  5
17E
330
145
100
AcDbEntity
  8
Titre (ISO)
100
AcDbText
 10
115.7021584057951
 20
197.664846366591
 30
0.0
 40
3.000000119209289
  1

  7
Texte de note (ISO)-Arial
 72
     1
 11
115.7021584057951
 21
199.1648464261957
 31
0.0
100
AcDbAttributeDefinition
  3
<Ind3>
  2
<Ind3>
 70
     0
 74
     2
  0
ATTDEF
  5
17F
330
145
100
AcDbEntity
  8
Titre (ISO)
100
AcDbText
 10
115.7008716550423
 20
203.667947930586
 30
0.0
 40
3.000000119209289
  1

  7
Texte de note (ISO)-Arial
 72
     1
 11
115.7008716550423
 21
205.1679479901906
 31
0.0
100
AcDbAttributeDefinition
  3
<Ind4>
  2
<Ind4>
 70
     0
 74
     2
  0
ATTDEF
  5
180
330
145
100
AcDbEntity
  8
Titre (ISO)
100
AcDbText
 10
129.204775059883
 20
197.6651397005693
 30
0.0
 40
3.000000119209289
  1

  7
Texte de note (ISO)-Arial
 72
     1
 11
129.204775059883
 21
199.1651397601739
 31
0.0
100
AcDbAttributeDefinition
  3
<Date3>
  2
<Date3>
 70
     0
 74
     2
  0
ATTDEF
  5
181
330
145
100
AcDbEntity
  8
Titre (ISO)
100
AcDbText
 10
129.204775059883
 20
203.667947930586
 30
0.0
 40
3.000000119209289
  1

  7
Texte de note (ISO)-Arial
 72
     1
 11
129.204775059883
 21
205.1679479901906
 31
0.0
100
AcDbAttributeDefinition
  3
<Date4>
  2
<Date4>
 70
     0
 74
     2
  0
ATTDEF
  5
182
330
145
100
AcDbEntity
  8
Titre (ISO)
100
AcDbText
 10
213.5845361249312
 20
197.6676997538841
 30
0.0
 40
3.000000119209289
  1

  7
Texte de note (ISO)-Arial
 72
     1
 11
213.5845361249312
 21
199.1676998134887
 31
0.0
100
AcDbAttributeDefinition
  3
<Modif3>
  2
<Modif3>
 70
     0
 74
     2
  0
ATTDEF
  5
183
330
145
100
AcDbEntity
  8
Titre (ISO)
100
AcDbText
 10
213.5707593562193
 20
203.6629994697872
 30
0.0
 40
3.000000119209289
  1

  7
Texte de note (ISO)-Arial
 72
     1
 11
213.5707593562193
 21
205.1629995293918
 31
0.0
100
AcDbAttributeDefinition
  3
<Modif4>
  2
<Modif4>
 70
     0
 74
     2
  0
ATTDEF
  5
184
330
145
100
AcDbEntity
  8
Titre (ISO)
100
AcDbText
 10
294.938417652361
 20
197.661611630379
 30
0.0
 40
3.000000119209289
  1

  7
Texte de note (ISO)-Arial
 72
     1
 11
294.938417652361
 21
199.1616116899836
 31
0.0
100
AcDbAttributeDefinition
  3
<Par3>
  2
<Par3>
 70
     0
 74
     2
  0
ATTDEF
  5
185
330
145
100
AcDbEntity
  8
Titre (ISO)
100
AcDbText
 10
294.9493452652637
 20
203.6691620517382
 30
0.0
 40
3.000000119209289
  1

  7
Texte de note (ISO)-Arial
 72
     1
 11
294.9493452652637
 21
205.1691621113429
 31
0.0
100
AcDbAttributeDefinition
  3
<Par4>
  2
<Par4>
 70
     0
 74
     2
  0
ENDBLK
  5
147
330
145
100
AcDbEntity
  8
0
100
AcDbBlockEnd
  0
BLOCK
  5
3B8
330
3B7
100
AcDbEntity
  8
0
100
AcDbBlockBegin
  2
*D8
 70
     1
 10
0.0
 20
0.0
 30
0.0
  3
*D8
  1

  0
LINE
  5
486
330
3B7
100
AcDbEntity
  8
Cote (ISO)
 62
   150
420
    33023
100
AcDbLine
 10
116.2564122848242
 20
1050.540914021728
 30
0.0
 11
89.20250978031365
 21
1050.540914021728
 31
0.0
  0
LINE
  5
487
330
3B7
100
AcDbEntity
  8
Cote (ISO)
 62
   150
420
    33023
100
AcDbLine
 10
133.2606741946502
 20
1092.540914021727
 30
0.0
 11
89.20250978031367
 21
1092.540914021727
 31
0.0
  0
LINE
  5
488
330
3B7
100
AcDbEntity
  8
Cote (ISO)
 62
   150
420
    33023
100
AcDbLine
 10
99.20250978031367
 20
1060.540914021728
 30
0.0
 11
99.20250978031367
 21
1082.540914021727
 31
0.0
  0
INSERT
  5
489
330
3B7
100
AcDbEntity
  8
Cote (ISO)
 62
   150
420
    33023
100
AcDbBlockReference
  2
_Closed
 10
99.20250978031365
 20
1050.540914021728
 30
0.0
 41
10.0
 42
10.0
 43
10.0
 50
270.0
  0
INSERT
  5
48A
330
3B7
100
AcDbEntity
  8
Cote (ISO)
 62
   150
420
    33023
100
AcDbBlockReference
  2
_Closed
 10
99.20250978031367
 20
1092.540914021727
 30
0.0
 41
10.0
 42
10.0
 43
10.0
 50
90.0
  0
MTEXT
  5
48B
330
3B7
100
AcDbEntity
  8
Cote (ISO)
100
AcDbMText
 10
82.91103899455121
 20
1061.640309589222
 30
0.0
 40
14.0
 41
0.0
 71
     1
 72
     1
  1
\A1;42
  7
Texte de note (ISO)
 11
0.0000000000000001
 21
1.0
 31
0.0
 73
     1
 44
1.0
  0
POINT
  5
48C
330
3B7
100
AcDbEntity
  8
Defpoints
 62
     0
100
AcDbPoint
 10
120.2564122848242
 20
1050.540914021728
 30
0.0
  0
POINT
  5
48D
330
3B7
100
AcDbEntity
  8
Defpoints
 62
     0
100
AcDbPoint
 10
137.2606741946502
 20
1092.540914021727
 30
0.0
  0
POINT
  5
48E
330
3B7
100
AcDbEntity
  8
Defpoints
 62
     0
100
AcDbPoint
 10
99.20250978031367
 20
1092.540914021727
 30
0.0
  0
ENDBLK
  5
3B9
330
3B7
100
AcDbEntity
  8
0
100
AcDbBlockEnd
  0
BLOCK
  5
493
330
492
100
AcDbEntity
  8
0
100
AcDbBlockBegin
  2
*D9
 70
     1
 10
0.0
 20
0.0
 30
0.0
  3
*D9
  1

  0
LINE
  5
56F
330
492
100
AcDbEntity
  8
Cote (ISO)
 62
   150
420
    33023
100
AcDbLine
 10
757.2106741946497
 20
1050.540914021728
 30
0.0
 11
788.7324811625704
 21
1050.540914021728
 31
0.0
  0
LINE
  5
570
330
492
100
AcDbEntity
  8
Cote (ISO)
 62
   150
420
    33023
100
AcDbLine
 10
757.2106741946497
 20
1046.540914021728
 30
0.0
 11
788.7324811625704
 21
1046.540914021728
 31
0.0
  0
LINE
  5
571
330
492
100
AcDbEntity
  8
Cote (ISO)
 62
   150
420
    33023
100
AcDbLine
 10
778.7324811625705
 20
1060.540914021728
 30
0.0
 11
778.7324811625705
 21
1070.540914021728
 31
0.0
  0
LINE
  5
572
330
492
100
AcDbEntity
  8
Cote (ISO)
 62
   150
420
    33023
100
AcDbLine
 10
778.7324811625705
 20
1036.540914021728
 30
0.0
 11
778.7324811625705
 21
1026.540914021728
 31
0.0
  0
INSERT
  5
573
330
492
100
AcDbEntity
  8
Cote (ISO)
 62
   150
420
    33023
100
AcDbBlockReference
  2
_Closed
 10
778.7324811625705
 20
1050.540914021728
 30
0.0
 41
10.0
 42
10.0
 43
10.0
 50
270.0
  0
INSERT
  5
574
330
492
100
AcDbEntity
  8
Cote (ISO)
 62
   150
420
    33023
100
AcDbBlockReference
  2
_Closed
 10
778.7324811625705
 20
1046.540914021728
 30
0.0
 41
10.0
 42
10.0
 43
10.0
 50
90.0
  0
MTEXT
  5
575
330
492
100
AcDbEntity
  8
Cote (ISO)
100
AcDbMText
 10
762.7324811625704
 20
1043.712841489828
 30
0.0
 40
14.0
 41
0.0
 71
     1
 72
     1
  1
\A1;4
  7
Texte de note (ISO)
 11
0.0000000000000001
 21
1.0
 31
0.0
 73
     1
 44
1.0
  0
POINT
  5
576
330
492
100
AcDbEntity
  8
Defpoints
 62
     0
100
AcDbPoint
 10
753.2106741946497
 20
1050.540914021728
 30
0.0
  0
POINT
  5
577
330
492
100
AcDbEntity
  8
Defpoints
 62
     0
100
AcDbPoint
 10
753.2106741946497
 20
1046.540914021728
 30
0.0
  0
POINT
  5
578
330
492
100
AcDbEntity
  8
Defpoints
 62
     0
100
AcDbPoint
 10
778.7324811625705
 20
1046.540914021728
 30
0.0
  0
ENDBLK
  5
494
330
492
100
AcDbEntity
  8
0
100
AcDbBlockEnd
  0
BLOCK
  5
57B
330
57A
100
AcDbEntity
  8
0
100
AcDbBlockBegin
  2
*D10
 70
     1
 10
0.0
 20
0.0
 30
0.0
  3
*D10
  1

  0
LINE
  5
649
330
57A
100
AcDbEntity
  8
Cote (ISO)
 62
   150
420
    33023
100
AcDbLine
 10
109.2106741943604
 20
668.1876561012103
 30
0.0
 11
82.38730536646251
 21
668.1876561012103
 31
0.0
  0
LINE
  5
64A
330
57A
100
AcDbEntity
  8
Cote (ISO)
 62
   150
420
    33023
100
AcDbLine
 10
109.2106741943605
 20
630.1876561012103
 30
0.0
 11
82.38730536646251
 21
630.1876561012103
 31
0.0
  0
LINE
  5
64B
330
57A
100
AcDbEntity
  8
Cote (ISO)
 62
   150
420
    33023
100
AcDbLine
 10
92.38730536646251
 20
658.1876561012103
 30
0.0
 11
92.38730536646251
 21
640.1876561012103
 31
0.0
  0
INSERT
  5
64C
330
57A
100
AcDbEntity
  8
Cote (ISO)
 62
   150
420
    33023
100
AcDbBlockReference
  2
_Closed
 10
92.38730536646251
 20
668.1876561012103
 30
0.0
 41
10.0
 42
10.0
 43
10.0
 50
90.0
  0
INSERT
  5
64D
330
57A
100
AcDbEntity
  8
Cote (ISO)
 62
   150
420
    33023
100
AcDbBlockReference
  2
_Closed
 10
92.38730536646251
 20
630.1876561012103
 30
0.0
 41
10.0
 42
10.0
 43
10.0
 50
270.0
  0
MTEXT
  5
64E
330
57A
100
AcDbEntity
  8
Cote (ISO)
100
AcDbMText
 10
75.7479500944678
 20
639.4797984786447
 30
0.0
 40
14.0
 41
0.0
 71
     1
 72
     1
  1
\A1;38
  7
Texte de note (ISO)
 11
0.0000000000000001
 21
1.0
 31
0.0
 73
     1
 44
1.0
  0
POINT
  5
64F
330
57A
100
AcDbEntity
  8
Defpoints
 62
     0
100
AcDbPoint
 10
113.2106741943604
 20
668.1876561012103
 30
0.0
  0
POINT
  5
650
330
57A
100
AcDbEntity
  8
Defpoints
 62
     0
100
AcDbPoint
 10
113.2106741943605
 20
630.1876561012103
 30
0.0
  0
POINT
  5
651
330
57A
100
AcDbEntity
  8
Defpoints
 62
     0
100
AcDbPoint
 10
92.38730536646251
 20
630.1876561012103
 30
0.0
  0
ENDBLK
  5
57C
330
57A
100
AcDbEntity
  8
0
100
AcDbBlockEnd
  0
BLOCK
  5
654
330
653
100
AcDbEntity
  8
0
100
AcDbBlockBegin
  2
*D11
 70
     1
 10
0.0
 20
0.0
 30
0.0
  3
*D11
  1

  0
LINE
  5
71B
330
653
100
AcDbEntity
  8
Cote (ISO)
 62
   150
420
    33023
100
AcDbLine
 10
753.2106741943605
 20
634.1876561012103
 30
0.0
 11
753.2106741943605
 21
704.5994926088717
 31
0.0
  0
LINE
  5
71C
330
653
100
AcDbEntity
  8
Cote (ISO)
 62
   150
420
    33023
100
AcDbLine
 10
113.2106741943605
 20
634.1876561012103
 30
0.0
 11
113.2106741943605
 21
704.5994926088717
 31
0.0
  0
LINE
  5
71D
330
653
100
AcDbEntity
  8
Cote (ISO)
 62
   150
420
    33023
100
AcDbLine
 10
743.2106741943605
 20
694.5994926088717
 30
0.0
 11
123.2106741943605
 21
694.5994926088717
 31
0.0
  0
INSERT
  5
71E
330
653
100
AcDbEntity
  8
Cote (ISO)
 62
   150
420
    33023
100
AcDbBlockReference
  2
_Closed
 10
753.2106741943605
 20
694.5994926088717
 30
0.0
 41
10.0
 42
10.0
 43
10.0
  0
INSERT
  5
71F
330
653
100
AcDbEntity
  8
Cote (ISO)
 62
   150
420
    33023
100
AcDbBlockReference
  2
_Closed
 10
113.2106741943605
 20
694.5994926088717
 30
0.0
 41
10.0
 42
10.0
 43
10.0
 50
180.0
  0
MTEXT
  5
720
330
653
100
AcDbEntity
  8
Cote (ISO)
100
AcDbMText
 10
418.2328367195451
 20
711.1730318969846
 30
0.0
 40
14.0
 41
0.0
 71
     1
 72
     1
  1
\A1;640
  7
Texte de note (ISO)
 73
     1
 44
1.0
  0
POINT
  5
721
330
653
100
AcDbEntity
  8
Defpoints
 62
     0
100
AcDbPoint
 10
753.2106741943605
 20
630.1876561012103
 30
0.0
  0
POINT
  5
722
330
653
100
AcDbEntity
  8
Defpoints
 62
     0
100
AcDbPoint
 10
113.2106741943605
 20
630.1876561012103
 30
0.0
  0
POINT
  5
723
330
653
100
AcDbEntity
  8
Defpoints
 62
     0
100
AcDbPoint
 10
113.2106741943605
 20
694.5994926088717
 30
0.0
  0
ENDBLK
  5
655
330
653
100
AcDbEntity
  8
0
100
AcDbBlockEnd
  0
BLOCK
  5
726
330
725
100
AcDbEntity
  8
0
100
AcDbBlockBegin
  2
*D12
 70
     1
 10
0.0
 20
0.0
 30
0.0
  3
*D12
  1

  0
LINE
  5
7ED
330
725
100
AcDbEntity
  8
Cote (ISO)
 62
   150
420
    33023
100
AcDbLine
 10
369.4447652364211
 20
655.6876561012336
 30
0.0
 11
369.4447652364211
 21
642.6876561012336
 31
0.0
  0
INSERT
  5
7EE
330
725
100
AcDbEntity
  8
Cote (ISO)
 62
   150
420
    33023
100
AcDbBlockReference
  2
_Closed
 10
369.4447652364211
 20
665.6876561012336
 30
0.0
 41
10.0
 42
10.0
 43
10.0
 50
90.0
  0
INSERT
  5
7EF
330
725
100
AcDbEntity
  8
Cote (ISO)
 62
   150
420
    33023
100
AcDbBlockReference
  2
_Closed
 10
369.4447652364211
 20
632.6876561012336
 30
0.0
 41
10.0
 42
10.0
 43
10.0
 50
270.0
  0
MTEXT
  5
7F0
330
725
100
AcDbEntity
  8
Cote (ISO)
100
AcDbMText
 10
352.8618236648965
 20
639.6772464303134
 30
0.0
 40
14.0
 41
0.0
 71
     1
 72
     1
  1
\A1;33
  7
Texte de note (ISO)
 11
0.0000000000000001
 21
1.0
 31
0.0
 73
     1
 44
1.0
  0
POINT
  5
7F1
330
725
100
AcDbEntity
  8
Defpoints
 62
     0
100
AcDbPoint
 10
369.444765236421
 20
665.6876561012336
 30
0.0
  0
POINT
  5
7F2
330
725
100
AcDbEntity
  8
Defpoints
 62
     0
100
AcDbPoint
 10
369.444765236421
 20
632.6876561012336
 30
0.0
  0
POINT
  5
7F3
330
725
100
AcDbEntity
  8
Defpoints
 62
     0
100
AcDbPoint
 10
369.4447652364211
 20
632.6876561012336
 30
0.0
  0
ENDBLK
  5
727
330
725
100
AcDbEntity
  8
0
100
AcDbBlockEnd
  0
BLOCK
  5
7F6
330
7F5
100
AcDbEntity
  8
0
100
AcDbBlockBegin
  2
*D13
 70
     1
 10
0.0
 20
0.0
 30
0.0
  3
*D13
  1

  0
LINE
  5
8BD
330
7F5
100
AcDbEntity
  8
Cote (ISO)
 62
   150
420
    33023
100
AcDbLine
 10
123.2106741947798
 20
846.0750080556053
 30
0.0
 11
123.2106741947798
 21
800.0750080556052
 31
0.0
  0
LINE
  5
8BE
330
7F5
100
AcDbEntity
  8
Cote (ISO)
 62
   150
420
    33023
100
AcDbLine
 10
743.2106741947798
 20
846.0750080556053
 30
0.0
 11
743.2106741947798
 21
800.0750080556052
 31
0.0
  0
LINE
  5
8BF
330
7F5
100
AcDbEntity
  8
Cote (ISO)
 62
   150
420
    33023
100
AcDbLine
 10
133.2106741947798
 20
810.0750080556052
 30
0.0
 11
733.2106741947797
 21
810.0750080556052
 31
0.0
  0
INSERT
  5
8C0
330
7F5
100
AcDbEntity
  8
Cote (ISO)
 62
   150
420
    33023
100
AcDbBlockReference
  2
_Closed
 10
123.2106741947798
 20
810.0750080556052
 30
0.0
 41
10.0
 42
10.0
 43
10.0
 50
180.0
  0
INSERT
  5
8C1
330
7F5
100
AcDbEntity
  8
Cote (ISO)
 62
   150
420
    33023
100
AcDbBlockReference
  2
_Closed
 10
743.2106741947798
 20
810.0750080556052
 30
0.0
 41
10.0
 42
10.0
 43
10.0
  0
MTEXT
  5
8C2
330
7F5
100
AcDbEntity
  8
Cote (ISO)
100
AcDbMText
 10
418.2328367199644
 20
826.6579496271297
 30
0.0
 40
14.0
 41
0.0
 71
     1
 72
     1
  1
\A1;620
  7
Texte de note (ISO)
 73
     1
 44
1.0
  0
POINT
  5
8C3
330
7F5
100
AcDbEntity
  8
Defpoints
 62
     0
100
AcDbPoint
 10
123.2106741947798
 20
850.0750080556052
 30
0.0
  0
POINT
  5
8C4
330
7F5
100
AcDbEntity
  8
Defpoints
 62
     0
100
AcDbPoint
 10
743.2106741947798
 20
850.0750080556052
 30
0.0
  0
POINT
  5
8C5
330
7F5
100
AcDbEntity
  8
Defpoints
 62
     0
100
AcDbPoint
 10
743.2106741947798
 20
810.0750080556052
 30
0.0
  0
ENDBLK
  5
7F7
330
7F5
100
AcDbEntity
  8
0
100
AcDbBlockEnd
  0
BLOCK
  5
8C8
330
8C7
100
AcDbEntity
  8
0
100
AcDbBlockBegin
  2
*D14
 70
     1
 10
0.0
 20
0.0
 30
0.0
  3
*D14
  1

  0
LINE
  5
98F
330
8C7
100
AcDbEntity
  8
Cote (ISO)
 62
   150
420
    33023
100
AcDbLine
 10
289.2106741947799
 20
864.0750080556053
 30
0.0
 11
289.2106741947799
 21
916.2685056820967
 31
0.0
  0
LINE
  5
990
330
8C7
100
AcDbEntity
  8
Cote (ISO)
 62
   150
420
    33023
100
AcDbLine
 10
564.2106741947799
 20
864.0750080556053
 30
0.0
 11
564.2106741947799
 21
916.2685056820967
 31
0.0
  0
LINE
  5
991
330
8C7
100
AcDbEntity
  8
Cote (ISO)
 62
   150
420
    33023
100
AcDbLine
 10
299.2106741947799
 20
906.2685056820967
 30
0.0
 11
554.2106741947799
 21
906.2685056820967
 31
0.0
  0
INSERT
  5
992
330
8C7
100
AcDbEntity
  8
Cote (ISO)
 62
   150
420
    33023
100
AcDbBlockReference
  2
_Closed
 10
289.2106741947799
 20
906.2685056820967
 30
0.0
 41
10.0
 42
10.0
 43
10.0
 50
180.0
  0
INSERT
  5
993
330
8C7
100
AcDbEntity
  8
Cote (ISO)
 62
   150
420
    33023
100
AcDbBlockReference
  2
_Closed
 10
564.2106741947799
 20
906.2685056820967
 30
0.0
 41
10.0
 42
10.0
 43
10.0
  0
MTEXT
  5
994
330
8C7
100
AcDbEntity
  8
Cote (ISO)
100
AcDbMText
 10
411.958491521845
 20
922.8514472536213
 30
0.0
 40
14.0
 41
0.0
 71
     1
 72
     1
  1
\A1;275
  7
Texte de note (ISO)
 73
     1
 44
1.0
  0
POINT
  5
995
330
8C7
100
AcDbEntity
  8
Defpoints
 62
     0
100
AcDbPoint
 10
289.2106741947799
 20
860.0750080556052
 30
0.0
  0
POINT
  5
996
330
8C7
100
AcDbEntity
  8
Defpoints
 62
     0
100
AcDbPoint
 10
564.2106741947799
 20
860.0750080556052
 30
0.0
  0
POINT
  5
997
330
8C7
100
AcDbEntity
  8
Defpoints
 62
     0
100
AcDbPoint
 10
564.2106741947799
 20
906.2685056820967
 30
0.0
  0
ENDBLK
  5
8C9
330
8C7
100
AcDbEntity
  8
0
100
AcDbBlockEnd
  0
BLOCK
  5
99A
330
999
100
AcDbEntity
  8
0
100
AcDbBlockBegin
  2
*D15
 70
     1
 10
0.0
 20
0.0
 30
0.0
  3
*D15
  1

  0
LINE
  5
A6E
330
999
100
AcDbEntity
  8
Cote (ISO)
 62
   150
420
    33023
100
AcDbLine
 10
743.2106741947798
 20
874.0750080556052
 30
0.0
 11
743.2106741947798
 21
916.2685056820967
 31
0.0
  0
LINE
  5
A6F
330
999
100
AcDbEntity
  8
Cote (ISO)
 62
   150
420
    33023
100
AcDbLine
 10
753.2106741947798
 20
883.0750080556052
 30
0.0
 11
753.2106741947798
 21
916.2685056820967
 31
0.0
  0
LINE
  5
A70
330
999
100
AcDbEntity
  8
Cote (ISO)
 62
   150
420
    33023
100
AcDbLine
 10
733.2106741947797
 20
906.2685056820967
 30
0.0
 11
723.2106741947798
 21
906.2685056820967
 31
0.0
  0
LINE
  5
A71
330
999
100
AcDbEntity
  8
Cote (ISO)
 62
   150
420
    33023
100
AcDbLine
 10
763.2106741947798
 20
906.2685056820967
 30
0.0
 11
773.2106741947798
 21
906.2685056820967
 31
0.0
  0
INSERT
  5
A72
330
999
100
AcDbEntity
  8
Cote (ISO)
 62
   150
420
    33023
100
AcDbBlockReference
  2
_Closed
 10
743.2106741947798
 20
906.2685056820967
 30
0.0
 41
10.0
 42
10.0
 43
10.0
  0
INSERT
  5
A73
330
999
100
AcDbEntity
  8
Cote (ISO)
 62
   150
420
    33023
100
AcDbBlockReference
  2
_Closed
 10
753.2106741947798
 20
906.2685056820967
 30
0.0
 41
10.0
 42
10.0
 43
10.0
 50
180.0
  0
MTEXT
  5
A74
330
999
100
AcDbEntity
  8
Cote (ISO)
100
AcDbMText
 10
739.1515741276206
 20
922.8420449702095
 30
0.0
 40
14.0
 41
0.0
 71
     1
 72
     1
  1
\A1;10
  7
Texte de note (ISO)
 73
     1
 44
1.0
  0
POINT
  5
A75
330
999
100
AcDbEntity
  8
Defpoints
 62
     0
100
AcDbPoint
 10
743.2106741947798
 20
870.0750080556053
 30
0.0
  0
POINT
  5
A76
330
999
100
AcDbEntity
  8
Defpoints
 62
     0
100
AcDbPoint
 10
753.2106741947798
 20
879.0750080556053
 30
0.0
  0
POINT
  5
A77
330
999
100
AcDbEntity
  8
Defpoints
 62
     0
100
AcDbPoint
 10
753.2106741947798
 20
906.2685056820967
 30
0.0
  0
ENDBLK
  5
99B
330
999
100
AcDbEntity
  8
0
100
AcDbBlockEnd
  0
BLOCK
  5
A7A
330
A79
100
AcDbEntity
  8
0
100
AcDbBlockBegin
  2
*D16
 70
     1
 10
0.0
 20
0.0
 30
0.0
  3
*D16
  1

  0
LINE
  5
B41
330
A79
100
AcDbEntity
  8
Cote (ISO)
 62
   150
420
    33023
100
AcDbLine
 10
123.2106741947798
 20
874.0750080556052
 30
0.0
 11
123.2106741947798
 21
916.2685056820967
 31
0.0
  0
LINE
  5
B42
330
A79
100
AcDbEntity
  8
Cote (ISO)
 62
   150
420
    33023
100
AcDbLine
 10
289.2106741947799
 20
864.0750080556053
 30
0.0
 11
289.2106741947799
 21
916.2685056820967
 31
0.0
  0
LINE
  5
B43
330
A79
100
AcDbEntity
  8
Cote (ISO)
 62
   150
420
    33023
100
AcDbLine
 10
133.2106741947798
 20
906.2685056820967
 30
0.0
 11
279.2106741947799
 21
906.2685056820967
 31
0.0
  0
INSERT
  5
B44
330
A79
100
AcDbEntity
  8
Cote (ISO)
 62
   150
420
    33023
100
AcDbBlockReference
  2
_Closed
 10
123.2106741947798
 20
906.2685056820967
 30
0.0
 41
10.0
 42
10.0
 43
10.0
 50
180.0
  0
INSERT
  5
B45
330
A79
100
AcDbEntity
  8
Cote (ISO)
 62
   150
420
    33023
100
AcDbBlockReference
  2
_Closed
 10
289.2106741947799
 20
906.2685056820967
 30
0.0
 41
10.0
 42
10.0
 43
10.0
  0
MTEXT
  5
B46
330
A79
100
AcDbEntity
  8
Cote (ISO)
100
AcDbMText
 10
191.8204794331949
 20
922.823240403386
 30
0.0
 40
14.0
 41
0.0
 71
     1
 72
     1
  1
\A1;166
  7
Texte de note (ISO)
 73
     1
 44
1.0
  0
POINT
  5
B47
330
A79
100
AcDbEntity
  8
Defpoints
 62
     0
100
AcDbPoint
 10
123.2106741947798
 20
870.0750080556053
 30
0.0
  0
POINT
  5
B48
330
A79
100
AcDbEntity
  8
Defpoints
 62
     0
100
AcDbPoint
 10
289.2106741947799
 20
860.0750080556052
 30
0.0
  0
POINT
  5
B49
330
A79
100
AcDbEntity
  8
Defpoints
 62
     0
100
AcDbPoint
 10
289.2106741947799
 20
906.2685056820967
 30
0.0
  0
ENDBLK
  5
A7B
330
A79
100
AcDbEntity
  8
0
100
AcDbBlockEnd
  0
BLOCK
  5
B4C
330
B4B
100
AcDbEntity
  8
0
100
AcDbBlockBegin
  2
*D17
 70
     1
 10
0.0
 20
0.0
 30
0.0
  3
*D17
  1

  0
LINE
  5
C28
330
B4B
100
AcDbEntity
  8
Cote (ISO)
 62
   150
420
    33023
100
AcDbLine
 10
119.2106741947798
 20
870.0750080556053
 30
0.0
 11
80.69165260132052
 21
870.0750080556053
 31
0.0
  0
LINE
  5
C29
330
B4B
100
AcDbEntity
  8
Cote (ISO)
 62
   150
420
    33023
100
AcDbLine
 10
119.2106741947798
 20
850.0750080556052
 30
0.0
 11
80.6916526013205
 21
850.0750080556052
 31
0.0
  0
LINE
  5
C2A
330
B4B
100
AcDbEntity
  8
Cote (ISO)
 62
   150
420
    33023
100
AcDbLine
 10
90.69165260132052
 20
880.0750080556053
 30
0.0
 11
90.69165260132052
 21
890.0750080556052
 31
0.0
  0
LINE
  5
C2B
330
B4B
100
AcDbEntity
  8
Cote (ISO)
 62
   150
420
    33023
100
AcDbLine
 10
90.6916526013205
 20
840.0750080556052
 30
0.0
 11
90.6916526013205
 21
830.0750080556053
 31
0.0
  0
INSERT
  5
C2C
330
B4B
100
AcDbEntity
  8
Cote (ISO)
 62
   150
420
    33023
100
AcDbBlockReference
  2
_Closed
 10
90.69165260132052
 20
870.0750080556053
 30
0.0
 41
10.0
 42
10.0
 43
10.0
 50
270.0
  0
INSERT
  5
C2D
330
B4B
100
AcDbEntity
  8
Cote (ISO)
 62
   150
420
    33023
100
AcDbBlockReference
  2
_Closed
 10
90.6916526013205
 20
850.0750080556052
 30
0.0
 41
10.0
 42
10.0
 43
10.0
 50
90.0
  0
MTEXT
  5
C2E
330
B4B
100
AcDbEntity
  8
Cote (ISO)
100
AcDbMText
 10
74.10871102979587
 20
850.4658744088626
 30
0.0
 40
14.0
 41
0.0
 71
     1
 72
     1
  1
\A1;20
  7
Texte de note (ISO)
 11
0.0000000000000001
 21
1.0
 31
0.0
 73
     1
 44
1.0
  0
POINT
  5
C2F
330
B4B
100
AcDbEntity
  8
Defpoints
 62
     0
100
AcDbPoint
 10
123.2106741947798
 20
870.0750080556053
 30
0.0
  0
POINT
  5
C30
330
B4B
100
AcDbEntity
  8
Defpoints
 62
     0
100
AcDbPoint
 10
123.2106741947798
 20
850.0750080556052
 30
0.0
  0
POINT
  5
C31
330
B4B
100
AcDbEntity
  8
Defpoints
 62
     0
100
AcDbPoint
 10
90.6916526013205
 20
850.0750080556052
 30
0.0
  0
ENDBLK
  5
B4D
330
B4B
100
AcDbEntity
  8
0
100
AcDbBlockEnd
  0
BLOCK
  5
C34
330
C33
100
AcDbEntity
  8
0
100
AcDbBlockBegin
  2
*D18
 70
     1
 10
0.0
 20
0.0
 30
0.0
  3
*D18
  1

  0
LINE
  5
CFB
330
C33
100
AcDbEntity
  8
Cote (ISO)
 62
   150
420
    33023
100
AcDbLine
 10
135.2606741946501
 20
1074.540914021728
 30
0.0
 11
135.2606741946501
 21
1128.515914021727
 31
0.0
  0
LINE
  5
CFC
330
C33
100
AcDbEntity
  8
Cote (ISO)
 62
   150
420
    33023
100
AcDbLine
 10
727.0606741946501
 20
1058.515914021727
 30
0.0
 11
727.0606741946501
 21
1128.515914021727
 31
0.0
  0
LINE
  5
CFD
330
C33
100
AcDbEntity
  8
Cote (ISO)
 62
   150
420
    33023
100
AcDbLine
 10
145.2606741946501
 20
1118.515914021727
 30
0.0
 11
717.06067419465
 21
1118.515914021727
 31
0.0
  0
INSERT
  5
CFE
330
C33
100
AcDbEntity
  8
Cote (ISO)
 62
   150
420
    33023
100
AcDbBlockReference
  2
_Closed
 10
135.2606741946501
 20
1118.515914021727
 30
0.0
 41
10.0
 42
10.0
 43
10.0
 50
180.0
  0
INSERT
  5
CFF
330
C33
100
AcDbEntity
  8
Cote (ISO)
 62
   150
420
    33023
100
AcDbBlockReference
  2
_Closed
 10
727.0606741946501
 20
1118.515914021727
 30
0.0
 41
10.0
 42
10.0
 43
10.0
  0
MTEXT
  5
D00
330
C33
100
AcDbEntity
  8
Cote (ISO)
100
AcDbMText
 10
408.1532866862552
 20
1138.314436520048
 30
0.0
 40
14.0
 41
0.0
 71
     1
 72
     1
  1
\A1;591,8
  7
Texte de note (ISO)
 73
     1
 44
1.0
  0
POINT
  5
D01
330
C33
100
AcDbEntity
  8
Defpoints
 62
     0
100
AcDbPoint
 10
135.2606741946501
 20
1070.540914021727
 30
0.0
  0
POINT
  5
D02
330
C33
100
AcDbEntity
  8
Defpoints
 62
     0
100
AcDbPoint
 10
727.0606741946501
 20
1054.515914021727
 30
0.0
  0
POINT
  5
D03
330
C33
100
AcDbEntity
  8
Defpoints
 62
     0
100
AcDbPoint
 10
727.0606741946501
 20
1118.515914021727
 30
0.0
  0
ENDBLK
  5
C35
330
C33
100
AcDbEntity
  8
0
100
AcDbBlockEnd
  0
BLOCK
  5
D06
330
D05
100
AcDbEntity
  8
0
100
AcDbBlockBegin
  2
*D19
 70
     1
 10
0.0
 20
0.0
 30
0.0
  3
*D19
  1

  0
LINE
  5
DCD
330
D05
100
AcDbEntity
  8
Cote (ISO)
 62
   150
420
    33023
100
AcDbLine
 10
123.2106741946498
 20
1022.039020318336
 30
0.0
 11
123.2106741946498
 21
988.9229263712492
 31
0.0
  0
LINE
  5
DCE
330
D05
100
AcDbEntity
  8
Cote (ISO)
 62
   150
420
    33023
100
AcDbLine
 10
377.5406741946501
 20
1067.540914021728
 30
0.0
 11
377.5406741946501
 21
988.9229263712492
 31
0.0
  0
LINE
  5
DCF
330
D05
100
AcDbEntity
  8
Cote (ISO)
 62
   150
420
    33023
100
AcDbLine
 10
133.2106741946498
 20
998.9229263712491
 30
0.0
 11
367.5406741946501
 21
998.9229263712491
 31
0.0
  0
INSERT
  5
DD0
330
D05
100
AcDbEntity
  8
Cote (ISO)
 62
   150
420
    33023
100
AcDbBlockReference
  2
_Closed
 10
123.2106741946498
 20
998.9229263712491
 30
0.0
 41
10.0
 42
10.0
 43
10.0
 50
180.0
  0
INSERT
  5
DD1
330
D05
100
AcDbEntity
  8
Cote (ISO)
 62
   150
420
    33023
100
AcDbBlockReference
  2
_Closed
 10
377.5406741946501
 20
998.9229263712491
 30
0.0
 41
10.0
 42
10.0
 43
10.0
  0
MTEXT
  5
DD2
330
D05
100
AcDbEntity
  8
Cote (ISO)
100
AcDbMText
 10
222.2393410851806
 20
1018.693242019335
 30
0.0
 40
14.0
 41
0.0
 71
     1
 72
     1
  1
\A1;254,33
  7
Texte de note (ISO)
 73
     1
 44
1.0
  0
POINT
  5
DD3
330
D05
100
AcDbEntity
  8
Defpoints
 62
     0
100
AcDbPoint
 10
123.2106741946498
 20
1026.039020318336
 30
0.0
  0
POINT
  5
DD4
330
D05
100
AcDbEntity
  8
Defpoints
 62
     0
100
AcDbPoint
 10
377.5406741946501
 20
1071.540914021728
 30
0.0
  0
POINT
  5
DD5
330
D05
100
AcDbEntity
  8
Defpoints
 62
     0
100
AcDbPoint
 10
377.5406741946501
 20
998.9229263712491
 30
0.0
  0
ENDBLK
  5
D07
330
D05
100
AcDbEntity
  8
0
100
AcDbBlockEnd
  0
ENDSEC
  0
SECTION
  2
ENTITIES
  0
INSERT
  5
144
330
75
100
AcDbEntity
  8
0
100
AcDbBlockReference
  2
Cadres Default Border
 10
0.0
 20
0.0
 30
0.0
 41
4.0
 42
4.0
 43
4.0
  0
INSERT
  5
186
330
75
100
AcDbEntity
  8
0
100
AcDbBlockReference
 66
     1
  2
Cartouches Groom
 10
-401.7778306253535
 20
-519.5478101864402
 30
0.0
 41
4.0
 42
4.0
 43
4.0
  0
ATTRIB
  5
188
330
186
100
AcDbEntity
  8
Titre (ISO)
100
AcDbText
 10
634.0600250622738
 20
51.11065086935575
 30
0.0
 40
24.00000095367432
  1
102151
  7
Texte de note (ISO)-Arial
 72
     1
 11
689.9999999999991
 21
63.1106513461929
 31
0.0
100
AcDbAttribute
  2
N°_DE_PIECE
 70
     0
 74
     2
  0
ATTRIB
  5
189
330
186
100
AcDbEntity
  8
Titre (ISO)
100
AcDbText
 10
516.3465209425218
 20
55.11065122698354
 30
0.0
 40
16.00000023841858
  1
A4
  7
Texte de note (ISO)-Arial
 72
     1
 11
529.999999999999
 21
63.11065134619283
 31
0.0
100
AcDbAttribute
  2
Taille_de_la_feuille
 70
     0
 74
     2
  0
ATTRIB
  5
18A
330
186
100
AcDbEntity
  8
Titre (ISO)
100
AcDbText
 10
231.331732605729
 20
163.110651346193
 30
0.0
 40
20.0
  1
ML 632-RPT
  7
Texte de note (ISO)-Arial
 72
     1
 11
310.5199999999991
 21
173.110651346193
 31
0.0
100
AcDbAttribute
  2
<Titre_1_?>
 70
     0
 74
     2
  0
ATTRIB
  5
18B
330
186
100
AcDbEntity
  8
Titre (ISO)
100
AcDbText
 10
208.7805729877207
 20
123.1106513461929
 30
0.0
 40
20.0
  1
2 pênes, rupture
  7
Texte de note (ISO)-Arial
 72
     1
 11
310.5199999999991
 21
133.1106513461929
 31
0.0
100
AcDbAttribute
  2
<Titre_2_?>
 70
     0
 74
     2
  0
ATTRIB
  5
18C
330
186
100
AcDbEntity
  8
Titre (ISO)
100
AcDbText
 10
585.0572996056576
 20
92.11065146540214
 30
0.0
 40
13.99999976158142
  1
07/04/2010
  7
Texte de note (ISO)-Arial
 72
     1
 11
633.9999999999991
 21
99.11065134619285
 31
0.0
100
AcDbAttribute
  2
<Date>
 70
     0
 74
     2
  0
ATTRIB
  5
18D
330
186
100
AcDbEntity
  8
Titre (ISO)
100
AcDbText
 10
510.4420194326602
 20
92.11065146540214
 30
0.0
 40
13.99999976158142
  1
JME
  7
Texte de note (ISO)-Arial
 72
     1
 11
529.999999999999
 21
99.11065134619285
 31
0.0
100
AcDbAttribute
  2
<Dessinateur>
 70
     0
 74
     2
  0
ATTRIB
  5
18E
330
186
100
AcDbEntity
  8
Titre (ISO)
100
AcDbText
 10
743.3956805509247
 20
92.11065146540214
 30
0.0
 40
13.99999976158142
  1
.25/1
  7
Texte de note (ISO)-Arial
 72
     1
 11
765.1453391164102
 21
99.11065134619285
 31
0.0
100
AcDbAttribute
  2
<Echelle>
 70
     0
 74
     2
  0
ATTRIB
  5
18F
330
186
100
AcDbEntity
  8
Titre (ISO)
100
AcDbText
 10
728.2265012555491
 20
148.1106513461927
 30
0.0
 40
10.0
  1

  7
Texte de note (ISO)-Arial
 72
     1
 11
728.2265012555491
 21
153.1106513461927
 31
0.0
100
AcDbAttribute
  2
<Matière>
 70
     0
 74
     2
  0
ATTRIB
  5
190
330
186
100
AcDbEntity
  8
Titre (ISO)
100
AcDbText
 10
743.2864590964056
 20
121.4439846795262
 30
0.0
 40
10.0
  1

  7
Texte de note (ISO)-Arial
 72
     1
 11
743.2864590964056
 21
126.4439846795262
 31
0.0
100
AcDbAttribute
  2
<Traitement>
 70
     0
 74
     2
  0
ATTRIB
  5
191
330
186
100
AcDbEntity
  8
Titre (ISO)
100
AcDbText
 10
61.03999999999906
 20
223.1106511077744
 30
0.0
 40
12.00000047683716
  1

  7
Texte de note (ISO)-Arial
 72
     1
 11
61.03999999999906
 21
229.110651346193
 31
0.0
100
AcDbAttribute
  2
<Ind1>
 70
     0
 74
     2
  0
ATTRIB
  5
192
330
186
100
AcDbEntity
  8
Titre (ISO)
100
AcDbText
 10
115.0399999999991
 20
223.1106511077744
 30
0.0
 40
12.00000047683716
  1

  7
Texte de note (ISO)-Arial
 72
     1
 11
115.0399999999991
 21
229.110651346193
 31
0.0
100
AcDbAttribute
  2
<Date1>
 70
     0
 74
     2
  0
ATTRIB
  5
193
330
186
100
AcDbEntity
  8
Titre (ISO)
100
AcDbText
 10
452.8999999999991
 20
223.1106511077744
 30
0.0
 40
12.00000047683716
  1

  7
Texte de note (ISO)-Arial
 72
     1
 11
452.8999999999991
 21
229.110651346193
 31
0.0
100
AcDbAttribute
  2
<Modif1>
 70
     0
 74
     2
  0
ATTRIB
  5
194
330
186
100
AcDbEntity
  8
Titre (ISO)
100
AcDbText
 10
778.0039999999991
 20
223.1106511077743
 30
0.0
 40
12.00000047683716
  1

  7
Texte de note (ISO)-Arial
 72
     1
 11
778.0039999999991
 21
229.1106513461929
 31
0.0
100
AcDbAttribute
  2
<Par1>
 70
     0
 74
     2
  0
ATTRIB
  5
195
330
186
100
AcDbEntity
  8
Titre (ISO)
100
AcDbText
 10
61.03999999999906
 20
247.1106511077745
 30
0.0
 40
12.00000047683716
  1

  7
Texte de note (ISO)-Arial
 72
     1
 11
61.03999999999906
 21
253.1106513461931
 31
0.0
100
AcDbAttribute
  2
<Ind2>
 70
     0
 74
     2
  0
ATTRIB
  5
196
330
186
100
AcDbEntity
  8
Titre (ISO)
100
AcDbText
 10
115.0399999999991
 20
247.1106511077745
 30
0.0
 40
12.00000047683716
  1

  7
Texte de note (ISO)-Arial
 72
     1
 11
115.0399999999991
 21
253.1106513461931
 31
0.0
100
AcDbAttribute
  2
<Date2>
 70
     0
 74
     2
  0
ATTRIB
  5
197
330
186
100
AcDbEntity
  8
Titre (ISO)
100
AcDbText
 10
453.043999999999
 20
247.1106511077742
 30
0.0
 40
12.00000047683716
  1

  7
Texte de note (ISO)-Arial
 72
     1
 11
453.043999999999
 21
253.1106513461927
 31
0.0
100
AcDbAttribute
  2
<Modif2>
 70
     0
 74
     2
  0
ATTRIB
  5
198
330
186
100
AcDbEntity
  8
Titre (ISO)
100
AcDbText
 10
777.9999999999991
 20
247.1106511077745
 30
0.0
 40
12.00000047683716
  1

  7
Texte de note (ISO)-Arial
 72
     1
 11
777.9999999999991
 21
253.1106513461931
 31
0.0
100
AcDbAttribute
  2
<Par2>
 70
     0
 74
     2
  0
ATTRIB
  5
199
330
186
100
AcDbEntity
  8
Titre (ISO)
100
AcDbText
 10
61.03080299782689
 20
271.111575279924
 30
0.0
 40
12.00000047683716
  1

  7
Texte de note (ISO)-Arial
 72
     1
 11
61.03080299782689
 21
277.1115755183426
 31
0.0
100
AcDbAttribute
  2
<Ind3>
 70
     0
 74
     2
  0
ATTRIB
  5
19A
330
186
100
AcDbEntity
  8
Titre (ISO)
100
AcDbText
 10
61.02565599481572
 20
295.1239815359035
 30
0.0
 40
12.00000047683716
  1

  7
Texte de note (ISO)-Arial
 72
     1
 11
61.02565599481572
 21
301.123981774322
 31
0.0
100
AcDbAttribute
  2
<Ind4>
 70
     0
 74
     2
  0
ATTRIB
  5
19B
330
186
100
AcDbEntity
  8
Titre (ISO)
100
AcDbText
 10
115.0412696141787
 20
271.1127486158367
 30
0.0
 40
12.00000047683716
  1

  7
Texte de note (ISO)-Arial
 72
     1
 11
115.0412696141787
 21
277.1127488542553
 31
0.0
100
AcDbAttribute
  2
<Date3>
 70
     0
 74
     2
  0
ATTRIB
  5
19C
330
186
100
AcDbEntity
  8
Titre (ISO)
100
AcDbText
 10
115.0412696141787
 20
295.1239815359035
 30
0.0
 40
12.00000047683716
  1

  7
Texte de note (ISO)-Arial
 72
     1
 11
115.0412696141787
 21
301.123981774322
 31
0.0
100
AcDbAttribute
  2
<Date4>
 70
     0
 74
     2
  0
ATTRIB
  5
19D
330
186
100
AcDbEntity
  8
Titre (ISO)
100
AcDbText
 10
452.5603138743711
 20
271.1229888290961
 30
0.0
 40
12.00000047683716
  1

  7
Texte de note (ISO)-Arial
 72
     1
 11
452.5603138743711
 21
277.1229890675146
 31
0.0
100
AcDbAttribute
  2
<Modif3>
 70
     0
 74
     2
  0
ATTRIB
  5
19E
330
186
100
AcDbEntity
  8
Titre (ISO)
100
AcDbText
 10
452.5052067995237
 20
295.1041876927085
 30
0.0
 40
12.00000047683716
  1

  7
Texte de note (ISO)-Arial
 72
     1
 11
452.5052067995237
 21
301.104187931127
 31
0.0
100
AcDbAttribute
  2
<Modif4>
 70
     0
 74
     2
  0
ATTRIB
  5
19F
330
186
100
AcDbEntity
  8
Titre (ISO)
100
AcDbText
 10
777.9758399840903
 20
271.0986363350756
 30
0.0
 40
12.00000047683716
  1

  7
Texte de note (ISO)-Arial
 72
     1
 11
777.9758399840903
 21
277.0986365734942
 31
0.0
100
AcDbAttribute
  2
<Par3>
 70
     0
 74
     2
  0
ATTRIB
  5
1A0
330
186
100
AcDbEntity
  8
Titre (ISO)
100
AcDbText
 10
778.0195504357011
 20
295.1288380205125
 30
0.0
 40
12.00000047683716
  1

  7
Texte de note (ISO)-Arial
 72
     1
 11
778.0195504357011
 21
301.1288382589311
 31
0.0
100
AcDbAttribute
  2
<Par4>
 70
     0
 74
     2
  0
SEQEND
  5
187
330
186
100
AcDbEntity
  8
0
  0
CIRCLE
  5
1A1
330
75
100
AcDbEntity
  8
Visible (ISO)
100
AcDbCircle
 10
289.2106741947799
 20
860.0750080556052
 30
0.0
 40
10.025
  0
CIRCLE
  5
1A2
330
75
100
AcDbEntity
  8
Visible (ISO)
100
AcDbCircle
 10
564.2106741947798
 20
860.0750080556052
 30
0.0
 40
10.025
  0
CIRCLE
  5
1A3
330
75
100
AcDbEntity
  8
Visible (ISO)
100
AcDbCircle
 10
743.2106741947798
 20
850.0750080556052
 30
0.0
 40
5.0
  0
CIRCLE
  5
1A4
330
75
100
AcDbEntity
  8
Visible (ISO)
100
AcDbCircle
 10
743.2106741947798
 20
850.0750080556052
 30
0.0
 40
2.75
  0
CIRCLE
  5
1A5
330
75
100
AcDbEntity
  8
Visible (ISO)
100
AcDbCircle
 10
123.2106741947798
 20
850.0750080556052
 30
0.0
 40
5.0
  0
CIRCLE
  5
1A6
330
75
100
AcDbEntity
  8
Visible (ISO)
100
AcDbCircle
 10
123.2106741947798
 20
850.0750080556052
 30
0.0
 40
2.75
  0
CIRCLE
  5
1A7
330
75
100
AcDbEntity
  8
Visible (ISO)
100
AcDbCircle
 10
123.2106741947798
 20
870.0750080556053
 30
0.0
 40
5.0
  0
CIRCLE
  5
1A8
330
75
100
AcDbEntity
  8
Visible (ISO)
100
AcDbCircle
 10
123.2106741947798
 20
870.0750080556053
 30
0.0
 40
2.75
  0
CIRCLE
  5
1A9
330
75
100
AcDbEntity
  8
Visible (ISO)
100
AcDbCircle
 10
743.2106741947798
 20
870.0750080556053
 30
0.0
 40
5.0
  0
CIRCLE
  5
1AA
330
75
100
AcDbEntity
  8
Visible (ISO)
100
AcDbCircle
 10
743.2106741947798
 20
870.0750080556053
 30
0.0
 40
2.75
  0
LINE
  5
1AB
330
75
100
AcDbEntity
  8
Visible (ISO)
100
AcDbLine
 10
113.2106741947798
 20
841.0750080556052
 30
0.0
 11
113.2106741947798
 21
879.0750080556051
 31
0.0
  0
LINE
  5
1AC
330
75
100
AcDbEntity
  8
Visible (ISO)
100
AcDbLine
 10
113.2106741947798
 20
879.0750080556051
 30
0.0
 11
753.2106741947798
 21
879.0750080556053
 31
0.0
  0
LINE
  5
1AD
330
75
100
AcDbEntity
  8
Visible (ISO)
100
AcDbLine
 10
753.2106741947798
 20
879.0750080556053
 30
0.0
 11
753.2106741947798
 21
841.0750080556052
 31
0.0
  0
LINE
  5
1AE
330
75
100
AcDbEntity
  8
Visible (ISO)
100
AcDbLine
 10
753.2106741947798
 20
841.0750080556052
 30
0.0
 11
113.2106741947798
 21
841.0750080556052
 31
0.0
  0
CIRCLE
  5
1AF
330
75
100
AcDbEntity
  8
Visible (ISO)
100
AcDbCircle
 10
289.2106741947799
 20
860.0750080556052
 30
0.0
 40
9.999999999999973
  0
CIRCLE
  5
1B0
330
75
100
AcDbEntity
  8
Visible (ISO)
100
AcDbCircle
 10
564.2106741947799
 20
860.0750080556052
 30
0.0
 40
9.999999999999973
  0
CIRCLE
  5
1B1
330
75
100
AcDbEntity
  8
Visible (ISO)
100
AcDbCircle
 10
289.2106741947799
 20
860.0750080556052
 30
0.0
 40
8.000000000000014
  0
CIRCLE
  5
1B2
330
75
100
AcDbEntity
  8
Visible (ISO)
100
AcDbCircle
 10
289.2106741947799
 20
860.0750080556052
 30
0.0
 40
0.9999999999999973
  0
CIRCLE
  5
1B3
330
75
100
AcDbEntity
  8
Visible (ISO)
100
AcDbCircle
 10
289.2106741947799
 20
860.0750080556052
 30
0.0
 40
7.900000000000017
  0
CIRCLE
  5
1B4
330
75
100
AcDbEntity
  8
Visible (ISO)
100
AcDbCircle
 10
564.2106741947798
 20
860.0750080556052
 30
0.0
 40
8.000000000000008
  0
CIRCLE
  5
1B5
330
75
100
AcDbEntity
  8
Visible (ISO)
100
AcDbCircle
 10
564.2106741947798
 20
860.0750080556052
 30
0.0
 40
0.9999999999999964
  0
CIRCLE
  5
1B6
330
75
100
AcDbEntity
  8
Visible (ISO)
100
AcDbCircle
 10
564.2106741947798
 20
860.0750080556052
 30
0.0
 40
7.900000000000011
  0
LINE
  5
1B7
330
75
100
AcDbEntity
  8
Visible (ISO)
100
AcDbLine
 10
753.2106741946497
 20
1050.540914021728
 30
0.0
 11
113.2106741946499
 21
1050.540914021728
 31
0.0
  0
LINE
  5
1B8
330
75
100
AcDbEntity
  8
Visible (ISO)
100
AcDbLine
 10
113.2106741946498
 20
1050.540914021728
 30
0.0
 11
113.2106741946498
 21
1046.540914021728
 31
0.0
  0
LINE
  5
1B9
330
75
100
AcDbEntity
  8
Visible (ISO)
100
AcDbLine
 10
113.2106741946498
 20
1046.540914021728
 30
0.0
 11
753.2106741946497
 21
1046.540914021728
 31
0.0
  0
LINE
  5
1BA
330
75
100
AcDbEntity
  8
Visible (ISO)
100
AcDbLine
 10
753.2106741946497
 20
1050.540914021728
 30
0.0
 11
753.2106741946497
 21
1046.540914021728
 31
0.0
  0
LINE
  5
1BB
330
75
100
AcDbEntity
  8
Visible (ISO)
100
AcDbLine
 10
298.9906741946499
 20
1046.040914021723
 30
0.0
 11
279.4306741946499
 21
1046.040914021723
 31
0.0
  0
ARC
  5
1BC
330
75
100
AcDbEntity
  8
Visible (ISO)
100
AcDbCircle
 10
279.4306741946499
 20
1046.260914021723
 30
0.0
 40
0.2200000000000006
100
AcDbArc
 50
180.0
 51
270.0
  0
ARC
  5
1BD
330
75
100
AcDbEntity
  8
Visible (ISO)
100
AcDbCircle
 10
298.9906741946499
 20
1046.260914021723
 30
0.0
 40
0.2200000000000006
100
AcDbArc
 50
270.0
 51
0.0
  0
LINE
  5
1BE
330
75
100
AcDbEntity
  8
Visible (ISO)
100
AcDbLine
 10
279.2106741946499
 20
1046.260914021723
 30
0.0
 11
279.2106741946499
 21
1046.540914021723
 31
0.0
  0
LINE
  5
1BF
330
75
100
AcDbEntity
  8
Visible (ISO)
100
AcDbLine
 10
299.2106741946498
 20
1046.260914021723
 30
0.0
 11
299.2106741946498
 21
1046.540914021723
 31
0.0
  0
LINE
  5
1C0
330
75
100
AcDbEntity
  8
Visible (ISO)
100
AcDbLine
 10
573.9906741946499
 20
1046.040914021723
 30
0.0
 11
554.43067419465
 21
1046.040914021723
 31
0.0
  0
ARC
  5
1C1
330
75
100
AcDbEntity
  8
Visible (ISO)
100
AcDbCircle
 10
554.43067419465
 20
1046.260914021723
 30
0.0
 40
0.2200000000000006
100
AcDbArc
 50
180.0
 51
270.0
  0
ARC
  5
1C2
330
75
100
AcDbEntity
  8
Visible (ISO)
100
AcDbCircle
 10
573.9906741946499
 20
1046.260914021723
 30
0.0
 40
0.2200000000000006
100
AcDbArc
 50
270.0
 51
0.0
  0
LINE
  5
1C3
330
75
100
AcDbEntity
  8
Visible (ISO)
100
AcDbLine
 10
554.21067419465
 20
1046.260914021723
 30
0.0
 11
554.21067419465
 21
1046.540914021723
 31
0.0
  0
LINE
  5
1C4
330
75
100
AcDbEntity
  8
Visible (ISO)
100
AcDbLine
 10
574.2106741946499
 20
1046.260914021723
 30
0.0
 11
574.2106741946499
 21
1046.540914021723
 31
0.0
  0
LINE
  5
1C5
330
75
100
AcDbEntity
  8
Visible (ISO)
100
AcDbLine
 10
358.0406741946501
 20
1078.040914021728
 30
0.0
 11
369.9413321178647
 21
1078.040914021728
 31
0.0
  0
ARC
  5
1C6
330
75
100
AcDbEntity
  8
Visible (ISO)
100
AcDbCircle
 10
377.5406741946501
 20
1071.540914021728
 30
0.0
 40
10.0
100
AcDbArc
 50
220.5416018735041
 51
139.4583981264953
  0
ARC
  5
1C7
330
75
100
AcDbEntity
  8
Visible (ISO)
100
AcDbCircle
 10
358.0406741946501
 20
1071.540914021728
 30
0.0
 40
6.499999999999999
100
AcDbArc
 50
90.0
 51
270.0
  0
LINE
  5
1C8
330
75
100
AcDbEntity
  8
Visible (ISO)
100
AcDbLine
 10
369.9413321178647
 20
1065.040914021728
 30
0.0
 11
358.0406741946501
 21
1065.040914021728
 31
0.0
  0
LINE
  5
1C9
330
75
100
AcDbEntity
  8
Visible (ISO)
100
AcDbLine
 10
727.0606741946501
 20
1050.540914021727
 30
0.0
 11
727.0606741946501
 21
1058.490914021727
 31
0.0
  0
LINE
  5
1CA
330
75
100
AcDbEntity
  8
Visible (ISO)
100
AcDbLine
 10
727.0606741946501
 20
1058.490914021727
 30
0.0
 11
725.06067419465
 21
1058.490914021728
 31
0.0
  0
LINE
  5
1CB
330
75
100
AcDbEntity
  8
Visible (ISO)
100
AcDbLine
 10
725.06067419465
 20
1058.490914021728
 30
0.0
 11
701.5606741946499
 21
1058.490914021728
 31
0.0
  0
LINE
  5
1CC
330
75
100
AcDbEntity
  8
Visible (ISO)
100
AcDbLine
 10
701.5606741946499
 20
1058.490914021728
 30
0.0
 11
701.5606741946499
 21
1069.540914021728
 31
0.0
  0
LINE
  5
1CD
330
75
100
AcDbEntity
  8
Visible (ISO)
100
AcDbLine
 10
684.5606741946499
 20
1069.540914021728
 30
0.0
 11
684.5606741946499
 21
1069.040914021728
 31
0.0
  0
LINE
  5
1CE
330
75
100
AcDbEntity
  8
Visible (ISO)
100
AcDbLine
 10
684.5606741946499
 20
1069.040914021728
 30
0.0
 11
683.56067419465
 21
1069.040914021728
 31
0.0
  0
LINE
  5
1CF
330
75
100
AcDbEntity
  8
Visible (ISO)
100
AcDbLine
 10
683.56067419465
 20
1090.540914021728
 30
0.0
 11
683.56067419465
 21
1069.040914021728
 31
0.0
  0
LINE
  5
1D0
330
75
100
AcDbEntity
  8
Visible (ISO)
100
AcDbLine
 10
701.5606741946498
 20
1071.540914021727
 30
0.0
 11
684.5606741946499
 21
1071.540914021727
 31
0.0
  0
LINE
  5
1D1
330
75
100
AcDbEntity
  8
Visible (ISO)
100
AcDbLine
 10
701.5606741946499
 20
1071.540914021727
 30
0.0
 11
701.5606741946499
 21
1069.540914021727
 31
0.0
  0
LINE
  5
1D2
330
75
100
AcDbEntity
  8
Visible (ISO)
100
AcDbLine
 10
684.5606741946499
 20
1071.540914021727
 30
0.0
 11
684.5606741946499
 21
1069.540914021727
 31
0.0
  0
LINE
  5
1D3
330
75
100
AcDbEntity
  8
Visible (ISO)
100
AcDbLine
 10
683.56067419465
 20
1090.540914021728
 30
0.0
 11
681.5606741946501
 21
1090.540914021728
 31
0.0
  0
ARC
  5
1D4
330
75
100
AcDbEntity
  8
Visible (ISO)
100
AcDbCircle
 10
681.5606741946498
 20
1090.540914021727
 30
0.0
 40
2.00000000000007
100
AcDbArc
 50
0.0
 51
90.00000000000406
  0
ARC
  5
1D5
330
75
100
AcDbEntity
  8
Visible (ISO)
100
AcDbCircle
 10
681.5606741946501
 20
1090.540914021727
 30
0.0
 40
0.9999999999999641
100
AcDbArc
 50
0.0
 51
89.99999999999186
  0
LINE
  5
1D6
330
75
100
AcDbEntity
  8
Visible (ISO)
100
AcDbLine
 10
681.5606741946498
 20
1092.540914021727
 30
0.0
 11
681.5606741946498
 21
1090.540914021728
 31
0.0
  0
LINE
  5
1D7
330
75
100
AcDbEntity
  8
Visible (ISO)
100
AcDbLine
 10
135.2606741946501
 20
1090.540914021728
 30
0.0
 11
137.2606741946501
 21
1090.540914021728
 31
0.0
  0
LINE
  5
1D8
330
75
100
AcDbEntity
  8
Visible (ISO)
100
AcDbLine
 10
135.2606741946501
 20
1050.540914021728
 30
0.0
 11
135.2606741946501
 21
1090.540914021728
 31
0.0
  0
ARC
  5
1D9
330
75
100
AcDbEntity
  8
Visible (ISO)
100
AcDbCircle
 10
137.2606741946501
 20
1090.540914021727
 30
0.0
 40
2.0
100
AcDbArc
 50
89.99999999999745
 51
180.0
  0
ARC
  5
1DA
330
75
100
AcDbEntity
  8
Visible (ISO)
100
AcDbCircle
 10
137.2606741946501
 20
1090.540914021727
 30
0.0
 40
1.000000000000001
100
AcDbArc
 50
89.99999999999491
 51
180.0
  0
LINE
  5
1DB
330
75
100
AcDbEntity
  8
Visible (ISO)
100
AcDbLine
 10
137.2606741946501
 20
1092.540914021727
 30
0.0
 11
137.2606741946501
 21
1090.540914021728
 31
0.0
  0
LINE
  5
1DC
330
75
100
AcDbEntity
  8
Visible (ISO)
100
AcDbLine
 10
137.2606741946502
 20
1092.540914021727
 30
0.0
 11
681.56067419465
 21
1092.540914021727
 31
0.0
  0
LINE
  5
1DD
330
75
100
AcDbEntity
  8
Visible (ISO)
100
AcDbLine
 10
715.2106741946497
 20
1075.140914021726
 30
0.0
 11
719.8106741946496
 21
1076.140914021726
 31
0.0
  0
LINE
  5
1DE
330
75
100
AcDbEntity
  8
Visible (ISO)
100
AcDbLine
 10
719.8106741946496
 20
1076.140914021726
 30
0.0
 11
726.3106741946496
 21
1076.140914021726
 31
0.0
  0
LINE
  5
1DF
330
75
100
AcDbEntity
  8
Visible (ISO)
100
AcDbLine
 10
726.3106741946496
 20
1076.140914021726
 30
0.0
 11
726.3106741946496
 21
1067.140914021726
 31
0.0
  0
LINE
  5
1E0
330
75
100
AcDbEntity
  8
Visible (ISO)
100
AcDbLine
 10
726.3106741946496
 20
1067.140914021726
 30
0.0
 11
722.2106741946497
 21
1067.140914021726
 31
0.0
  0
LINE
  5
1E1
330
75
100
AcDbEntity
  8
Visible (ISO)
100
AcDbLine
 10
722.2106741946497
 20
1067.140914021726
 30
0.0
 11
722.2106741946497
 21
1058.490914021726
 31
0.0
  0
LINE
  5
1E2
330
75
100
AcDbEntity
  8
Visible (ISO)
100
AcDbLine
 10
715.2106741946497
 20
1058.490914021726
 30
0.0
 11
715.2106741946497
 21
1075.140914021726
 31
0.0
  0
LINE
  5
1E3
330
75
100
AcDbEntity
  8
Visible (ISO)
100
AcDbLine
 10
702.2106741946498
 20
1075.140914021726
 30
0.0
 11
706.8106741946499
 21
1076.140914021726
 31
0.0
  0
LINE
  5
1E4
330
75
100
AcDbEntity
  8
Visible (ISO)
100
AcDbLine
 10
706.8106741946499
 20
1076.140914021726
 30
0.0
 11
713.3106741946498
 21
1076.140914021726
 31
0.0
  0
LINE
  5
1E5
330
75
100
AcDbEntity
  8
Visible (ISO)
100
AcDbLine
 10
713.3106741946498
 20
1076.140914021726
 30
0.0
 11
713.3106741946498
 21
1067.140914021726
 31
0.0
  0
LINE
  5
1E6
330
75
100
AcDbEntity
  8
Visible (ISO)
100
AcDbLine
 10
713.3106741946498
 20
1067.140914021726
 30
0.0
 11
709.2106741946499
 21
1067.140914021726
 31
0.0
  0
LINE
  5
1E7
330
75
100
AcDbEntity
  8
Visible (ISO)
100
AcDbLine
 10
709.2106741946499
 20
1067.140914021726
 30
0.0
 11
709.2106741946499
 21
1058.490914021726
 31
0.0
  0
LINE
  5
1E8
330
75
100
AcDbEntity
  8
Visible (ISO)
100
AcDbLine
 10
702.2106741946498
 20
1058.490914021726
 30
0.0
 11
702.2106741946498
 21
1075.140914021726
 31
0.0
  0
LINE
  5
1E9
330
75
100
AcDbEntity
  8
Visible (ISO)
100
AcDbLine
 10
297.2106741946499
 20
1045.956907277158
 30
0.0
 11
281.2106741946499
 21
1045.956907277158
 31
0.0
  0
LINE
  5
1EA
330
75
100
AcDbEntity
  8
Visible (ISO)
100
AcDbLine
 10
290.2106741946499
 20
1037.056907277158
 30
0.0
 11
288.2106741946499
 21
1037.056907277158
 31
0.0
  0
LINE
  5
1EB
330
75
100
AcDbEntity
  8
Visible (ISO)
100
AcDbLine
 10
297.1106741946499
 20
1043.956907277158
 30
0.0
 11
281.3106741946499
 21
1043.956907277158
 31
0.0
  0
LINE
  5
1EC
330
75
100
AcDbEntity
  8
Visible (ISO)
100
AcDbLine
 10
281.2106741946499
 20
1045.956907277158
 30
0.0
 11
281.2106741946499
 21
1046.040914021723
 31
0.0
  0
LINE
  5
1ED
330
75
100
AcDbEntity
  8
Visible (ISO)
100
AcDbLine
 10
297.2106741946499
 20
1045.956907277158
 30
0.0
 11
297.2106741946499
 21
1046.040914021723
 31
0.0
  0
LINE
  5
1EE
330
75
100
AcDbEntity
  8
Visible (ISO)
100
AcDbLine
 10
288.2106741946499
 20
1037.056907277158
 30
0.0
 11
281.31067419465
 21
1043.956907277158
 31
0.0
  0
LINE
  5
1EF
330
75
100
AcDbEntity
  8
Visible (ISO)
100
AcDbLine
 10
290.2106741946499
 20
1037.056907277158
 30
0.0
 11
297.1106741946499
 21
1043.956907277158
 31
0.0
  0
LINE
  5
1F0
330
75
100
AcDbEntity
  8
Visible (ISO)
100
AcDbLine
 10
281.3106741946499
 20
1043.956907277158
 30
0.0
 11
281.3106741946499
 21
1045.956907277158
 31
0.0
  0
LINE
  5
1F1
330
75
100
AcDbEntity
  8
Visible (ISO)
100
AcDbLine
 10
297.1106741946499
 20
1043.956907277158
 30
0.0
 11
297.1106741946499
 21
1045.956907277158
 31
0.0
  0
LINE
  5
1F2
330
75
100
AcDbEntity
  8
Visible (ISO)
100
AcDbLine
 10
572.2106741946499
 20
1045.959716395303
 30
0.0
 11
556.2106741946499
 21
1045.959716395303
 31
0.0
  0
LINE
  5
1F3
330
75
100
AcDbEntity
  8
Visible (ISO)
100
AcDbLine
 10
565.2106741946498
 20
1037.059716395303
 30
0.0
 11
563.2106741946499
 21
1037.059716395303
 31
0.0
  0
LINE
  5
1F4
330
75
100
AcDbEntity
  8
Visible (ISO)
100
AcDbLine
 10
572.1106741946498
 20
1043.959716395303
 30
0.0
 11
556.3106741946499
 21
1043.959716395303
 31
0.0
  0
LINE
  5
1F5
330
75
100
AcDbEntity
  8
Visible (ISO)
100
AcDbLine
 10
556.2106741946499
 20
1045.959716395303
 30
0.0
 11
556.2106741946499
 21
1046.040914021723
 31
0.0
  0
LINE
  5
1F6
330
75
100
AcDbEntity
  8
Visible (ISO)
100
AcDbLine
 10
572.2106741946499
 20
1045.959716395303
 30
0.0
 11
572.2106741946499
 21
1046.040914021723
 31
0.0
  0
LINE
  5
1F7
330
75
100
AcDbEntity
  8
Visible (ISO)
100
AcDbLine
 10
563.2106741946499
 20
1037.059716395303
 30
0.0
 11
556.3106741946499
 21
1043.959716395303
 31
0.0
  0
LINE
  5
1F8
330
75
100
AcDbEntity
  8
Visible (ISO)
100
AcDbLine
 10
565.2106741946498
 20
1037.059716395303
 30
0.0
 11
572.1106741946498
 21
1043.959716395303
 31
0.0
  0
LINE
  5
1F9
330
75
100
AcDbEntity
  8
Visible (ISO)
100
AcDbLine
 10
556.31067419465
 20
1043.959716395303
 30
0.0
 11
556.31067419465
 21
1045.959716395303
 31
0.0
  0
LINE
  5
1FA
330
75
100
AcDbEntity
  8
Visible (ISO)
100
AcDbLine
 10
572.1106741946498
 20
1043.959716395303
 30
0.0
 11
572.1106741946498
 21
1045.959716395303
 31
0.0
  0
ARC
  5
1FB
330
75
100
AcDbEntity
  8
Visible (ISO)
100
AcDbCircle
 10
713.2106741943602
 20
649.1876561012138
 30
0.0
 40
1.500000000000004
100
AcDbArc
 50
273.8225537292819
 51
86.17744627072355
  0
LINE
  5
1FC
330
75
100
AcDbEntity
  8
Visible (ISO)
100
AcDbLine
 10
113.2106741943604
 20
668.1876561012103
 30
0.0
 11
753.2106741943605
 21
668.1876561012103
 31
0.0
  0
LINE
  5
1FD
330
75
100
AcDbEntity
  8
Visible (ISO)
100
AcDbLine
 10
113.2106741943604
 20
630.1876561012103
 30
0.0
 11
113.2106741943604
 21
668.1876561012103
 31
0.0
  0
LINE
  5
1FE
330
75
100
AcDbEntity
  8
Visible (ISO)
100
AcDbLine
 10
753.2106741943605
 20
630.1876561012102
 30
0.0
 11
113.2106741943605
 21
630.1876561012103
 31
0.0
  0
LINE
  5
1FF
330
75
100
AcDbEntity
  8
Visible (ISO)
100
AcDbLine
 10
753.2106741943605
 20
668.1876561012103
 30
0.0
 11
753.2106741943605
 21
630.1876561012102
 31
0.0
  0
CIRCLE
  5
200
330
75
100
AcDbEntity
  8
Visible (ISO)
100
AcDbCircle
 10
743.2106741943605
 20
639.1876561012102
 30
0.0
 40
2.75
  0
CIRCLE
  5
201
330
75
100
AcDbEntity
  8
Visible (ISO)
100
AcDbCircle
 10
123.2106741943604
 20
639.1876561012103
 30
0.0
 40
2.75
  0
CIRCLE
  5
202
330
75
100
AcDbEntity
  8
Visible (ISO)
100
AcDbCircle
 10
123.2106741943604
 20
659.1876561012102
 30
0.0
 40
2.75
  0
CIRCLE
  5
203
330
75
100
AcDbEntity
  8
Visible (ISO)
100
AcDbCircle
 10
743.2106741943605
 20
659.1876561012102
 30
0.0
 40
2.75
  0
CIRCLE
  5
204
330
75
100
AcDbEntity
  8
Visible (ISO)
100
AcDbCircle
 10
300.9606741943604
 20
641.1876561012348
 30
0.0
 40
1.749999999999999
  0
CIRCLE
  5
205
330
75
100
AcDbEntity
  8
Visible (ISO)
100
AcDbCircle
 10
300.9606741943604
 20
641.1876561012348
 30
0.0
 40
1.5
  0
CIRCLE
  5
206
330
75
100
AcDbEntity
  8
Visible (ISO)
100
AcDbCircle
 10
277.4606741943604
 20
657.1876561012349
 30
0.0
 40
1.750000000000093
  0
CIRCLE
  5
207
330
75
100
AcDbEntity
  8
Visible (ISO)
100
AcDbCircle
 10
277.4606741943604
 20
657.1876561012346
 30
0.0
 40
1.5
  0
LINE
  5
208
330
75
100
AcDbEntity
  8
Visible (ISO)
100
AcDbLine
 10
278.3324539830688
 20
655.3876561012348
 30
0.0
 11
276.5888944056527
 21
655.3876561012348
 31
0.0
  0
LINE
  5
209
330
75
100
AcDbEntity
  8
Visible (ISO)
100
AcDbLine
 10
301.8324539830691
 20
642.9876561012347
 30
0.0
 11
300.0888944056523
 21
642.9876561012347
 31
0.0
  0
CIRCLE
  5
20A
330
75
100
AcDbEntity
  8
Visible (ISO)
100
AcDbCircle
 10
575.9606741943604
 20
641.1876561012348
 30
0.0
 40
1.749999999999999
  0
CIRCLE
  5
20B
330
75
100
AcDbEntity
  8
Visible (ISO)
100
AcDbCircle
 10
575.9606741943604
 20
641.1876561012348
 30
0.0
 40
1.5
  0
CIRCLE
  5
20C
330
75
100
AcDbEntity
  8
Visible (ISO)
100
AcDbCircle
 10
552.4606741943605
 20
657.1876561012348
 30
0.0
 40
1.750000000000093
  0
CIRCLE
  5
20D
330
75
100
AcDbEntity
  8
Visible (ISO)
100
AcDbCircle
 10
552.4606741943605
 20
657.1876561012346
 30
0.0
 40
1.5
  0
LINE
  5
20E
330
75
100
AcDbEntity
  8
Visible (ISO)
100
AcDbLine
 10
553.3324539830687
 20
655.3876561012348
 30
0.0
 11
551.5888944056528
 21
655.3876561012348
 31
0.0
  0
LINE
  5
20F
330
75
100
AcDbEntity
  8
Visible (ISO)
100
AcDbLine
 10
576.8324539830691
 20
642.9876561012347
 30
0.0
 11
575.0888944056522
 21
642.9876561012347
 31
0.0
  0
CIRCLE
  5
210
330
75
100
AcDbEntity
  8
Visible (ISO)
100
AcDbCircle
 10
575.9606741943606
 20
641.1876561012353
 30
0.0
 40
2.749999999999999
  0
CIRCLE
  5
211
330
75
100
AcDbEntity
  8
Visible (ISO)
100
AcDbCircle
 10
575.9606741943606
 20
641.1876561012348
 30
0.0
 40
1.999999999999999
  0
CIRCLE
  5
212
330
75
100
AcDbEntity
  8
Visible (ISO)
100
AcDbCircle
 10
552.4606741943606
 20
657.1876561012354
 30
0.0
 40
2.749999999999999
  0
CIRCLE
  5
213
330
75
100
AcDbEntity
  8
Visible (ISO)
100
AcDbCircle
 10
552.4606741943606
 20
657.1876561012349
 30
0.0
 40
1.999999999999999
  0
CIRCLE
  5
214
330
75
100
AcDbEntity
  8
Visible (ISO)
100
AcDbCircle
 10
300.9606741943607
 20
641.1876561012353
 30
0.0
 40
2.749999999999999
  0
CIRCLE
  5
215
330
75
100
AcDbEntity
  8
Visible (ISO)
100
AcDbCircle
 10
300.9606741943607
 20
641.1876561012348
 30
0.0
 40
1.999999999999999
  0
CIRCLE
  5
216
330
75
100
AcDbEntity
  8
Visible (ISO)
100
AcDbCircle
 10
277.4606741943607
 20
657.1876561012354
 30
0.0
 40
2.749999999999999
  0
CIRCLE
  5
217
330
75
100
AcDbEntity
  8
Visible (ISO)
100
AcDbCircle
 10
277.4606741943607
 20
657.1876561012349
 30
0.0
 40
1.999999999999999
  0
CIRCLE
  5
218
330
75
100
AcDbEntity
  8
Visible (ISO)
100
AcDbCircle
 10
152.7106741943607
 20
649.1876561012354
 30
0.0
 40
2.749999999999999
  0
CIRCLE
  5
219
330
75
100
AcDbEntity
  8
Visible (ISO)
100
AcDbCircle
 10
152.7106741943607
 20
649.1876561012349
 30
0.0
 40
1.999999999999999
  0
LINE
  5
21A
330
75
100
AcDbEntity
  8
Visible (ISO)
100
AcDbLine
 10
683.5606741943607
 20
663.6876561012326
 30
0.0
 11
683.5606741943605
 21
664.5876561012325
 31
0.0
  0
LINE
  5
21B
330
75
100
AcDbEntity
  8
Visible (ISO)
100
AcDbLine
 10
682.5606741943606
 20
664.5876561012325
 30
0.0
 11
683.5606741943605
 21
664.5876561012325
 31
0.0
  0
LINE
  5
21C
330
75
100
AcDbEntity
  8
Visible (ISO)
100
AcDbLine
 10
682.5606741943606
 20
664.5876561012325
 30
0.0
 11
682.5606741943606
 21
663.6876561012327
 31
0.0
  0
LINE
  5
21D
330
75
100
AcDbEntity
  8
Visible (ISO)
100
AcDbLine
 10
683.5606741943605
 20
663.6876561012327
 30
0.0
 11
681.5606741943605
 21
663.6876561012338
 31
0.0
  0
LINE
  5
21E
330
75
100
AcDbEntity
  8
Visible (ISO)
100
AcDbLine
 10
681.5606741943606
 20
665.6876561012325
 30
0.0
 11
683.5606741943607
 21
665.6876561012325
 31
0.0
  0
LINE
  5
21F
330
75
100
AcDbEntity
  8
Visible (ISO)
100
AcDbLine
 10
683.5606741943605
 20
632.6876561012326
 30
0.0
 11
681.5606741943605
 21
632.6876561012326
 31
0.0
  0
LINE
  5
220
330
75
100
AcDbEntity
  8
Visible (ISO)
100
AcDbLine
 10
683.5606741943607
 20
664.6876561012327
 30
0.0
 11
681.5606741943606
 21
664.6876561012327
 31
0.0
  0
LINE
  5
221
330
75
100
AcDbEntity
  8
Visible (ISO)
100
AcDbLine
 10
681.5606741943605
 20
633.6876561012326
 30
0.0
 11
683.5606741943605
 21
633.6876561012326
 31
0.0
  0
LINE
  5
222
330
75
100
AcDbEntity
  8
Visible (ISO)
100
AcDbLine
 10
683.5606741943605
 20
634.6876561012326
 30
0.0
 11
683.5606741943607
 21
663.6876561012326
 31
0.0
  0
LINE
  5
223
330
75
100
AcDbEntity
  8
Visible (ISO)
100
AcDbLine
 10
683.5606741943605
 20
634.6876561012326
 30
0.0
 11
681.5606741943605
 21
634.6876561012338
 31
0.0
  0
LINE
  5
224
330
75
100
AcDbEntity
  8
Visible (ISO)
100
AcDbLine
 10
681.5606741943605
 20
665.6876561012327
 30
0.0
 11
681.5606741943605
 21
663.6876561012338
 31
0.0
  0
LINE
  5
225
330
75
100
AcDbEntity
  8
Visible (ISO)
100
AcDbLine
 10
681.5606741943605
 20
634.6876561012338
 30
0.0
 11
681.5606741943605
 21
632.6876561012326
 31
0.0
  0
LINE
  5
226
330
75
100
AcDbEntity
  8
Visible (ISO)
100
AcDbLine
 10
682.5606741943604
 20
633.7876561012326
 30
0.0
 11
683.5606741943605
 21
633.7876561012326
 31
0.0
  0
LINE
  5
227
330
75
100
AcDbEntity
  8
Visible (ISO)
100
AcDbLine
 10
683.5606741943605
 20
633.7876561012326
 30
0.0
 11
683.5606741943605
 21
634.6876561012326
 31
0.0
  0
LINE
  5
228
330
75
100
AcDbEntity
  8
Visible (ISO)
100
AcDbLine
 10
682.5606741943604
 20
634.6876561012326
 30
0.0
 11
682.5606741943604
 21
633.7876561012326
 31
0.0
  0
LINE
  5
229
330
75
100
AcDbEntity
  8
Visible (ISO)
100
AcDbLine
 10
727.0606741943606
 20
663.6876561012138
 30
0.0
 11
727.0606741943606
 21
649.2876561012135
 31
0.0
  0
LINE
  5
22A
330
75
100
AcDbEntity
  8
Visible (ISO)
100
AcDbLine
 10
726.0606741943605
 20
660.687656101215
 30
0.0
 11
726.0606741943607
 21
663.6876561012138
 31
0.0
  0
LINE
  5
22B
330
75
100
AcDbEntity
  8
Visible (ISO)
100
AcDbLine
 10
727.0606741943606
 20
649.2876561012135
 30
0.0
 11
726.3106741943602
 21
649.2876561012135
 31
0.0
  0
ARC
  5
22C
330
75
100
AcDbEntity
  8
Visible (ISO)
100
AcDbCircle
 10
725.0606741943606
 20
663.6876561012136
 30
0.0
 40
2.000000000000047
100
AcDbArc
 50
0.0
 51
90.0
  0
ARC
  5
22D
330
75
100
AcDbEntity
  8
Visible (ISO)
100
AcDbCircle
 10
725.0606741943608
 20
663.6876561012134
 30
0.0
 40
1.000000000000064
100
AcDbArc
 50
0.0
 51
90.00000000000811
  0
LINE
  5
22E
330
75
100
AcDbEntity
  8
Visible (ISO)
100
AcDbLine
 10
701.5606741943606
 20
665.6876561012136
 30
0.0
 11
725.0606741943604
 21
665.6876561012136
 31
0.0
  0
LINE
  5
22F
330
75
100
AcDbEntity
  8
Visible (ISO)
100
AcDbLine
 10
701.5606741943606
 20
664.6876561012136
 30
0.0
 11
725.0606741943604
 21
664.6876561012135
 31
0.0
  0
LINE
  5
230
330
75
100
AcDbEntity
  8
Visible (ISO)
100
AcDbLine
 10
137.2606741943608
 20
665.6876561012341
 30
0.0
 11
135.2606741943607
 21
665.6876561012341
 31
0.0
  0
LINE
  5
231
330
75
100
AcDbEntity
  8
Visible (ISO)
100
AcDbLine
 10
137.2606741943607
 20
664.6876561012343
 30
0.0
 11
135.2606741943607
 21
664.6876561012343
 31
0.0
  0
LINE
  5
232
330
75
100
AcDbEntity
  8
Visible (ISO)
100
AcDbLine
 10
136.2606741943608
 20
664.5876561012341
 30
0.0
 11
135.2606741943608
 21
664.5876561012341
 31
0.0
  0
LINE
  5
233
330
75
100
AcDbEntity
  8
Visible (ISO)
100
AcDbLine
 10
135.2606741943607
 20
664.6876561012343
 30
0.0
 11
135.2606741943607
 21
665.6876561012341
 31
0.0
  0
LINE
  5
234
330
75
100
AcDbEntity
  8
Visible (ISO)
100
AcDbLine
 10
136.2606741943608
 20
663.6876561012342
 30
0.0
 11
136.2606741943608
 21
664.5876561012341
 31
0.0
  0
LINE
  5
235
330
75
100
AcDbEntity
  8
Visible (ISO)
100
AcDbLine
 10
135.2606741943608
 20
664.5876561012341
 30
0.0
 11
135.2606741943607
 21
663.6876561012342
 31
0.0
  0
LINE
  5
236
330
75
100
AcDbEntity
  8
Visible (ISO)
100
AcDbLine
 10
137.2606741943608
 20
665.6876561012341
 30
0.0
 11
681.5606741943606
 21
665.6876561012325
 31
0.0
  0
LINE
  5
237
330
75
100
AcDbEntity
  8
Visible (ISO)
100
AcDbLine
 10
681.5606741943605
 20
632.6876561012326
 30
0.0
 11
137.2606741943607
 21
632.6876561012341
 31
0.0
  0
LINE
  5
238
330
75
100
AcDbEntity
  8
Visible (ISO)
100
AcDbLine
 10
135.2606741943606
 20
634.6876561012342
 30
0.0
 11
135.2606741943608
 21
663.6876561012342
 31
0.0
  0
LINE
  5
239
330
75
100
AcDbEntity
  8
Visible (ISO)
100
AcDbLine
 10
683.5606741943604
 20
665.6876561012199
 30
0.0
 11
684.5606741943605
 21
665.6876561012199
 31
0.0
  0
LINE
  5
23A
330
75
100
AcDbEntity
  8
Visible (ISO)
100
AcDbLine
 10
684.5606741943605
 20
665.6876561012202
 30
0.0
 11
701.5606741943606
 21
665.6876561012201
 31
0.0
  0
LINE
  5
23B
330
75
100
AcDbEntity
  8
Visible (ISO)
100
AcDbLine
 10
684.5606741943605
 20
663.6876561012213
 30
0.0
 11
684.5606741943605
 21
665.6876561012202
 31
0.0
  0
LINE
  5
23C
330
75
100
AcDbEntity
  8
Visible (ISO)
100
AcDbLine
 10
701.5606741943606
 20
663.6876561012212
 30
0.0
 11
701.5606741943606
 21
665.6876561012201
 31
0.0
  0
LINE
  5
23D
330
75
100
AcDbEntity
  8
Visible (ISO)
100
AcDbLine
 10
684.5606741943605
 20
664.6876561012199
 30
0.0
 11
683.5606741943604
 21
664.6876561012199
 31
0.0
  0
LINE
  5
23E
330
75
100
AcDbEntity
  8
Visible (ISO)
100
AcDbLine
 10
683.5606741943607
 20
665.6876561012325
 30
0.0
 11
683.5606741943607
 21
664.6876561012327
 31
0.0
  0
LINE
  5
23F
330
75
100
AcDbEntity
  8
Visible (ISO)
100
AcDbLine
 10
727.0606741943606
 20
649.0876561012133
 30
0.0
 11
727.0606741943606
 21
634.6876561012132
 31
0.0
  0
LINE
  5
240
330
75
100
AcDbEntity
  8
Visible (ISO)
100
AcDbLine
 10
726.3106741943602
 20
649.0876561012133
 30
0.0
 11
727.0606741943606
 21
649.0876561012133
 31
0.0
  0
LINE
  5
241
330
75
100
AcDbEntity
  8
Visible (ISO)
100
AcDbLine
 10
726.0606741943607
 20
634.6876561012132
 30
0.0
 11
726.0606741943607
 21
638.687656101215
 31
0.0
  0
ARC
  5
242
330
75
100
AcDbEntity
  8
Visible (ISO)
100
AcDbCircle
 10
725.0606741943604
 20
634.6876561012135
 30
0.0
 40
1.000000000000058
100
AcDbArc
 50
269.9999999999919
 51
0.0
  0
ARC
  5
243
330
75
100
AcDbEntity
  8
Visible (ISO)
100
AcDbCircle
 10
725.0606741943606
 20
634.6876561012134
 30
0.0
 40
2.000000000000001
100
AcDbArc
 50
269.9999999999959
 51
0.0
  0
LINE
  5
244
330
75
100
AcDbEntity
  8
Visible (ISO)
100
AcDbLine
 10
725.0606741943604
 20
633.6876561012133
 30
0.0
 11
701.5606741943606
 21
633.6876561012135
 31
0.0
  0
LINE
  5
245
330
75
100
AcDbEntity
  8
Visible (ISO)
100
AcDbLine
 10
725.0606741943604
 20
632.6876561012134
 30
0.0
 11
701.5606741943606
 21
632.6876561012134
 31
0.0
  0
LINE
  5
246
330
75
100
AcDbEntity
  8
Visible (ISO)
100
AcDbLine
 10
701.5606741943606
 20
632.6876561012201
 30
0.0
 11
684.5606741943607
 21
632.6876561012201
 31
0.0
  0
LINE
  5
247
330
75
100
AcDbEntity
  8
Visible (ISO)
100
AcDbLine
 10
684.5606741943607
 20
632.6876561012197
 30
0.0
 11
683.5606741943605
 21
632.6876561012197
 31
0.0
  0
LINE
  5
248
330
75
100
AcDbEntity
  8
Visible (ISO)
100
AcDbLine
 10
701.5606741943606
 20
634.6876561012212
 30
0.0
 11
701.5606741943606
 21
632.6876561012199
 31
0.0
  0
LINE
  5
249
330
75
100
AcDbEntity
  8
Visible (ISO)
100
AcDbLine
 10
684.5606741943607
 20
634.6876561012213
 30
0.0
 11
684.5606741943607
 21
632.6876561012201
 31
0.0
  0
LINE
  5
24A
330
75
100
AcDbEntity
  8
Visible (ISO)
100
AcDbLine
 10
683.5606741943605
 20
633.6876561012197
 30
0.0
 11
684.5606741943607
 21
633.6876561012197
 31
0.0
  0
LINE
  5
24B
330
75
100
AcDbEntity
  8
Visible (ISO)
100
AcDbLine
 10
683.5606741943605
 20
633.6876561012326
 30
0.0
 11
683.5606741943605
 21
632.6876561012326
 31
0.0
  0
LINE
  5
24C
330
75
100
AcDbEntity
  8
Visible (ISO)
100
AcDbLine
 10
135.2606741943606
 20
632.6876561012341
 30
0.0
 11
137.2606741943606
 21
632.6876561012341
 31
0.0
  0
LINE
  5
24D
330
75
100
AcDbEntity
  8
Visible (ISO)
100
AcDbLine
 10
137.2606741943606
 20
633.6876561012342
 30
0.0
 11
135.2606741943606
 21
633.6876561012342
 31
0.0
  0
LINE
  5
24E
330
75
100
AcDbEntity
  8
Visible (ISO)
100
AcDbLine
 10
136.2606741943606
 20
633.7876561012342
 30
0.0
 11
135.2606741943606
 21
633.7876561012342
 31
0.0
  0
LINE
  5
24F
330
75
100
AcDbEntity
  8
Visible (ISO)
100
AcDbLine
 10
135.2606741943606
 20
633.6876561012342
 30
0.0
 11
135.2606741943606
 21
632.6876561012341
 31
0.0
  0
LINE
  5
250
330
75
100
AcDbEntity
  8
Visible (ISO)
100
AcDbLine
 10
136.2606741943606
 20
634.6876561012342
 30
0.0
 11
136.2606741943606
 21
633.7876561012342
 31
0.0
  0
LINE
  5
251
330
75
100
AcDbEntity
  8
Visible (ISO)
100
AcDbLine
 10
135.2606741943606
 20
634.6876561012342
 30
0.0
 11
135.2606741943606
 21
633.7876561012342
 31
0.0
  0
LINE
  5
252
330
75
100
AcDbEntity
  8
Visible (ISO)
100
AcDbLine
 10
684.5606741943605
 20
663.6876561012213
 30
0.0
 11
684.5606741943604
 21
649.2876561012214
 31
0.0
  0
LINE
  5
253
330
75
100
AcDbEntity
  8
Visible (ISO)
100
AcDbLine
 10
701.5606741943606
 20
649.2876561012214
 30
0.0
 11
684.5606741943604
 21
649.2876561012214
 31
0.0
  0
LINE
  5
254
330
75
100
AcDbEntity
  8
Visible (ISO)
100
AcDbLine
 10
701.5606741943606
 20
649.2876561012214
 30
0.0
 11
701.5606741943606
 21
663.6876561012213
 31
0.0
  0
LINE
  5
255
330
75
100
AcDbEntity
  8
Visible (ISO)
100
AcDbLine
 10
701.5606741943606
 20
634.6876561012212
 30
0.0
 11
701.5606741943606
 21
649.0876561012213
 31
0.0
  0
LINE
  5
256
330
75
100
AcDbEntity
  8
Visible (ISO)
100
AcDbLine
 10
684.5606741943607
 20
649.0876561012213
 30
0.0
 11
701.5606741943606
 21
649.0876561012213
 31
0.0
  0
LINE
  5
257
330
75
100
AcDbEntity
  8
Visible (ISO)
100
AcDbLine
 10
684.5606741943607
 20
649.0876561012213
 30
0.0
 11
684.5606741943607
 21
634.6876561012213
 31
0.0
  0
LINE
  5
258
330
75
100
AcDbEntity
  8
Visible (ISO)
100
AcDbLine
 10
135.2606741943606
 20
634.6876561012342
 30
0.0
 11
137.2606741943607
 21
634.6876561012354
 31
0.0
  0
LINE
  5
259
330
75
100
AcDbEntity
  8
Visible (ISO)
100
AcDbLine
 10
137.2606741943607
 20
663.6876561012353
 30
0.0
 11
135.2606741943608
 21
663.6876561012342
 31
0.0
  0
LINE
  5
25A
330
75
100
AcDbEntity
  8
Visible (ISO)
100
AcDbLine
 10
137.2606741943606
 20
634.6876561012354
 30
0.0
 11
137.2606741943606
 21
632.6876561012341
 31
0.0
  0
LINE
  5
25B
330
75
100
AcDbEntity
  8
Visible (ISO)
100
AcDbLine
 10
137.2606741943608
 20
665.6876561012341
 30
0.0
 11
137.2606741943608
 21
663.6876561012353
 31
0.0
  0
ARC
  5
25C
330
75
100
AcDbEntity
  8
Visible (ISO)
100
AcDbCircle
 10
713.2106741943606
 20
649.1876561012148
 30
0.0
 40
1.899999999999995
100
AcDbArc
 50
273.0169613098131
 51
86.98303869018678
  0
LINE
  5
25D
330
75
100
AcDbEntity
  8
Visible (ISO)
100
AcDbLine
 10
725.2106741943605
 20
633.6989701045489
 30
0.0
 11
725.2106741943605
 21
638.6876561012148
 31
0.0
  0
LINE
  5
25E
330
75
100
AcDbEntity
  8
Visible (ISO)
100
AcDbLine
 10
725.2106741943605
 20
660.6876561012147
 30
0.0
 11
725.2106741943605
 21
664.6763420978776
 31
0.0
  0
LINE
  5
25F
330
75
100
AcDbEntity
  8
Visible (ISO)
100
AcDbLine
 10
721.8106741943603
 20
657.1876561012255
 30
0.0
 11
721.8106741943603
 21
659.6876561012256
 31
0.0
  0
LINE
  5
260
330
75
100
AcDbEntity
  8
Visible (ISO)
100
AcDbLine
 10
724.8106741943603
 20
657.1876561012255
 30
0.0
 11
721.8106741943603
 21
657.1876561012255
 31
0.0
  0
LINE
  5
261
330
75
100
AcDbEntity
  8
Visible (ISO)
100
AcDbLine
 10
724.8106741943603
 20
659.6876561012256
 30
0.0
 11
724.8106741943603
 21
657.1876561012255
 31
0.0
  0
LINE
  5
262
330
75
100
AcDbEntity
  8
Visible (ISO)
100
AcDbLine
 10
721.8106741943603
 20
659.6876561012256
 30
0.0
 11
724.8106741943603
 21
659.6876561012256
 31
0.0
  0
LINE
  5
263
330
75
100
AcDbEntity
  8
Visible (ISO)
100
AcDbLine
 10
721.8106741943603
 20
643.1876561012256
 30
0.0
 11
721.8106741943603
 21
645.4876561012256
 31
0.0
  0
LINE
  5
264
330
75
100
AcDbEntity
  8
Visible (ISO)
100
AcDbLine
 10
724.8106741943603
 20
643.1876561012256
 30
0.0
 11
721.8106741943603
 21
643.1876561012256
 31
0.0
  0
LINE
  5
265
330
75
100
AcDbEntity
  8
Visible (ISO)
100
AcDbLine
 10
724.8106741943603
 20
645.4876561012256
 30
0.0
 11
724.8106741943603
 21
643.1876561012256
 31
0.0
  0
LINE
  5
266
330
75
100
AcDbEntity
  8
Visible (ISO)
100
AcDbLine
 10
721.8106741943603
 20
645.4876561012256
 30
0.0
 11
724.8106741943603
 21
645.4876561012256
 31
0.0
  0
LINE
  5
267
330
75
100
AcDbEntity
  8
Visible (ISO)
100
AcDbLine
 10
724.8106741943603
 20
641.9876561012256
 30
0.0
 11
724.8106741943603
 21
639.6876561012255
 31
0.0
  0
LINE
  5
268
330
75
100
AcDbEntity
  8
Visible (ISO)
100
AcDbLine
 10
721.8106741943603
 20
641.9876561012256
 30
0.0
 11
724.8106741943603
 21
641.9876561012256
 31
0.0
  0
LINE
  5
269
330
75
100
AcDbEntity
  8
Visible (ISO)
100
AcDbLine
 10
721.8106741943603
 20
639.6876561012255
 30
0.0
 11
721.8106741943603
 21
641.9876561012256
 31
0.0
  0
LINE
  5
26A
330
75
100
AcDbEntity
  8
Visible (ISO)
100
AcDbLine
 10
724.8106741943603
 20
639.6876561012255
 30
0.0
 11
721.8106741943603
 21
639.6876561012255
 31
0.0
  0
LINE
  5
26B
330
75
100
AcDbEntity
  8
Visible (ISO)
100
AcDbLine
 10
721.8106741943603
 20
646.6876561012257
 30
0.0
 11
721.8106741943603
 21
648.9876561012255
 31
0.0
  0
LINE
  5
26C
330
75
100
AcDbEntity
  8
Visible (ISO)
100
AcDbLine
 10
724.8106741943603
 20
646.6876561012257
 30
0.0
 11
721.8106741943603
 21
646.6876561012257
 31
0.0
  0
LINE
  5
26D
330
75
100
AcDbEntity
  8
Visible (ISO)
100
AcDbLine
 10
724.8106741943603
 20
648.9876561012255
 30
0.0
 11
724.8106741943603
 21
646.6876561012257
 31
0.0
  0
LINE
  5
26E
330
75
100
AcDbEntity
  8
Visible (ISO)
100
AcDbLine
 10
721.8106741943603
 20
648.9876561012255
 30
0.0
 11
724.8106741943603
 21
648.9876561012255
 31
0.0
  0
LINE
  5
26F
330
75
100
AcDbEntity
  8
Visible (ISO)
100
AcDbLine
 10
721.8106741943603
 20
650.1876561012255
 30
0.0
 11
721.8106741943603
 21
652.4876561012256
 31
0.0
  0
LINE
  5
270
330
75
100
AcDbEntity
  8
Visible (ISO)
100
AcDbLine
 10
724.8106741943603
 20
650.1876561012255
 30
0.0
 11
721.8106741943603
 21
650.1876561012255
 31
0.0
  0
LINE
  5
271
330
75
100
AcDbEntity
  8
Visible (ISO)
100
AcDbLine
 10
724.8106741943603
 20
652.4876561012256
 30
0.0
 11
724.8106741943603
 21
650.1876561012255
 31
0.0
  0
LINE
  5
272
330
75
100
AcDbEntity
  8
Visible (ISO)
100
AcDbLine
 10
721.8106741943603
 20
652.4876561012256
 30
0.0
 11
724.8106741943603
 21
652.4876561012256
 31
0.0
  0
LINE
  5
273
330
75
100
AcDbEntity
  8
Visible (ISO)
100
AcDbLine
 10
721.8106741943603
 20
653.6876561012256
 30
0.0
 11
721.8106741943603
 21
655.9876561012255
 31
0.0
  0
LINE
  5
274
330
75
100
AcDbEntity
  8
Visible (ISO)
100
AcDbLine
 10
724.8106741943603
 20
653.6876561012256
 30
0.0
 11
721.8106741943603
 21
653.6876561012256
 31
0.0
  0
LINE
  5
275
330
75
100
AcDbEntity
  8
Visible (ISO)
100
AcDbLine
 10
724.8106741943603
 20
655.9876561012255
 30
0.0
 11
724.8106741943603
 21
653.6876561012256
 31
0.0
  0
LINE
  5
276
330
75
100
AcDbEntity
  8
Visible (ISO)
100
AcDbLine
 10
721.8106741943603
 20
655.9876561012255
 30
0.0
 11
724.8106741943603
 21
655.9876561012255
 31
0.0
  0
LINE
  5
277
330
75
100
AcDbEntity
  8
Visible (ISO)
100
AcDbLine
 10
715.2106741943603
 20
638.6876561012249
 30
0.0
 11
719.8106741943603
 21
638.6876561012256
 31
0.0
  0
LINE
  5
278
330
75
100
AcDbEntity
  8
Visible (ISO)
100
AcDbLine
 10
719.8106741943603
 20
660.6876561012255
 30
0.0
 11
719.8106741943603
 21
638.6876561012256
 31
0.0
  0
LINE
  5
279
330
75
100
AcDbEntity
  8
Visible (ISO)
100
AcDbLine
 10
715.2106741943603
 20
660.6876561012249
 30
0.0
 11
719.8106741943603
 21
660.6876561012255
 31
0.0
  0
LINE
  5
27A
330
75
100
AcDbEntity
  8
Visible (ISO)
100
AcDbLine
 10
715.2106741943603
 20
660.6876561012249
 30
0.0
 11
715.2106741943603
 21
638.6876561012249
 31
0.0
  0
LINE
  5
27B
330
75
100
AcDbEntity
  8
Visible (ISO)
100
AcDbLine
 10
719.8106741943603
 20
638.6876561012256
 30
0.0
 11
726.3106741943603
 21
638.6876561012256
 31
0.0
  0
LINE
  5
27C
330
75
100
AcDbEntity
  8
Visible (ISO)
100
AcDbLine
 10
726.3106741943603
 20
660.6876561012255
 30
0.0
 11
726.3106741943603
 21
638.6876561012256
 31
0.0
  0
LINE
  5
27D
330
75
100
AcDbEntity
  8
Visible (ISO)
100
AcDbLine
 10
719.8106741943603
 20
660.6876561012255
 30
0.0
 11
726.3106741943603
 21
660.6876561012255
 31
0.0
  0
LINE
  5
27E
330
75
100
AcDbEntity
  8
Visible (ISO)
100
AcDbLine
 10
708.8106741943605
 20
657.1876561012255
 30
0.0
 11
708.8106741943605
 21
659.6876561012256
 31
0.0
  0
LINE
  5
27F
330
75
100
AcDbEntity
  8
Visible (ISO)
100
AcDbLine
 10
711.8106741943604
 20
657.1876561012255
 30
0.0
 11
708.8106741943605
 21
657.1876561012255
 31
0.0
  0
LINE
  5
280
330
75
100
AcDbEntity
  8
Visible (ISO)
100
AcDbLine
 10
711.8106741943604
 20
659.6876561012256
 30
0.0
 11
711.8106741943604
 21
657.1876561012255
 31
0.0
  0
LINE
  5
281
330
75
100
AcDbEntity
  8
Visible (ISO)
100
AcDbLine
 10
708.8106741943605
 20
659.6876561012256
 30
0.0
 11
711.8106741943604
 21
659.6876561012256
 31
0.0
  0
LINE
  5
282
330
75
100
AcDbEntity
  8
Visible (ISO)
100
AcDbLine
 10
708.8106741943605
 20
643.1876561012256
 30
0.0
 11
708.8106741943605
 21
645.4876561012256
 31
0.0
  0
LINE
  5
283
330
75
100
AcDbEntity
  8
Visible (ISO)
100
AcDbLine
 10
711.8106741943604
 20
643.1876561012256
 30
0.0
 11
708.8106741943605
 21
643.1876561012256
 31
0.0
  0
LINE
  5
284
330
75
100
AcDbEntity
  8
Visible (ISO)
100
AcDbLine
 10
711.8106741943604
 20
645.4876561012256
 30
0.0
 11
711.8106741943604
 21
643.1876561012256
 31
0.0
  0
LINE
  5
285
330
75
100
AcDbEntity
  8
Visible (ISO)
100
AcDbLine
 10
708.8106741943605
 20
645.4876561012256
 30
0.0
 11
711.8106741943604
 21
645.4876561012256
 31
0.0
  0
LINE
  5
286
330
75
100
AcDbEntity
  8
Visible (ISO)
100
AcDbLine
 10
711.8106741943604
 20
641.9876561012256
 30
0.0
 11
711.8106741943604
 21
639.6876561012255
 31
0.0
  0
LINE
  5
287
330
75
100
AcDbEntity
  8
Visible (ISO)
100
AcDbLine
 10
708.8106741943605
 20
641.9876561012256
 30
0.0
 11
711.8106741943604
 21
641.9876561012256
 31
0.0
  0
LINE
  5
288
330
75
100
AcDbEntity
  8
Visible (ISO)
100
AcDbLine
 10
708.8106741943605
 20
639.6876561012255
 30
0.0
 11
708.8106741943605
 21
641.9876561012256
 31
0.0
  0
LINE
  5
289
330
75
100
AcDbEntity
  8
Visible (ISO)
100
AcDbLine
 10
711.8106741943604
 20
639.6876561012255
 30
0.0
 11
708.8106741943605
 21
639.6876561012255
 31
0.0
  0
LINE
  5
28A
330
75
100
AcDbEntity
  8
Visible (ISO)
100
AcDbLine
 10
708.8106741943605
 20
646.6876561012257
 30
0.0
 11
708.8106741943605
 21
648.9876561012255
 31
0.0
  0
LINE
  5
28B
330
75
100
AcDbEntity
  8
Visible (ISO)
100
AcDbLine
 10
711.8106741943604
 20
646.6876561012257
 30
0.0
 11
708.8106741943605
 21
646.6876561012257
 31
0.0
  0
LINE
  5
28C
330
75
100
AcDbEntity
  8
Visible (ISO)
100
AcDbLine
 10
711.8106741943604
 20
648.9876561012255
 30
0.0
 11
711.8106741943604
 21
646.6876561012257
 31
0.0
  0
LINE
  5
28D
330
75
100
AcDbEntity
  8
Visible (ISO)
100
AcDbLine
 10
708.8106741943605
 20
648.9876561012255
 30
0.0
 11
711.8106741943604
 21
648.9876561012255
 31
0.0
  0
LINE
  5
28E
330
75
100
AcDbEntity
  8
Visible (ISO)
100
AcDbLine
 10
708.8106741943605
 20
650.1876561012255
 30
0.0
 11
708.8106741943605
 21
652.4876561012256
 31
0.0
  0
LINE
  5
28F
330
75
100
AcDbEntity
  8
Visible (ISO)
100
AcDbLine
 10
711.8106741943604
 20
650.1876561012255
 30
0.0
 11
708.8106741943605
 21
650.1876561012255
 31
0.0
  0
LINE
  5
290
330
75
100
AcDbEntity
  8
Visible (ISO)
100
AcDbLine
 10
711.8106741943604
 20
652.4876561012256
 30
0.0
 11
711.8106741943604
 21
650.1876561012255
 31
0.0
  0
LINE
  5
291
330
75
100
AcDbEntity
  8
Visible (ISO)
100
AcDbLine
 10
708.8106741943605
 20
652.4876561012256
 30
0.0
 11
711.8106741943604
 21
652.4876561012256
 31
0.0
  0
LINE
  5
292
330
75
100
AcDbEntity
  8
Visible (ISO)
100
AcDbLine
 10
708.8106741943605
 20
653.6876561012254
 30
0.0
 11
708.8106741943605
 21
655.9876561012255
 31
0.0
  0
LINE
  5
293
330
75
100
AcDbEntity
  8
Visible (ISO)
100
AcDbLine
 10
711.8106741943604
 20
653.6876561012254
 30
0.0
 11
708.8106741943605
 21
653.6876561012254
 31
0.0
  0
LINE
  5
294
330
75
100
AcDbEntity
  8
Visible (ISO)
100
AcDbLine
 10
711.8106741943604
 20
655.9876561012255
 30
0.0
 11
711.8106741943604
 21
653.6876561012254
 31
0.0
  0
LINE
  5
295
330
75
100
AcDbEntity
  8
Visible (ISO)
100
AcDbLine
 10
708.8106741943605
 20
655.9876561012255
 30
0.0
 11
711.8106741943604
 21
655.9876561012255
 31
0.0
  0
LINE
  5
296
330
75
100
AcDbEntity
  8
Visible (ISO)
100
AcDbLine
 10
702.2106741943605
 20
638.6876561012249
 30
0.0
 11
706.8106741943607
 21
638.6876561012256
 31
0.0
  0
LINE
  5
297
330
75
100
AcDbEntity
  8
Visible (ISO)
100
AcDbLine
 10
706.8106741943607
 20
660.6876561012255
 30
0.0
 11
706.8106741943607
 21
638.6876561012256
 31
0.0
  0
LINE
  5
298
330
75
100
AcDbEntity
  8
Visible (ISO)
100
AcDbLine
 10
702.2106741943605
 20
660.6876561012249
 30
0.0
 11
706.8106741943607
 21
660.6876561012255
 31
0.0
  0
LINE
  5
299
330
75
100
AcDbEntity
  8
Visible (ISO)
100
AcDbLine
 10
702.2106741943605
 20
660.6876561012249
 30
0.0
 11
702.2106741943605
 21
638.6876561012249
 31
0.0
  0
LINE
  5
29A
330
75
100
AcDbEntity
  8
Visible (ISO)
100
AcDbLine
 10
706.8106741943607
 20
638.6876561012256
 30
0.0
 11
713.3106741943605
 21
638.6876561012256
 31
0.0
  0
LINE
  5
29B
330
75
100
AcDbEntity
  8
Visible (ISO)
100
AcDbLine
 10
713.3106741943605
 20
660.6876561012255
 30
0.0
 11
713.3106741943605
 21
638.6876561012256
 31
0.0
  0
LINE
  5
29C
330
75
100
AcDbEntity
  8
Visible (ISO)
100
AcDbLine
 10
706.8106741943607
 20
660.6876561012255
 30
0.0
 11
713.3106741943605
 21
660.6876561012255
 31
0.0
  0
LINE
  5
29D
330
75
100
AcDbEntity
  8
Visible (ISO)
100
AcDbLine
 10
418.6736775540859
 20
555.9865464051667
 30
0.0
 11
435.5500676720758
 21
565.7050131250013
 31
0.0
  0
LINE
  5
29E
330
75
100
AcDbEntity
  8
Visible (ISO)
100
AcDbLine
 10
73.51139570449699
 20
332.3673750681513
 30
0.0
 11
73.5113957045052
 21
348.3683341004362
 31
0.0
  0
LINE
  5
29F
330
75
100
AcDbEntity
  8
Visible (ISO)
100
AcDbLine
 10
435.550067672063
 20
540.8515805297953
 30
0.0
 11
73.51139570449703
 21
332.3673750681513
 31
0.0
  0
LINE
  5
2A0
330
75
100
AcDbEntity
  8
Visible (ISO)
100
AcDbLine
 10
435.5500676720758
 20
565.7050131250013
 30
0.0
 11
435.550067672063
 21
540.8515805297953
 31
0.0
  0
LINE
  5
2A1
330
75
100
AcDbEntity
  8
Visible (ISO)
100
AcDbLine
 10
73.51139570449699
 20
332.3673750681513
 30
0.0
 11
75.77413740429361
 21
331.0643487840142
 31
0.0
  0
LINE
  5
2A2
330
75
100
AcDbEntity
  8
Visible (ISO)
100
AcDbLine
 10
75.77413740429361
 20
331.0643487840142
 30
0.0
 11
437.8128093718596
 21
539.5485542456581
 31
0.0
  0
LINE
  5
2A3
330
75
100
AcDbEntity
  8
Visible (ISO)
100
AcDbLine
 10
435.550067672063
 20
540.8515805297953
 30
0.0
 11
437.8128093718596
 21
539.5485542456581
 31
0.0
  0
LINE
  5
2A4
330
75
100
AcDbEntity
  8
Visible (ISO)
100
AcDbLine
 10
437.8128093718596
 20
539.5485542456581
 30
0.0
 11
437.8128093718725
 21
564.4019868408641
 31
0.0
  0
LINE
  5
2A5
330
75
100
AcDbEntity
  8
Visible (ISO)
100
AcDbLine
 10
435.5500676720758
 20
565.7050131250013
 30
0.0
 11
437.8128093718725
 21
564.4019868408641
 31
0.0
  0
ELLIPSE
  5
2A6
330
75
100
AcDbEntity
  8
Visible (ISO)
100
AcDbEllipse
 10
429.8932134225728
 20
543.4803541183216
 30
0.0
 11
-1.097870865486786
 21
-1.906483559518752
 31
0.0
210
0.0
220
0.0
230
1.0
 40
0.5780931159154691
 41
0.000000000000195
 42
6.283185307179586
  0
ELLIPSE
  5
2A7
330
75
100
AcDbEntity
  8
Visible (ISO)
100
AcDbEllipse
 10
79.16824995399323
 20
341.511280077354
 30
0.0
 11
-1.097870865486786
 21
-1.906483559518752
 31
0.0
210
0.0
220
0.0
230
1.0
 40
0.5780931159154691
 41
0.000000000000195
 42
6.283185307179586
  0
ELLIPSE
  5
2A8
330
75
100
AcDbEntity
  8
Visible (ISO)
100
AcDbEllipse
 10
429.8932134225796
 20
556.5611081157985
 30
0.0
 11
-1.097870865486786
 21
-1.906483559518752
 31
0.0
210
0.0
220
0.0
230
1.0
 40
0.5780931159154691
 41
0.000000000000195
 42
6.283185307179586
  0
ELLIPSE
  5
2A9
330
75
100
AcDbEntity
  8
Visible (ISO)
100
AcDbEllipse
 10
432.1559551223763
 20
555.2580818316612
 30
0.0
 11
-1.996128846339266
 21
-3.466333744579906
 31
0.0
210
0.0
220
0.0
230
1.0
 40
0.5780931159154691
 41
4.203824876346336
 42
5.22095308442284
  0
ELLIPSE
  5
2AA
330
75
100
AcDbEntity
  8
Visible (ISO)
100
AcDbEllipse
 10
430.8831629162407
 20
555.9910341164884
 30
0.0
 11
1.097870865486782
 21
1.906483559518744
 31
0.0
210
0.0
220
0.0
230
1.0
 40
0.5780931159154691
 41
0.465768349177016
 42
2.675824304413572
  0
ELLIPSE
  5
2AB
330
75
100
AcDbEntity
  8
Visible (ISO)
100
AcDbEllipse
 10
81.43099165378984
 20
340.2082537932169
 30
0.0
 11
-1.996128846339193
 21
-3.466333744579782
 31
0.0
210
0.0
220
0.0
230
1.0
 40
0.5780931159154691
 41
4.203824876346343
 42
5.220953084422841
  0
ELLIPSE
  5
2AC
330
75
100
AcDbEntity
  8
Visible (ISO)
100
AcDbEllipse
 10
80.15819944765429
 20
340.941206078044
 30
0.0
 11
1.097870865486787
 21
1.906483559518753
 31
0.0
210
0.0
220
0.0
230
1.0
 40
0.5780931159154688
 41
0.4657683491770284
 42
2.675824304413559
  0
ELLIPSE
  5
2AD
330
75
100
AcDbEntity
  8
Visible (ISO)
100
AcDbEllipse
 10
432.1559551223696
 20
542.1773278341844
 30
0.0
 11
-1.996128846339263
 21
-3.4663337445799
 31
0.0
210
0.0
220
0.0
230
1.0
 40
0.5780931159154691
 41
4.203824876346336
 42
5.220953084422834
  0
ELLIPSE
  5
2AE
330
75
100
AcDbEntity
  8
Visible (ISO)
100
AcDbEllipse
 10
430.883162916234
 20
542.9102801190116
 30
0.0
 11
1.097870865486782
 21
1.906483559518744
 31
0.0
210
0.0
220
0.0
230
1.0
 40
0.5780931159154691
 41
0.465768349177016
 42
2.675824304413572
  0
ELLIPSE
  5
2AF
330
75
100
AcDbEntity
  8
Visible (ISO)
100
AcDbEllipse
 10
156.5257318158206
 20
414.0786053907696
 30
0.0
 11
-0.6986450962187995
 21
-1.213216810602882
 31
0.0
210
0.0
220
0.0
230
1.0
 40
0.5780931159154671
 41
2.60918216964131
 42
6.815595791127797
  0
ELLIPSE
  5
2B0
330
75
100
AcDbEntity
  8
Visible (ISO)
100
AcDbEllipse
 10
156.6671531720579
 20
413.997166248011
 30
0.0
 11
0.5988386539018222
 21
1.039900123373897
 31
0.0
210
0.0
220
0.0
230
1.0
 40
0.5780931159154667
 41
5.854637581529019
 42
9.853325686419681
  0
ELLIPSE
  5
2B1
330
75
100
AcDbEntity
  8
Visible (ISO)
100
AcDbEllipse
 10
143.2321243295169
 20
416.8879291694564
 30
0.0
 11
-0.6986450962188366
 21
-1.213216810602946
 31
0.0
210
0.0
220
0.0
230
0.9999999999999998
 40
0.5780931159154667
 41
2.60918216964133
 42
6.815595791127832
  0
ELLIPSE
  5
2B2
330
75
100
AcDbEntity
  8
Visible (ISO)
100
AcDbEllipse
 10
143.3735456857542
 20
416.8064900266977
 30
0.0
 11
0.5988386539018242
 21
1.0399001233739
 31
0.0
210
0.0
220
0.0
230
0.9999999999999998
 40
0.5780931159154666
 41
5.854637581529104
 42
9.853325686419683
  0
LINE
  5
2B3
330
75
100
AcDbEntity
  8
Visible (ISO)
100
AcDbLine
 10
157.0188849360591
 20
415.5398612452087
 30
0.0
 11
156.0325786955836
 21
414.9718852558763
 31
0.0
  0
ELLIPSE
  5
2B4
330
75
100
AcDbEntity
  8
Visible (ISO)
100
AcDbEllipse
 10
312.0892236768841
 20
503.6616624250697
 30
0.0
 11
-0.6986450962187973
 21
-1.213216810602878
 31
0.0
210
0.0
220
0.0
230
1.0
 40
0.578093115915467
 41
2.609182169641443
 42
6.815595791127758
  0
ELLIPSE
  5
2B5
330
75
100
AcDbEntity
  8
Visible (ISO)
100
AcDbEllipse
 10
312.2306450331214
 20
503.5802232823112
 30
0.0
 11
0.5988386539018239
 21
1.0399001233739
 31
0.0
210
0.0
220
0.0
230
1.0
 40
0.5780931159154666
 41
5.854637581529121
 42
9.853325686419635
  0
ELLIPSE
  5
2B6
330
75
100
AcDbEntity
  8
Visible (ISO)
100
AcDbEllipse
 10
298.7956161905804
 20
506.4709862037564
 30
0.0
 11
-0.6986450962188357
 21
-1.213216810602946
 31
0.0
210
0.0
220
0.0
230
1.0
 40
0.5780931159154669
 41
2.609182169641476
 42
6.815595791127734
  0
ELLIPSE
  5
2B7
330
75
100
AcDbEntity
  8
Visible (ISO)
100
AcDbEllipse
 10
298.9370375468178
 20
506.3895470609978
 30
0.0
 11
0.598838653901823
 21
1.039900123373899
 31
0.0
210
0.0
220
0.0
230
1.0
 40
0.5780931159154669
 41
5.854637581529189
 42
9.853325686419614
  0
LINE
  5
2B8
330
75
100
AcDbEntity
  8
Visible (ISO)
100
AcDbLine
 10
312.5823767971226
 20
505.1229182795089
 30
0.0
 11
311.596070556647
 21
504.5549422901763
 31
0.0
  0
ELLIPSE
  5
2B9
330
75
100
AcDbEntity
  8
Visible (ISO)
100
AcDbEllipse
 10
311.5235382519351
 20
503.987418996104
 30
0.0
 11
-1.097870865486786
 21
-1.906483559518752
 31
0.0
210
0.0
220
0.0
230
0.9999999999999996
 40
0.5780931159154691
 41
0.0000000000001951
 42
6.283185307179586
  0
ELLIPSE
  5
2BA
330
75
100
AcDbEntity
  8
Visible (ISO)
100
AcDbEllipse
 10
311.947802320647
 20
503.7431015678284
 30
0.0
 11
0.7984515385357579
 21
1.38653349783186
 31
0.0
210
0.0
220
0.0
230
1.0
 40
0.5780931159154691
 41
5.668553600205777
 42
10.03940966774323
  0
ELLIPSE
  5
2BB
330
75
100
AcDbEntity
  8
Visible (ISO)
100
AcDbEllipse
 10
312.0892236768843
 20
503.6616624250698
 30
0.0
 11
0.7984515385357684
 21
1.386533497831878
 31
0.0
210
0.0
220
0.0
230
1.0
 40
0.5780931159154691
 41
0.0883327520972159
 42
3.053259901492475
  0
ELLIPSE
  5
2BC
330
75
100
AcDbEntity
  8
Visible (ISO)
100
AcDbEllipse
 10
298.2299307656314
 20
506.7967427747908
 30
0.0
 11
-1.097870865486786
 21
-1.906483559518752
 31
0.0
210
0.0
220
0.0
230
0.9999999999999996
 40
0.5780931159154691
 41
0.0000000000001951
 42
6.283185307179586
  0
ELLIPSE
  5
2BD
330
75
100
AcDbEntity
  8
Visible (ISO)
100
AcDbEllipse
 10
298.6541948343433
 20
506.5524253465151
 30
0.0
 11
0.7984515385357577
 21
1.38653349783186
 31
0.0
210
0.0
220
0.0
230
1.0
 40
0.5780931159154691
 41
5.668553600205777
 42
10.03940966774326
  0
ELLIPSE
  5
2BE
330
75
100
AcDbEntity
  8
Visible (ISO)
100
AcDbEllipse
 10
298.7956161905806
 20
506.4709862037565
 30
0.0
 11
0.7984515385357699
 21
1.386533497831881
 31
0.0
210
0.0
220
0.0
230
1.0
 40
0.5780931159154691
 41
0.0883327520972512
 42
3.053259901492475
  0
ELLIPSE
  5
2BF
330
75
100
AcDbEntity
  8
Visible (ISO)
100
AcDbEllipse
 10
155.9600463908715
 20
414.404361961804
 30
0.0
 11
-1.097870865486786
 21
-1.906483559518752
 31
0.0
210
0.0
220
0.0
230
0.9999999999999996
 40
0.5780931159154691
 41
0.0000000000001951
 42
6.283185307179586
  0
ELLIPSE
  5
2C0
330
75
100
AcDbEntity
  8
Visible (ISO)
100
AcDbEllipse
 10
156.3843104595834
 20
414.1600445335282
 30
0.0
 11
0.7984515385357738
 21
1.386533497831888
 31
0.0
210
0.0
220
0.0
230
1.0
 40
0.5780931159154691
 41
5.668553600205756
 42
10.03940966774321
  0
ELLIPSE
  5
2C1
330
75
100
AcDbEntity
  8
Visible (ISO)
100
AcDbEllipse
 10
156.5257318158207
 20
414.0786053907697
 30
0.0
 11
0.7984515385357529
 21
1.386533497831851
 31
0.0
210
0.0
220
0.0
230
1.0
 40
0.5780931159154691
 41
0.0883327520972848
 42
3.053259901492499
  0
ELLIPSE
  5
2C2
330
75
100
AcDbEntity
  8
Visible (ISO)
100
AcDbEllipse
 10
142.6664389045679
 20
417.2136857404907
 30
0.0
 11
-1.097870865486786
 21
-1.906483559518752
 31
0.0
210
0.0
220
0.0
230
0.9999999999999996
 40
0.5780931159154691
 41
0.0000000000001951
 42
6.283185307179586
  0
ELLIPSE
  5
2C3
330
75
100
AcDbEntity
  8
Visible (ISO)
100
AcDbEllipse
 10
143.0907029732797
 20
416.969368312215
 30
0.0
 11
0.7984515385357657
 21
1.386533497831874
 31
0.0
210
0.0
220
0.0
230
1.0
 40
0.5780931159154691
 41
5.668553600205757
 42
10.03940966774323
  0
ELLIPSE
  5
2C4
330
75
100
AcDbEntity
  8
Visible (ISO)
100
AcDbEllipse
 10
143.232124329517
 20
416.8879291694564
 30
0.0
 11
0.7984515385357656
 21
1.386533497831873
 31
0.0
210
0.0
220
0.0
230
1.0
 40
0.5780931159154689
 41
0.0883327520973026
 42
3.05325990149254
  0
ELLIPSE
  5
2C5
330
75
100
AcDbEntity
  8
Visible (ISO)
100
AcDbEllipse
 10
72.09718214213729
 20
371.3432519050311
 30
0.0
 11
-1.097870865486786
 21
-1.906483559518752
 31
0.0
210
0.0
220
0.0
230
0.9999999999999996
 40
0.5780931159154691
 41
0.0000000000001951
 42
6.283185307179586
  0
ELLIPSE
  5
2C6
330
75
100
AcDbEntity
  8
Visible (ISO)
100
AcDbEllipse
 10
72.52144621084915
 20
371.0989344767554
 30
0.0
 11
0.7984515385357618
 21
1.386533497831867
 31
0.0
210
0.0
220
0.0
230
1.0
 40
0.5780931159154689
 41
5.668553600205767
 42
10.03940966774321
  0
ELLIPSE
  5
2C7
330
75
100
AcDbEntity
  8
Visible (ISO)
100
AcDbEllipse
 10
72.66286756708644
 20
371.0174953339969
 30
0.0
 11
0.7984515385357623
 21
1.386533497831868
 31
0.0
210
0.0
220
0.0
230
1.0
 40
0.5780931159154692
 41
0.0883327520972941
 42
3.053259901492475
  0
LINE
  5
2C8
330
75
100
AcDbEntity
  8
Visible (ISO)
100
AcDbLine
 10
203.183837843209
 20
426.5924738256018
 30
0.0
 11
203.1838378432093
 21
427.2465115254756
 31
0.0
  0
LINE
  5
2C9
330
75
100
AcDbEntity
  8
Visible (ISO)
100
AcDbLine
 10
196.4518091087387
 20
422.7157563074888
 30
0.0
 11
203.183837843209
 21
426.5924738256018
 31
0.0
  0
ELLIPSE
  5
2CA
330
75
100
AcDbEntity
  8
Visible (ISO)
100
AcDbEllipse
 10
211.1596301574204
 20
427.6046294307992
 30
0.0
 11
7.999999999999997
 21
-0.0000000000041354
 31
0.0
210
0.0
220
0.0
230
1.0
 40
0.5758617009856544
 41
4.634575253712746
 42
6.212140882424314
  0
ELLIPSE
  5
2CB
330
75
100
AcDbEntity
  8
Visible (ISO)
100
AcDbEllipse
 10
211.159630157089
 20
427.6046294307851
 30
0.0
 11
-7.99999999966767
 21
0.0000000000041264
 31
0.0
210
0.0
220
0.0
230
1.0
 40
0.5758617009856532
 41
0.0710444247551353
 42
0.0778137266724365
  0
LINE
  5
2CC
330
75
100
AcDbEntity
  8
Visible (ISO)
100
AcDbLine
 10
210.5377483675479
 20
422.3576384021558
 30
0.0
 11
210.5377483675483
 21
423.0116761020297
 31
0.0
  0
ELLIPSE
  5
2CD
330
75
100
AcDbEntity
  8
Visible (ISO)
100
AcDbEllipse
 10
211.1596301574201
 20
426.9505917309253
 30
0.0
 11
-8.0
 21
0.0000000000041398
 31
0.0
210
0.0
220
0.0
230
1.0
 40
0.5758617009856543
 41
1.492982600122958
 42
6.360999033851833
  0
ELLIPSE
  5
2CE
330
75
100
AcDbEntity
  8
Visible (ISO)
100
AcDbEllipse
 10
200.1287643709086
 20
421.2523762956398
 30
0.0
 11
-5.200000000000006
 21
0.0000000000026914
 31
0.0
210
0.0
220
0.0
230
1.0
 40
0.5758617009856542
 41
0.1094254384419591
 42
2.356194490192494
  0
ELLIPSE
  5
2CF
330
75
100
AcDbEntity
  8
Visible (ISO)
100
AcDbEllipse
 10
200.1287643709082
 20
420.598338595766
 30
0.0
 11
-5.199999999999997
 21
0.000000000003004
 31
0.0
210
0.0
220
0.0
230
1.0
 40
0.5758617009856549
 41
5.497787143782524
 42
8.639379797372317
  0
LINE
  5
2D0
330
75
100
AcDbEntity
  8
Etroit visible (ISO)
100
AcDbLine
 10
203.8057196330777
 20
418.480920884043
 30
0.0
 11
203.8057196330781
 21
419.1349585839168
 31
0.0
  0
LINE
  5
2D1
330
75
100
AcDbEntity
  8
Visible (ISO)
100
AcDbLine
 10
203.8057196330781
 20
419.1349585839168
 30
0.0
 11
210.5377483675483
 21
423.0116761020297
 31
0.0
  0
LINE
  5
2D2
330
75
100
AcDbEntity
  8
Visible (ISO)
100
AcDbLine
 10
210.5377483675479
 20
422.3576384021558
 30
0.0
 11
203.8057196330777
 21
418.480920884043
 31
0.0
  0
LINE
  5
2D3
330
75
100
AcDbEntity
  8
Visible (ISO)
100
AcDbLine
 10
373.5226608263879
 20
553.1031611444348
 30
0.0
 11
373.5226608263882
 21
553.6917950743213
 31
0.0
  0
LINE
  5
2D4
330
75
100
AcDbEntity
  8
Visible (ISO)
100
AcDbLine
 10
372.9569754014389
 20
553.3660385032875
 30
0.0
 11
373.5226608263882
 21
553.6917950743213
 31
0.0
  0
LINE
  5
2D5
330
75
100
AcDbEntity
  8
Visible (ISO)
100
AcDbLine
 10
372.9569754014389
 20
553.3660385032875
 30
0.0
 11
372.9569754014389
 21
553.3135188772682
 31
0.0
  0
LINE
  5
2D6
330
75
100
AcDbEntity
  8
Visible (ISO)
100
AcDbLine
 10
384.2138961596441
 20
527.3253571835616
 30
0.0
 11
384.270683900412
 21
527.3580590685551
 31
0.0
  0
LINE
  5
2D7
330
75
100
AcDbEntity
  8
Visible (ISO)
100
AcDbLine
 10
384.2706839004222
 20
547.5024202246695
 30
0.0
 11
384.270683900412
 21
527.3580590685551
 31
0.0
  0
LINE
  5
2D8
330
75
100
AcDbEntity
  8
Visible (ISO)
100
AcDbLine
 10
373.5226608263882
 20
553.6917950743213
 30
0.0
 11
384.2706839004222
 21
547.5024202246695
 31
0.0
  0
LINE
  5
2D9
330
75
100
AcDbEntity
  8
Visible (ISO)
100
AcDbLine
 10
384.270683900412
 20
527.3580590685551
 30
0.0
 11
373.5226608263778
 21
533.547433918207
 31
0.0
  0
LINE
  5
2DA
330
75
100
AcDbEntity
  8
Visible (ISO)
100
AcDbLine
 10
372.9569754014285
 20
533.2216773471732
 30
0.0
 11
373.0137631421965
 21
533.1889754621794
 31
0.0
  0
ELLIPSE
  5
2DB
330
75
100
AcDbEntity
  8
Visible (ISO)
100
AcDbEllipse
 10
372.3912899764895
 20
552.4516480023671
 30
0.0
 11
1.600000000000045
 21
-0.0000000000009197
 31
0.0
210
0.0
220
0.0
230
1.0
 40
0.5758617009856529
 41
0.7853981633979839
 42
2.356194490192747
  0
LINE
  5
2DC
330
75
100
AcDbEntity
  8
Visible (ISO)
100
AcDbLine
 10
372.3912899764901
 20
553.7597234021149
 30
0.0
 11
373.5226608263887
 21
554.4112365441824
 31
0.0
  0
LINE
  5
2DD
330
75
100
AcDbEntity
  8
Visible (ISO)
100
AcDbLine
 10
373.5226608263776
 20
532.8279924483457
 30
0.0
 11
372.391289976479
 21
532.1764793062782
 31
0.0
  0
LINE
  5
2DE
330
75
100
AcDbEntity
  8
Visible (ISO)
100
AcDbLine
 10
373.5226608263884
 20
553.7571988443086
 30
0.0
 11
372.8019396506281
 21
553.3421631220993
 31
0.0
  0
LINE
  5
2DF
330
75
100
AcDbEntity
  8
Visible (ISO)
100
AcDbLine
 10
372.3912899764793
 20
532.830517006152
 30
0.0
 11
373.522660826378
 21
533.4820301482195
 31
0.0
  0
LINE
  5
2E0
330
75
100
AcDbEntity
  8
Etroit visible (ISO)
100
AcDbLine
 10
373.5226608263781
 20
534.1360678480935
 30
0.0
 11
373.5226608263879
 21
553.1031611444348
 31
0.0
  0
ELLIPSE
  5
2E1
330
75
100
AcDbEntity
  8
Visible (ISO)
100
AcDbEllipse
 10
372.3912899764796
 20
533.4845547060258
 30
0.0
 11
1.600000000000055
 21
-0.0000000000009205
 31
0.0
210
0.0
220
0.0
230
1.0
 40
0.5758617009856532
 41
0.7853981633979848
 42
2.356194490192747
  0
LINE
  5
2E2
330
75
100
AcDbEntity
  8
Visible (ISO)
100
AcDbLine
 10
371.8256045515304
 20
533.8103112770601
 30
0.0
 11
371.2599191265813
 21
534.1360678480944
 31
0.0
  0
ELLIPSE
  5
2E3
330
75
100
AcDbEntity
  8
Visible (ISO)
100
AcDbEllipse
 10
372.3912899764797
 20
533.4845547060258
 30
0.0
 11
0.7999999999999714
 21
-0.0000000000004603
 31
0.0
210
0.0
220
0.0
230
1.0
 40
0.5758617009856531
 41
0.7853981633978222
 42
2.356194490192747
  0
LINE
  5
2E4
330
75
100
AcDbEntity
  8
Etroit visible (ISO)
100
AcDbLine
 10
371.2599191265813
 20
534.1360678480944
 30
0.0
 11
371.2599191265911
 21
553.1031611444358
 31
0.0
  0
LINE
  5
2E5
330
75
100
AcDbEntity
  8
Visible (ISO)
100
AcDbLine
 10
372.3912899764901
 20
553.7597234021149
 30
0.0
 11
372.3912899764899
 21
553.3730267239443
 31
0.0
  0
ELLIPSE
  5
2E6
330
75
100
AcDbEntity
  8
Visible (ISO)
100
AcDbEllipse
 10
372.3912899764894
 20
552.4516480023671
 30
0.0
 11
-0.7984515385346889
 21
1.386533497832487
 31
0.0
210
0.0
220
0.0
230
1.0
 40
0.5780931159156406
 41
5.499720852204609
 42
7.070517178999494
  0
LINE
  5
2E7
330
75
100
AcDbEntity
  8
Visible (ISO)
100
AcDbLine
 10
372.3912899764793
 20
532.830517006152
 30
0.0
 11
372.391289976479
 21
532.1764793062782
 31
0.0
  0
ELLIPSE
  5
2E8
330
75
100
AcDbEntity
  8
Visible (ISO)
100
AcDbEllipse
 10
372.3912899764795
 20
533.4845547060258
 30
0.0
 11
-0.7984515385346117
 21
1.386533497832544
 31
0.0
210
0.0
220
0.0
230
1.0
 40
0.5780931159156406
 41
0.7873318718200793
 42
2.35812819861499
  0
ELLIPSE
  5
2E9
330
75
100
AcDbEntity
  8
Visible (ISO)
100
AcDbEllipse
 10
372.3912899764795
 20
533.4845547060258
 30
0.0
 11
0.3992257692673815
 21
-0.6932667489162122
 31
0.0
210
0.0
220
0.0
230
0.9999999999999998
 40
0.5780931159156406
 41
3.928924525409421
 42
5.499720852204374
  0
LINE
  5
2EA
330
75
100
AcDbEntity
  8
Visible (ISO)
100
AcDbLine
 10
372.9569754014285
 20
533.2216773471732
 30
0.0
 11
373.5226608263778
 21
533.547433918207
 31
0.0
  0
LINE
  5
2EB
330
75
100
AcDbEntity
  8
Visible (ISO)
100
AcDbLine
 10
373.5226608263778
 20
533.547433918207
 30
0.0
 11
373.5226608263781
 21
534.1360678480935
 31
0.0
  0
LINE
  5
2EC
330
75
100
AcDbEntity
  8
Visible (ISO)
100
AcDbLine
 10
372.9569754014288
 20
533.8103112770597
 30
0.0
 11
373.5226608263781
 21
534.1360678480935
 31
0.0
  0
LINE
  5
2ED
330
75
100
AcDbEntity
  8
Visible (ISO)
100
AcDbLine
 10
372.9569754014288
 20
533.8103112770597
 30
0.0
 11
372.9569754014285
 21
533.2216773471732
 31
0.0
  0
LINE
  5
2EE
330
75
100
AcDbEntity
  8
Etroit visible (ISO)
100
AcDbLine
 10
416.2601946813039
 20
556.8330738827567
 30
0.0
 11
420.7573938096498
 21
554.2433091430338
 31
0.0
  0
ELLIPSE
  5
2EF
330
75
100
AcDbEntity
  8
Visible (ISO)
100
AcDbEllipse
 10
415.1288238314053
 20
556.1815607406888
 30
0.0
 11
0.7984515385357814
 21
1.386533497831901
 31
0.0
210
0.0
220
0.0
230
1.0
 40
0.5780931159154691
 41
5.495853435359666
 42
7.066649762154475
  0
ELLIPSE
  5
2F0
330
75
100
AcDbEntity
  8
Visible (ISO)
100
AcDbEllipse
 10
415.1288238314053
 20
556.1815607406888
 30
0.0
 11
0.3992257692679066
 21
0.6932667489159785
 31
0.0
210
0.0
220
0.0
230
1.0
 40
0.5780931159154692
 41
5.4958534353598
 42
7.066649762154538
  0
ELLIPSE
  5
2F1
330
75
100
AcDbEntity
  8
Visible (ISO)
100
AcDbEllipse
 10
419.626022959751
 20
553.591796000966
 30
0.0
 11
0.7984515385357926
 21
1.386533497831945
 31
0.0
210
0.0
220
0.0
230
0.9999999999999996
 40
0.5780931159154692
 41
5.495853435359754
 42
6.283185307179608
  0
LINE
  5
2F2
330
75
100
AcDbEntity
  8
Etroit visible (ISO)
100
AcDbLine
 10
415.3268137301373
 20
556.7215836407008
 30
0.0
 11
415.1288238314055
 21
556.8355984405626
 31
0.0
  0
LINE
  5
2F3
330
75
100
AcDbEntity
  8
Visible (ISO)
100
AcDbLine
 10
415.927275369941
 20
557.5680942385207
 30
0.0
 11
420.4244744982868
 21
554.9783294987979
 31
0.0
  0
LINE
  5
2F4
330
75
100
AcDbEntity
  8
Visible (ISO)
100
AcDbLine
 10
416.2601946813039
 20
556.8330738827567
 30
0.0
 11
416.260194681299
 21
547.4149310045731
 31
0.0
  0
LINE
  5
2F5
330
75
100
AcDbEntity
  8
Visible (ISO)
100
AcDbLine
 10
420.7573938096447
 20
544.8251662648504
 30
0.0
 11
416.260194681299
 21
547.4149310045731
 31
0.0
  0
LINE
  5
2F6
330
75
100
AcDbEntity
  8
Visible (ISO)
100
AcDbLine
 10
420.7573938096447
 20
544.8251662648504
 30
0.0
 11
420.7573938096498
 21
554.2433091430338
 31
0.0
  0
LINE
  5
2F7
330
75
100
AcDbEntity
  8
Visible (ISO)
100
AcDbLine
 10
415.6945092563497
 20
547.0891744335394
 30
0.0
 11
415.6945092563546
 21
556.5073173117228
 31
0.0
  0
LINE
  5
2F8
330
75
100
AcDbEntity
  8
Visible (ISO)
100
AcDbLine
 10
416.260194681299
 20
547.4149310045731
 30
0.0
 11
415.6945092563497
 21
547.0891744335394
 31
0.0
  0
LINE
  5
2F9
330
75
100
AcDbEntity
  8
Visible (ISO)
100
AcDbLine
 10
415.8080847378854
 20
547.0237706635519
 30
0.0
 11
415.6945092563497
 21
547.0891744335394
 31
0.0
  0
LINE
  5
2FA
330
75
100
AcDbEntity
  8
Visible (ISO)
100
AcDbLine
 10
420.6438183281091
 20
544.759762494863
 30
0.0
 11
420.7573938096447
 21
544.8251662648504
 31
0.0
  0
LINE
  5
2FB
330
75
100
AcDbEntity
  8
Visible (ISO)
100
AcDbLine
 10
410.9427516867794
 20
555.0790375147853
 30
0.0
 11
415.1288238314059
 21
557.4896361404364
 31
0.0
  0
LINE
  5
2FC
330
75
100
AcDbEntity
  8
Visible (ISO)
100
AcDbLine
 10
411.245110739587
 20
554.5991168133697
 30
0.0
 11
415.1288238314055
 21
556.8355984405626
 31
0.0
  0
LINE
  5
2FD
330
75
100
AcDbEntity
  8
Visible (ISO)
100
AcDbLine
 10
63.35735078757235
 20
375.7989135186472
 30
0.0
 11
63.35734232667548
 21
375.7989086463407
 31
0.0
  0
LINE
  5
2FE
330
75
100
AcDbEntity
  8
Visible (ISO)
100
AcDbLine
 10
63.35734232667547
 20
375.7938595307293
 30
0.0
 11
63.35734232667548
 21
375.7989086463407
 31
0.0
  0
LINE
  5
2FF
330
75
100
AcDbEntity
  8
Visible (ISO)
100
AcDbLine
 10
384.989208183277
 20
547.8080910788062
 30
0.0
 11
373.5226608263887
 21
554.4112365441824
 31
0.0
  0
LINE
  5
300
330
75
100
AcDbEntity
  8
Etroit visible (ISO)
100
AcDbLine
 10
384.8363693253713
 20
547.2395428658169
 30
0.0
 11
392.7842495459086
 21
551.8164226888416
 31
0.0
  0
ELLIPSE
  5
301
330
75
100
AcDbEntity
  8
Visible (ISO)
100
AcDbEllipse
 10
385.9677401752696
 20
546.5880297237482
 30
0.0
 11
-0.7984515385346727
 21
1.386533497832472
 31
0.0
210
0.0
220
0.0
230
1.0
 40
0.5780931159156407
 41
0.0000000000000323
 42
0.7873318718199741
  0
LINE
  5
302
330
75
100
AcDbEntity
  8
Visible (ISO)
100
AcDbLine
 10
373.5226608263884
 20
553.7571988443086
 30
0.0
 11
384.8363714324486
 21
547.2420662102376
 31
0.0
  0
LINE
  5
303
330
75
100
AcDbEntity
  8
Visible (ISO)
100
AcDbLine
 10
373.5226608263887
 20
554.4112365441824
 30
0.0
 11
373.5226608263884
 21
553.7571988443086
 31
0.0
  0
LINE
  5
304
330
75
100
AcDbEntity
  8
Visible (ISO)
100
AcDbLine
 10
385.1692886367349
 20
547.9745632215808
 30
0.0
 11
393.2842779258458
 21
552.6476747570844
 31
0.0
  0
LINE
  5
305
330
75
100
AcDbEntity
  8
Etroit visible (ISO)
100
AcDbLine
 10
420.7573938096399
 20
535.2762158466922
 30
0.0
 11
416.2601946812942
 21
537.865980586415
 31
0.0
  0
ELLIPSE
  5
306
330
75
100
AcDbEntity
  8
Visible (ISO)
100
AcDbEllipse
 10
419.6260229597413
 20
534.6247027046246
 30
0.0
 11
0.7984515385356797
 21
1.386533497831916
 31
0.0
210
0.0
220
0.0
230
1.0
 40
0.5780931159154689
 41
3.92505710856432
 42
5.495853435359224
  0
ELLIPSE
  5
307
330
75
100
AcDbEntity
  8
Visible (ISO)
100
AcDbEllipse
 10
415.1288238313955
 20
537.2144674443473
 30
0.0
 11
0.3992257692678629
 21
0.6932667489159984
 31
0.0
210
0.0
220
0.0
230
1.0
 40
0.5780931159154689
 41
3.92505710856432
 42
5.495853435359085
  0
ELLIPSE
  5
308
330
75
100
AcDbEntity
  8
Visible (ISO)
100
AcDbEllipse
 10
415.1288238313955
 20
537.2144674443473
 30
0.0
 11
0.7984515385356809
 21
1.386533497831916
 31
0.0
210
0.0
220
0.0
230
1.0
 40
0.5780931159154667
 41
3.92505710856426
 42
5.495853435359223
  0
LINE
  5
309
330
75
100
AcDbEntity
  8
Etroit visible (ISO)
100
AcDbLine
 10
419.6260229597404
 20
533.3166273048768
 30
0.0
 11
415.1288238313947
 21
535.9063920445997
 31
0.0
  0
LINE
  5
30A
330
75
100
AcDbEntity
  8
Visible (ISO)
100
AcDbLine
 10
420.7573938096399
 20
535.2762158466922
 30
0.0
 11
420.7573938096447
 21
544.6943587248755
 31
0.0
  0
LINE
  5
30B
330
75
100
AcDbEntity
  8
Visible (ISO)
100
AcDbLine
 10
416.2601946812989
 20
547.2841234645983
 30
0.0
 11
420.7573938096447
 21
544.6943587248755
 31
0.0
  0
LINE
  5
30C
330
75
100
AcDbEntity
  8
Visible (ISO)
100
AcDbLine
 10
416.2601946812989
 20
547.2841234645983
 30
0.0
 11
416.2601946812942
 21
537.865980586415
 31
0.0
  0
LINE
  5
30D
330
75
100
AcDbEntity
  8
Visible (ISO)
100
AcDbLine
 10
415.6945092563496
 20
546.9583668935645
 30
0.0
 11
416.2601946812989
 21
547.2841234645983
 31
0.0
  0
LINE
  5
30E
330
75
100
AcDbEntity
  8
Visible (ISO)
100
AcDbLine
 10
415.6945092563449
 20
537.540224015381
 30
0.0
 11
415.6945092563495
 21
546.9583668935645
 31
0.0
  0
LINE
  5
30F
330
75
100
AcDbEntity
  8
Visible (ISO)
100
AcDbLine
 10
85.98475932463051
 20
341.1854017091318
 30
0.0
 11
419.6260229597404
 21
533.3166273048768
 31
0.0
  0
LINE
  5
310
330
75
100
AcDbEntity
  8
Visible (ISO)
100
AcDbLine
 10
63.35734232666435
 20
354.2156645505041
 30
0.0
 11
64.48871317656299
 21
354.8671776925717
 31
0.0
  0
LINE
  5
311
330
75
100
AcDbEntity
  8
Visible (ISO)
100
AcDbLine
 10
64.02198379114946
 20
355.2524438146614
 30
0.0
 11
63.35734232666469
 21
354.8697022503779
 31
0.0
  0
LINE
  5
312
330
75
100
AcDbEntity
  8
Visible (ISO)
100
AcDbLine
 10
63.92302775161407
 20
355.2608625913991
 30
0.0
 11
63.35734232666474
 21
354.9351060203653
 31
0.0
  0
LINE
  5
313
330
75
100
AcDbEntity
  8
Visible (ISO)
100
AcDbLine
 10
63.35734232666469
 20
354.8697022503779
 30
0.0
 11
63.35734232666435
 21
354.2156645505041
 31
0.0
  0
LINE
  5
314
330
75
100
AcDbEntity
  8
Visible (ISO)
100
AcDbLine
 10
63.92302775161412
 20
355.3681831371065
 30
0.0
 11
63.92302775161407
 21
355.2608625913991
 31
0.0
  0
LINE
  5
315
330
75
100
AcDbEntity
  8
Visible (ISO)
100
AcDbLine
 10
63.68716770648028
 20
355.7136737545002
 30
0.0
 11
63.35734232666505
 21
355.5237399502517
 31
0.0
  0
LINE
  5
316
330
75
100
AcDbEntity
  8
Visible (ISO)
100
AcDbLine
 10
63.35734232666505
 20
355.5237399502517
 30
0.0
 11
63.35734232666474
 21
354.9351060203653
 31
0.0
  0
LINE
  5
317
330
75
100
AcDbEntity
  8
Visible (ISO)
100
AcDbLine
 10
415.1288238313951
 20
536.5604297444735
 30
0.0
 11
401.8352163450861
 21
528.9051503251788
 31
0.0
  0
LINE
  5
318
330
75
100
AcDbEntity
  8
Visible (ISO)
100
AcDbLine
 10
401.8352163450857
 20
528.251112625305
 30
0.0
 11
401.8352163450861
 21
528.9051503251788
 31
0.0
  0
LINE
  5
319
330
75
100
AcDbEntity
  8
Visible (ISO)
100
AcDbLine
 10
415.1288238313947
 20
535.9063920445997
 30
0.0
 11
401.8352163450857
 21
528.251112625305
 31
0.0
  0
LINE
  5
31A
330
75
100
AcDbEntity
  8
Visible (ISO)
100
AcDbLine
 10
401.8352163450857
 20
528.251112625305
 30
0.0
 11
395.5843923993976
 21
531.850722735234
 31
0.0
  0
LINE
  5
31B
330
75
100
AcDbEntity
  8
Visible (ISO)
100
AcDbLine
 10
401.8352163450861
 20
528.9051503251788
 30
0.0
 11
395.5843923993979
 21
532.5047604351079
 31
0.0
  0
LINE
  5
31C
330
75
100
AcDbEntity
  8
Etroit visible (ISO)
100
AcDbLine
 10
395.5843923993976
 20
531.850722735234
 30
0.0
 11
385.9677401752592
 21
526.3128610276591
 31
0.0
  0
LINE
  5
31D
330
75
100
AcDbEntity
  8
Visible (ISO)
100
AcDbLine
 10
386.2505828877337
 20
526.1499827421419
 30
0.0
 11
385.6848974627844
 21
525.8242261711082
 31
0.0
  0
LINE
  5
31E
330
75
100
AcDbEntity
  8
Visible (ISO)
100
AcDbLine
 10
373.5226608263776
 20
532.8279924483457
 30
0.0
 11
385.6848974627844
 21
525.8242261711082
 31
0.0
  0
LINE
  5
31F
330
75
100
AcDbEntity
  8
Etroit visible (ISO)
100
AcDbLine
 10
394.4530215494999
 20
533.8103112770503
 30
0.0
 11
384.8363693253615
 21
528.2724495694755
 31
0.0
  0
ELLIPSE
  5
320
330
75
100
AcDbEntity
  8
Visible (ISO)
100
AcDbEllipse
 10
395.5843923993983
 20
533.1587981349818
 30
0.0
 11
-0.7984515385346049
 21
1.386533497832531
 31
0.0
210
0.0
220
0.0
230
0.9999999999999998
 40
0.5780931159156407
 41
0.7873318718200793
 42
2.35812819861499
  0
ELLIPSE
  5
321
330
75
100
AcDbEntity
  8
Visible (ISO)
100
AcDbEllipse
 10
395.5843923993983
 20
533.1587981349817
 30
0.0
 11
-0.3992257692673066
 21
0.6932667489162738
 31
0.0
210
0.0
220
0.0
230
1.0
 40
0.5780931159156406
 41
0.7873318718200793
 42
2.358128198614927
  0
ELLIPSE
  5
322
330
75
100
AcDbEntity
  8
Visible (ISO)
100
AcDbEllipse
 10
385.9677401752598
 20
527.6209364274068
 30
0.0
 11
-0.7984515385346062
 21
1.386533497832534
 31
0.0
210
0.0
220
0.0
230
1.0
 40
0.5780931159156407
 41
0.7873318718201335
 42
2.358128198615052
  0
LINE
  5
323
330
75
100
AcDbEntity
  8
Visible (ISO)
100
AcDbLine
 10
385.6848974627848
 20
526.4782638709821
 30
0.0
 11
385.71208293595
 21
526.4939189438011
 31
0.0
  0
LINE
  5
324
330
75
100
AcDbEntity
  8
Visible (ISO)
100
AcDbLine
 10
385.6848974627844
 20
525.8242261711082
 30
0.0
 11
385.6848974627848
 21
526.4782638709821
 31
0.0
  0
LINE
  5
325
330
75
100
AcDbEntity
  8
Visible (ISO)
100
AcDbLine
 10
385.6848974627848
 20
526.4782638709821
 30
0.0
 11
373.522660826378
 21
533.4820301482195
 31
0.0
  0
LINE
  5
326
330
75
100
AcDbEntity
  8
Visible (ISO)
100
AcDbLine
 10
373.522660826378
 20
533.4820301482195
 30
0.0
 11
373.5226608263776
 21
532.8279924483457
 31
0.0
  0
LINE
  5
327
330
75
100
AcDbEntity
  8
Visible (ISO)
100
AcDbLine
 10
385.9677401752592
 20
526.3128610276591
 30
0.0
 11
386.2505828877337
 21
526.1499827421419
 31
0.0
  0
LINE
  5
328
330
75
100
AcDbEntity
  8
Visible (ISO)
100
AcDbLine
 10
394.4530215494999
 20
533.8103112770503
 30
0.0
 11
394.4530215495015
 21
536.8499456188908
 31
0.0
  0
LINE
  5
329
330
75
100
AcDbEntity
  8
Visible (ISO)
100
AcDbLine
 10
384.8363693253664
 20
537.6905924476587
 30
0.0
 11
392.7842495459037
 21
542.2674722706834
 31
0.0
  0
LINE
  5
32A
330
75
100
AcDbEntity
  8
Visible (ISO)
100
AcDbLine
 10
384.8363693253664
 20
537.6905924476587
 30
0.0
 11
384.8363693253616
 21
528.2724495694755
 31
0.0
  0
LINE
  5
32B
330
75
100
AcDbEntity
  8
Visible (ISO)
100
AcDbLine
 10
395.0187069744507
 20
536.5241890478564
 30
0.0
 11
395.0187069744491
 21
533.4845547060161
 31
0.0
  0
LINE
  5
32C
330
75
100
AcDbEntity
  8
Etroit visible (ISO)
100
AcDbLine
 10
372.391289976479
 20
532.1764793062782
 30
0.0
 11
64.48871317656301
 21
354.8671776925717
 31
0.0
  0
LINE
  5
32D
330
75
100
AcDbEntity
  8
Etroit visible (ISO)
100
AcDbLine
 10
371.2599191265911
 20
553.1031611444358
 30
0.0
 11
63.35734232667519
 21
375.7938595307293
 31
0.0
  0
LINE
  5
32E
330
75
100
AcDbEntity
  8
Etroit visible (ISO)
100
AcDbLine
 10
63.35734232667515
 20
375.7938595307293
 30
0.0
 11
63.35734232666545
 21
356.826766234388
 31
0.0
  0
LINE
  5
32F
330
75
100
AcDbEntity
  8
Etroit visible (ISO)
100
AcDbLine
 10
63.35734232666545
 20
356.826766234388
 30
0.0
 11
371.2599191265813
 21
534.1360678480944
 31
0.0
  0
LINE
  5
330
330
75
100
AcDbEntity
  8
Visible (ISO)
100
AcDbLine
 10
62.88871317657347
 20
375.1423463886616
 30
0.0
 11
62.88871317656369
 21
356.1752530923202
 31
0.0
  0
LINE
  5
331
330
75
100
AcDbEntity
  8
Visible (ISO)
100
AcDbLine
 10
371.5928384379546
 20
553.8381815001996
 30
0.0
 11
63.6902616380388
 21
376.5288798864932
 31
0.0
  0
LINE
  5
332
330
75
100
AcDbEntity
  8
Visible (ISO)
100
AcDbLine
 10
85.98475932463051
 20
341.1854017091318
 30
0.0
 11
63.35734232666435
 21
354.2156645505041
 31
0.0
  0
LINE
  5
333
330
75
100
AcDbEntity
  8
Visible (ISO)
100
AcDbLine
 10
72.88409554306508
 20
370.244888006482
 30
0.0
 11
71.63283387457879
 21
370.9654416792753
 31
0.0
  0
LINE
  5
334
330
75
100
AcDbEntity
  8
Visible (ISO)
100
AcDbLine
 10
63.35734232666474
 20
354.9351060203653
 30
0.0
 11
63.41413006743254
 21
354.9024041353716
 31
0.0
  0
LINE
  5
335
330
75
100
AcDbEntity
  8
Visible (ISO)
100
AcDbLine
 10
63.92302775161407
 20
355.2608625913991
 30
0.0
 11
63.97981549238186
 21
355.2281607064054
 31
0.0
  0
ELLIPSE
  5
336
330
75
100
AcDbEntity
  8
Visible (ISO)
100
AcDbEllipse
 10
64.48871317656369
 20
356.1752530923194
 30
0.0
 11
-1.6
 21
0.0000000000008252
 31
0.0
210
0.0
220
0.0
230
1.0
 40
0.5758617009856532
 41
5.497787143782222
 42
7.068583470577194
  0
ELLIPSE
  5
337
330
75
100
AcDbEntity
  8
Visible (ISO)
100
AcDbEllipse
 10
64.48871317657348
 20
375.1423463886607
 30
0.0
 11
-1.6
 21
0.0000000000008256
 31
0.0
210
0.0
220
0.0
230
1.0
 40
0.5758617009856531
 41
5.497787143782297
 42
6.283185307179557
  0
ELLIPSE
  5
338
330
75
100
AcDbEntity
  8
Visible (ISO)
100
AcDbEllipse
 10
64.48871317656368
 20
356.1752530923194
 30
0.0
 11
-0.7984515385346028
 21
1.386533497832529
 31
0.0
210
0.0
220
0.0
230
1.0
 40
0.5780931159156406
 41
0.7873318718201335
 42
2.358128198615005
  0
ELLIPSE
  5
339
330
75
100
AcDbEntity
  8
Visible (ISO)
100
AcDbEllipse
 10
64.48871317657348
 20
375.1423463886607
 30
0.0
 11
-0.7984515385346889
 21
1.386533497832486
 31
0.0
210
0.0
220
0.0
230
1.0
 40
0.5780931159156406
 41
0.0
 42
0.7873318718199114
  0
LINE
  5
33A
330
75
100
AcDbEntity
  8
Visible (ISO)
100
AcDbLine
 10
384.8363693253713
 20
547.2395428658169
 30
0.0
 11
384.8363693253663
 21
537.8213999876335
 31
0.0
  0
LINE
  5
33B
330
75
100
AcDbEntity
  8
Visible (ISO)
100
AcDbLine
 10
392.7842495459037
 20
542.3982798106583
 30
0.0
 11
384.8363693253663
 21
537.8213999876335
 31
0.0
  0
LINE
  5
33C
330
75
100
AcDbEntity
  8
Visible (ISO)
100
AcDbLine
 10
384.8363693253663
 20
537.8213999876335
 30
0.0
 11
384.949944806902
 21
537.7559962176461
 31
0.0
  0
LINE
  5
33D
330
75
100
AcDbEntity
  8
Visible (ISO)
100
AcDbLine
 10
415.3268137301369
 20
556.721583640701
 30
0.0
 11
411.4431006383183
 21
554.4851020135082
 31
0.0
  0
LINE
  5
33E
330
75
100
AcDbEntity
  8
Visible (ISO)
100
AcDbLine
 10
384.8363693253671
 20
539.1633044619775
 30
0.0
 11
384.2706839004179
 21
538.8375478909437
 31
0.0
  0
LINE
  5
33F
330
75
100
AcDbEntity
  8
Visible (ISO)
100
AcDbLine
 10
415.4116665438698
 20
536.8109324667408
 30
0.0
 11
415.4116665438801
 21
556.7630473416376
 31
0.0
  0
LINE
  5
340
330
75
100
AcDbEntity
  8
Visible (ISO)
100
AcDbLine
 10
403.3059984499659
 20
558.2563045640897
 30
0.0
 11
404.725691969161
 21
557.4387574392471
 31
0.0
  0
LINE
  5
341
330
75
100
AcDbEntity
  8
Visible (ISO)
100
AcDbLine
 10
403.305998449965
 20
556.6212103144051
 30
0.0
 11
403.3059984499659
 21
558.2563045640897
 31
0.0
  0
LINE
  5
342
330
75
100
AcDbEntity
  8
Visible (ISO)
100
AcDbLine
 10
405.0030547248129
 20
557.5984800275066
 30
0.0
 11
403.305998449965
 21
556.6212103144051
 31
0.0
  0
LINE
  5
343
330
75
100
AcDbEntity
  8
Visible (ISO)
100
AcDbLine
 10
405.0030547248138
 20
559.2335742771912
 30
0.0
 11
405.0030547248129
 21
557.5984800275066
 31
0.0
  0
LINE
  5
344
330
75
100
AcDbEntity
  8
Visible (ISO)
100
AcDbLine
 10
403.3059984499659
 20
558.2563045640897
 30
0.0
 11
405.0030547248138
 21
559.2335742771912
 31
0.0
  0
LINE
  5
345
330
75
100
AcDbEntity
  8
Visible (ISO)
100
AcDbLine
 10
403.3059984499612
 20
548.9689692258813
 30
0.0
 11
404.6121164876207
 21
548.2168258710259
 31
0.0
  0
LINE
  5
346
330
75
100
AcDbEntity
  8
Visible (ISO)
100
AcDbLine
 10
403.3059984499604
 20
547.4646825161714
 30
0.0
 11
403.3059984499612
 21
548.9689692258813
 31
0.0
  0
LINE
  5
347
330
75
100
AcDbEntity
  8
Visible (ISO)
100
AcDbLine
 10
405.0030547248082
 20
548.4419522292729
 30
0.0
 11
403.3059984499604
 21
547.4646825161714
 31
0.0
  0
LINE
  5
348
330
75
100
AcDbEntity
  8
Visible (ISO)
100
AcDbLine
 10
405.003054724809
 20
549.9462389389828
 30
0.0
 11
405.0030547248082
 21
548.4419522292729
 31
0.0
  0
LINE
  5
349
330
75
100
AcDbEntity
  8
Visible (ISO)
100
AcDbLine
 10
403.3059984499612
 20
548.9689692258813
 30
0.0
 11
405.003054724809
 21
549.9462389389828
 31
0.0
  0
LINE
  5
34A
330
75
100
AcDbEntity
  8
Visible (ISO)
100
AcDbLine
 10
405.0030547248079
 20
547.6571069894244
 30
0.0
 11
405.0030547248071
 21
546.1528202797145
 31
0.0
  0
LINE
  5
34B
330
75
100
AcDbEntity
  8
Visible (ISO)
100
AcDbLine
 10
403.30599844996
 20
546.6798372763228
 30
0.0
 11
405.0030547248079
 21
547.6571069894244
 31
0.0
  0
LINE
  5
34C
330
75
100
AcDbEntity
  8
Visible (ISO)
100
AcDbLine
 10
403.30599844996
 20
546.6798372763228
 30
0.0
 11
404.6121164876195
 21
545.9276939214674
 31
0.0
  0
LINE
  5
34D
330
75
100
AcDbEntity
  8
Visible (ISO)
100
AcDbLine
 10
403.3059984499592
 20
545.175550566613
 30
0.0
 11
403.30599844996
 21
546.6798372763228
 31
0.0
  0
LINE
  5
34E
330
75
100
AcDbEntity
  8
Visible (ISO)
100
AcDbLine
 10
405.0030547248071
 20
546.1528202797145
 30
0.0
 11
403.3059984499592
 21
545.175550566613
 31
0.0
  0
LINE
  5
34F
330
75
100
AcDbEntity
  8
Visible (ISO)
100
AcDbLine
 10
403.3059984499623
 20
551.2581011754398
 30
0.0
 11
404.6121164876218
 21
550.5059578205844
 31
0.0
  0
LINE
  5
350
330
75
100
AcDbEntity
  8
Visible (ISO)
100
AcDbLine
 10
403.3059984499615
 20
549.7538144657299
 30
0.0
 11
403.3059984499623
 21
551.2581011754398
 31
0.0
  0
LINE
  5
351
330
75
100
AcDbEntity
  8
Visible (ISO)
100
AcDbLine
 10
405.0030547248095
 20
550.7310841788314
 30
0.0
 11
403.3059984499615
 21
549.7538144657299
 31
0.0
  0
LINE
  5
352
330
75
100
AcDbEntity
  8
Visible (ISO)
100
AcDbLine
 10
405.0030547248103
 20
552.2353708885411
 30
0.0
 11
405.0030547248095
 21
550.7310841788314
 31
0.0
  0
LINE
  5
353
330
75
100
AcDbEntity
  8
Visible (ISO)
100
AcDbLine
 10
403.3059984499623
 20
551.2581011754398
 30
0.0
 11
405.0030547248103
 21
552.2353708885411
 31
0.0
  0
LINE
  5
354
330
75
100
AcDbEntity
  8
Visible (ISO)
100
AcDbLine
 10
403.3059984499635
 20
553.5472331249982
 30
0.0
 11
404.6121164876231
 21
552.7950897701428
 31
0.0
  0
LINE
  5
355
330
75
100
AcDbEntity
  8
Visible (ISO)
100
AcDbLine
 10
403.3059984499627
 20
552.0429464152884
 30
0.0
 11
403.3059984499635
 21
553.5472331249982
 31
0.0
  0
LINE
  5
356
330
75
100
AcDbEntity
  8
Visible (ISO)
100
AcDbLine
 10
405.0030547248106
 20
553.0202161283898
 30
0.0
 11
403.3059984499627
 21
552.0429464152884
 31
0.0
  0
LINE
  5
357
330
75
100
AcDbEntity
  8
Visible (ISO)
100
AcDbLine
 10
405.0030547248114
 20
554.5245028380996
 30
0.0
 11
405.0030547248106
 21
553.0202161283898
 31
0.0
  0
LINE
  5
358
330
75
100
AcDbEntity
  8
Visible (ISO)
100
AcDbLine
 10
403.3059984499635
 20
553.5472331249982
 30
0.0
 11
405.0030547248114
 21
554.5245028380996
 31
0.0
  0
LINE
  5
359
330
75
100
AcDbEntity
  8
Visible (ISO)
100
AcDbLine
 10
403.3059984499646
 20
555.8363650745566
 30
0.0
 11
404.6121164876242
 21
555.0842217197011
 31
0.0
  0
LINE
  5
35A
330
75
100
AcDbEntity
  8
Visible (ISO)
100
AcDbLine
 10
403.3059984499638
 20
554.3320783648469
 30
0.0
 11
403.3059984499646
 21
555.8363650745566
 31
0.0
  0
LINE
  5
35B
330
75
100
AcDbEntity
  8
Visible (ISO)
100
AcDbLine
 10
405.0030547248118
 20
555.3093480779482
 30
0.0
 11
403.3059984499638
 21
554.3320783648469
 31
0.0
  0
LINE
  5
35C
330
75
100
AcDbEntity
  8
Visible (ISO)
100
AcDbLine
 10
405.0030547248126
 20
556.813634787658
 30
0.0
 11
405.0030547248118
 21
555.3093480779482
 31
0.0
  0
LINE
  5
35D
330
75
100
AcDbEntity
  8
Visible (ISO)
100
AcDbLine
 10
403.3059984499646
 20
555.8363650745566
 30
0.0
 11
405.0030547248126
 21
556.813634787658
 31
0.0
  0
LINE
  5
35E
330
75
100
AcDbEntity
  8
Visible (ISO)
100
AcDbLine
 10
400.1381600702424
 20
542.0457629268817
 30
0.0
 11
402.1746276000602
 21
543.8699997246716
 31
0.0
  0
LINE
  5
35F
330
75
100
AcDbEntity
  8
Visible (ISO)
100
AcDbLine
 10
402.1746276000675
 20
558.258829121896
 30
0.0
 11
402.1746276000602
 21
543.8699997246716
 31
0.0
  0
LINE
  5
360
330
75
100
AcDbEntity
  8
Visible (ISO)
100
AcDbLine
 10
400.1381600702498
 20
556.4345923241061
 30
0.0
 11
402.1746276000675
 21
558.258829121896
 31
0.0
  0
LINE
  5
361
330
75
100
AcDbEntity
  8
Visible (ISO)
100
AcDbLine
 10
400.1381600702498
 20
556.4345923241061
 30
0.0
 11
400.1381600702424
 21
542.0457629268817
 31
0.0
  0
LINE
  5
362
330
75
100
AcDbEntity
  8
Visible (ISO)
100
AcDbLine
 10
402.1746276000602
 20
543.8699997246716
 30
0.0
 11
405.8515828622307
 21
545.9874174363914
 31
0.0
  0
LINE
  5
363
330
75
100
AcDbEntity
  8
Visible (ISO)
100
AcDbLine
 10
405.8515828622381
 20
560.3762468336157
 30
0.0
 11
405.8515828622307
 21
545.9874174363914
 31
0.0
  0
LINE
  5
364
330
75
100
AcDbEntity
  8
Visible (ISO)
100
AcDbLine
 10
402.1746276000675
 20
558.258829121896
 30
0.0
 11
405.8515828622381
 21
560.3762468336157
 31
0.0
  0
LINE
  5
365
330
75
100
AcDbEntity
  8
Visible (ISO)
100
AcDbLine
 10
405.8515828622307
 20
545.9874174363914
 30
0.0
 11
410.9427516867731
 21
543.0556082970826
 31
0.0
  0
LINE
  5
366
330
75
100
AcDbEntity
  8
Visible (ISO)
100
AcDbLine
 10
410.9427516867805
 20
557.4444376943071
 30
0.0
 11
410.9427516867731
 21
543.0556082970826
 31
0.0
  0
LINE
  5
367
330
75
100
AcDbEntity
  8
Visible (ISO)
100
AcDbLine
 10
405.8515828622381
 20
560.3762468336157
 30
0.0
 11
410.9427516867805
 21
557.4444376943071
 31
0.0
  0
LINE
  5
368
330
75
100
AcDbEntity
  8
Visible (ISO)
100
AcDbLine
 10
410.9427516867731
 20
543.0556082970826
 30
0.0
 11
408.623441444481
 21
541.720006355844
 31
0.0
  0
LINE
  5
369
330
75
100
AcDbEntity
  8
Visible (ISO)
100
AcDbLine
 10
408.623441444481
 20
541.720006355844
 30
0.0
 11
413.7146102690234
 21
538.7881972165352
 31
0.0
  0
LINE
  5
36A
330
75
100
AcDbEntity
  8
Visible (ISO)
100
AcDbLine
 10
413.7146102690308
 20
553.1770266137597
 30
0.0
 11
413.7146102690234
 21
538.7881972165352
 31
0.0
  0
LINE
  5
36B
330
75
100
AcDbEntity
  8
Visible (ISO)
100
AcDbLine
 10
410.9427516867791
 20
554.7732338118281
 30
0.0
 11
413.7146102690308
 21
553.1770266137597
 31
0.0
  0
LINE
  5
36C
330
75
100
AcDbEntity
  8
Visible (ISO)
100
AcDbLine
 10
413.7146102690234
 20
538.7881972165352
 30
0.0
 11
409.7548122943781
 21
536.5079012192985
 31
0.0
  0
LINE
  5
36D
330
75
100
AcDbEntity
  8
Visible (ISO)
100
AcDbLine
 10
409.7548122943781
 20
536.5079012192985
 30
0.0
 11
400.1381600702424
 21
542.0457629268817
 31
0.0
  0
LINE
  5
36E
330
75
100
AcDbEntity
  8
Visible (ISO)
100
AcDbLine
 10
395.9520879256248
 20
554.0214691406502
 30
0.0
 11
397.3717814448201
 21
553.2039220158074
 31
0.0
  0
LINE
  5
36F
330
75
100
AcDbEntity
  8
Visible (ISO)
100
AcDbLine
 10
395.952087925624
 20
552.3863748909656
 30
0.0
 11
395.9520879256248
 21
554.0214691406502
 31
0.0
  0
LINE
  5
370
330
75
100
AcDbEntity
  8
Visible (ISO)
100
AcDbLine
 10
397.649144200472
 20
553.363644604067
 30
0.0
 11
395.952087925624
 21
552.3863748909656
 31
0.0
  0
LINE
  5
371
330
75
100
AcDbEntity
  8
Visible (ISO)
100
AcDbLine
 10
397.6491442004727
 20
554.9987388537516
 30
0.0
 11
397.649144200472
 21
553.363644604067
 31
0.0
  0
LINE
  5
372
330
75
100
AcDbEntity
  8
Visible (ISO)
100
AcDbLine
 10
395.9520879256248
 20
554.0214691406502
 30
0.0
 11
397.6491442004727
 21
554.9987388537516
 31
0.0
  0
LINE
  5
373
330
75
100
AcDbEntity
  8
Visible (ISO)
100
AcDbLine
 10
395.9520879256201
 20
544.7341338024418
 30
0.0
 11
397.2582059632797
 21
543.9819904475863
 31
0.0
  0
LINE
  5
374
330
75
100
AcDbEntity
  8
Visible (ISO)
100
AcDbLine
 10
395.9520879256193
 20
543.2298470927319
 30
0.0
 11
395.9520879256201
 21
544.7341338024418
 31
0.0
  0
LINE
  5
375
330
75
100
AcDbEntity
  8
Visible (ISO)
100
AcDbLine
 10
397.6491442004672
 20
544.2071168058333
 30
0.0
 11
395.9520879256193
 21
543.2298470927319
 31
0.0
  0
LINE
  5
376
330
75
100
AcDbEntity
  8
Visible (ISO)
100
AcDbLine
 10
397.649144200468
 20
545.7114035155432
 30
0.0
 11
397.6491442004672
 21
544.2071168058333
 31
0.0
  0
LINE
  5
377
330
75
100
AcDbEntity
  8
Visible (ISO)
100
AcDbLine
 10
395.9520879256201
 20
544.7341338024418
 30
0.0
 11
397.649144200468
 21
545.7114035155432
 31
0.0
  0
LINE
  5
378
330
75
100
AcDbEntity
  8
Visible (ISO)
100
AcDbLine
 10
397.6491442004669
 20
543.4222715659847
 30
0.0
 11
397.6491442004661
 21
541.9179848562749
 31
0.0
  0
LINE
  5
379
330
75
100
AcDbEntity
  8
Visible (ISO)
100
AcDbLine
 10
395.9520879256189
 20
542.4450018528832
 30
0.0
 11
397.6491442004669
 21
543.4222715659847
 31
0.0
  0
LINE
  5
37A
330
75
100
AcDbEntity
  8
Visible (ISO)
100
AcDbLine
 10
395.9520879256189
 20
542.4450018528832
 30
0.0
 11
397.2582059632784
 21
541.6928584980279
 31
0.0
  0
LINE
  5
37B
330
75
100
AcDbEntity
  8
Visible (ISO)
100
AcDbLine
 10
395.9520879256181
 20
540.9407151431735
 30
0.0
 11
395.9520879256189
 21
542.4450018528832
 31
0.0
  0
LINE
  5
37C
330
75
100
AcDbEntity
  8
Visible (ISO)
100
AcDbLine
 10
397.6491442004661
 20
541.9179848562749
 30
0.0
 11
395.9520879256181
 21
540.9407151431735
 31
0.0
  0
LINE
  5
37D
330
75
100
AcDbEntity
  8
Visible (ISO)
100
AcDbLine
 10
395.9520879256213
 20
547.0232657520001
 30
0.0
 11
397.2582059632808
 21
546.2711223971448
 31
0.0
  0
LINE
  5
37E
330
75
100
AcDbEntity
  8
Visible (ISO)
100
AcDbLine
 10
395.9520879256205
 20
545.5189790422902
 30
0.0
 11
395.9520879256213
 21
547.0232657520001
 31
0.0
  0
LINE
  5
37F
330
75
100
AcDbEntity
  8
Visible (ISO)
100
AcDbLine
 10
397.6491442004684
 20
546.4962487553918
 30
0.0
 11
395.9520879256205
 21
545.5189790422902
 31
0.0
  0
LINE
  5
380
330
75
100
AcDbEntity
  8
Visible (ISO)
100
AcDbLine
 10
397.6491442004692
 20
548.0005354651016
 30
0.0
 11
397.6491442004684
 21
546.4962487553918
 31
0.0
  0
LINE
  5
381
330
75
100
AcDbEntity
  8
Visible (ISO)
100
AcDbLine
 10
395.9520879256213
 20
547.0232657520001
 30
0.0
 11
397.6491442004692
 21
548.0005354651016
 31
0.0
  0
LINE
  5
382
330
75
100
AcDbEntity
  8
Visible (ISO)
100
AcDbLine
 10
395.9520879256224
 20
549.3123977015586
 30
0.0
 11
397.258205963282
 21
548.5602543467032
 31
0.0
  0
LINE
  5
383
330
75
100
AcDbEntity
  8
Visible (ISO)
100
AcDbLine
 10
395.9520879256217
 20
547.8081109918488
 30
0.0
 11
395.9520879256224
 21
549.3123977015586
 31
0.0
  0
LINE
  5
384
330
75
100
AcDbEntity
  8
Visible (ISO)
100
AcDbLine
 10
397.6491442004696
 20
548.7853807049503
 30
0.0
 11
395.9520879256217
 21
547.8081109918488
 31
0.0
  0
LINE
  5
385
330
75
100
AcDbEntity
  8
Visible (ISO)
100
AcDbLine
 10
397.6491442004704
 20
550.28966741466
 30
0.0
 11
397.6491442004696
 21
548.7853807049503
 31
0.0
  0
LINE
  5
386
330
75
100
AcDbEntity
  8
Visible (ISO)
100
AcDbLine
 10
395.9520879256224
 20
549.3123977015586
 30
0.0
 11
397.6491442004704
 21
550.28966741466
 31
0.0
  0
LINE
  5
387
330
75
100
AcDbEntity
  8
Visible (ISO)
100
AcDbLine
 10
395.9520879256236
 20
551.601529651117
 30
0.0
 11
397.2582059632831
 21
550.8493862962616
 31
0.0
  0
LINE
  5
388
330
75
100
AcDbEntity
  8
Visible (ISO)
100
AcDbLine
 10
395.9520879256229
 20
550.0972429414072
 30
0.0
 11
395.9520879256236
 21
551.601529651117
 31
0.0
  0
LINE
  5
389
330
75
100
AcDbEntity
  8
Visible (ISO)
100
AcDbLine
 10
397.6491442004708
 20
551.0745126545087
 30
0.0
 11
395.9520879256229
 21
550.0972429414072
 31
0.0
  0
LINE
  5
38A
330
75
100
AcDbEntity
  8
Visible (ISO)
100
AcDbLine
 10
397.6491442004715
 20
552.5787993642185
 30
0.0
 11
397.6491442004708
 21
551.0745126545087
 31
0.0
  0
LINE
  5
38B
330
75
100
AcDbEntity
  8
Visible (ISO)
100
AcDbLine
 10
395.9520879256236
 20
551.601529651117
 30
0.0
 11
397.6491442004715
 21
552.5787993642185
 31
0.0
  0
LINE
  5
38C
330
75
100
AcDbEntity
  8
Visible (ISO)
100
AcDbLine
 10
392.7842495459014
 20
537.8109275034421
 30
0.0
 11
394.8207170757191
 21
539.6351643012319
 31
0.0
  0
LINE
  5
38D
330
75
100
AcDbEntity
  8
Visible (ISO)
100
AcDbLine
 10
394.8207170757265
 20
554.0239936984563
 30
0.0
 11
394.8207170757191
 21
539.6351643012319
 31
0.0
  0
LINE
  5
38E
330
75
100
AcDbEntity
  8
Visible (ISO)
100
AcDbLine
 10
392.7842495459088
 20
552.1997569006665
 30
0.0
 11
394.8207170757265
 21
554.0239936984563
 31
0.0
  0
LINE
  5
38F
330
75
100
AcDbEntity
  8
Visible (ISO)
100
AcDbLine
 10
392.7842495459088
 20
552.1997569006665
 30
0.0
 11
392.7842495459014
 21
537.8109275034421
 31
0.0
  0
LINE
  5
390
330
75
100
AcDbEntity
  8
Visible (ISO)
100
AcDbLine
 10
394.8207170757191
 20
539.6351643012319
 30
0.0
 11
398.4976723378898
 21
541.7525820129517
 31
0.0
  0
LINE
  5
391
330
75
100
AcDbEntity
  8
Visible (ISO)
100
AcDbLine
 10
398.4976723378971
 20
556.1414114101762
 30
0.0
 11
398.4976723378898
 21
541.7525820129517
 31
0.0
  0
LINE
  5
392
330
75
100
AcDbEntity
  8
Visible (ISO)
100
AcDbLine
 10
394.8207170757265
 20
554.0239936984563
 30
0.0
 11
398.4976723378971
 21
556.1414114101762
 31
0.0
  0
LINE
  5
393
330
75
100
AcDbEntity
  8
Visible (ISO)
100
AcDbLine
 10
398.4976723378898
 20
541.7525820129517
 30
0.0
 11
403.5888411624321
 21
538.820772873643
 31
0.0
  0
LINE
  5
394
330
75
100
AcDbEntity
  8
Visible (ISO)
100
AcDbLine
 10
403.5888411624327
 20
540.0586478435721
 30
0.0
 11
403.5888411624321
 21
538.820772873643
 31
0.0
  0
LINE
  5
395
330
75
100
AcDbEntity
  8
Visible (ISO)
100
AcDbLine
 10
398.4976723378971
 20
556.1414114101762
 30
0.0
 11
400.1381600702492
 21
555.1967173541769
 31
0.0
  0
LINE
  5
396
330
75
100
AcDbEntity
  8
Visible (ISO)
100
AcDbLine
 10
403.5888411624321
 20
538.820772873643
 30
0.0
 11
401.2695309201399
 21
537.4851709324044
 31
0.0
  0
LINE
  5
397
330
75
100
AcDbEntity
  8
Visible (ISO)
100
AcDbLine
 10
401.2695309201399
 20
537.4851709324044
 30
0.0
 11
406.3606997446822
 21
534.5533617930957
 31
0.0
  0
LINE
  5
398
330
75
100
AcDbEntity
  8
Visible (ISO)
100
AcDbLine
 10
406.3606997446842
 20
538.4624406455036
 30
0.0
 11
406.3606997446822
 21
534.5533617930957
 31
0.0
  0
LINE
  5
399
330
75
100
AcDbEntity
  8
Visible (ISO)
100
AcDbLine
 10
406.3606997446822
 20
534.5533617930957
 30
0.0
 11
402.400901770037
 21
532.2730657958588
 31
0.0
  0
LINE
  5
39A
330
75
100
AcDbEntity
  8
Visible (ISO)
100
AcDbLine
 10
402.400901770037
 20
532.2730657958588
 30
0.0
 11
392.7842495459014
 21
537.8109275034421
 31
0.0
  0
LINE
  5
39B
330
75
100
AcDbEntity
  8
Marque de centre (ISO)
  6
CHAIN
 48
9.945206642150878
100
AcDbLine
 10
307.1106741947799
 20
860.0750080556052
 30
0.0
 11
271.3106741947798
 21
860.0750080556052
 31
0.0
  0
LINE
  5
39C
330
75
100
AcDbEntity
  8
Marque de centre (ISO)
  6
CHAIN
 48
9.945206642150878
100
AcDbLine
 10
289.2106741947799
 20
877.9750080556052
 30
0.0
 11
289.2106741947799
 21
842.1750080556051
 31
0.0
  0
LINE
  5
39D
330
75
100
AcDbEntity
  8
Marque de centre (ISO)
  6
CHAIN
 48
11.11197376251221
100
AcDbLine
 10
584.2106741947799
 20
860.0750080556052
 30
0.0
 11
544.2106741947799
 21
860.0750080556052
 31
0.0
  0
LINE
  5
39E
330
75
100
AcDbEntity
  8
Marque de centre (ISO)
  6
CHAIN
 48
11.11197376251221
100
AcDbLine
 10
564.2106741947799
 20
880.0750080556053
 30
0.0
 11
564.2106741947799
 21
840.0750080556052
 31
0.0
  0
LINE
  5
39F
330
75
100
AcDbEntity
  8
Marque de centre (ISO)
  6
CHAIN
 48
11.11197376251221
100
AcDbLine
 10
309.2106741947798
 20
860.0750080556052
 30
0.0
 11
269.2106741947799
 21
860.0750080556052
 31
0.0
  0
LINE
  5
3A0
330
75
100
AcDbEntity
  8
Marque de centre (ISO)
  6
CHAIN
 48
11.11197376251221
100
AcDbLine
 10
289.2106741947799
 20
880.0750080556053
 30
0.0
 11
289.2106741947799
 21
840.0750080556052
 31
0.0
  0
LINE
  5
3A1
330
75
100
AcDbEntity
  8
Marque de centre (ISO)
  6
CHAIN
 48
8.333955764770507
100
AcDbLine
 10
138.2106741947798
 20
870.0750080556053
 30
0.0
 11
108.2106741947798
 21
870.0750080556053
 31
0.0
  0
LINE
  5
3A2
330
75
100
AcDbEntity
  8
Marque de centre (ISO)
  6
CHAIN
 48
8.333955764770507
100
AcDbLine
 10
123.2106741947798
 20
885.0750080556052
 30
0.0
 11
123.2106741947798
 21
855.0750080556053
 31
0.0
  0
LINE
  5
3A3
330
75
100
AcDbEntity
  8
Marque de centre (ISO)
  6
CHAIN
 48
8.333955764770507
100
AcDbLine
 10
138.2106741947798
 20
850.0750080556052
 30
0.0
 11
108.2106741947798
 21
850.0750080556052
 31
0.0
  0
LINE
  5
3A4
330
75
100
AcDbEntity
  8
Marque de centre (ISO)
  6
CHAIN
 48
8.333955764770507
100
AcDbLine
 10
123.2106741947798
 20
865.0750080556052
 30
0.0
 11
123.2106741947798
 21
835.0750080556052
 31
0.0
  0
LINE
  5
3A5
330
75
100
AcDbEntity
  8
Marque de centre (ISO)
  6
CHAIN
 48
7.083847045898437
100
AcDbLine
 10
135.9606741943604
 20
659.1876561012104
 30
0.0
 11
110.4606741943604
 21
659.1876561012104
 31
0.0
  0
LINE
  5
3A6
330
75
100
AcDbEntity
  8
Marque de centre (ISO)
  6
CHAIN
 48
7.083847045898437
100
AcDbLine
 10
123.2106741943604
 20
671.9376561012104
 30
0.0
 11
123.2106741943604
 21
646.4376561012103
 31
0.0
  0
LINE
  5
3A7
330
75
100
AcDbEntity
  8
Marque de centre (ISO)
  6
CHAIN
 48
7.083847045898437
100
AcDbLine
 10
135.9606741943604
 20
639.1876561012103
 30
0.0
 11
110.4606741943604
 21
639.1876561012103
 31
0.0
  0
LINE
  5
3A8
330
75
100
AcDbEntity
  8
Marque de centre (ISO)
  6
CHAIN
 48
7.083847045898437
100
AcDbLine
 10
123.2106741943604
 20
651.9376561012103
 30
0.0
 11
123.2106741943604
 21
626.4376561012103
 31
0.0
  0
LINE
  5
3A9
330
75
100
AcDbEntity
  8
Marque de centre (ISO)
  6
CHAIN
 48
7.083847045898437
100
AcDbLine
 10
755.9606741943605
 20
639.1876561012103
 30
0.0
 11
730.4606741943604
 21
639.1876561012103
 31
0.0
  0
LINE
  5
3AA
330
75
100
AcDbEntity
  8
Marque de centre (ISO)
  6
CHAIN
 48
7.083847045898437
100
AcDbLine
 10
743.2106741943605
 20
651.9376561012103
 30
0.0
 11
743.2106741943605
 21
626.4376561012103
 31
0.0
  0
LINE
  5
3AB
330
75
100
AcDbEntity
  8
Marque de centre (ISO)
  6
CHAIN
 48
7.083847045898437
100
AcDbLine
 10
755.9606741943605
 20
659.1876561012102
 30
0.0
 11
730.4606741943604
 21
659.1876561012102
 31
0.0
  0
LINE
  5
3AC
330
75
100
AcDbEntity
  8
Marque de centre (ISO)
  6
CHAIN
 48
7.083847045898437
100
AcDbLine
 10
743.2106741943605
 20
671.9376561012103
 30
0.0
 11
743.2106741943605
 21
646.4376561012102
 31
0.0
  0
LINE
  5
3AD
330
75
100
AcDbEntity
  8
Marque de centre (ISO)
  6
CHAIN
 48
8.333955764770507
100
AcDbLine
 10
758.2106741947797
 20
850.0750080556052
 30
0.0
 11
728.2106741947798
 21
850.0750080556052
 31
0.0
  0
LINE
  5
3AE
330
75
100
AcDbEntity
  8
Marque de centre (ISO)
  6
CHAIN
 48
8.333955764770507
100
AcDbLine
 10
743.2106741947798
 20
865.0750080556052
 30
0.0
 11
743.2106741947798
 21
835.0750080556052
 31
0.0
  0
LINE
  5
3AF
330
75
100
AcDbEntity
  8
Marque de centre (ISO)
  6
CHAIN
 48
8.333955764770507
100
AcDbLine
 10
758.2106741947797
 20
870.0750080556053
 30
0.0
 11
728.2106741947798
 21
870.0750080556053
 31
0.0
  0
LINE
  5
3B0
330
75
100
AcDbEntity
  8
Marque de centre (ISO)
  6
CHAIN
 48
8.333955764770507
100
AcDbLine
 10
743.2106741947798
 20
885.0750080556052
 30
0.0
 11
743.2106741947798
 21
855.0750080556053
 31
0.0
  0
LINE
  5
3B1
330
75
100
AcDbEntity
  8
Marque de centre (ISO)
  6
CHAIN
 48
8.333955764770507
100
AcDbLine
 10
397.5406741946501
 20
1071.540914021728
 30
0.0
 11
367.5406741946501
 21
1071.540914021728
 31
0.0
  0
LINE
  5
3B2
330
75
100
AcDbEntity
  8
Marque de centre (ISO)
  6
CHAIN
 48
11.11197376251221
100
AcDbLine
 10
377.5406741946501
 20
1091.540914021728
 30
0.0
 11
377.5406741946501
 21
1051.540914021728
 31
0.0
  0
LINE
  5
3B3
330
75
100
AcDbEntity
  8
Marque de centre (ISO)
  6
CHAIN
 48
7.36164903640747
100
AcDbLine
 10
368.0406741946502
 20
1071.540914021728
 30
0.0
 11
341.5406741946501
 21
1071.540914021728
 31
0.0
  0
LINE
  5
3B4
330
75
100
AcDbEntity
  8
Marque de centre (ISO)
  6
CHAIN
 48
9.167361259460449
100
AcDbLine
 10
358.0406741946501
 20
1088.040914021727
 30
0.0
 11
358.0406741946501
 21
1055.040914021727
 31
0.0
  0
DIMENSION
  5
3B5
330
75
100
AcDbEntity
  8
Cote (ISO)
 62
   150
420
    33023
100
AcDbDimension
  2
*D8
 10
99.20250978031367
 20
1092.540914021727
 30
0.0
 11
99.20250978031349
 21
1071.540914021728
 31
0.0
 70
   160
  1
<>
 42
41.99999999999863
  3
Groom
100
AcDbAlignedDimension
 13
120.2564122848242
 23
1050.540914021728
 33
0.0
 14
137.2606741946502
 24
1092.540914021727
 34
0.0
 50
90.0
100
AcDbRotatedDimension
1001
ACAD
1000
DSTYLE
1002
{
1070
   289
1070
     2
1070
    74
1070
     0
1070
   271
1070
     2
1070
   272
1070
     2
1070
    48
1040
0.0
1070
    47
1040
0.0
1002
}
  0
LINE
  5
48F
330
75
100
AcDbEntity
  8
Trait d'axe (ISO)
  6
CHAIN
 48
23.99096870422363
100
AcDbLine
 10
123.2106741946498
 20
1078.279609839014
 30
0.0
 11
123.2106741946498
 21
1026.039020318336
 31
0.0
  0
LINE
  5
490
330
75
100
AcDbEntity
  8
Trait d'axe (ISO)
  6
CHAIN
 48
23.99096870422363
100
AcDbLine
 10
743.2106741946498
 20
1091.310240357476
 30
0.0
 11
743.2106741946498
 21
1018.198292991993
 31
0.0
  0
DIMENSION
  5
491
330
75
100
AcDbEntity
  8
Cote (ISO)
 62
   150
420
    33023
100
AcDbDimension
  2
*D9
 10
778.7324811625705
 20
1046.540914021728
 30
0.0
 11
778.7324811625703
 21
1048.540914021728
 31
0.0
 70
   160
  1
<>
 42
4.0
  3
Groom
100
AcDbAlignedDimension
 13
753.2106741946497
 23
1050.540914021728
 33
0.0
 14
753.2106741946497
 24
1046.540914021728
 34
0.0
 50
90.0
100
AcDbRotatedDimension
1001
ACAD
1000
DSTYLE
1002
{
1070
   289
1070
     2
1070
    74
1070
     0
1070
   271
1070
     2
1070
   272
1070
     2
1070
    48
1040
0.0
1070
    47
1040
0.0
1002
}
  0
DIMENSION
  5
579
330
75
100
AcDbEntity
  8
Cote (ISO)
 62
   150
420
    33023
100
AcDbDimension
  2
*D10
 10
92.38730536646251
 20
630.1876561012103
 30
0.0
 11
92.38730536646242
 21
649.1876561012102
 31
0.0
 70
   160
  1
<>
 42
38.0
  3
Groom
100
AcDbAlignedDimension
 13
113.2106741943604
 23
668.1876561012103
 33
0.0
 14
113.2106741943605
 24
630.1876561012103
 34
0.0
 50
270.0
100
AcDbRotatedDimension
1001
ACAD
1000
DSTYLE
1002
{
1070
   289
1070
     2
1070
    74
1070
     0
1070
   271
1070
     2
1070
   272
1070
     2
1070
    48
1040
0.0
1070
    47
1040
0.0
1002
}
  0
DIMENSION
  5
652
330
75
100
AcDbEntity
  8
Cote (ISO)
 62
   150
420
    33023
100
AcDbDimension
  2
*D11
 10
113.2106741943605
 20
694.5994926088717
 30
0.0
 11
433.2106741943604
 21
694.5994926088717
 31
0.0
 70
   160
  1
<>
 42
640.0
  3
Groom
100
AcDbAlignedDimension
 13
753.2106741943605
 23
630.1876561012103
 33
0.0
 14
113.2106741943605
 24
630.1876561012103
 34
0.0
 50
180.0
100
AcDbRotatedDimension
1001
ACAD
1000
DSTYLE
1002
{
1070
   289
1070
     2
1070
    74
1070
     0
1070
   271
1070
     2
1070
   272
1070
     2
1070
    48
1040
0.0
1070
    47
1040
0.0
1002
}
  0
DIMENSION
  5
724
330
75
100
AcDbEntity
  8
Cote (ISO)
 62
   150
420
    33023
100
AcDbDimension
  2
*D12
 10
369.4447652364211
 20
632.6876561012336
 30
0.0
 11
369.444765236421
 21
649.1876561012336
 31
0.0
 70
   160
  1
<>
 42
33.0
  3
Groom
100
AcDbAlignedDimension
 13
369.444765236421
 23
665.6876561012336
 33
0.0
 14
369.444765236421
 24
632.6876561012336
 34
0.0
 50
270.0
100
AcDbRotatedDimension
1001
ACAD
1000
DSTYLE
1002
{
1070
   289
1070
     2
1070
    74
1070
     0
1070
   271
1070
     2
1070
    76
1070
     1
1070
    75
1070
     1
1070
   272
1070
     2
1070
    48
1040
0.0
1070
    47
1040
0.0
1002
}
  0
DIMENSION
  5
7F4
330
75
100
AcDbEntity
  8
Cote (ISO)
 62
   150
420
    33023
100
AcDbDimension
  2
*D13
 10
743.2106741947798
 20
810.0750080556052
 30
0.0
 11
433.2106741947797
 21
810.0750080556052
 31
0.0
 70
   160
  1
<>
 42
620.0
  3
Groom
100
AcDbAlignedDimension
 13
123.2106741947798
 23
850.0750080556052
 33
0.0
 14
743.2106741947798
 24
850.0750080556052
 34
0.0
 50
180.0
100
AcDbRotatedDimension
1001
ACAD
1000
DSTYLE
1002
{
1070
   289
1070
     2
1070
    74
1070
     0
1070
   271
1070
     2
1070
   272
1070
     2
1070
    48
1040
0.0
1070
    47
1040
0.0
1002
}
  0
DIMENSION
  5
8C6
330
75
100
AcDbEntity
  8
Cote (ISO)
 62
   150
420
    33023
100
AcDbDimension
  2
*D14
 10
564.2106741947799
 20
906.2685056820967
 30
0.0
 11
426.7106741947799
 21
906.2685056820967
 31
0.0
 70
   160
  1
<>
 42
275.0
  3
Groom
100
AcDbAlignedDimension
 13
289.2106741947799
 23
860.0750080556052
 33
0.0
 14
564.2106741947799
 24
860.0750080556052
 34
0.0
 50
180.0
100
AcDbRotatedDimension
1001
ACAD
1000
DSTYLE
1002
{
1070
   289
1070
     2
1070
    74
1070
     0
1070
   271
1070
     2
1070
   272
1070
     2
1070
    48
1040
0.0
1070
    47
1040
0.0
1002
}
  0
DIMENSION
  5
998
330
75
100
AcDbEntity
  8
Cote (ISO)
 62
   150
420
    33023
100
AcDbDimension
  2
*D15
 10
753.2106741947798
 20
906.2685056820967
 30
0.0
 11
748.2106741947798
 21
906.2685056820967
 31
0.0
 70
   160
  1
<>
 42
10.0
  3
Groom
100
AcDbAlignedDimension
 13
743.2106741947798
 23
870.0750080556053
 33
0.0
 14
753.2106741947798
 24
879.0750080556053
 34
0.0
 50
180.0
100
AcDbRotatedDimension
1001
ACAD
1000
DSTYLE
1002
{
1070
   289
1070
     2
1070
    74
1070
     0
1070
   271
1070
     2
1070
   272
1070
     2
1070
    48
1040
0.0
1070
    47
1040
0.0
1002
}
  0
DIMENSION
  5
A78
330
75
100
AcDbEntity
  8
Cote (ISO)
 62
   150
420
    33023
100
AcDbDimension
  2
*D16
 10
289.2106741947799
 20
906.2685056820967
 30
0.0
 11
206.2106741947798
 21
906.2685056820967
 31
0.0
 70
   160
  1
<>
 42
166.0
  3
Groom
100
AcDbAlignedDimension
 13
123.2106741947798
 23
870.0750080556053
 33
0.0
 14
289.2106741947799
 24
860.0750080556052
 34
0.0
 50
180.0
100
AcDbRotatedDimension
1001
ACAD
1000
DSTYLE
1002
{
1070
   289
1070
     2
1070
    74
1070
     0
1070
   271
1070
     2
1070
   272
1070
     2
1070
    48
1040
0.0
1070
    47
1040
0.0
1002
}
  0
DIMENSION
  5
B4A
330
75
100
AcDbEntity
  8
Cote (ISO)
 62
   150
420
    33023
100
AcDbDimension
  2
*D17
 10
90.6916526013205
 20
850.0750080556052
 30
0.0
 11
90.69165260132038
 21
860.0750080556052
 31
0.0
 70
   160
  1
<>
 42
20.0
  3
Groom
100
AcDbAlignedDimension
 13
123.2106741947798
 23
870.0750080556053
 33
0.0
 14
123.2106741947798
 24
850.0750080556052
 34
0.0
 50
90.0
100
AcDbRotatedDimension
1001
ACAD
1000
DSTYLE
1002
{
1070
   289
1070
     2
1070
    74
1070
     0
1070
   271
1070
     2
1070
   272
1070
     2
1070
    48
1040
0.0
1070
    47
1040
0.0
1002
}
  0
DIMENSION
  5
C32
330
75
100
AcDbEntity
  8
Cote (ISO)
 62
   150
420
    33023
100
AcDbDimension
  2
*D18
 10
727.0606741946501
 20
1118.515914021727
 30
0.0
 11
431.1606741946501
 21
1118.515914021727
 31
0.0
 70
   160
  1
<>
 42
591.7999999999999
  3
Groom
100
AcDbAlignedDimension
 13
135.2606741946501
 23
1070.540914021727
 33
0.0
 14
727.0606741946501
 24
1054.515914021727
 34
0.0
 50
180.0
100
AcDbRotatedDimension
1001
ACAD
1000
DSTYLE
1002
{
1070
   289
1070
     2
1070
    74
1070
     0
1070
   271
1070
     2
1070
   272
1070
     2
1070
    48
1040
0.0
1070
    47
1040
0.0
1002
}
  0
DIMENSION
  5
D04
330
75
100
AcDbEntity
  8
Cote (ISO)
 62
   150
420
    33023
100
AcDbDimension
  2
*D19
 10
377.5406741946501
 20
998.9229263712491
 30
0.0
 11
250.37567419465
 21
998.9229263712491
 31
0.0
 70
   160
  1
<>
 42
254.3300000000002
  3
Groom
100
AcDbAlignedDimension
 13
123.2106741946498
 23
1026.039020318336
 33
0.0
 14
377.5406741946501
 24
1071.540914021728
 34
0.0
 50
180.0
100
AcDbRotatedDimension
1001
ACAD
1000
DSTYLE
1002
{
1070
   289
1070
     2
1070
    74
1070
     0
1070
   271
1070
     2
1070
   272
1070
     2
1070
    48
1040
0.0
1070
    47
1040
0.0
1002
}
  0
MTEXT
  5
DD6
102
{ACAD_XDICTIONARY
360
DEF
102
}
102
{ACAD_REACTORS
330
DD8
102
}
330
75
100
AcDbEntity
  8
Symbole (ISO)
100
AcDbMText
 10
706.0951314061896
 20
789.0712879122271
 30
0.0
 40
13.99999976158142
 41
127.7009660899639
 71
     3
 72
     1
  1
{\fAIGDT|b0|i0;\H14.0000;n\fTahoma|b0|i0;\H14.0000;5,5 D\U+00E9b\P\fAIGDT|b0|i0;\H14.0000;w\fTahoma|b0|i0;\H14.0000; \fAIGDT|b0|i0;\H14.0000;n\fTahoma|b0|i0;\H14.0000;10 X 90\U+00B0}
  7
Texte de note (ISO)
 73
     2
 44
1.050000071525573
  0
LEADER
  5
DD8
330
75
100
AcDbEntity
  8
Symbole (ISO)
100
AcDbLeader
  3
Groom$7
 73
     0
 75
     1
 40
43.16666760047273
 41
125.7437352675644
 76
     4
 10
741.4722886913182
 20
845.3869364007182
 30
0.0
 10
719.1016111463325
 20
785.0577751816286
 30
0.0
 10
718.0951314061896
 20
782.0712880314364
 30
0.0
 10
708.0951314061897
 20
782.0712880314364
 30
0.0
340
DD6
213
0.0
223
-6.99999988079071
233
0.0
1001
ACAD
1000
DSTYLE
1002
{
1070
    77
1070
     0
1002
}
  0
MTEXT
  5
DD9
102
{ACAD_XDICTIONARY
360
DF1
102
}
330
75
100
AcDbEntity
  8
Symbole (ISO)
100
AcDbMText
 10
548.0
 20
520.0
 30
0.0
 40
13.99999976158142
 41
205.672607421875
 71
     1
 72
     1
  1
{Mod\U+00E8les:\P\P\fTahoma|b0|i0;\H20.0000;102187:DAS\P102182:Emission\P102151:Rupture}
  7
Texte de note (ISO)
 73
     1
 44
0.9536463618278503
  0
ENDSEC
  0
SECTION
  2
OBJECTS
  0
DICTIONARY
  5
C
330
0
100
AcDbDictionary
281
     1
  3
ACAD_COLOR
350
6B
  3
ACAD_GROUP
350
D
  3
ACAD_IMAGE_DICT
350
149
  3
ACAD_IMAGE_VARS
350
DDA
  3
ACAD_LAYOUT
350
6A
  3
ACAD_MATERIAL
350
10
  3
ACAD_MLEADERSTYLE
350
6E
  3
ACAD_MLINESTYLE
350
67
  3
ACAD_PLOTSETTINGS
350
69
  3
ACAD_PLOTSTYLENAME
350
E
  3
ACAD_SCALELIST
350
3A
  3
ACAD_TABLESTYLE
350
6C
  3
ACAD_VISUALSTYLE
350
29
  3
ACDB_RECOMPOSE_DATA
350
DE6
  3
AcDbVariableDictionary
350
DDD
  0
DICTIONARY
  5
DDB
330
75
100
AcDbDictionary
280
     1
281
     1
  3
ACAD_SORTENTS
360
DDC
  0
IMAGEDEF_REACTOR
  5
14B
330
148
100
AcDbRasterImageDefReactor
 90
        2
330
148
  0
DICTIONARY
  5
DEB
330
160
100
AcDbDictionary
280
     1
281
     1
  3
ACAD_MTEXT_2008_RT
360
DEC
  0
DICTIONARY
  5
DED
330
161
100
AcDbDictionary
280
     1
281
     1
  3
ACAD_MTEXT_2008_RT
360
DEE
  0
DICTIONARY
  5
DEF
330
DD6
100
AcDbDictionary
280
     1
281
     1
  3
ACAD_MTEXT_2008_RT
360
DF0
  0
DICTIONARY
  5
DF1
330
DD9
100
AcDbDictionary
280
     1
281
     1
  3
ACAD_MTEXT_2008_RT
360
DF2
  0
DICTIONARY
  5
6B
102
{ACAD_REACTORS
330
C
102
}
330
C
100
AcDbDictionary
281
     1
  0
DICTIONARY
  5
D
102
{ACAD_REACTORS
330
C
102
}
330
C
100
AcDbDictionary
281
     1
  0
DICTIONARY
  5
149
102
{ACAD_REACTORS
330
C
102
}
330
C
100
AcDbDictionary
281
     1
  3
OAImg2129929920
350
14A
  0
RASTERVARIABLES
  5
DDA
102
{ACAD_REACTORS
330
C
102
}
330
C
100
AcDbRasterVariables
 90
        0
 70
     0
 71
     1
 72
     1
  0
DICTIONARY
  5
6A
102
{ACAD_REACTORS
330
C
102
}
330
C
100
AcDbDictionary
281
     1
  3
Layout1
350
74
  3
Layout2
350
7C
  3
Model
350
78
  0
DICTIONARY
  5
10
102
{ACAD_REACTORS
330
C
102
}
330
C
100
AcDbDictionary
281
     1
  3
ByBlock
350
19
  3
ByLayer
350
11
  3
Global
350
21
  0
DICTIONARY
  5
6E
102
{ACAD_REACTORS
330
C
102
}
330
C
100
AcDbDictionary
281
     1
  3
Standard
350
6F
  0
DICTIONARY
  5
67
102
{ACAD_REACTORS
330
C
102
}
330
C
100
AcDbDictionary
281
     1
  3
Standard
350
68
  0
DICTIONARY
  5
69
102
{ACAD_REACTORS
330
C
102
}
330
C
100
AcDbDictionary
281
     1
  0
ACDBDICTIONARYWDFLT
  5
E
102
{ACAD_REACTORS
330
C
102
}
330
C
100
AcDbDictionary
281
     1
  3
Normal
350
F
100
AcDbDictionaryWithDefault
340
F
  0
DICTIONARY
  5
3A
102
{ACAD_REACTORS
330
C
102
}
330
C
100
AcDbDictionary
281
     1
  3
A0
350
3B
  3
A1
350
3C
  3
A2
350
3D
  3
A3
350
3E
  3
A4
350
3F
  3
A5
350
40
  3
A6
350
41
  3
A7
350
42
  3
A8
350
43
  3
A9
350
44
  3
B0
350
45
  3
B1
350
46
  3
B2
350
47
  3
B3
350
48
  3
B4
350
49
  3
B5
350
4A
  3
B6
350
4B
  3
B7
350
4C
  3
B8
350
4D
  3
B9
350
4E
  3
C0
350
4F
  3
C1
350
50
  3
C2
350
51
  3
C3
350
52
  3
C4
350
53
  3
C5
350
54
  3
C6
350
55
  3
C7
350
56
  3
C8
350
57
  3
C9
350
58
  3
D0
350
59
  3
D1
350
5A
  3
D2
350
5B
  0
DICTIONARY
  5
6C
102
{ACAD_REACTORS
330
C
102
}
330
C
100
AcDbDictionary
281
     1
  3
Standard
350
6D
  0
DICTIONARY
  5
29
102
{ACAD_REACTORS
330
C
102
}
330
C
100
AcDbDictionary
281
     1
  3
2dWireframe
350
2F
  3
3D Hidden
350
31
  3
3dWireframe
350
30
  3
Basic
350
2E
  3
Brighten
350
35
  3
ColorChange
350
39
  3
Conceptual
350
32
  3
Dim
350
34
  3
Facepattern
350
38
  3
Flat
350
2A
  3
FlatWithEdges
350
2B
  3
Gouraud
350
2C
  3
GouraudWithEdges
350
2D
  3
Linepattern
350
37
  3
Realistic
350
33
  3
Thicken
350
36
  0
XRECORD
  5
DE6
102
{ACAD_REACTORS
330
C
102
}
330
C
100
AcDbXrecord
280
     1
 90
        1
330
6D
  0
DICTIONARY
  5
DDD
102
{ACAD_REACTORS
330
C
102
}
330
C
100
AcDbDictionary
281
     1
  3
CANNOSCALE
350
DE1
  3
CMLEADERSTYLE
350
DDF
  3
CTABLESTYLE
350
DDE
  3
LIGHTINGUNITS
350
DE2
  3
MSLTSCALE
350
DE0
  0
SORTENTSTABLE
  5
DDC
102
{ACAD_REACTORS
330
DDB
102
}
330
DDB
100
AcDbSortentsTable
330
75
331
258
  5
258
331
369
  5
369
331
38B
  5
38B
331
3AD
  5
3AD
331
2BE
  5
2BE
331
29C
  5
29C
331
27A
  5
27A
331
241
  5
241
331
2D8
  5
2D8
331
2FA
  5
2FA
331
31C
  5
31C
331
33E
  5
33E
331
358
  5
358
331
269
  5
269
331
37A
  5
37A
331
39C
  5
39C
331
2CF
  5
2CF
331
2AD
  5
2AD
331
28B
  5
28B
331
252
  5
252
331
230
  5
230
331
20E
  5
20E
331
1EC
  5
1EC
331
1D2
  5
1D2
331
30B
  5
30B
331
2E9
  5
2E9
331
DD6
  5
DD6
331
32D
  5
32D
331
21F
  5
21F
331
1FD
  5
1FD
331
1C1
  5
1C1
331
1B0
  5
1B0
331
389
  5
389
331
3AB
  5
3AB
331
2BC
  5
2BC
331
29A
  5
29A
331
278
  5
278
331
2D6
  5
2D6
331
2F8
  5
2F8
331
31A
  5
31A
331
33C
  5
33C
331
356
  5
356
331
267
  5
267
331
378
  5
378
331
39A
  5
39A
331
2CD
  5
2CD
331
2AB
  5
2AB
331
289
  5
289
331
250
  5
250
331
22E
  5
22E
331
20C
  5
20C
331
1EA
  5
1EA
331
1D0
  5
1D0
331
490
  5
490
331
309
  5
309
331
2E7
  5
2E7
331
32B
  5
32B
331
367
  5
367
331
23F
  5
23F
331
21D
  5
21D
331
1FB
  5
1FB
331
1BF
  5
1BF
331
1AE
  5
1AE
331
3A9
  5
3A9
331
2BA
  5
2BA
331
298
  5
298
331
2D4
  5
2D4
331
2F6
  5
2F6
331
318
  5
318
331
33A
  5
33A
331
354
  5
354
331
265
  5
265
331
376
  5
376
331
398
  5
398
331
2CB
  5
2CB
331
2A9
  5
2A9
331
287
  5
287
331
24E
  5
24E
331
22C
  5
22C
331
20A
  5
20A
331
1E8
  5
1E8
331
1CE
  5
1CE
331
2E5
  5
2E5
331
998
  5
998
331
307
  5
307
331
329
  5
329
331
365
  5
365
331
387
  5
387
331
276
  5
276
331
23D
  5
23D
331
21B
  5
21B
331
1F9
  5
1F9
331
1DF
  5
1DF
331
1BD
  5
1BD
331
1AC
  5
1AC
331
2B8
  5
2B8
331
2D2
  5
2D2
331
2F4
  5
2F4
331
316
  5
316
331
338
  5
338
331
352
  5
352
331
263
  5
263
331
374
  5
374
331
396
  5
396
331
2C9
  5
2C9
331
2A7
  5
2A7
331
285
  5
285
331
24C
  5
24C
331
22A
  5
22A
331
208
  5
208
331
1E6
  5
1E6
331
1CC
  5
1CC
331
2E3
  5
2E3
331
305
  5
305
331
327
  5
327
331
363
  5
363
331
385
  5
385
331
3A7
  5
3A7
331
296
  5
296
331
274
  5
274
331
23B
  5
23B
331
219
  5
219
331
1F7
  5
1F7
331
1DD
  5
1DD
331
1BB
  5
1BB
331
1AA
  5
1AA
331
2D0
  5
2D0
331
2F2
  5
2F2
331
314
  5
314
331
336
  5
336
331
350
  5
350
331
261
  5
261
331
372
  5
372
331
394
  5
394
331
2C7
  5
2C7
331
2A5
  5
2A5
331
283
  5
283
331
24A
  5
24A
331
228
  5
228
331
206
  5
206
331
1E4
  5
1E4
331
1CA
  5
1CA
331
579
  5
579
331
2E1
  5
2E1
331
7F4
  5
7F4
331
303
  5
303
331
325
  5
325
331
347
  5
347
331
652
  5
652
331
361
  5
361
331
383
  5
383
331
186
  5
144
331
3A5
  5
3A5
331
294
  5
294
331
272
  5
272
331
239
  5
239
331
217
  5
217
331
1F5
  5
1F5
331
1DB
  5
1DB
331
1B9
  5
1B9
331
1A8
  5
1A8
331
2B6
  5
2B6
331
2F0
  5
2F0
331
312
  5
312
331
334
  5
334
331
34E
  5
34E
331
25F
  5
25F
331
370
  5
370
331
392
  5
392
331
3B4
  5
3B4
331
2C5
  5
2C5
331
2A3
  5
2A3
331
281
  5
281
331
248
  5
248
331
226
  5
226
331
204
  5
204
331
1E2
  5
1E2
331
1C8
  5
1C8
331
2DF
  5
2DF
331
301
  5
301
331
323
  5
323
331
345
  5
345
331
35F
  5
35F
331
381
  5
381
331
3A3
  5
3A3
331
2B4
  5
2B4
331
292
  5
292
331
270
  5
270
331
237
  5
237
331
215
  5
215
331
1F3
  5
1F3
331
1D9
  5
1D9
331
1B7
  5
1B7
331
1A6
  5
1A6
331
310
  5
310
331
332
  5
332
331
34C
  5
34C
331
25D
  5
25D
331
36E
  5
36E
331
390
  5
390
331
3B2
  5
3B2
331
2C3
  5
2C3
331
2A1
  5
2A1
331
27F
  5
27F
331
246
  5
246
331
224
  5
224
331
202
  5
202
331
1E0
  5
1E0
331
2DD
  5
2DD
331
2FF
  5
2FF
331
321
  5
321
331
343
  5
343
331
35D
  5
35D
331
26E
  5
26E
331
37F
  5
37F
331
3A1
  5
3A1
331
2B2
  5
2B2
331
290
  5
290
331
257
  5
257
331
235
  5
235
331
213
  5
213
331
1F1
  5
1F1
331
1D7
  5
1D7
331
1B5
  5
1B5
331
2EE
  5
2EE
331
1C6
  5
1C6
331
1A4
  5
1A4
331
DD9
  5
DD9
331
330
  5
330
331
34A
  5
34A
331
25B
  5
25B
331
36C
  5
36C
331
38E
  5
38E
331
3B0
  5
3B0
331
2C1
  5
2C1
331
29F
  5
29F
331
27D
  5
27D
331
244
  5
244
331
222
  5
222
331
200
  5
200
331
2DB
  5
2DB
331
2FD
  5
2FD
331
31F
  5
31F
331
341
  5
341
331
144
  5
186
331
35B
  5
35B
331
233
  5
233
331
211
  5
211
331
1EF
  5
1EF
331
1D5
  5
1D5
331
1B3
  5
1B3
331
37D
  5
37D
331
39F
  5
39F
331
2B0
  5
2B0
331
28E
  5
28E
331
255
  5
255
331
D04
  5
D04
331
30E
  5
30E
331
2EC
  5
2EC
331
1C4
  5
1C4
331
1A2
  5
1A2
331
26C
  5
26C
331
348
  5
348
331
259
  5
259
331
36A
  5
36A
331
38C
  5
38C
331
3AE
  5
3AE
331
A78
  5
A78
331
2BF
  5
2BF
331
29D
  5
29D
331
27B
  5
27B
331
242
  5
242
331
220
  5
220
331
2D9
  5
2D9
331
2FB
  5
2FB
331
31D
  5
31D
331
33F
  5
33F
331
359
  5
359
331
26A
  5
26A
331
37B
  5
37B
331
39D
  5
39D
331
2AE
  5
2AE
331
28C
  5
28C
331
253
  5
253
331
231
  5
231
331
20F
  5
20F
331
1ED
  5
1ED
331
1D3
  5
1D3
331
30C
  5
30C
331
2EA
  5
2EA
331
32E
  5
32E
331
1FE
  5
1FE
331
1C2
  5
1C2
331
1B1
  5
1B1
331
368
  5
368
331
38A
  5
38A
331
3AC
  5
3AC
331
2BD
  5
2BD
331
29B
  5
29B
331
279
  5
279
331
240
  5
240
331
2D7
  5
2D7
331
2F9
  5
2F9
331
31B
  5
31B
331
33D
  5
33D
331
357
  5
357
331
268
  5
268
331
379
  5
379
331
39B
  5
39B
331
2CE
  5
2CE
331
2AC
  5
2AC
331
28A
  5
28A
331
251
  5
251
331
22F
  5
22F
331
20D
  5
20D
331
1EB
  5
1EB
331
1D1
  5
1D1
331
491
  5
491
331
30A
  5
30A
331
2E8
  5
2E8
331
32C
  5
32C
331
21E
  5
21E
331
1FC
  5
1FC
331
1C0
  5
1C0
331
1AF
  5
1AF
331
388
  5
388
331
3AA
  5
3AA
331
2BB
  5
2BB
331
299
  5
299
331
2D5
  5
2D5
331
2F7
  5
2F7
331
319
  5
319
331
33B
  5
33B
331
355
  5
355
331
266
  5
266
331
377
  5
377
331
399
  5
399
331
2CC
  5
2CC
331
2AA
  5
2AA
331
288
  5
288
331
24F
  5
24F
331
22D
  5
22D
331
20B
  5
20B
331
1E9
  5
1E9
331
1CF
  5
1CF
331
48F
  5
48F
331
308
  5
308
331
2E6
  5
2E6
331
32A
  5
32A
331
724
  5
724
331
366
  5
366
331
277
  5
277
331
23E
  5
23E
331
21C
  5
21C
331
1FA
  5
1FA
331
1BE
  5
1BE
331
1AD
  5
1AD
331
3A8
  5
3A8
331
2B9
  5
2B9
331
2D3
  5
2D3
331
2F5
  5
2F5
331
317
  5
317
331
339
  5
339
331
353
  5
353
331
264
  5
264
331
375
  5
375
331
397
  5
397
331
2CA
  5
2CA
331
2A8
  5
2A8
331
286
  5
286
331
24D
  5
24D
331
22B
  5
22B
331
209
  5
209
331
1E7
  5
1E7
331
1CD
  5
1CD
331
2E4
  5
2E4
331
306
  5
306
331
328
  5
328
331
364
  5
364
331
386
  5
386
331
297
  5
297
331
275
  5
275
331
23C
  5
23C
331
21A
  5
21A
331
1F8
  5
1F8
331
1DE
  5
1DE
331
1BC
  5
1BC
331
1AB
  5
1AB
331
2D1
  5
2D1
331
2F3
  5
2F3
331
315
  5
315
331
337
  5
337
331
351
  5
351
331
262
  5
262
331
373
  5
373
331
395
  5
395
331
2C8
  5
2C8
331
2A6
  5
2A6
331
284
  5
284
331
24B
  5
24B
331
229
  5
229
331
207
  5
207
331
1E5
  5
1E5
331
1CB
  5
1CB
331
2E2
  5
2E2
331
304
  5
304
331
326
  5
326
331
362
  5
362
331
384
  5
384
331
3A6
  5
3A6
331
2B7
  5
2B7
331
295
  5
295
331
273
  5
273
331
23A
  5
23A
331
218
  5
218
331
1F6
  5
1F6
331
1DC
  5
1DC
331
1BA
  5
1BA
331
1A9
  5
1A9
331
2F1
  5
2F1
331
313
  5
313
331
335
  5
335
331
34F
  5
34F
331
260
  5
260
331
371
  5
371
331
393
  5
393
331
3B5
  5
3B5
331
2C6
  5
2C6
331
2A4
  5
2A4
331
282
  5
282
331
249
  5
249
331
227
  5
227
331
205
  5
205
331
1E3
  5
1E3
331
1C9
  5
1C9
331
2E0
  5
2E0
331
302
  5
302
331
324
  5
324
331
8C6
  5
8C6
331
346
  5
346
331
360
  5
360
331
382
  5
382
331
3A4
  5
3A4
331
2B5
  5
2B5
331
293
  5
293
331
271
  5
271
331
238
  5
238
331
216
  5
216
331
1F4
  5
1F4
331
1DA
  5
1DA
331
1B8
  5
1B8
331
1A7
  5
1A7
331
C32
  5
C32
331
311
  5
311
331
333
  5
333
331
34D
  5
34D
331
25E
  5
25E
331
36F
  5
36F
331
391
  5
391
331
B4A
  5
B4A
331
3B3
  5
3B3
331
2C4
  5
2C4
331
2A2
  5
2A2
331
280
  5
280
331
247
  5
247
331
225
  5
225
331
203
  5
203
331
1E1
  5
1E1
331
2DE
  5
2DE
331
300
  5
300
331
322
  5
322
331
344
  5
344
331
35E
  5
35E
331
380
  5
380
331
3A2
  5
3A2
331
2B3
  5
2B3
331
291
  5
291
331
26F
  5
26F
331
236
  5
236
331
214
  5
214
331
1F2
  5
1F2
331
1D8
  5
1D8
331
1B6
  5
1B6
331
2EF
  5
2EF
331
1C7
  5
1C7
331
1A5
  5
1A5
331
331
  5
331
331
34B
  5
34B
331
25C
  5
25C
331
36D
  5
36D
331
38F
  5
38F
331
3B1
  5
3B1
331
2C2
  5
2C2
331
2A0
  5
2A0
331
27E
  5
27E
331
245
  5
245
331
223
  5
223
331
201
  5
201
331
2DC
  5
2DC
331
2FE
  5
2FE
331
320
  5
320
331
342
  5
342
331
35C
  5
35C
331
26D
  5
26D
331
37E
  5
37E
331
3A0
  5
3A0
331
2B1
  5
2B1
331
28F
  5
28F
331
256
  5
256
331
234
  5
234
331
212
  5
212
331
1F0
  5
1F0
331
1D6
  5
1D6
331
1B4
  5
1B4
331
30F
  5
30F
331
2ED
  5
2ED
331
1C5
  5
1C5
331
1A3
  5
1A3
331
DD8
  5
DD8
331
349
  5
349
331
25A
  5
25A
331
36B
  5
36B
331
38D
  5
38D
331
3AF
  5
3AF
331
2C0
  5
2C0
331
29E
  5
29E
331
27C
  5
27C
331
243
  5
243
331
221
  5
221
331
2DA
  5
2DA
331
2FC
  5
2FC
331
31E
  5
31E
331
340
  5
340
331
35A
  5
35A
331
26B
  5
26B
331
37C
  5
37C
331
39E
  5
39E
331
2AF
  5
2AF
331
28D
  5
28D
331
254
  5
254
331
232
  5
232
331
210
  5
210
331
1EE
  5
1EE
331
1D4
  5
1D4
331
1B2
  5
1B2
331
30D
  5
30D
331
2EB
  5
2EB
331
32F
  5
32F
331
1FF
  5
1FF
331
1C3
  5
1C3
331
1A1
  5
1A1
  0
XRECORD
  5
DEC
102
{ACAD_REACTORS
330
DEB
102
}
330
DEB
100
AcDbXrecord
280
     1
 40
71413.0
  1
\fArial|b0|i0;\H3.5000; Tol. gén. : +/-0.2
  0
XRECORD
  5
DEE
102
{ACAD_REACTORS
330
DED
102
}
330
DED
100
AcDbXrecord
280
     1
 40
9066.0
  1
 Matière:
  0
XRECORD
  5
DF0
102
{ACAD_REACTORS
330
DEF
102
}
330
DEF
100
AcDbXrecord
280
     1
 40
1199767.0
  1
{\fAIGDT|b0|i0;\H14.0000;n\fTahoma|b0|i0;\H14.0000;5,5 Déb\P\fAIGDT|b0|i0;\H14.0000;w\fTahoma|b0|i0;\H14.0000; \fAIGDT|b0|i0;\H14.0000;n\fTahoma|b0|i0;\H14.0000;10 X 90°}
  0
XRECORD
  5
DF2
102
{ACAD_REACTORS
330
DF1
102
}
330
DF1
100
AcDbXrecord
280
     1
 40
306385.0
  1
{Modèles:\P\P\fTahoma|b0|i0;\H20.0000;102187:DAS\P102182:Emission\P102151:Rupture}
  0
IMAGEDEF
  5
14A
102
{ACAD_REACTORS
330
149
330
14B
102
}
330
149
100
AcDbRasterImageDef
 90
        0
  1
H:\Serrure ML\Plan Dorma\1021510.bmp
 10
334.0
 20
178.0
 11
0.2645502645502646
 21
0.2645502645502646
280
     1
281
     2
  0
LAYOUT
  5
74
102
{ACAD_REACTORS
330
6A
102
}
330
6A
100
AcDbPlotSettings
  1

  2

  4

  6

 40
0.0
 41
0.0
 42
0.0
 43
0.0
 44
0.0
 45
0.0
 46
0.0
 47
0.0
 48
0.0
 49
0.0
140
0.0
141
0.0
142
1.0
143
1.0
 70
   688
 72
     0
 73
     0
 74
     5
  7

 75
    16
147
1.0
 76
     0
 77
     2
 78
   300
148
0.0
149
0.0
100
AcDbLayout
  1
Layout1
 70
     1
 71
     1
 10
0.0
 20
0.0
 11
12.0
 21
9.0
 12
0.0
 22
0.0
 32
0.0
 14
0.0
 24
0.0
 34
0.0
 15
0.0
 25
0.0
 35
0.0
146
0.0
 13
0.0
 23
0.0
 33
0.0
 16
1.0
 26
0.0
 36
0.0
 17
0.0
 27
1.0
 37
0.0
 76
     0
330
71
  0
LAYOUT
  5
7C
102
{ACAD_REACTORS
330
6A
102
}
330
6A
100
AcDbPlotSettings
  1

  2

  4

  6

 40
0.0
 41
0.0
 42
0.0
 43
0.0
 44
0.0
 45
0.0
 46
0.0
 47
0.0
 48
0.0
 49
0.0
140
0.0
141
0.0
142
1.0
143
1.0
 70
   688
 72
     0
 73
     0
 74
     5
  7

 75
    16
147
1.0
 76
     0
 77
     2
 78
   300
148
0.0
149
0.0
100
AcDbLayout
  1
Layout2
 70
     1
 71
     2
 10
0.0
 20
0.0
 11
12.0
 21
9.0
 12
0.0
 22
0.0
 32
0.0
 14
0.0
 24
0.0
 34
0.0
 15
0.0
 25
0.0
 35
0.0
146
0.0
 13
0.0
 23
0.0
 33
0.0
 16
1.0
 26
0.0
 36
0.0
 17
0.0
 27
1.0
 37
0.0
 76
     0
330
79
  0
LAYOUT
  5
78
102
{ACAD_REACTORS
330
6A
102
}
330
6A
100
AcDbPlotSettings
  1

  2

  4

  6

 40
0.0
 41
0.0
 42
0.0
 43
0.0
 44
0.0
 45
0.0
 46
0.0
 47
0.0
 48
0.0
 49
0.0
140
0.0
141
0.0
142
1.0
143
1.0
 70
  1712
 72
     0
 73
     0
 74
     0
  7

 75
     0
147
1.0
 76
     0
 77
     2
 78
   300
148
0.0
149
0.0
100
AcDbLayout
  1
Model
 70
     1
 71
     0
 10
0.0
 20
0.0
 11
12.0
 21
9.0
 12
0.0
 22
0.0
 32
0.0
 14
0.0
 24
0.0
 34
0.0
 15
0.0
 25
0.0
 35
0.0
146
0.0
 13
0.0
 23
0.0
 33
0.0
 16
1.0
 26
0.0
 36
0.0
 17
0.0
 27
1.0
 37
0.0
 76
     0
330
75
  0
MATERIAL
  5
19
102
{ACAD_XDICTIONARY
360
1A
102
}
102
{ACAD_REACTORS
330
10
102
}
330
10
100
AcDbMaterial
  1
ByBlock
 72
     0
 43
0.0208333333333333
 43
0.0
 43
0.0
 43
0.0
 43
0.0
 43
0.0208333333333333
 43
0.0
 43
0.0
 43
0.0
 43
0.0
 43
1.0
 43
0.0
 43
0.0
 43
0.0
 43
0.0
 43
1.0
 77
     0
 47
0.0208333333333333
 47
0.0
 47
0.0
 47
0.0
 47
0.0
 47
0.0208333333333333
 47
0.0
 47
0.0
 47
0.0
 47
0.0
 47
1.0
 47
0.0
 47
0.0
 47
0.0
 47
0.0
 47
1.0
171
     0
 49
0.0208333333333333
 49
0.0
 49
0.0
 49
0.0
 49
0.0
 49
0.0208333333333333
 49
0.0
 49
0.0
 49
0.0
 49
0.0
 49
1.0
 49
0.0
 49
0.0
 49
0.0
 49
0.0
 49
1.0
175
     0
142
0.0208333333333333
142
0.0
142
0.0
142
0.0
142
0.0
142
0.0208333333333333
142
0.0
142
0.0
142
0.0
142
0.0
142
1.0
142
0.0
142
0.0
142
0.0
142
0.0
142
1.0
179
     0
144
0.0208333333333333
144
0.0
144
0.0
144
0.0
144
0.0
144
0.0208333333333333
144
0.0
144
0.0
144
0.0
144
0.0
144
1.0
144
0.0
144
0.0
144
0.0
144
0.0
144
1.0
147
0.0208333333333333
147
0.0
147
0.0
147
0.0
147
0.0
147
0.0208333333333333
147
0.0
147
0.0
147
0.0
147
0.0
147
1.0
147
0.0
147
0.0
147
0.0
147
0.0
147
1.0
  0
MATERIAL
  5
11
102
{ACAD_XDICTIONARY
360
12
102
}
102
{ACAD_REACTORS
330
10
102
}
330
10
100
AcDbMaterial
  1
ByLayer
 72
     0
 43
0.0208333333333333
 43
0.0
 43
0.0
 43
0.0
 43
0.0
 43
0.0208333333333333
 43
0.0
 43
0.0
 43
0.0
 43
0.0
 43
1.0
 43
0.0
 43
0.0
 43
0.0
 43
0.0
 43
1.0
 77
     0
 47
0.0208333333333333
 47
0.0
 47
0.0
 47
0.0
 47
0.0
 47
0.0208333333333333
 47
0.0
 47
0.0
 47
0.0
 47
0.0
 47
1.0
 47
0.0
 47
0.0
 47
0.0
 47
0.0
 47
1.0
171
     0
 49
0.0208333333333333
 49
0.0
 49
0.0
 49
0.0
 49
0.0
 49
0.0208333333333333
 49
0.0
 49
0.0
 49
0.0
 49
0.0
 49
1.0
 49
0.0
 49
0.0
 49
0.0
 49
0.0
 49
1.0
175
     0
142
0.0208333333333333
142
0.0
142
0.0
142
0.0
142
0.0
142
0.0208333333333333
142
0.0
142
0.0
142
0.0
142
0.0
142
1.0
142
0.0
142
0.0
142
0.0
142
0.0
142
1.0
179
     0
144
0.0208333333333333
144
0.0
144
0.0
144
0.0
144
0.0
144
0.0208333333333333
144
0.0
144
0.0
144
0.0
144
0.0
144
1.0
144
0.0
144
0.0
144
0.0
144
0.0
144
1.0
147
0.0208333333333333
147
0.0
147
0.0
147
0.0
147
0.0
147
0.0208333333333333
147
0.0
147
0.0
147
0.0
147
0.0
147
1.0
147
0.0
147
0.0
147
0.0
147
0.0
147
1.0
  0
MATERIAL
  5
21
102
{ACAD_XDICTIONARY
360
22
102
}
102
{ACAD_REACTORS
330
10
102
}
330
10
100
AcDbMaterial
  1
Global
 72
     0
 43
0.0208333333333333
 43
0.0
 43
0.0
 43
0.0
 43
0.0
 43
0.0208333333333333
 43
0.0
 43
0.0
 43
0.0
 43
0.0
 43
1.0
 43
0.0
 43
0.0
 43
0.0
 43
0.0
 43
1.0
 77
     0
 47
0.0208333333333333
 47
0.0
 47
0.0
 47
0.0
 47
0.0
 47
0.0208333333333333
 47
0.0
 47
0.0
 47
0.0
 47
0.0
 47
1.0
 47
0.0
 47
0.0
 47
0.0
 47
0.0
 47
1.0
171
     0
 49
0.0208333333333333
 49
0.0
 49
0.0
 49
0.0
 49
0.0
 49
0.0208333333333333
 49
0.0
 49
0.0
 49
0.0
 49
0.0
 49
1.0
 49
0.0
 49
0.0
 49
0.0
 49
0.0
 49
1.0
175
     0
142
0.0208333333333333
142
0.0
142
0.0
142
0.0
142
0.0
142
0.0208333333333333
142
0.0
142
0.0
142
0.0
142
0.0
142
1.0
142
0.0
142
0.0
142
0.0
142
0.0
142
1.0
179
     0
144
0.0208333333333333
144
0.0
144
0.0
144
0.0
144
0.0
144
0.0208333333333333
144
0.0
144
0.0
144
0.0
144
0.0
144
1.0
144
0.0
144
0.0
144
0.0
144
0.0
144
1.0
147
0.0208333333333333
147
0.0
147
0.0
147
0.0
147
0.0
147
0.0208333333333333
147
0.0
147
0.0
147
0.0
147
0.0
147
1.0
147
0.0
147
0.0
147
0.0
147
0.0
147
1.0
  0
MLEADERSTYLE
  5
6F
102
{ACAD_REACTORS
330
6E
102
}
330
6E
100
AcDbMLeaderStyle
170
     2
171
     1
172
     0
 90
        2
 40
0.0
 41
0.0
173
     1
 91
-1056964608
340
63
 92
       -2
290
     1
 42
0.09
291
     1
 43
0.36
  3
Standard
 44
0.18
300

342
5D
174
     1
178
     6
175
     1
176
     0
 93
-1056964608
 45
0.18
292
     0
297
     0
 46
0.18
 94
-1056964608
 47
1.0
 49
1.0
140
1.0
293
     1
141
0.0
294
     1
177
     0
142
1.0
295
     0
296
     0
143
0.125
1001
ACAD_MLEADERVER
1070
     2
  0
MLINESTYLE
  5
68
102
{ACAD_REACTORS
330
67
102
}
330
67
100
AcDbMlineStyle
  2
STANDARD
 70
     0
  3

 62
   256
 51
90.0
 52
90.0
 71
     2
 49
0.5
 62
   256
  6
BYLAYER
 49
-0.5
 62
   256
  6
BYLAYER
  0
ACDBPLACEHOLDER
  5
F
102
{ACAD_REACTORS
330
E
102
}
330
E
  0
SCALE
  5
3B
102
{ACAD_REACTORS
330
3A
102
}
330
3A
100
AcDbScale
 70
     0
300
1:1
140
1.0
141
1.0
290
     1
  0
SCALE
  5
3C
102
{ACAD_REACTORS
330
3A
102
}
330
3A
100
AcDbScale
 70
     0
300
1:2
140
1.0
141
2.0
290
     0
  0
SCALE
  5
3D
102
{ACAD_REACTORS
330
3A
102
}
330
3A
100
AcDbScale
 70
     0
300
1:4
140
1.0
141
4.0
290
     0
  0
SCALE
  5
3E
102
{ACAD_REACTORS
330
3A
102
}
330
3A
100
AcDbScale
 70
     0
300
1:5
140
1.0
141
5.0
290
     0
  0
SCALE
  5
3F
102
{ACAD_REACTORS
330
3A
102
}
330
3A
100
AcDbScale
 70
     0
300
1:8
140
1.0
141
8.0
290
     0
  0
SCALE
  5
40
102
{ACAD_REACTORS
330
3A
102
}
330
3A
100
AcDbScale
 70
     0
300
1:10
140
1.0
141
10.0
290
     0
  0
SCALE
  5
41
102
{ACAD_REACTORS
330
3A
102
}
330
3A
100
AcDbScale
 70
     0
300
1:16
140
1.0
141
16.0
290
     0
  0
SCALE
  5
42
102
{ACAD_REACTORS
330
3A
102
}
330
3A
100
AcDbScale
 70
     0
300
1:20
140
1.0
141
20.0
290
     0
  0
SCALE
  5
43
102
{ACAD_REACTORS
330
3A
102
}
330
3A
100
AcDbScale
 70
     0
300
1:30
140
1.0
141
30.0
290
     0
  0
SCALE
  5
44
102
{ACAD_REACTORS
330
3A
102
}
330
3A
100
AcDbScale
 70
     0
300
1:40
140
1.0
141
40.0
290
     0
  0
SCALE
  5
45
102
{ACAD_REACTORS
330
3A
102
}
330
3A
100
AcDbScale
 70
     0
300
1:50
140
1.0
141
50.0
290
     0
  0
SCALE
  5
46
102
{ACAD_REACTORS
330
3A
102
}
330
3A
100
AcDbScale
 70
     0
300
1:100
140
1.0
141
100.0
290
     0
  0
SCALE
  5
47
102
{ACAD_REACTORS
330
3A
102
}
330
3A
100
AcDbScale
 70
     0
300
2:1
140
2.0
141
1.0
290
     0
  0
SCALE
  5
48
102
{ACAD_REACTORS
330
3A
102
}
330
3A
100
AcDbScale
 70
     0
300
4:1
140
4.0
141
1.0
290
     0
  0
SCALE
  5
49
102
{ACAD_REACTORS
330
3A
102
}
330
3A
100
AcDbScale
 70
     0
300
8:1
140
8.0
141
1.0
290
     0
  0
SCALE
  5
4A
102
{ACAD_REACTORS
330
3A
102
}
330
3A
100
AcDbScale
 70
     0
300
10:1
140
10.0
141
1.0
290
     0
  0
SCALE
  5
4B
102
{ACAD_REACTORS
330
3A
102
}
330
3A
100
AcDbScale
 70
     0
300
100:1
140
100.0
141
1.0
290
     0
  0
SCALE
  5
4C
102
{ACAD_REACTORS
330
3A
102
}
330
3A
100
AcDbScale
 70
     0
300
1/128" = 1'-0"
140
0.0078125
141
12.0
290
     0
  0
SCALE
  5
4D
102
{ACAD_REACTORS
330
3A
102
}
330
3A
100
AcDbScale
 70
     0
300
1/64" = 1'-0"
140
0.015625
141
12.0
290
     0
  0
SCALE
  5
4E
102
{ACAD_REACTORS
330
3A
102
}
330
3A
100
AcDbScale
 70
     0
300
1/32" = 1'-0"
140
0.03125
141
12.0
290
     0
  0
SCALE
  5
4F
102
{ACAD_REACTORS
330
3A
102
}
330
3A
100
AcDbScale
 70
     0
300
1/16" = 1'-0"
140
0.0625
141
12.0
290
     0
  0
SCALE
  5
50
102
{ACAD_REACTORS
330
3A
102
}
330
3A
100
AcDbScale
 70
     0
300
3/32" = 1'-0"
140
0.09375
141
12.0
290
     0
  0
SCALE
  5
51
102
{ACAD_REACTORS
330
3A
102
}
330
3A
100
AcDbScale
 70
     0
300
1/8" = 1'-0"
140
0.125
141
12.0
290
     0
  0
SCALE
  5
52
102
{ACAD_REACTORS
330
3A
102
}
330
3A
100
AcDbScale
 70
     0
300
3/16" = 1'-0"
140
0.1875
141
12.0
290
     0
  0
SCALE
  5
53
102
{ACAD_REACTORS
330
3A
102
}
330
3A
100
AcDbScale
 70
     0
300
1/4" = 1'-0"
140
0.25
141
12.0
290
     0
  0
SCALE
  5
54
102
{ACAD_REACTORS
330
3A
102
}
330
3A
100
AcDbScale
 70
     0
300
3/8" = 1'-0"
140
0.375
141
12.0
290
     0
  0
SCALE
  5
55
102
{ACAD_REACTORS
330
3A
102
}
330
3A
100
AcDbScale
 70
     0
300
1/2" = 1'-0"
140
0.5
141
12.0
290
     0
  0
SCALE
  5
56
102
{ACAD_REACTORS
330
3A
102
}
330
3A
100
AcDbScale
 70
     0
300
3/4" = 1'-0"
140
0.75
141
12.0
290
     0
  0
SCALE
  5
57
102
{ACAD_REACTORS
330
3A
102
}
330
3A
100
AcDbScale
 70
     0
300
1" = 1'-0"
140
1.0
141
12.0
290
     0
  0
SCALE
  5
58
102
{ACAD_REACTORS
330
3A
102
}
330
3A
100
AcDbScale
 70
     0
300
1-1/2" = 1'-0"
140
1.5
141
12.0
290
     0
  0
SCALE
  5
59
102
{ACAD_REACTORS
330
3A
102
}
330
3A
100
AcDbScale
 70
     0
300
3" = 1'-0"
140
3.0
141
12.0
290
     0
  0
SCALE
  5
5A
102
{ACAD_REACTORS
330
3A
102
}
330
3A
100
AcDbScale
 70
     0
300
6" = 1'-0"
140
6.0
141
12.0
290
     0
  0
SCALE
  5
5B
102
{ACAD_REACTORS
330
3A
102
}
330
3A
100
AcDbScale
 70
     0
300
1'-0" = 1'-0"
140
12.0
141
12.0
290
     0
  0
TABLESTYLE
  5
6D
102
{ACAD_XDICTIONARY
360
DE3
102
}
102
{ACAD_REACTORS
330
6C
102
}
330
6C
100
AcDbTableStyle
  3
Standard
 70
     0
 71
     0
 40
0.06
 41
0.06
280
     0
281
     0
  7
Standard
140
0.18
170
     2
 62
     0
 63
     7
283
     0
274
    -2
284
     1
 64
     0
275
    -2
285
     1
 65
     0
276
    -2
286
     1
 66
     0
277
    -2
287
     1
 67
     0
278
    -2
288
     1
 68
     0
279
    -2
289
     1
 69
     0
  7
Standard
140
0.25
170
     5
 62
     0
 63
     7
283
     0
274
    -2
284
     1
 64
     0
275
    -2
285
     1
 65
     0
276
    -2
286
     1
 66
     0
277
    -2
287
     1
 67
     0
278
    -2
288
     1
 68
     0
279
    -2
289
     1
 69
     0
  7
Standard
140
0.18
170
     5
 62
     0
 63
     7
283
     0
274
    -2
284
     1
 64
     0
275
    -2
285
     1
 65
     0
276
    -2
286
     1
 66
     0
277
    -2
287
     1
 67
     0
278
    -2
288
     1
 68
     0
279
    -2
289
     1
 69
     0
  0
VISUALSTYLE
  5
2F
102
{ACAD_REACTORS
330
29
102
}
330
29
100
AcDbVisualStyle
  2
2dWireframe
 70
     4
 71
     0
 72
     2
 73
     0
 90
        0
 40
-0.6
 41
-30.0
 62
     5
 63
     7
421
 16777215
 74
     1
 91
        4
 64
     7
 65
   257
 75
     1
175
     1
 42
1.0
 92
        0
 66
   257
 43
1.0
 76
     1
 77
     6
 78
     2
 67
     7
 79
     5
170
     0
171
     0
290
     0
174
     0
 93
        1
 44
0.0
173
     0
291
     0
 45
0.0
1001
ACAD
1000
AcDbSavedByObjectVersion
1070
     0
  0
VISUALSTYLE
  5
31
102
{ACAD_REACTORS
330
29
102
}
330
29
100
AcDbVisualStyle
  2
3D Hidden
 70
     6
 71
     1
 72
     2
 73
     2
 90
        0
 40
-0.6
 41
-30.0
 62
     5
 63
     7
421
 16777215
 74
     2
 91
        2
 64
     7
 65
   257
 75
     2
175
     1
 42
40.0
 92
        0
 66
   257
 43
1.0
 76
     1
 77
     6
 78
     2
 67
     7
 79
     3
170
     0
171
     0
290
     0
174
     0
 93
        1
 44
0.0
173
     0
291
     0
 45
0.0
1001
ACAD
1000
AcDbSavedByObjectVersion
1070
     0
  0
VISUALSTYLE
  5
30
102
{ACAD_REACTORS
330
29
102
}
330
29
100
AcDbVisualStyle
  2
3dWireframe
 70
     5
 71
     0
 72
     2
 73
     0
 90
        0
 40
-0.6
 41
-30.0
 62
     5
 63
     7
421
 16777215
 74
     1
 91
        4
 64
     7
 65
   257
 75
     1
175
     1
 42
1.0
 92
        0
 66
   257
 43
1.0
 76
     1
 77
     6
 78
     2
 67
     7
 79
     5
170
     0
171
     0
290
     0
174
     0
 93
        1
 44
0.0
173
     0
291
     0
 45
0.0
1001
ACAD
1000
AcDbSavedByObjectVersion
1070
     0
  0
VISUALSTYLE
  5
2E
102
{ACAD_REACTORS
330
29
102
}
330
29
100
AcDbVisualStyle
  2
Basic
 70
     7
 71
     1
 72
     0
 73
     1
 90
        0
 40
-0.6
 41
-30.0
 62
     5
 63
     7
421
 16777215
 74
     0
 91
        4
 64
     7
 65
   257
 75
     1
175
     1
 42
1.0
 92
        8
 66
     7
 43
1.0
 76
     1
 77
     6
 78
     2
 67
     7
 79
     5
170
     0
171
     0
290
     0
174
     0
 93
        1
 44
0.0
173
     0
291
     1
 45
0.0
1001
ACAD
1000
AcDbSavedByObjectVersion
1070
     0
  0
VISUALSTYLE
  5
35
102
{ACAD_REACTORS
330
29
102
}
330
29
100
AcDbVisualStyle
  2
Brighten
 70
    12
 71
     2
 72
     2
 73
     0
 90
        0
 40
-0.6
 41
-30.0
 62
     5
 63
     7
421
 16777215
 74
     1
 91
        4
 64
     7
 65
   257
 75
     1
175
     1
 42
1.0
 92
        8
 66
     7
 43
1.0
 76
     1
 77
     6
 78
     2
 67
     7
 79
     5
170
     0
171
     0
290
     0
174
     0
 93
        1
 44
50.0
173
     0
291
     1
 45
0.0
1001
ACAD
1000
AcDbSavedByObjectVersion
1070
     0
  0
VISUALSTYLE
  5
39
102
{ACAD_REACTORS
330
29
102
}
330
29
100
AcDbVisualStyle
  2
ColorChange
 70
    16
 71
     2
 72
     2
 73
     3
 90
        0
 40
-0.6
 41
-30.0
 62
     5
 63
     8
421
  8421504
 74
     1
 91
        4
 64
     7
 65
   257
 75
     1
175
     1
 42
1.0
 92
        8
 66
     8
424
  8421504
 43
1.0
 76
     1
 77
     6
 78
     2
 67
     7
 79
     5
170
     0
171
     0
290
     0
174
     0
 93
        1
 44
0.0
173
     0
291
     1
 45
0.0
1001
ACAD
1000
AcDbSavedByObjectVersion
1070
     0
  0
VISUALSTYLE
  5
32
102
{ACAD_REACTORS
330
29
102
}
330
29
100
AcDbVisualStyle
  2
Conceptual
 70
     9
 71
     3
 72
     2
 73
     0
 90
        0
 40
-0.6
 41
-30.0
 62
     5
 63
     7
421
 16777215
 74
     2
 91
        2
 64
     7
 65
   257
 75
     1
175
     1
 42
40.0
 92
        8
 66
     7
 43
1.0
 76
     1
 77
     6
 78
     2
 67
     7
 79
     3
170
     0
171
     0
290
     0
174
     0
 93
        1
 44
0.0
173
     0
291
     0
 45
0.0
1001
ACAD
1000
AcDbSavedByObjectVersion
1070
     0
  0
VISUALSTYLE
  5
34
102
{ACAD_REACTORS
330
29
102
}
330
29
100
AcDbVisualStyle
  2
Dim
 70
    11
 71
     2
 72
     2
 73
     0
 90
        0
 40
-0.6
 41
-30.0
 62
     5
 63
     7
421
 16777215
 74
     1
 91
        4
 64
     7
 65
   257
 75
     1
175
     1
 42
1.0
 92
        8
 66
     7
 43
1.0
 76
     1
 77
     6
 78
     2
 67
     7
 79
     5
170
     0
171
     0
290
     0
174
     0
 93
        1
 44
-50.0
173
     0
291
     1
 45
0.0
1001
ACAD
1000
AcDbSavedByObjectVersion
1070
     0
  0
VISUALSTYLE
  5
38
102
{ACAD_REACTORS
330
29
102
}
330
29
100
AcDbVisualStyle
  2
Facepattern
 70
    15
 71
     2
 72
     2
 73
     0
 90
        0
 40
-0.6
 41
-30.0
 62
     5
 63
     7
421
 16777215
 74
     1
 91
        4
 64
     7
 65
   257
 75
     1
175
     1
 42
1.0
 92
        8
 66
     7
 43
1.0
 76
     1
 77
     6
 78
     2
 67
     7
 79
     5
170
     0
171
     0
290
     0
174
     0
 93
        1
 44
0.0
173
     0
291
     1
 45
0.0
1001
ACAD
1000
AcDbSavedByObjectVersion
1070
     0
  0
VISUALSTYLE
  5
2A
102
{ACAD_REACTORS
330
29
102
}
330
29
100
AcDbVisualStyle
  2
Flat
 70
     0
 71
     2
 72
     1
 73
     1
 90
        2
 40
-0.6
 41
30.0
 62
     5
 63
     7
421
 16777215
 74
     0
 91
        4
 64
     7
 65
   257
 75
     1
175
     1
 42
1.0
 92
        8
 66
     7
 43
1.0
 76
     1
 77
     6
 78
     2
 67
     7
 79
     5
170
     0
171
     0
290
     0
174
     0
 93
       13
 44
0.0
173
     0
291
     1
 45
0.0
1001
ACAD
1000
AcDbSavedByObjectVersion
1070
     0
  0
VISUALSTYLE
  5
2B
102
{ACAD_REACTORS
330
29
102
}
330
29
100
AcDbVisualStyle
  2
FlatWithEdges
 70
     1
 71
     2
 72
     1
 73
     1
 90
        2
 40
-0.6
 41
30.0
 62
     5
 63
     7
421
 16777215
 74
     1
 91
        4
 64
     7
 65
   257
 75
     1
175
     1
 42
1.0
 92
        0
 66
   257
 43
1.0
 76
     1
 77
     6
 78
     2
 67
     7
 79
     5
170
     0
171
     0
290
     0
174
     0
 93
       13
 44
0.0
173
     0
291
     1
 45
0.0
1001
ACAD
1000
AcDbSavedByObjectVersion
1070
     0
  0
VISUALSTYLE
  5
2C
102
{ACAD_REACTORS
330
29
102
}
330
29
100
AcDbVisualStyle
  2
Gouraud
 70
     2
 71
     2
 72
     2
 73
     1
 90
        2
 40
-0.6
 41
30.0
 62
     5
 63
     7
421
 16777215
 74
     0
 91
        4
 64
     7
 65
   257
 75
     1
175
     1
 42
1.0
 92
        0
 66
     7
 43
1.0
 76
     1
 77
     6
 78
     2
 67
     7
 79
     5
170
     0
171
     0
290
     0
174
     0
 93
       13
 44
0.0
173
     0
291
     1
 45
0.0
1001
ACAD
1000
AcDbSavedByObjectVersion
1070
     0
  0
VISUALSTYLE
  5
2D
102
{ACAD_REACTORS
330
29
102
}
330
29
100
AcDbVisualStyle
  2
GouraudWithEdges
 70
     3
 71
     2
 72
     2
 73
     1
 90
        2
 40
-0.6
 41
30.0
 62
     5
 63
     7
421
 16777215
 74
     1
 91
        4
 64
     7
 65
   257
 75
     1
175
     1
 42
1.0
 92
        0
 66
   257
 43
1.0
 76
     1
 77
     6
 78
     2
 67
     7
 79
     5
170
     0
171
     0
290
     0
174
     0
 93
       13
 44
0.0
173
     0
291
     1
 45
0.0
1001
ACAD
1000
AcDbSavedByObjectVersion
1070
     0
  0
VISUALSTYLE
  5
37
102
{ACAD_REACTORS
330
29
102
}
330
29
100
AcDbVisualStyle
  2
Linepattern
 70
    14
 71
     2
 72
     2
 73
     0
 90
        0
 40
-0.6
 41
-30.0
 62
     5
 63
     7
421
 16777215
 74
     1
 91
        4
 64
     7
 65
   257
 75
     7
175
     7
 42
1.0
 92
        8
 66
     7
 43
1.0
 76
     1
 77
     6
 78
     2
 67
     7
 79
     5
170
     0
171
     0
290
     0
174
     0
 93
        1
 44
0.0
173
     0
291
     1
 45
0.0
1001
ACAD
1000
AcDbSavedByObjectVersion
1070
     0
  0
VISUALSTYLE
  5
33
102
{ACAD_REACTORS
330
29
102
}
330
29
100
AcDbVisualStyle
  2
Realistic
 70
     8
 71
     2
 72
     2
 73
     0
 90
        0
 40
-0.6
 41
-30.0
 62
     5
 63
     7
421
 16777215
 74
     1
 91
        0
 64
     7
 65
   257
 75
     1
175
     1
 42
1.0
 92
        8
 66
     8
424
  7895160
 43
1.0
 76
     1
 77
     6
 78
     2
 67
     7
 79
     5
170
     0
171
     0
290
     0
174
     0
 93
       13
 44
0.0
173
     0
291
     0
 45
0.0
1001
ACAD
1000
AcDbSavedByObjectVersion
1070
     0
  0
VISUALSTYLE
  5
36
102
{ACAD_REACTORS
330
29
102
}
330
29
100
AcDbVisualStyle
  2
Thicken
 70
    13
 71
     2
 72
     2
 73
     0
 90
        0
 40
-0.6
 41
-30.0
 62
     5
 63
     7
421
 16777215
 74
     1
 91
        4
 64
     7
 65
   257
 75
     1
175
     1
 42
1.0
 92
       12
 66
     7
 43
1.0
 76
     1
 77
     6
 78
     2
 67
     7
 79
     5
170
     0
171
     0
290
     0
174
     0
 93
        1
 44
0.0
173
     0
291
     1
 45
0.0
1001
ACAD
1000
AcDbSavedByObjectVersion
1070
     0
  0
DICTIONARYVAR
  5
DE1
102
{ACAD_REACTORS
330
DDD
102
}
330
DDD
100
DictionaryVariables
280
     0
  1
1:1
  0
DICTIONARYVAR
  5
DDF
102
{ACAD_REACTORS
330
DDD
102
}
330
DDD
100
DictionaryVariables
280
     0
  1
STANDARD
  0
DICTIONARYVAR
  5
DDE
102
{ACAD_REACTORS
330
DDD
102
}
330
DDD
100
DictionaryVariables
280
     0
  1
STANDARD
  0
DICTIONARYVAR
  5
DE2
102
{ACAD_REACTORS
330
DDD
102
}
330
DDD
100
DictionaryVariables
280
     0
  1
2
  0
DICTIONARYVAR
  5
DE0
102
{ACAD_REACTORS
330
DDD
102
}
330
DDD
100
DictionaryVariables
280
     0
  1
1
  0
DICTIONARY
  5
1A
330
19
100
AcDbDictionary
280
     1
281
     1
  3
ACAD_XREC_ROUNDTRIP
360
DE8
  3
BUMPTILE
360
1C
  3
DIFFUSETILE
360
1B
  3
OPACITYTILE
360
1F
  3
REFLECTIONTILE
360
1E
  3
REFRACTIONTILE
360
20
  3
SPECULARTILE
360
1D
  0
DICTIONARY
  5
12
330
11
100
AcDbDictionary
280
     1
281
     1
  3
ACAD_XREC_ROUNDTRIP
360
DE7
  3
BUMPTILE
360
14
  3
DIFFUSETILE
360
13
  3
OPACITYTILE
360
17
  3
REFLECTIONTILE
360
16
  3
REFRACTIONTILE
360
18
  3
SPECULARTILE
360
15
  0
DICTIONARY
  5
22
330
21
100
AcDbDictionary
280
     1
281
     1
  3
ACAD_XREC_ROUNDTRIP
360
DE9
  3
BUMPTILE
360
24
  3
DIFFUSETILE
360
23
  3
OPACITYTILE
360
27
  3
REFLECTIONTILE
360
26
  3
REFRACTIONTILE
360
28
  3
SPECULARTILE
360
25
  0
DICTIONARY
  5
DE3
330
6D
100
AcDbDictionary
280
     1
281
     1
  3
ACAD_ROUNDTRIP_2008_TABLESTYLE_CELLSTYLEMAP
360
DE4
  3
ACAD_XREC_ROUNDTRIP
360
DEA
  0
XRECORD
  5
DE8
102
{ACAD_REACTORS
330
1A
102
}
330
1A
100
AcDbXrecord
280
     1
102
MATERIAL
148
0.0
149
0.0
149
0.0
 93
        0
 94
      127
282
     0
 72
     0
 77
     0
171
     0
175
     0
179
     0
273
     0
  0
XRECORD
  5
1C
102
{ACAD_REACTORS
330
1A
102
}
330
1A
100
AcDbXrecord
280
     1
270
     1
271
     1
  0
XRECORD
  5
1B
102
{ACAD_REACTORS
330
1A
102
}
330
1A
100
AcDbXrecord
280
     1
270
     1
271
     1
  0
XRECORD
  5
1F
102
{ACAD_REACTORS
330
1A
102
}
330
1A
100
AcDbXrecord
280
     1
270
     1
271
     1
  0
XRECORD
  5
1E
102
{ACAD_REACTORS
330
1A
102
}
330
1A
100
AcDbXrecord
280
     1
270
     1
271
     1
  0
XRECORD
  5
20
102
{ACAD_REACTORS
330
1A
102
}
330
1A
100
AcDbXrecord
280
     1
270
     1
271
     1
  0
XRECORD
  5
1D
102
{ACAD_REACTORS
330
1A
102
}
330
1A
100
AcDbXrecord
280
     1
270
     1
271
     1
  0
XRECORD
  5
DE7
102
{ACAD_REACTORS
330
12
102
}
330
12
100
AcDbXrecord
280
     1
102
MATERIAL
148
0.0
149
0.0
149
0.0
 93
        0
 94
      127
282
     0
 72
     0
 77
     0
171
     0
175
     0
179
     0
273
     0
  0
XRECORD
  5
14
102
{ACAD_REACTORS
330
12
102
}
330
12
100
AcDbXrecord
280
     1
270
     1
271
     1
  0
XRECORD
  5
13
102
{ACAD_REACTORS
330
12
102
}
330
12
100
AcDbXrecord
280
     1
270
     1
271
     1
  0
XRECORD
  5
17
102
{ACAD_REACTORS
330
12
102
}
330
12
100
AcDbXrecord
280
     1
270
     1
271
     1
  0
XRECORD
  5
16
102
{ACAD_REACTORS
330
12
102
}
330
12
100
AcDbXrecord
280
     1
270
     1
271
     1
  0
XRECORD
  5
18
102
{ACAD_REACTORS
330
12
102
}
330
12
100
AcDbXrecord
280
     1
270
     1
271
     1
  0
XRECORD
  5
15
102
{ACAD_REACTORS
330
12
102
}
330
12
100
AcDbXrecord
280
     1
270
     1
271
     1
  0
XRECORD
  5
DE9
102
{ACAD_REACTORS
330
22
102
}
330
22
100
AcDbXrecord
280
     1
102
MATERIAL
148
0.0
149
0.0
149
0.0
 93
        0
 94
      127
282
     0
 72
     0
 77
     0
171
     0
175
     0
179
     0
273
     0
  0
XRECORD
  5
24
102
{ACAD_REACTORS
330
22
102
}
330
22
100
AcDbXrecord
280
     1
270
     1
271
     1
  0
XRECORD
  5
23
102
{ACAD_REACTORS
330
22
102
}
330
22
100
AcDbXrecord
280
     1
270
     1
271
     1
  0
XRECORD
  5
27
102
{ACAD_REACTORS
330
22
102
}
330
22
100
AcDbXrecord
280
     1
270
     1
271
     1
  0
XRECORD
  5
26
102
{ACAD_REACTORS
330
22
102
}
330
22
100
AcDbXrecord
280
     1
270
     1
271
     1
  0
XRECORD
  5
28
102
{ACAD_REACTORS
330
22
102
}
330
22
100
AcDbXrecord
280
     1
270
     1
271
     1
  0
XRECORD
  5
25
102
{ACAD_REACTORS
330
22
102
}
330
22
100
AcDbXrecord
280
     1
270
     1
271
     1
  0
CELLSTYLEMAP
  5
DE4
102
{ACAD_REACTORS
330
DE3
102
}
330
DE3
100
AcDbCellStyleMap
 90
        3
300
CELLSTYLE
  1
TABLEFORMAT_BEGIN
 90
        5
170
     1
 91
        0
 92
    32768
 62
   257
 93
        1
300
CONTENTFORMAT
  1
CONTENTFORMAT_BEGIN
 90
        0
 91
        0
 92
      512
 93
        0
300

 40
0.0
140
1.0
 94
        5
 62
     0
340
5D
144
0.25
309
CONTENTFORMAT_END
171
     0
 94
        0
309
TABLEFORMAT_END
  1
CELLSTYLE_BEGIN
 90
        1
 91
        1
300
_TITLE
309
CELLSTYLE_END
300
CELLSTYLE
  1
TABLEFORMAT_BEGIN
 90
        5
170
     1
 91
        0
 92
        0
 62
   257
 93
        1
300
CONTENTFORMAT
  1
CONTENTFORMAT_BEGIN
 90
        0
 91
        0
 92
      512
 93
        0
300

 40
0.0
140
1.0
 94
        5
 62
     0
340
5D
144
0.18
309
CONTENTFORMAT_END
171
     0
 94
        0
309
TABLEFORMAT_END
  1
CELLSTYLE_BEGIN
 90
        2
 91
        1
300
_HEADER
309
CELLSTYLE_END
300
CELLSTYLE
  1
TABLEFORMAT_BEGIN
 90
        5
170
     1
 91
        0
 92
        0
 62
   257
 93
        1
300
CONTENTFORMAT
  1
CONTENTFORMAT_BEGIN
 90
        0
 91
        0
 92
      512
 93
        0
300

 40
0.0
140
1.0
 94
        2
 62
     0
340
5D
144
0.18
309
CONTENTFORMAT_END
171
     0
 94
        0
309
TABLEFORMAT_END
  1
CELLSTYLE_BEGIN
 90
        3
 91
        2
300
_DATA
309
CELLSTYLE_END
  0
XRECORD
  5
DEA
102
{ACAD_REACTORS
330
DE3
102
}
330
DE3
100
AcDbXrecord
280
     1
102
ACAD_ROUNDTRIP_PRE2007_TABLESTYLE
 90
      512
 91
        0
  1

 92
      512
 93
        0
  2

 94
      512
 95
        0
  3

  0
ENDSEC
  0
EOF
