  0
SECTION
  2
HEADER
  9
$ACADVER
  1
AC1009
999
I-DEAS 8 Not Encoded
  9
$EXTMIN
 10
0.0
 20
0.0
  9
$EXTMAX
 10
5.94E+002
 20
4.2E+002
  9
$TEXTSIZE
 40
1.25E-001
  9
$LTSCALE
 40
1.0
  9
$CLAYER
  8
104
  9
$CECOLOR
 62
40
  9
$DIMASZ
 40
1.25E-001
  9
$DIMEXO
 40
6.25E-002
  9
$DIMDLI
 40
2.5E-001
  9
$DIMEXE
 40
1.25E-001
  9
$DIMTP
 40
5.0E-003
  9
$DIMTM
 40
-5.0E-003
  9
$DIMTXT
 40
3.0
  9
$DIMLIM
 70
0
  9
$DIMTIH
 70
1
  9
$DIMTOH
 70
1
  9
$DIMSE1
 70
0
  9
$DIMSE2
 70
0
  9
$DIMTAD
 70
0
  9
$DIMASO
 70
1
  9
$DIMALT
 70
0
  9
$DIMALTD
 70
0
  9
$DIMTOFL
 70
1
  9
$DIMTIX
 70
0
  9
$DIMSAH
 70
0
  9
$DIMTFAC
 40
1.0
  9
$DIMGAP
 40
6.25E-002
  9
$LUNITS
 70
2
  9
$LUPREC
 70
3
  9
$FILLETRAD
 40
2.0
  9
$AUNITS
 70
0
  9
$AUPREC
 70
1
  9
$CHAMFERA
 40
1.0E+001
  9
$CHAMFERB
 40
1.0E+001
  9
$ANGBASE
 50
0.0
  9
$ANGDIR
 70
0
  9
$PDMODE
 70
2
  9
$PDSIZE
 40
-1.0E-002
  9
$SPLINETYPE
 70
6
  0
ENDSEC
  0
SECTION
  2
TABLES
  0
TABLE
  2
LTYPE
 70
7
  0
LTYPE
  2
HIDDENNEW00
  3
_ 
 70
64
 72
65
 73
3
 40
4.5
 49
1.5
 49
-1.5
 49
1.5
  0
LTYPE
  2
HIDDENNEW01
  3
_ 
 70
64
 72
65
 73
3
 40
4.5
 49
1.5
 49
-1.5
 49
1.5
  0
LTYPE
  2
HIDDEN
  3
_ 
 70
64
 72
65
 73
3
 40
4.5
 49
1.5
 49
-1.5
 49
1.5
  0
LTYPE
  2
CENTERLINE
  3
_ 
 70
64
 72
65
 73
5
 40
3.0E+001
 49
1.2E+001
 49
-1.5
 49
3.0
 49
-1.5
 49
1.2E+001
  0
LTYPE
  2
PHANTOM
  3
_ 
 70
64
 72
65
 73
7
 40
2.95E+001
 49
9.5
 49
-1.5
 49
3.0
 49
-1.5
 49
3.0
 49
-1.5
 49
9.5
  0
LTYPE
  2
SHORT_DASH
  3
_ 
 70
64
 72
65
 73
3
 40
3.0
 49
7.5E-001
 49
-1.5
 49
7.5E-001
  0
LTYPE
  2
LONG_DASH
  3
_ 
 70
64
 72
65
 73
3
 40
9.0
 49
2.25
 49
-4.5
 49
2.25
  0
ENDTAB
  0
TABLE
  2
LAYER
 70
258
  0
LAYER
  2
1
 70
0
 62
7
  6
CONTINUOUS
  0
LAYER
  2
2
 70
0
 62
7
  6
CONTINUOUS
  0
LAYER
  2
3
 70
0
 62
7
  6
CONTINUOUS
  0
LAYER
  2
MED-4
 70
0
 62
2
  6
HIDDENNEW00
  0
LAYER
  2
MED-5
 70
0
 62
5
  6
HIDDENNEW00
  0
LAYER
  2
MED-6
 70
0
 62
6
  6
HIDDENNEW00
  0
LAYER
  2
7
 70
0
 62
7
  6
CONTINUOUS
  0
LAYER
  2
8
 70
0
 62
7
  6
CONTINUOUS
  0
LAYER
  2
MED-9
 70
0
 62
30
  6
HIDDENNEW00
  0
LAYER
  2
10
 70
0
 62
7
  6
CONTINUOUS
  0
LAYER
  2
MED-11
 70
0
 62
70
  6
HIDDENNEW00
  0
LAYER
  2
12
 70
0
 62
7
  6
CONTINUOUS
  0
LAYER
  2
13
 70
0
 62
7
  6
CONTINUOUS
  0
LAYER
  2
14
 70
0
 62
7
  6
CONTINUOUS
  0
LAYER
  2
15
 70
0
 62
7
  6
CONTINUOUS
  0
LAYER
  2
16
 70
0
 62
7
  6
CONTINUOUS
  0
LAYER
  2
17
 70
0
 62
7
  6
CONTINUOUS
  0
LAYER
  2
18
 70
0
 62
7
  6
CONTINUOUS
  0
LAYER
  2
19
 70
0
 62
7
  6
CONTINUOUS
  0
LAYER
  2
20
 70
0
 62
7
  6
CONTINUOUS
  0
LAYER
  2
21
 70
0
 62
7
  6
CONTINUOUS
  0
LAYER
  2
22
 70
0
 62
7
  6
CONTINUOUS
  0
LAYER
  2
23
 70
0
 62
7
  6
CONTINUOUS
  0
LAYER
  2
24
 70
0
 62
7
  6
CONTINUOUS
  0
LAYER
  2
25
 70
0
 62
7
  6
CONTINUOUS
  0
LAYER
  2
26
 70
0
 62
7
  6
CONTINUOUS
  0
LAYER
  2
27
 70
0
 62
7
  6
CONTINUOUS
  0
LAYER
  2
28
 70
0
 62
7
  6
CONTINUOUS
  0
LAYER
  2
29
 70
0
 62
7
  6
CONTINUOUS
  0
LAYER
  2
30
 70
0
 62
7
  6
CONTINUOUS
  0
LAYER
  2
31
 70
0
 62
7
  6
CONTINUOUS
  0
LAYER
  2
32
 70
0
 62
7
  6
CONTINUOUS
  0
LAYER
  2
33
 70
0
 62
7
  6
CONTINUOUS
  0
LAYER
  2
34
 70
0
 62
7
  6
CONTINUOUS
  0
LAYER
  2
35
 70
0
 62
7
  6
CONTINUOUS
  0
LAYER
  2
36
 70
0
 62
7
  6
CONTINUOUS
  0
LAYER
  2
37
 70
0
 62
7
  6
CONTINUOUS
  0
LAYER
  2
38
 70
0
 62
7
  6
CONTINUOUS
  0
LAYER
  2
39
 70
0
 62
7
  6
CONTINUOUS
  0
LAYER
  2
40
 70
0
 62
7
  6
CONTINUOUS
  0
LAYER
  2
41
 70
0
 62
7
  6
CONTINUOUS
  0
LAYER
  2
42
 70
0
 62
7
  6
CONTINUOUS
  0
LAYER
  2
43
 70
0
 62
7
  6
CONTINUOUS
  0
LAYER
  2
44
 70
0
 62
7
  6
CONTINUOUS
  0
LAYER
  2
45
 70
0
 62
7
  6
CONTINUOUS
  0
LAYER
  2
46
 70
0
 62
7
  6
CONTINUOUS
  0
LAYER
  2
47
 70
0
 62
7
  6
CONTINUOUS
  0
LAYER
  2
48
 70
0
 62
7
  6
CONTINUOUS
  0
LAYER
  2
49
 70
0
 62
7
  6
CONTINUOUS
  0
LAYER
  2
50
 70
0
 62
7
  6
CONTINUOUS
  0
LAYER
  2
51
 70
0
 62
7
  6
CONTINUOUS
  0
LAYER
  2
52
 70
0
 62
7
  6
CONTINUOUS
  0
LAYER
  2
53
 70
0
 62
7
  6
CONTINUOUS
  0
LAYER
  2
54
 70
0
 62
7
  6
CONTINUOUS
  0
LAYER
  2
55
 70
0
 62
7
  6
CONTINUOUS
  0
LAYER
  2
56
 70
0
 62
7
  6
CONTINUOUS
  0
LAYER
  2
57
 70
0
 62
7
  6
CONTINUOUS
  0
LAYER
  2
58
 70
0
 62
7
  6
CONTINUOUS
  0
LAYER
  2
59
 70
0
 62
7
  6
CONTINUOUS
  0
LAYER
  2
60
 70
0
 62
7
  6
CONTINUOUS
  0
LAYER
  2
61
 70
0
 62
7
  6
CONTINUOUS
  0
LAYER
  2
62
 70
0
 62
7
  6
CONTINUOUS
  0
LAYER
  2
63
 70
0
 62
7
  6
CONTINUOUS
  0
LAYER
  2
64
 70
0
 62
7
  6
CONTINUOUS
  0
LAYER
  2
65
 70
0
 62
7
  6
CONTINUOUS
  0
LAYER
  2
66
 70
0
 62
7
  6
CONTINUOUS
  0
LAYER
  2
67
 70
0
 62
7
  6
CONTINUOUS
  0
LAYER
  2
68
 70
0
 62
7
  6
CONTINUOUS
  0
LAYER
  2
69
 70
0
 62
7
  6
CONTINUOUS
  0
LAYER
  2
70
 70
0
 62
7
  6
CONTINUOUS
  0
LAYER
  2
71
 70
0
 62
7
  6
CONTINUOUS
  0
LAYER
  2
72
 70
0
 62
7
  6
CONTINUOUS
  0
LAYER
  2
73
 70
0
 62
7
  6
CONTINUOUS
  0
LAYER
  2
74
 70
0
 62
7
  6
CONTINUOUS
  0
LAYER
  2
75
 70
0
 62
7
  6
CONTINUOUS
  0
LAYER
  2
76
 70
0
 62
7
  6
CONTINUOUS
  0
LAYER
  2
77
 70
0
 62
7
  6
CONTINUOUS
  0
LAYER
  2
78
 70
0
 62
7
  6
CONTINUOUS
  0
LAYER
  2
79
 70
0
 62
7
  6
CONTINUOUS
  0
LAYER
  2
80
 70
0
 62
7
  6
CONTINUOUS
  0
LAYER
  2
81
 70
0
 62
7
  6
CONTINUOUS
  0
LAYER
  2
82
 70
0
 62
7
  6
CONTINUOUS
  0
LAYER
  2
83
 70
0
 62
7
  6
CONTINUOUS
  0
LAYER
  2
84
 70
0
 62
7
  6
CONTINUOUS
  0
LAYER
  2
85
 70
0
 62
7
  6
CONTINUOUS
  0
LAYER
  2
86
 70
0
 62
7
  6
CONTINUOUS
  0
LAYER
  2
87
 70
0
 62
7
  6
CONTINUOUS
  0
LAYER
  2
88
 70
0
 62
7
  6
CONTINUOUS
  0
LAYER
  2
89
 70
0
 62
7
  6
CONTINUOUS
  0
LAYER
  2
90
 70
0
 62
7
  6
CONTINUOUS
  0
LAYER
  2
91
 70
0
 62
7
  6
CONTINUOUS
  0
LAYER
  2
92
 70
0
 62
7
  6
CONTINUOUS
  0
LAYER
  2
93
 70
0
 62
7
  6
CONTINUOUS
  0
LAYER
  2
94
 70
0
 62
7
  6
CONTINUOUS
  0
LAYER
  2
95
 70
0
 62
7
  6
CONTINUOUS
  0
LAYER
  2
96
 70
0
 62
7
  6
CONTINUOUS
  0
LAYER
  2
97
 70
0
 62
7
  6
CONTINUOUS
  0
LAYER
  2
98
 70
0
 62
7
  6
CONTINUOUS
  0
LAYER
  2
99
 70
0
 62
7
  6
CONTINUOUS
  0
LAYER
  2
MED-0
 70
0
 62
230
  6
HIDDENNEW00
  0
LAYER
  2
M_ERR
 70
0
 62
1
  6
HIDDENNEW00
  0
LAYER
  2
102
 70
0
 62
7
  6
CONTINUOUS
  0
LAYER
  2
103
 70
0
 62
7
  6
CONTINUOUS
  0
LAYER
  2
104
 70
0
 62
7
  6
CONTINUOUS
  0
LAYER
  2
105
 70
0
 62
7
  6
CONTINUOUS
  0
LAYER
  2
106
 70
0
 62
7
  6
CONTINUOUS
  0
LAYER
  2
107
 70
0
 62
7
  6
CONTINUOUS
  0
LAYER
  2
108
 70
0
 62
7
  6
CONTINUOUS
  0
LAYER
  2
Drafting_Hidden_Entities
 70
1
 62
7
  6
CONTINUOUS
  0
ENDTAB
  0
TABLE
  2
STYLE
 70
1
  0
STYLE
  2
STANDARD
 70
64
 40
0.0
 41
1.0
 50
0.0
 71
0
 42
1.0
  3
monotxt.shx
  4

  0
ENDTAB
  0
TABLE
  2
VIEW
 70
0
  0
ENDTAB
  0
TABLE
  2
DIMSTYLE
 70
1
  0
DIMSTYLE
  2
DSTYLE1
 70
0
  3

  4

  5

  6

  7

 40
1.0
 41
3.5
 42
1.0
 43
3.8E-001
 44
1.0
 45
0.0
 46
0.0
 47
1.0E-001
 48
1.0E-001
 71
0
 72
0
 73
0
 74
0
 75
0
 76
0
 77
1
 78
11
140
3.5
141
9.0E-002
142
0.0
143
1.0
144
1.0
145
0.0
146
1.0
147
1.1655
170
0
171
2
172
0
173
0
174
0
175
0
176
0
177
0
178
0
  0
ENDTAB
  0
ENDSEC
  0
SECTION
  2
BLOCKS
  0
BLOCK
  2
*AH13
  3
*AH
 10
0.0
 20
0.0
 70
65
  0
LINE
  8
1
  6
CONTINUOUS
 62
0
 10
0.0
 20
0.0
 11
1.0
 21
-1.666679E-001
  0
LINE
  8
1
  6
CONTINUOUS
 62
0
 10
1.0
 20
-1.666679E-001
 11
1.0
 21
1.66668E-001
  0
LINE
  8
1
  6
CONTINUOUS
 62
0
 10
1.0
 20
1.66668E-001
 11
0.0
 21
0.0
  0
ENDBLK
  0
BLOCK
  2
*XH32
  3
*XH
 10
0.0
 20
0.0
 70
65
  0
LINE
  8
108
  6
CONTINUOUS
 62
1
 10
-8.5899331E-001
 20
-1.6865701
 11
-8.6753831E-001
 21
-1.6780551
  0
LINE
  8
108
  6
CONTINUOUS
 62
1
 10
-8.6753831E-001
 20
-1.5366221
 11
-7.9399131E-001
 21
-1.6101691
  0
LINE
  8
108
  6
CONTINUOUS
 62
1
 10
-7.2898831E-001
 20
-1.5337681
 11
-8.6753831E-001
 21
-1.3952031
  0
LINE
  8
108
  6
CONTINUOUS
 62
1
 10
-8.6753831E-001
 20
-1.2537851
 11
-6.6395531E-001
 21
-1.4573521
  0
LINE
  8
108
  6
CONTINUOUS
 62
1
 10
-5.9895331E-001
 20
-1.3809511
 11
-8.6753831E-001
 21
-1.1123661
  0
LINE
  8
108
  6
CONTINUOUS
 62
1
 10
-8.6753831E-001
 20
-9.7094815E-001
 11
-5.3395131E-001
 21
-1.3045351
  0
LINE
  8
108
  6
CONTINUOUS
 62
1
 10
-4.6891831E-001
 20
-1.2281351
 11
-8.6753831E-001
 21
-8.2951415E-001
  0
LINE
  8
108
  6
CONTINUOUS
 62
1
 10
-8.6753831E-001
 20
-6.8809615E-001
 11
-4.0391531E-001
 21
-1.1517341
  0
LINE
  8
108
  6
CONTINUOUS
 62
1
 10
-3.3888231E-001
 20
-1.0753181
 11
-8.6753831E-001
 21
-5.4667715E-001
  0
LINE
  8
108
  6
CONTINUOUS
 62
1
 10
-8.6753831E-001
 20
-4.0525915E-001
 11
-2.7388031E-001
 21
-9.9891715E-001
  0
LINE
  8
108
  6
CONTINUOUS
 62
1
 10
-2.0887731E-001
 20
-9.2250115E-001
 11
-8.6753831E-001
 21
-2.6384015E-001
  0
LINE
  8
108
  6
CONTINUOUS
 62
1
 10
-8.6753831E-001
 20
-1.2240615E-001
 11
-1.4384431E-001
 21
-8.4610015E-001
  0
LINE
  8
108
  6
CONTINUOUS
 62
1
 10
-7.8842311E-002
 20
-7.6970015E-001
 11
-8.6753831E-001
 21
1.9011851E-002
  0
LINE
  8
108
  6
CONTINUOUS
 62
1
 10
-8.6753831E-001
 20
1.6042985E-001
 11
-1.3809311E-002
 21
-6.9328415E-001
  0
LINE
  8
108
  6
CONTINUOUS
 62
1
 10
5.1193689E-002
 20
-6.1688315E-001
 11
-8.6753831E-001
 21
3.0184885E-001
  0
LINE
  8
108
  6
CONTINUOUS
 62
1
 10
-8.6753831E-001
 20
4.4326685E-001
 11
1.1619569E-001
 21
-5.4046715E-001
  0
LINE
  8
108
  6
CONTINUOUS
 62
1
 10
1.8122869E-001
 20
-4.6406615E-001
 11
-8.6753831E-001
 21
5.8470085E-001
  0
LINE
  8
108
  6
CONTINUOUS
 62
1
 10
-8.6753831E-001
 20
7.2611985E-001
 11
2.4623069E-001
 21
-3.8766515E-001
  0
LINE
  8
108
  6
CONTINUOUS
 62
1
 10
3.1126369E-001
 20
-3.1124915E-001
 11
-8.6753831E-001
 21
8.6753785E-001
  0
LINE
  8
108
  6
CONTINUOUS
 62
1
 10
-8.6753831E-001
 20
1.0089559
 11
3.7626669E-001
 21
-2.3484815E-001
  0
LINE
  8
108
  6
CONTINUOUS
 62
1
 10
4.4126869E-001
 20
-1.5843215E-001
 11
-7.8816231E-001
 21
1.0710139
  0
LINE
  8
108
  6
CONTINUOUS
 62
1
 10
-6.4674431E-001
 20
1.0710139
 11
5.0630169E-001
 21
-8.2032149E-002
  0
LINE
  8
108
  6
CONTINUOUS
 62
1
 10
5.7130469E-001
 20
-5.6311487E-003
 11
-5.0532531E-001
 21
1.0710139
  0
LINE
  8
108
  6
CONTINUOUS
 62
1
 10
-3.6390731E-001
 20
1.0710139
 11
6.3633769E-001
 21
7.0784851E-002
  0
LINE
  8
108
  6
CONTINUOUS
 62
1
 10
7.0133969E-001
 20
1.4718585E-001
 11
-2.2248831E-001
 21
1.0710139
  0
LINE
  8
108
  6
CONTINUOUS
 62
1
 10
-8.1070311E-002
 20
1.0710139
 11
7.6634169E-001
 21
2.2360185E-001
  0
LINE
  8
108
  6
CONTINUOUS
 62
1
 10
8.3137469E-001
 20
3.0000285E-001
 11
6.0348689E-002
 21
1.0710139
  0
LINE
  8
108
  6
CONTINUOUS
 62
1
 10
2.0176669E-001
 20
1.0710139
 11
8.9637769E-001
 21
3.7640285E-001
  0
LINE
  8
108
  6
CONTINUOUS
 62
1
 10
9.6141069E-001
 20
4.5281885E-001
 11
3.4321569E-001
 21
1.0710139
  0
LINE
  8
108
  6
CONTINUOUS
 62
1
 10
4.8463469E-001
 20
1.0710139
 11
1.0264127
 21
5.2921985E-001
  0
LINE
  8
108
  6
CONTINUOUS
 62
1
 10
1.0914157
 20
6.0563585E-001
 11
6.2605269E-001
 21
1.0710139
  0
LINE
  8
108
  6
CONTINUOUS
 62
1
 10
7.6747169E-001
 20
1.0710139
 11
1.1564487
 21
6.8203685E-001
  0
LINE
  8
108
  6
CONTINUOUS
 62
1
 10
1.2214507
 20
7.5843785E-001
 11
9.0888969E-001
 21
1.0710139
  0
LINE
  8
108
  6
CONTINUOUS
 62
1
 10
1.0503077
 20
1.0710139
 11
1.2864837
 21
8.3485385E-001
  0
LINE
  8
108
  6
CONTINUOUS
 62
1
 10
1.3514857
 20
9.1125385E-001
 11
1.1917267
 21
1.0710139
  0
LINE
  8
108
  6
CONTINUOUS
 62
1
 10
1.3331447
 20
1.0710139
 11
1.4164887
 21
9.8766985E-001
  0
LINE
  8
108
  6
CONTINUOUS
 62
1
 10
1.4815217
 20
1.0640709
 11
1.4745637
 21
1.0710139
  0
ENDBLK
  0
BLOCK
  2
*XH33
  3
*XH
 10
0.0
 20
0.0
 70
65
  0
LINE
  8
108
  6
CONTINUOUS
 62
1
 10
6.3635085E-001
 20
-1.9798546
 11
3.0151185E-001
 21
-1.6450306
  0
LINE
  8
108
  6
CONTINUOUS
 62
1
 10
-7.4777315E-001
 20
-4.5431158E-001
 11
6.3635085E-001
 21
-1.8384206
  0
LINE
  8
108
  6
CONTINUOUS
 62
1
 10
6.3635085E-001
 20
-1.6970026
 11
-1.7970591
 21
7.3640843E-001
  0
LINE
  8
108
  6
CONTINUOUS
 62
1
 10
-1.7480482
 20
8.2881543E-001
 11
6.3635085E-001
 21
-1.5555836
  0
LINE
  8
108
  6
CONTINUOUS
 62
1
 10
6.3635085E-001
 20
-1.4141656
 11
-1.6066302
 21
8.2881543E-001
  0
LINE
  8
108
  6
CONTINUOUS
 62
1
 10
-1.4652112
 20
8.2881543E-001
 11
6.3635085E-001
 21
-1.2727476
  0
LINE
  8
108
  6
CONTINUOUS
 62
1
 10
6.3635085E-001
 20
-1.1313286
 11
-1.3237932
 21
8.2881543E-001
  0
LINE
  8
108
  6
CONTINUOUS
 62
1
 10
-1.1823742
 20
8.2881543E-001
 11
6.3635085E-001
 21
-9.8989458E-001
  0
LINE
  8
108
  6
CONTINUOUS
 62
1
 10
6.3635085E-001
 20
-8.4847657E-001
 11
-1.0409562
 21
8.2881543E-001
  0
LINE
  8
108
  6
CONTINUOUS
 62
1
 10
-8.9953715E-001
 20
8.2881543E-001
 11
6.3635085E-001
 21
-7.0705757E-001
  0
LINE
  8
108
  6
CONTINUOUS
 62
1
 10
6.3635085E-001
 20
-5.6563957E-001
 11
-7.5811915E-001
 21
8.2881543E-001
  0
LINE
  8
108
  6
CONTINUOUS
 62
1
 10
-6.1670015E-001
 20
8.2881543E-001
 11
6.3635085E-001
 21
-4.2422158E-001
  0
LINE
  8
108
  6
CONTINUOUS
 62
1
 10
6.3635085E-001
 20
-2.8278758E-001
 11
-4.7528215E-001
 21
8.2881543E-001
  0
LINE
  8
108
  6
CONTINUOUS
 62
1
 10
-3.3383315E-001
 20
8.2881543E-001
 11
6.3635085E-001
 21
-1.4136858E-001
  0
LINE
  8
108
  6
CONTINUOUS
 62
1
 10
6.3635085E-001
 20
4.9425E-005
 11
-1.9241515E-001
 21
8.2881543E-001
  0
LINE
  8
108
  6
CONTINUOUS
 62
1
 10
-5.099615E-002
 20
8.2881543E-001
 11
6.3635085E-001
 21
1.4146843E-001
  0
LINE
  8
108
  6
CONTINUOUS
 62
1
 10
6.3635085E-001
 20
2.8288643E-001
 11
9.042185E-002
 21
8.2881543E-001
  0
LINE
  8
108
  6
CONTINUOUS
 62
1
 10
2.3184085E-001
 20
8.2881543E-001
 11
6.3635085E-001
 21
4.2432043E-001
  0
LINE
  8
108
  6
CONTINUOUS
 62
1
 10
6.3635085E-001
 20
5.6573843E-001
 11
3.7325885E-001
 21
8.2881543E-001
  0
LINE
  8
108
  6
CONTINUOUS
 62
1
 10
5.1467785E-001
 20
8.2881543E-001
 11
6.3635085E-001
 21
7.0715743E-001
  0
ENDBLK
  0
BLOCK
  2
*XH35
  3
*XH
 10
0.0
 20
0.0
 70
65
  0
LINE
  8
108
  6
CONTINUOUS
 62
1
 10
8.5899358E-001
 20
-1.6865701
 11
8.6753858E-001
 21
-1.6780551
  0
LINE
  8
108
  6
CONTINUOUS
 62
1
 10
8.6753858E-001
 20
-1.5366221
 11
7.9399058E-001
 21
-1.6101691
  0
LINE
  8
108
  6
CONTINUOUS
 62
1
 10
7.2898858E-001
 20
-1.5337681
 11
8.6753858E-001
 21
-1.3952031
  0
LINE
  8
108
  6
CONTINUOUS
 62
1
 10
8.6753858E-001
 20
-1.2537851
 11
6.6395558E-001
 21
-1.4573521
  0
LINE
  8
108
  6
CONTINUOUS
 62
1
 10
5.9895358E-001
 20
-1.3809511
 11
8.6753858E-001
 21
-1.1123661
  0
LINE
  8
108
  6
CONTINUOUS
 62
1
 10
8.6753858E-001
 20
-9.7094815E-001
 11
5.3395058E-001
 21
-1.3045351
  0
LINE
  8
108
  6
CONTINUOUS
 62
1
 10
4.6891758E-001
 20
-1.2281351
 11
8.6753858E-001
 21
-8.2951415E-001
  0
LINE
  8
108
  6
CONTINUOUS
 62
1
 10
8.6753858E-001
 20
-6.8809615E-001
 11
4.0391558E-001
 21
-1.1517341
  0
LINE
  8
108
  6
CONTINUOUS
 62
1
 10
3.3888258E-001
 20
-1.0753181
 11
8.6753858E-001
 21
-5.4667715E-001
  0
LINE
  8
108
  6
CONTINUOUS
 62
1
 10
8.6753858E-001
 20
-4.0525915E-001
 11
2.7387958E-001
 21
-9.9891715E-001
  0
LINE
  8
108
  6
CONTINUOUS
 62
1
 10
2.0887758E-001
 20
-9.2250115E-001
 11
8.6753858E-001
 21
-2.6384015E-001
  0
LINE
  8
108
  6
CONTINUOUS
 62
1
 10
8.6753858E-001
 20
-1.2240615E-001
 11
1.4384458E-001
 21
-8.4610015E-001
  0
LINE
  8
108
  6
CONTINUOUS
 62
1
 10
7.8842581E-002
 20
-7.6970015E-001
 11
8.6753858E-001
 21
1.9011851E-002
  0
LINE
  8
108
  6
CONTINUOUS
 62
1
 10
8.6753858E-001
 20
1.6042985E-001
 11
1.3809581E-002
 21
-6.9328415E-001
  0
LINE
  8
108
  6
CONTINUOUS
 62
1
 10
-5.1193419E-002
 20
-6.1688315E-001
 11
8.6753858E-001
 21
3.0184885E-001
  0
LINE
  8
108
  6
CONTINUOUS
 62
1
 10
8.6753858E-001
 20
4.4326685E-001
 11
-1.1619542E-001
 21
-5.4046715E-001
  0
LINE
  8
108
  6
CONTINUOUS
 62
1
 10
-1.8122842E-001
 20
-4.6406615E-001
 11
8.6753858E-001
 21
5.8470085E-001
  0
LINE
  8
108
  6
CONTINUOUS
 62
1
 10
8.6753858E-001
 20
7.2611985E-001
 11
-2.4623142E-001
 21
-3.8766515E-001
  0
LINE
  8
108
  6
CONTINUOUS
 62
1
 10
-3.1126442E-001
 20
-3.1124915E-001
 11
8.6753858E-001
 21
8.6753785E-001
  0
LINE
  8
108
  6
CONTINUOUS
 62
1
 10
8.6753858E-001
 20
1.0089559
 11
-3.7626642E-001
 21
-2.3484815E-001
  0
LINE
  8
108
  6
CONTINUOUS
 62
1
 10
-4.4126942E-001
 20
-1.5843215E-001
 11
7.8816258E-001
 21
1.0710139
  0
LINE
  8
108
  6
CONTINUOUS
 62
1
 10
6.4674358E-001
 20
1.0710139
 11
-5.0630242E-001
 21
-8.2032149E-002
  0
LINE
  8
108
  6
CONTINUOUS
 62
1
 10
-5.7130442E-001
 20
-5.6311487E-003
 11
5.0532558E-001
 21
1.0710139
  0
LINE
  8
108
  6
CONTINUOUS
 62
1
 10
3.6390658E-001
 20
1.0710139
 11
-6.3633742E-001
 21
7.0784851E-002
  0
LINE
  8
108
  6
CONTINUOUS
 62
1
 10
-7.0133942E-001
 20
1.4718585E-001
 11
2.2248858E-001
 21
1.0710139
  0
LINE
  8
108
  6
CONTINUOUS
 62
1
 10
8.1069581E-002
 20
1.0710139
 11
-7.6634242E-001
 21
2.2360185E-001
  0
LINE
  8
108
  6
CONTINUOUS
 62
1
 10
-8.3137542E-001
 20
3.0000285E-001
 11
-6.0348419E-002
 21
1.0710139
  0
LINE
  8
108
  6
CONTINUOUS
 62
1
 10
-2.0176742E-001
 20
1.0710139
 11
-8.9637742E-001
 21
3.7640285E-001
  0
LINE
  8
108
  6
CONTINUOUS
 62
1
 10
-9.6141042E-001
 20
4.5281885E-001
 11
-3.4321642E-001
 21
1.0710139
  0
LINE
  8
108
  6
CONTINUOUS
 62
1
 10
-4.8463442E-001
 20
1.0710139
 11
-1.0264134
 21
5.2921985E-001
  0
LINE
  8
108
  6
CONTINUOUS
 62
1
 10
-1.0914154
 20
6.0563585E-001
 11
-6.2605342E-001
 21
1.0710139
  0
LINE
  8
108
  6
CONTINUOUS
 62
1
 10
-7.6747142E-001
 20
1.0710139
 11
-1.1564484
 21
6.8203685E-001
  0
LINE
  8
108
  6
CONTINUOUS
 62
1
 10
-1.2214504
 20
7.5843785E-001
 11
-9.0888942E-001
 21
1.0710139
  0
LINE
  8
108
  6
CONTINUOUS
 62
1
 10
-1.0503084
 20
1.0710139
 11
-1.2864834
 21
8.3485385E-001
  0
LINE
  8
108
  6
CONTINUOUS
 62
1
 10
-1.3514864
 20
9.1125385E-001
 11
-1.1917264
 21
1.0710139
  0
LINE
  8
108
  6
CONTINUOUS
 62
1
 10
-1.3331454
 20
1.0710139
 11
-1.4164884
 21
9.8766985E-001
  0
LINE
  8
108
  6
CONTINUOUS
 62
1
 10
-1.4815214
 20
1.0640709
 11
-1.4745634
 21
1.0710139
  0
ENDBLK
  0
BLOCK
  2
*XH36
  3
*XH
 10
0.0
 20
0.0
 70
65
  0
LINE
  8
108
  6
CONTINUOUS
 62
1
 10
-6.3635118E-001
 20
-1.9798546
 11
-3.0151217E-001
 21
-1.6450306
  0
LINE
  8
108
  6
CONTINUOUS
 62
1
 10
7.4777383E-001
 20
-4.5431158E-001
 11
-6.3635118E-001
 21
-1.8384206
  0
LINE
  8
108
  6
CONTINUOUS
 62
1
 10
-6.3635118E-001
 20
-1.6970026
 11
1.7970598
 21
7.3640843E-001
  0
LINE
  8
108
  6
CONTINUOUS
 62
1
 10
1.7480488
 20
8.2881543E-001
 11
-6.3635118E-001
 21
-1.5555836
  0
LINE
  8
108
  6
CONTINUOUS
 62
1
 10
-6.3635118E-001
 20
-1.4141656
 11
1.6066298
 21
8.2881543E-001
  0
LINE
  8
108
  6
CONTINUOUS
 62
1
 10
1.4652118
 20
8.2881543E-001
 11
-6.3635118E-001
 21
-1.2727476
  0
LINE
  8
108
  6
CONTINUOUS
 62
1
 10
-6.3635118E-001
 20
-1.1313286
 11
1.3237928
 21
8.2881543E-001
  0
LINE
  8
108
  6
CONTINUOUS
 62
1
 10
1.1823748
 20
8.2881543E-001
 11
-6.3635118E-001
 21
-9.8989458E-001
  0
LINE
  8
108
  6
CONTINUOUS
 62
1
 10
-6.3635118E-001
 20
-8.4847657E-001
 11
1.0409558
 21
8.2881543E-001
  0
LINE
  8
108
  6
CONTINUOUS
 62
1
 10
8.9953783E-001
 20
8.2881543E-001
 11
-6.3635118E-001
 21
-7.0705757E-001
  0
LINE
  8
108
  6
CONTINUOUS
 62
1
 10
-6.3635118E-001
 20
-5.6563957E-001
 11
7.5811982E-001
 21
8.2881543E-001
  0
LINE
  8
108
  6
CONTINUOUS
 62
1
 10
6.1670083E-001
 20
8.2881543E-001
 11
-6.3635118E-001
 21
-4.2422158E-001
  0
LINE
  8
108
  6
CONTINUOUS
 62
1
 10
-6.3635118E-001
 20
-2.8278758E-001
 11
4.7528283E-001
 21
8.2881543E-001
  0
LINE
  8
108
  6
CONTINUOUS
 62
1
 10
3.3383382E-001
 20
8.2881543E-001
 11
-6.3635118E-001
 21
-1.4136858E-001
  0
LINE
  8
108
  6
CONTINUOUS
 62
1
 10
-6.3635118E-001
 20
4.9425E-005
 11
1.9241483E-001
 21
8.2881543E-001
  0
LINE
  8
108
  6
CONTINUOUS
 62
1
 10
5.0996825E-002
 20
8.2881543E-001
 11
-6.3635118E-001
 21
1.4146843E-001
  0
LINE
  8
108
  6
CONTINUOUS
 62
1
 10
-6.3635118E-001
 20
2.8288643E-001
 11
-9.0422175E-002
 21
8.2881543E-001
  0
LINE
  8
108
  6
CONTINUOUS
 62
1
 10
-2.3184018E-001
 20
8.2881543E-001
 11
-6.3635118E-001
 21
4.2432043E-001
  0
LINE
  8
108
  6
CONTINUOUS
 62
1
 10
-6.3635118E-001
 20
5.6573843E-001
 11
-3.7325918E-001
 21
8.2881543E-001
  0
LINE
  8
108
  6
CONTINUOUS
 62
1
 10
-5.1467717E-001
 20
8.2881543E-001
 11
-6.3635118E-001
 21
7.0715743E-001
  0
ENDBLK
  0
BLOCK
  2
*XH39
  3
*XH
 10
0.0
 20
0.0
 70
65
  0
LINE
  8
108
  6
CONTINUOUS
 62
1
 10
-1.25
 20
8.56537E-001
 11
-1.25
 21
3.93463E-001
  0
LINE
  8
108
  6
CONTINUOUS
 62
1
 10
-7.5E-001
 20
-1.06537E-001
 11
-7.5E-001
 21
8.56537E-001
  0
LINE
  8
108
  6
CONTINUOUS
 62
1
 10
-2.5E-001
 20
8.56537E-001
 11
-2.5E-001
 21
-6.06537E-001
  0
LINE
  8
108
  6
CONTINUOUS
 62
1
 10
2.5E-001
 20
-1.106537
 11
2.5E-001
 21
8.56537E-001
  0
LINE
  8
108
  6
CONTINUOUS
 62
1
 10
7.5E-001
 20
8.56537E-001
 11
7.5E-001
 21
-1.606537
  0
LINE
  8
108
  6
CONTINUOUS
 62
1
 10
1.25
 20
-2.106537
 11
1.25
 21
8.56537E-001
  0
ENDBLK
  0
BLOCK
  2
*XH40
  3
*XH
 10
0.0
 20
0.0
 70
65
  0
LINE
  8
108
  6
CONTINUOUS
 62
1
 10
7.4092865E-001
 20
-1.25
 11
5.0907135E-001
 21
-1.25
  0
LINE
  8
108
  6
CONTINUOUS
 62
1
 10
9.07135E-003
 20
-7.5E-001
 11
7.4092865E-001
 21
-7.5E-001
  0
LINE
  8
108
  6
CONTINUOUS
 62
1
 10
7.4092865E-001
 20
-2.5E-001
 11
-4.9092865E-001
 21
-2.5E-001
  0
LINE
  8
108
  6
CONTINUOUS
 62
1
 10
-9.9092865E-001
 20
2.5E-001
 11
7.4092865E-001
 21
2.5E-001
  0
LINE
  8
108
  6
CONTINUOUS
 62
1
 10
7.4092865E-001
 20
7.5E-001
 11
-1.4909287
 21
7.5E-001
  0
LINE
  8
108
  6
CONTINUOUS
 62
1
 10
-1.9909287
 20
1.25
 11
7.4092865E-001
 21
1.25
  0
ENDBLK
  0
BLOCK
  2
*XH41
  3
*XH
 10
0.0
 20
0.0
 70
65
  0
LINE
  8
108
  6
CONTINUOUS
 62
1
 10
1.0297336
 20
-1.4451484
 11
8.4098243E-001
 21
-1.6338844
  0
LINE
  8
108
  6
CONTINUOUS
 62
1
 10
4.8743633E-001
 20
-1.2803304
 11
1.0297336
 21
-7.3804138E-001
  0
LINE
  8
108
  6
CONTINUOUS
 62
1
 10
1.0297336
 20
-3.0933375E-002
 11
1.3387493E-001
 21
-9.2677738E-001
  0
LINE
  8
108
  6
CONTINUOUS
 62
1
 10
-2.1967127E-001
 20
-5.7322337E-001
 11
1.0297336
 21
6.7617463E-001
  0
LINE
  8
108
  6
CONTINUOUS
 62
1
 10
8.2381633E-001
 20
1.1773796
 11
-5.7321737E-001
 21
-2.1966938E-001
  0
LINE
  8
108
  6
CONTINUOUS
 62
1
 10
-9.2677877E-001
 20
1.3388463E-001
 11
1.1670873E-001
 21
1.1773796
  0
LINE
  8
108
  6
CONTINUOUS
 62
1
 10
-5.9038347E-001
 20
1.1773796
 11
-1.280325
 21
4.8743863E-001
  0
LINE
  8
108
  6
CONTINUOUS
 62
1
 10
-1.6338864
 20
8.4099163E-001
 11
-1.2974911
 21
1.1773796
  0
ENDBLK
  0
BLOCK
  2
*XH42
  3
*XH
 10
0.0
 20
0.0
 70
65
  0
LINE
  8
108
  6
CONTINUOUS
 62
1
 10
7.781677E-001
 20
-2.1923761
 11
-2.1923828
 21
7.781669E-001
  0
LINE
  8
108
  6
CONTINUOUS
 62
1
 10
-1.4852752
 20
7.781669E-001
 11
7.781677E-001
 21
-1.4852761
  0
LINE
  8
108
  6
CONTINUOUS
 62
1
 10
7.781677E-001
 20
-7.781681E-001
 11
-7.781677E-001
 21
7.781669E-001
  0
LINE
  8
108
  6
CONTINUOUS
 62
1
 10
-7.10602E-002
 20
7.781669E-001
 11
7.781677E-001
 21
-7.10611E-002
  0
LINE
  8
108
  6
CONTINUOUS
 62
1
 10
7.781677E-001
 20
6.360469E-001
 11
6.360474E-001
 21
7.781669E-001
  0
ENDBLK
  0
BLOCK
  2
*XH43
  3
*XH
 10
0.0
 20
0.0
 70
65
  0
LINE
  8
108
  6
CONTINUOUS
 62
1
 10
-1.25
 20
8.56537E-001
 11
-1.25
 21
3.93463E-001
  0
LINE
  8
108
  6
CONTINUOUS
 62
1
 10
-7.5E-001
 20
-1.06537E-001
 11
-7.5E-001
 21
8.56537E-001
  0
LINE
  8
108
  6
CONTINUOUS
 62
1
 10
-2.5E-001
 20
8.56537E-001
 11
-2.5E-001
 21
-6.06537E-001
  0
LINE
  8
108
  6
CONTINUOUS
 62
1
 10
2.5E-001
 20
-1.106537
 11
2.5E-001
 21
8.56537E-001
  0
LINE
  8
108
  6
CONTINUOUS
 62
1
 10
7.5E-001
 20
8.56537E-001
 11
7.5E-001
 21
-1.606537
  0
LINE
  8
108
  6
CONTINUOUS
 62
1
 10
1.25
 20
-2.106537
 11
1.25
 21
8.56537E-001
  0
ENDBLK
  0
BLOCK
  2
*XH44
  3
*XH
 10
0.0
 20
0.0
 70
65
  0
LINE
  8
108
  6
CONTINUOUS
 62
1
 10
7.4092865E-001
 20
-1.25
 11
5.0907135E-001
 21
-1.25
  0
LINE
  8
108
  6
CONTINUOUS
 62
1
 10
9.07135E-003
 20
-7.5E-001
 11
7.4092865E-001
 21
-7.5E-001
  0
LINE
  8
108
  6
CONTINUOUS
 62
1
 10
7.4092865E-001
 20
-2.5E-001
 11
-4.9092865E-001
 21
-2.5E-001
  0
LINE
  8
108
  6
CONTINUOUS
 62
1
 10
-9.9092865E-001
 20
2.5E-001
 11
7.4092865E-001
 21
2.5E-001
  0
LINE
  8
108
  6
CONTINUOUS
 62
1
 10
7.4092865E-001
 20
7.5E-001
 11
-1.4909287
 21
7.5E-001
  0
LINE
  8
108
  6
CONTINUOUS
 62
1
 10
-1.9909287
 20
1.25
 11
7.4092865E-001
 21
1.25
  0
ENDBLK
  0
BLOCK
  2
*XH45
  3
*XH
 10
0.0
 20
0.0
 70
65
  0
LINE
  8
108
  6
CONTINUOUS
 62
1
 10
1.0297336
 20
-1.4451484
 11
8.4098243E-001
 21
-1.6338844
  0
LINE
  8
108
  6
CONTINUOUS
 62
1
 10
4.8743633E-001
 20
-1.2803304
 11
1.0297336
 21
-7.3804138E-001
  0
LINE
  8
108
  6
CONTINUOUS
 62
1
 10
1.0297336
 20
-3.0933375E-002
 11
1.3387493E-001
 21
-9.2677738E-001
  0
LINE
  8
108
  6
CONTINUOUS
 62
1
 10
-2.1967127E-001
 20
-5.7322337E-001
 11
1.0297336
 21
6.7617463E-001
  0
LINE
  8
108
  6
CONTINUOUS
 62
1
 10
8.2381633E-001
 20
1.1773796
 11
-5.7321737E-001
 21
-2.1966938E-001
  0
LINE
  8
108
  6
CONTINUOUS
 62
1
 10
-9.2677877E-001
 20
1.3388463E-001
 11
1.1670873E-001
 21
1.1773796
  0
LINE
  8
108
  6
CONTINUOUS
 62
1
 10
-5.9038347E-001
 20
1.1773796
 11
-1.280325
 21
4.8743863E-001
  0
LINE
  8
108
  6
CONTINUOUS
 62
1
 10
-1.6338864
 20
8.4099163E-001
 11
-1.2974911
 21
1.1773796
  0
ENDBLK
  0
BLOCK
  2
*XH46
  3
*XH
 10
0.0
 20
0.0
 70
65
  0
LINE
  8
108
  6
CONTINUOUS
 62
1
 10
7.781677E-001
 20
-2.1923761
 11
-2.1923828
 21
7.781669E-001
  0
LINE
  8
108
  6
CONTINUOUS
 62
1
 10
-1.4852752
 20
7.781669E-001
 11
7.781677E-001
 21
-1.4852761
  0
LINE
  8
108
  6
CONTINUOUS
 62
1
 10
7.781677E-001
 20
-7.781681E-001
 11
-7.781677E-001
 21
7.781669E-001
  0
LINE
  8
108
  6
CONTINUOUS
 62
1
 10
-7.10602E-002
 20
7.781669E-001
 11
7.781677E-001
 21
-7.10611E-002
  0
LINE
  8
108
  6
CONTINUOUS
 62
1
 10
7.781677E-001
 20
6.360469E-001
 11
6.360474E-001
 21
7.781669E-001
  0
ENDBLK
  0
BLOCK
  2
*XH47
  3
*XH
 10
0.0
 20
0.0
 70
65
  0
LINE
  8
108
  6
CONTINUOUS
 62
1
 10
1.25
 20
8.56537E-001
 11
1.25
 21
3.93463E-001
  0
LINE
  8
108
  6
CONTINUOUS
 62
1
 10
7.5E-001
 20
-1.06537E-001
 11
7.5E-001
 21
8.56537E-001
  0
LINE
  8
108
  6
CONTINUOUS
 62
1
 10
2.5E-001
 20
8.56537E-001
 11
2.5E-001
 21
-6.06537E-001
  0
LINE
  8
108
  6
CONTINUOUS
 62
1
 10
-2.5E-001
 20
-1.106537
 11
-2.5E-001
 21
8.56537E-001
  0
LINE
  8
108
  6
CONTINUOUS
 62
1
 10
-7.5E-001
 20
8.56537E-001
 11
-7.5E-001
 21
-1.606537
  0
LINE
  8
108
  6
CONTINUOUS
 62
1
 10
-1.25
 20
-2.106537
 11
-1.25
 21
8.56537E-001
  0
ENDBLK
  0
BLOCK
  2
*XH48
  3
*XH
 10
0.0
 20
0.0
 70
65
  0
LINE
  8
108
  6
CONTINUOUS
 62
1
 10
-7.4092865E-001
 20
-1.25
 11
-5.0907135E-001
 21
-1.25
  0
LINE
  8
108
  6
CONTINUOUS
 62
1
 10
-9.07135E-003
 20
-7.5E-001
 11
-7.4092865E-001
 21
-7.5E-001
  0
LINE
  8
108
  6
CONTINUOUS
 62
1
 10
-7.4092865E-001
 20
-2.5E-001
 11
4.9092865E-001
 21
-2.5E-001
  0
LINE
  8
108
  6
CONTINUOUS
 62
1
 10
9.9092865E-001
 20
2.5E-001
 11
-7.4092865E-001
 21
2.5E-001
  0
LINE
  8
108
  6
CONTINUOUS
 62
1
 10
-7.4092865E-001
 20
7.5E-001
 11
1.4909287
 21
7.5E-001
  0
LINE
  8
108
  6
CONTINUOUS
 62
1
 10
1.9909287
 20
1.25
 11
-7.4092865E-001
 21
1.25
  0
ENDBLK
  0
BLOCK
  2
*XH49
  3
*XH
 10
0.0
 20
0.0
 70
65
  0
LINE
  8
108
  6
CONTINUOUS
 62
1
 10
-1.0297261
 20
-1.4451484
 11
-8.4099005E-001
 21
-1.6338844
  0
LINE
  8
108
  6
CONTINUOUS
 62
1
 10
-4.8744395E-001
 20
-1.2803304
 11
-1.0297261
 21
-7.3804138E-001
  0
LINE
  8
108
  6
CONTINUOUS
 62
1
 10
-1.0297261
 20
-3.0933375E-002
 11
-1.3388255E-001
 21
-9.2677738E-001
  0
LINE
  8
108
  6
CONTINUOUS
 62
1
 10
2.1966365E-001
 20
-5.7322337E-001
 11
-1.0297261
 21
6.7617463E-001
  0
LINE
  8
108
  6
CONTINUOUS
 62
1
 10
-8.2382395E-001
 20
1.1773796
 11
5.7322505E-001
 21
-2.1966938E-001
  0
LINE
  8
108
  6
CONTINUOUS
 62
1
 10
9.2677115E-001
 20
1.3388463E-001
 11
-1.1671635E-001
 21
1.1773796
  0
LINE
  8
108
  6
CONTINUOUS
 62
1
 10
5.9039115E-001
 20
1.1773796
 11
1.2803326
 21
4.8743863E-001
  0
LINE
  8
108
  6
CONTINUOUS
 62
1
 10
1.6338788
 20
8.4099163E-001
 11
1.2974987
 21
1.1773796
  0
ENDBLK
  0
BLOCK
  2
*XH50
  3
*XH
 10
0.0
 20
0.0
 70
65
  0
LINE
  8
108
  6
CONTINUOUS
 62
1
 10
-7.7816011E-001
 20
-2.1923761
 11
2.1923752
 21
7.781669E-001
  0
LINE
  8
108
  6
CONTINUOUS
 62
1
 10
1.4852677
 20
7.781669E-001
 11
-7.7816011E-001
 21
-1.4852761
  0
LINE
  8
108
  6
CONTINUOUS
 62
1
 10
-7.7816011E-001
 20
-7.781681E-001
 11
7.7816009E-001
 21
7.781669E-001
  0
LINE
  8
108
  6
CONTINUOUS
 62
1
 10
7.105259E-002
 20
7.781669E-001
 11
-7.7816011E-001
 21
-7.10611E-002
  0
LINE
  8
108
  6
CONTINUOUS
 62
1
 10
-7.7816011E-001
 20
6.360469E-001
 11
-6.3605501E-001
 21
7.781669E-001
  0
ENDBLK
  0
BLOCK
  2
*XH51
  3
*XH
 10
0.0
 20
0.0
 70
65
  0
LINE
  8
108
  6
CONTINUOUS
 62
1
 10
1.25
 20
8.56537E-001
 11
1.25
 21
3.93463E-001
  0
LINE
  8
108
  6
CONTINUOUS
 62
1
 10
7.5E-001
 20
-1.06537E-001
 11
7.5E-001
 21
8.56537E-001
  0
LINE
  8
108
  6
CONTINUOUS
 62
1
 10
2.5E-001
 20
8.56537E-001
 11
2.5E-001
 21
-6.06537E-001
  0
LINE
  8
108
  6
CONTINUOUS
 62
1
 10
-2.5E-001
 20
-1.106537
 11
-2.5E-001
 21
8.56537E-001
  0
LINE
  8
108
  6
CONTINUOUS
 62
1
 10
-7.5E-001
 20
8.56537E-001
 11
-7.5E-001
 21
-1.606537
  0
LINE
  8
108
  6
CONTINUOUS
 62
1
 10
-1.25
 20
-2.106537
 11
-1.25
 21
8.56537E-001
  0
ENDBLK
  0
BLOCK
  2
*XH52
  3
*XH
 10
0.0
 20
0.0
 70
65
  0
LINE
  8
108
  6
CONTINUOUS
 62
1
 10
-7.4092865E-001
 20
-1.25
 11
-5.0907135E-001
 21
-1.25
  0
LINE
  8
108
  6
CONTINUOUS
 62
1
 10
-9.07135E-003
 20
-7.5E-001
 11
-7.4092865E-001
 21
-7.5E-001
  0
LINE
  8
108
  6
CONTINUOUS
 62
1
 10
-7.4092865E-001
 20
-2.5E-001
 11
4.9092865E-001
 21
-2.5E-001
  0
LINE
  8
108
  6
CONTINUOUS
 62
1
 10
9.9092865E-001
 20
2.5E-001
 11
-7.4092865E-001
 21
2.5E-001
  0
LINE
  8
108
  6
CONTINUOUS
 62
1
 10
-7.4092865E-001
 20
7.5E-001
 11
1.4909287
 21
7.5E-001
  0
LINE
  8
108
  6
CONTINUOUS
 62
1
 10
1.9909287
 20
1.25
 11
-7.4092865E-001
 21
1.25
  0
ENDBLK
  0
BLOCK
  2
*XH53
  3
*XH
 10
0.0
 20
0.0
 70
65
  0
LINE
  8
108
  6
CONTINUOUS
 62
1
 10
-1.0297261
 20
-1.4451484
 11
-8.4099005E-001
 21
-1.6338844
  0
LINE
  8
108
  6
CONTINUOUS
 62
1
 10
-4.8744395E-001
 20
-1.2803304
 11
-1.0297261
 21
-7.3804138E-001
  0
LINE
  8
108
  6
CONTINUOUS
 62
1
 10
-1.0297261
 20
-3.0933375E-002
 11
-1.3388255E-001
 21
-9.2677738E-001
  0
LINE
  8
108
  6
CONTINUOUS
 62
1
 10
2.1966365E-001
 20
-5.7322337E-001
 11
-1.0297261
 21
6.7617463E-001
  0
LINE
  8
108
  6
CONTINUOUS
 62
1
 10
-8.2382395E-001
 20
1.1773796
 11
5.7322505E-001
 21
-2.1966938E-001
  0
LINE
  8
108
  6
CONTINUOUS
 62
1
 10
9.2677115E-001
 20
1.3388463E-001
 11
-1.1671635E-001
 21
1.1773796
  0
LINE
  8
108
  6
CONTINUOUS
 62
1
 10
5.9039115E-001
 20
1.1773796
 11
1.2803326
 21
4.8743863E-001
  0
LINE
  8
108
  6
CONTINUOUS
 62
1
 10
1.6338788
 20
8.4099163E-001
 11
1.2974987
 21
1.1773796
  0
ENDBLK
  0
BLOCK
  2
*XH54
  3
*XH
 10
0.0
 20
0.0
 70
65
  0
LINE
  8
108
  6
CONTINUOUS
 62
1
 10
-7.7816011E-001
 20
-2.1923761
 11
2.1923752
 21
7.781669E-001
  0
LINE
  8
108
  6
CONTINUOUS
 62
1
 10
1.4852677
 20
7.781669E-001
 11
-7.7816011E-001
 21
-1.4852761
  0
LINE
  8
108
  6
CONTINUOUS
 62
1
 10
-7.7816011E-001
 20
-7.781681E-001
 11
7.7816009E-001
 21
7.781669E-001
  0
LINE
  8
108
  6
CONTINUOUS
 62
1
 10
7.105259E-002
 20
7.781669E-001
 11
-7.7816011E-001
 21
-7.10611E-002
  0
LINE
  8
108
  6
CONTINUOUS
 62
1
 10
-7.7816011E-001
 20
6.360469E-001
 11
-6.3605501E-001
 21
7.781669E-001
  0
ENDBLK
  0
BLOCK
  2
*D45
  3
*D
 10
0.0
 20
0.0
 70
65
  0
LINE
  8
MED-0
  6
CONTINUOUS
 62
4
 10
4.9458141E+002
 20
2.5936403E+002
 11
4.7820074E+002
 21
2.5936403E+002
  0
LINE
  8
MED-0
  6
CONTINUOUS
 62
4
 10
4.9243905E+002
 20
2.5136404E+002
 11
4.7820074E+002
 21
2.5136404E+002
  0
SOLID
  8
1
  6
CONTINUOUS
 62
0
 10
4.7920074E+002
 20
2.5936403E+002
 11
4.786174E+002
 21
2.5586403E+002
 12
4.7978408E+002
 22
2.5586403E+002
 13
4.7978408E+002
 23
2.5586403E+002
  0
SOLID
  8
1
  6
CONTINUOUS
 62
0
 10
4.7920074E+002
 20
2.5136404E+002
 11
4.7978408E+002
 21
2.5486404E+002
 12
4.786174E+002
 22
2.5486404E+002
 13
4.786174E+002
 23
2.5486404E+002
  0
LINE
  8
MED-0
  6
CONTINUOUS
 62
4
 10
4.7920074E+002
 20
2.5631664E+002
 11
4.7920074E+002
 21
2.5936403E+002
  0
LINE
  8
MED-0
  6
CONTINUOUS
 62
4
 10
4.7920074E+002
 20
2.5136404E+002
 11
4.7920074E+002
 21
2.5631664E+002
  0
TEXT
  8
MED-0
  6
CONTINUOUS
 62
4
 10
4.7803524E+002
 20
2.5514997E+002
 40
3.5
  1
8
 41
6.6666667E-001
 50
9.0E+001
  0
ENDBLK
  0
BLOCK
  2
*D225
  3
*D
 10
0.0
 20
0.0
 70
65
  0
LINE
  8
MED-0
  6
CONTINUOUS
 62
4
 10
4.0788794E+002
 20
2.5946405E+002
 11
4.3187045E+002
 21
2.5946405E+002
  0
LINE
  8
MED-0
  6
CONTINUOUS
 62
4
 10
4.1599015E+002
 20
2.5136404E+002
 11
4.3187045E+002
 21
2.5136404E+002
  0
SOLID
  8
1
  6
CONTINUOUS
 62
0
 10
4.3087045E+002
 20
2.5946405E+002
 11
4.3145379E+002
 21
2.6296405E+002
 12
4.3028711E+002
 22
2.6296405E+002
 13
4.3028711E+002
 23
2.6296405E+002
  0
SOLID
  8
1
  6
CONTINUOUS
 62
0
 10
4.3087045E+002
 20
2.5136404E+002
 11
4.3028711E+002
 21
2.4786404E+002
 12
4.3145379E+002
 22
2.4786404E+002
 13
4.3145379E+002
 23
2.4786404E+002
  0
LINE
  8
MED-0
  6
CONTINUOUS
 62
4
 10
4.3087045E+002
 20
2.5946405E+002
 11
4.3087045E+002
 21
2.8036455E+002
  0
LINE
  8
MED-0
  6
CONTINUOUS
 62
4
 10
4.3087045E+002
 20
2.4536404E+002
 11
4.3087045E+002
 21
2.5136404E+002
  0
TEXT
  8
MED-0
  6
CONTINUOUS
 62
4
 10
4.2970395E+002
 20
2.6486455E+002
 40
3.5
  1
8
 41
6.6666667E-001
 50
9.0E+001
  0
TEXT
  8
MED-0
  6
CONTINUOUS
 62
4
 10
4.2970395E+002
 20
2.6719789E+002
 40
3.5
  1
 - 58
 41
6.6666667E-001
 50
9.0E+001
  0
ENDBLK
  0
BLOCK
  2
*D416
  3
*D
 10
0.0
 20
0.0
 70
65
  0
LINE
  8
MED-0
  6
CONTINUOUS
 62
4
 10
2.6917437E+002
 20
2.5136404E+002
 11
2.9547704E+002
 21
2.5136404E+002
  0
LINE
  8
MED-0
  6
CONTINUOUS
 62
4
 10
2.6301392E+002
 20
2.5936404E+002
 11
2.9547704E+002
 21
2.5936404E+002
  0
SOLID
  8
1
  6
CONTINUOUS
 62
0
 10
2.9447704E+002
 20
2.5136404E+002
 11
2.938937E+002
 21
2.4786404E+002
 12
2.9506038E+002
 22
2.4786404E+002
 13
2.9506038E+002
 23
2.4786404E+002
  0
SOLID
  8
1
  6
CONTINUOUS
 62
0
 10
2.9447704E+002
 20
2.5936404E+002
 11
2.9506038E+002
 21
2.6286404E+002
 12
2.938937E+002
 22
2.6286404E+002
 13
2.938937E+002
 23
2.6286404E+002
  0
LINE
  8
MED-0
  6
CONTINUOUS
 62
4
 10
2.9447704E+002
 20
2.5936404E+002
 11
2.9447704E+002
 21
2.4536404E+002
  0
LINE
  8
MED-0
  6
CONTINUOUS
 62
4
 10
2.9447704E+002
 20
2.8246656E+002
 11
2.9447704E+002
 21
2.5936404E+002
  0
TEXT
  8
MED-0
  6
CONTINUOUS
 62
4
 10
2.9331154E+002
 20
2.6730106E+002
 40
3.5
  1
8
 41
6.6666667E-001
 50
9.0E+001
  0
TEXT
  8
MED-0
  6
CONTINUOUS
 62
4
 10
2.9331154E+002
 20
2.6963439E+002
 40
3.5
  1
 - 58
 41
6.6666667E-001
 50
9.0E+001
  0
ENDBLK
  0
BLOCK
  2
*D505
  3
*D
 10
0.0
 20
0.0
 70
65
  0
LINE
  8
MED-0
  6
CONTINUOUS
 62
4
 10
4.1492232E+001
 20
2.5136404E+002
 11
1.7964302E+001
 21
2.5136404E+002
  0
LINE
  8
MED-0
  6
CONTINUOUS
 62
4
 10
7.307585E+001
 20
2.5936403E+002
 11
1.7964302E+001
 21
2.5936403E+002
  0
SOLID
  8
1
  6
CONTINUOUS
 62
0
 10
1.8964302E+001
 20
2.5136404E+002
 11
1.8380964E+001
 21
2.4786404E+002
 12
1.9547639E+001
 22
2.4786404E+002
 13
1.9547639E+001
 23
2.4786404E+002
  0
SOLID
  8
1
  6
CONTINUOUS
 62
0
 10
1.8964302E+001
 20
2.5936403E+002
 11
1.9547639E+001
 21
2.6286403E+002
 12
1.8380964E+001
 22
2.6286403E+002
 13
1.8380964E+001
 23
2.6286403E+002
  0
LINE
  8
MED-0
  6
CONTINUOUS
 62
4
 10
1.8964302E+001
 20
2.4536404E+002
 11
1.8964302E+001
 21
2.5136404E+002
  0
LINE
  8
MED-0
  6
CONTINUOUS
 62
4
 10
1.8964302E+001
 20
2.5936403E+002
 11
1.8964302E+001
 21
2.7106147E+002
  0
TEXT
  8
MED-0
  6
CONTINUOUS
 62
4
 10
1.7797802E+001
 20
2.6722814E+002
 40
3.5
  1
8
 41
6.6666667E-001
 50
9.0E+001
  0
ENDBLK
  0
ENDSEC
  0
SECTION
  2
ENTITIES
  0
TEXT
  8
103
  6
CONTINUOUS
 62
40
 10
5.7825605E+002
 20
1.8474026E+001
 40
5.0
  1
BTS-Zubehör Anschraublager
 41
6.5892857E-001
 72
1
 11
5.3542569E+002
 21
1.5974026E+001
 73
2
  0
TEXT
  8
103
  6
CONTINUOUS
 62
40
 10
3.7401084E+002
 20
3.0604605E+002
 40
5.0
  1
DIN-L
 41
6.3E-001
 72
1
 11
3.6613584E+002
 21
3.0354605E+002
 73
2
  0
TEXT
  8
103
  6
CONTINUOUS
 62
40
 10
5.0610012E+002
 20
3.0604605E+002
 40
5.0
  1
DIN-R
 41
6.3E-001
 72
1
 11
4.9822512E+002
 21
3.0354605E+002
 73
2
  0
DIMENSION
  8
MED-0
  6
CONTINUOUS
 62
4
  2
*D45
  3
DSTYLE1
 10
4.7920074E+002
 20
2.5136404E+002
 11
4.7628524E+002
 21
2.5631664E+002
 70
128
 13
4.9558141E+002
 23
2.5936403E+002
 14
4.9343905E+002
 24
2.5136404E+002
 40
3.0
 50
-9.0E+001
  0
CIRCLE
  8
104
  6
CONTINUOUS
 62
40
 10
5.1843906E+002
 20
1.4974965E+002
 40
1.15E+001
  0
CIRCLE
  8
104
  6
CONTINUOUS
 62
40
 10
5.1843906E+002
 20
1.4974964E+002
 40
2.055001E+001
  0
CIRCLE
  8
104
  6
CONTINUOUS
 62
40
 10
5.1843906E+002
 20
1.4974964E+002
 40
4.0
  0
ARC
  8
104
  6
CONTINUOUS
 62
40
 10
5.1843906E+002
 20
1.4974964E+002
 40
1.1250002E+001
 50
1.4655673E+002
 51
2.1344327E+002
  0
LINE
  8
104
  6
CONTINUOUS
 62
40
 10
5.090517E+002
 20
1.5594964E+002
 11
5.2782642E+002
 21
1.5594964E+002
  0
ARC
  8
104
  6
CONTINUOUS
 62
40
 10
5.1843906E+002
 20
1.4974964E+002
 40
1.1250002E+001
 50
3.2655673E+002
 51
3.9344327E+002
  0
LINE
  8
104
  6
CONTINUOUS
 62
40
 10
5.2782642E+002
 20
1.4354964E+002
 11
5.090517E+002
 21
1.4354964E+002
  0
ARC
  8
104
  6
CONTINUOUS
 62
40
 10
5.1843907E+002
 20
1.4974965E+002
 40
1.07E+001
 50
1.5307432E+002
 51
2.0692568E+002
  0
LINE
  8
104
  6
CONTINUOUS
 62
40
 10
5.08899E+002
 20
1.5459498E+002
 11
5.2797913E+002
 21
1.5459498E+002
  0
ARC
  8
104
  6
CONTINUOUS
 62
40
 10
5.1843907E+002
 20
1.4974965E+002
 40
1.0699999E+001
 50
3.3307432E+002
 51
3.8692568E+002
  0
LINE
  8
104
  6
CONTINUOUS
 62
40
 10
5.2797913E+002
 20
1.4490432E+002
 11
5.08899E+002
 21
1.4490432E+002
  0
LINE
  8
104
  6
CONTINUOUS
 62
40
 10
5.08899E+002
 20
1.4490432E+002
 11
5.0868189E+002
 21
1.4414965E+002
  0
LINE
  8
104
  6
CONTINUOUS
 62
40
 10
5.0868189E+002
 20
1.4414965E+002
 11
5.2819624E+002
 21
1.4414965E+002
  0
LINE
  8
104
  6
CONTINUOUS
 62
40
 10
5.2819624E+002
 20
1.4414965E+002
 11
5.2797913E+002
 21
1.4490432E+002
  0
LINE
  8
104
  6
CONTINUOUS
 62
40
 10
5.2797913E+002
 20
1.5459498E+002
 11
5.2819624E+002
 21
1.5534965E+002
  0
LINE
  8
104
  6
CONTINUOUS
 62
40
 10
5.2819624E+002
 20
1.5534965E+002
 11
5.0868189E+002
 21
1.5534965E+002
  0
LINE
  8
104
  6
CONTINUOUS
 62
40
 10
5.0868189E+002
 20
1.5534965E+002
 11
5.08899E+002
 21
1.5459498E+002
  0
ARC
  8
99
  6
CONTINUOUS
 62
1
 10
5.1843907E+002
 20
1.4974965E+002
 40
2.4999999
 50
3.4596395E+002
 51
6.4443598E+002
  0
CIRCLE
  8
104
  6
CONTINUOUS
 62
40
 10
5.1843907E+002
 20
1.4974965E+002
 40
2.0
  0
LINE
  8
105
  6
HIDDEN
 62
1
 10
5.2914572E+002
 20
1.7374341E+002
 11
5.2538697E+002
 21
1.7511149E+002
  0
LINE
  8
105
  6
HIDDEN
 62
1
 10
5.270936E+002
 20
1.6810524E+002
 11
5.2333484E+002
 21
1.6947332E+002
  0
LINE
  8
105
  6
HIDDEN
 62
1
 10
5.1375482E+002
 20
1.3145723E+002
 11
5.0999604E+002
 21
1.3282531E+002
  0
LINE
  8
105
  6
HIDDEN
 62
1
 10
5.3119785E+002
 20
1.7938156E+002
 11
5.1204471E+002
 21
1.2675879E+002
  0
LINE
  8
105
  6
HIDDEN
 62
1
 10
5.1204471E+002
 20
1.2675879E+002
 11
5.0828595E+002
 21
1.2812686E+002
  0
LINE
  8
105
  6
HIDDEN
 62
1
 10
5.0828595E+002
 20
1.2812686E+002
 11
5.2743909E+002
 21
1.8074965E+002
  0
LINE
  8
105
  6
HIDDEN
 62
1
 10
5.2743909E+002
 20
1.8074965E+002
 11
5.3119785E+002
 21
1.7938156E+002
  0
LINE
  8
104
  6
CONTINUOUS
 62
40
 10
5.0611533E+002
 20
1.715011E+002
 11
5.2243909E+002
 21
1.8074965E+002
  0
LINE
  8
104
  6
CONTINUOUS
 62
40
 10
5.2243909E+002
 20
1.8074965E+002
 11
5.2243909E+002
 21
1.8574965E+002
  0
LINE
  8
104
  6
CONTINUOUS
 62
40
 10
5.2243909E+002
 20
1.8574965E+002
 11
5.6243909E+002
 21
1.8574965E+002
  0
LINE
  8
104
  6
CONTINUOUS
 62
40
 10
5.6243909E+002
 20
1.8574965E+002
 11
5.6243909E+002
 21
1.8074965E+002
  0
LINE
  8
104
  6
CONTINUOUS
 62
40
 10
5.6243909E+002
 20
1.8074965E+002
 11
5.4068305E+002
 21
1.3833887E+002
  0
ARC
  8
104
  6
CONTINUOUS
 62
40
 10
5.1843907E+002
 20
1.4974964E+002
 40
2.5000006E+001
 50
1.1952595E+002
 51
3.3284297E+002
  0
LINE
  8
104
  6
CONTINUOUS
 62
40
 10
5.2243909E+002
 20
1.8074965E+002
 11
5.6243909E+002
 21
1.8074965E+002
  0
LINE
  8
106
  6
CENTERLINE
 62
1
 10
5.1843909E+002
 20
1.8300746E+002
 11
5.1843906E+002
 21
1.1765199E+002
  0
LINE
  8
106
  6
CENTERLINE
 62
1
 10
4.8711484E+002
 20
1.4974965E+002
 11
5.5363047E+002
 21
1.4974965E+002
  0
ARC
  8
98
  6
CONTINUOUS
 62
1
 10
5.1524699E+002
 20
2.4992631E+002
 40
1.4377833
 50
9.0498823E+001
 51
2.7049882E+002
  0
ARC
  8
98
  6
CONTINUOUS
 62
1
 10
5.1527202E+002
 20
2.4705085E+002
 40
1.4377833
 50
9.0498823E+001
 51
2.7049882E+002
  0
ARC
  8
98
  6
CONTINUOUS
 62
1
 10
5.1529706E+002
 20
2.441754E+002
 40
1.4377833
 50
9.0498823E+001
 51
2.7049882E+002
  0
ARC
  8
98
  6
CONTINUOUS
 62
1
 10
5.3273252E+002
 20
2.3615347E+002
 40
1.6842041
 50
9.0E+001
 51
2.7E+002
  0
ARC
  8
98
  6
CONTINUOUS
 62
1
 10
5.3273252E+002
 20
2.3278506E+002
 40
1.6842041
 50
9.0E+001
 51
2.7E+002
  0
ARC
  8
98
  6
CONTINUOUS
 62
1
 10
5.3273252E+002
 20
2.2941665E+002
 40
1.6842041
 50
9.0E+001
 51
2.7E+002
  0
ARC
  8
98
  6
CONTINUOUS
 62
1
 10
5.3273252E+002
 20
2.2604824E+002
 40
1.6842041
 50
9.0E+001
 51
2.7E+002
  0
LINE
  8
106
  6
CENTERLINE
 62
1
 10
5.1843906E+002
 20
2.776538E+002
 11
5.1843906E+002
 21
2.4248636E+002
  0
LINE
  8
104
  6
CONTINUOUS
 62
40
 10
5.0048907E+002
 20
2.5136404E+002
 11
5.0043905E+002
 21
2.5136404E+002
  0
LINE
  8
104
  6
CONTINUOUS
 62
40
 10
5.0043905E+002
 20
2.5136404E+002
 11
5.0043905E+002
 21
2.4336404E+002
  0
LINE
  8
104
  6
CONTINUOUS
 62
40
 10
5.0043905E+002
 20
2.4336404E+002
 11
5.0828594E+002
 21
2.4336404E+002
  0
LINE
  8
104
  6
CONTINUOUS
 62
40
 10
5.1375482E+002
 20
2.4336404E+002
 11
5.3393905E+002
 21
2.4336404E+002
  0
LINE
  8
104
  6
CONTINUOUS
 62
40
 10
5.3393905E+002
 20
2.4336404E+002
 11
5.3643905E+002
 21
2.4336404E+002
  0
LINE
  8
104
  6
CONTINUOUS
 62
40
 10
5.3643905E+002
 20
2.4336404E+002
 11
5.3643905E+002
 21
2.5036404E+002
  0
LINE
  8
104
  6
CONTINUOUS
 62
40
 10
5.3643905E+002
 20
2.5036404E+002
 11
5.3643905E+002
 21
2.5136404E+002
  0
LINE
  8
104
  6
CONTINUOUS
 62
40
 10
5.3638906E+002
 20
2.5636404E+002
 11
5.3793905E+002
 21
2.5636404E+002
  0
LINE
  8
104
  6
CONTINUOUS
 62
40
 10
5.3793905E+002
 20
2.5636404E+002
 11
5.0048907E+002
 21
2.5636404E+002
  0
LINE
  8
104
  6
CONTINUOUS
 62
40
 10
5.0048908E+002
 20
2.5636404E+002
 11
5.3638907E+002
 21
2.5636404E+002
  0
LINE
  8
104
  6
CONTINUOUS
 62
40
 10
5.0618906E+002
 20
2.5961404E+002
 11
4.9970908E+002
 21
2.590285E+002
  0
ARC
  8
104
  6
CONTINUOUS
 62
40
 10
4.9988906E+002
 20
2.5703662E+002
 40
1.9999897
 50
9.5163135E+001
 51
1.8000021E+002
  0
LINE
  8
104
  6
CONTINUOUS
 62
40
 10
4.9788907E+002
 20
2.5703662E+002
 11
4.9788907E+002
 21
2.5636404E+002
  0
LINE
  8
104
  6
CONTINUOUS
 62
40
 10
4.9788907E+002
 20
2.5636404E+002
 11
5.3898905E+002
 21
2.5636404E+002
  0
LINE
  8
104
  6
CONTINUOUS
 62
40
 10
5.3898905E+002
 20
2.5636404E+002
 11
5.3898905E+002
 21
2.5703662E+002
  0
ARC
  8
104
  6
CONTINUOUS
 62
40
 10
5.3698906E+002
 20
2.5703662E+002
 40
1.9999906
 50
3.5999982E+002
 51
4.4483687E+002
  0
LINE
  8
104
  6
CONTINUOUS
 62
40
 10
5.3716904E+002
 20
2.590285E+002
 11
5.3218805E+002
 21
2.5947859E+002
  0
LINE
  8
104
  6
CONTINUOUS
 62
40
 10
5.3218805E+002
 20
2.5947859E+002
 11
5.3113907E+002
 21
2.5957337E+002
  0
LINE
  8
104
  6
CONTINUOUS
 62
40
 10
5.3113907E+002
 20
2.5957337E+002
 11
5.0618906E+002
 21
2.5961404E+002
  0
LINE
  8
104
  6
CONTINUOUS
 62
40
 10
5.2870572E+002
 20
2.6686404E+002
 11
5.2950592E+002
 21
2.6686404E+002
  0
LINE
  8
104
  6
CONTINUOUS
 62
40
 10
5.2969025E+002
 20
2.5957572E+002
 11
5.2950592E+002
 21
2.6686404E+002
  0
LINE
  8
104
  6
CONTINUOUS
 62
40
 10
5.2950592E+002
 20
2.6686404E+002
 11
5.2913904E+002
 21
2.7386404E+002
  0
LINE
  8
104
  6
CONTINUOUS
 62
40
 10
5.2913904E+002
 20
2.7386404E+002
 11
5.0773908E+002
 21
2.7386404E+002
  0
LINE
  8
104
  6
CONTINUOUS
 62
40
 10
5.0773908E+002
 20
2.7386404E+002
 11
5.073725E+002
 21
2.6687638E+002
  0
LINE
  8
104
  6
CONTINUOUS
 62
40
 10
5.073725E+002
 20
2.6687638E+002
 11
5.0720621E+002
 21
2.5961238E+002
  0
LINE
  8
104
  6
CONTINUOUS
 62
40
 10
5.0800241E+002
 20
2.5961108E+002
 11
5.0817176E+002
 21
2.6683448E+002
  0
LINE
  8
104
  6
CONTINUOUS
 62
40
 10
5.0817176E+002
 20
2.6683448E+002
 11
5.0854017E+002
 21
2.7386404E+002
  0
LINE
  8
104
  6
CONTINUOUS
 62
40
 10
5.0817176E+002
 20
2.6683448E+002
 11
5.073725E+002
 21
2.6687638E+002
  0
LINE
  8
104
  6
CONTINUOUS
 62
40
 10
5.2887616E+002
 20
2.5957705E+002
 11
5.2870572E+002
 21
2.6686404E+002
  0
LINE
  8
104
  6
CONTINUOUS
 62
40
 10
5.2870572E+002
 20
2.6686404E+002
 11
5.2833783E+002
 21
2.7386404E+002
  0
LINE
  8
105
  6
HIDDEN
 62
1
 10
5.2739493E+002
 20
2.2436404E+002
 11
5.2739493E+002
 21
2.4595877E+002
  0
LINE
  8
105
  6
HIDDEN
 62
1
 10
5.2739493E+002
 20
2.4595877E+002
 11
5.2552988E+002
 21
2.5136404E+002
  0
LINE
  8
104
  6
CONTINUOUS
 62
40
 10
5.1204471E+002
 20
2.4859643E+002
 11
5.1439966E+002
 21
2.5136404E+002
  0
LINE
  8
104
  6
CONTINUOUS
 62
40
 10
5.1439966E+002
 20
2.5136404E+002
 11
5.1204471E+002
 21
2.5136404E+002
  0
LINE
  8
104
  6
CONTINUOUS
 62
40
 10
5.1204471E+002
 20
2.5136404E+002
 11
5.1204471E+002
 21
2.4859643E+002
  0
INSERT
  2
*XH32
  8
108
 10
5.1291225E+002
 20
2.5029303E+002
  0
LINE
  8
105
  6
HIDDEN
 62
1
 10
5.2333481E+002
 20
2.5136404E+002
 11
5.2333481E+002
 21
2.4336404E+002
  0
LINE
  8
104
  6
CONTINUOUS
 62
40
 10
5.2333481E+002
 20
2.4336404E+002
 11
5.2333481E+002
 21
2.4273767E+002
  0
LINE
  8
104
  6
CONTINUOUS
 62
40
 10
5.310932E+002
 20
2.2436404E+002
 11
5.310932E+002
 21
2.4336404E+002
  0
LINE
  8
105
  6
HIDDEN
 62
1
 10
5.310932E+002
 20
2.4336404E+002
 11
5.310932E+002
 21
2.4583615E+002
  0
LINE
  8
105
  6
HIDDEN
 62
1
 10
5.310932E+002
 20
2.4583615E+002
 11
5.292891E+002
 21
2.5136404E+002
  0
LINE
  8
105
  6
HIDDEN
 62
1
 10
5.270936E+002
 20
2.4336404E+002
 11
5.270936E+002
 21
2.5136404E+002
  0
LINE
  8
104
  6
CONTINUOUS
 62
40
 10
5.1375482E+002
 20
2.5136404E+002
 11
5.1375482E+002
 21
2.4273767E+002
  0
LINE
  8
104
  6
CONTINUOUS
 62
40
 10
5.1375482E+002
 20
2.4273767E+002
 11
5.270936E+002
 21
2.4273767E+002
  0
LINE
  8
104
  6
CONTINUOUS
 62
40
 10
5.270936E+002
 20
2.4273767E+002
 11
5.270936E+002
 21
2.4336404E+002
  0
LINE
  8
104
  6
CONTINUOUS
 62
40
 10
5.0828595E+002
 20
2.5136404E+002
 11
5.0828595E+002
 21
2.3636404E+002
  0
LINE
  8
104
  6
CONTINUOUS
 62
40
 10
5.0828595E+002
 20
2.3636404E+002
 11
5.2196674E+002
 21
2.2436404E+002
  0
LINE
  8
104
  6
CONTINUOUS
 62
40
 10
5.2196674E+002
 20
2.2436404E+002
 11
5.310932E+002
 21
2.2436404E+002
  0
LINE
  8
104
  6
CONTINUOUS
 62
40
 10
5.6243906E+002
 20
2.5136404E+002
 11
5.6243906E+002
 21
2.2436404E+002
  0
LINE
  8
104
  6
CONTINUOUS
 62
40
 10
5.6243906E+002
 20
2.2436404E+002
 11
5.310932E+002
 21
2.2436404E+002
  0
LINE
  8
105
  6
HIDDEN
 62
1
 10
5.2243906E+002
 20
2.2436404E+002
 11
5.2243906E+002
 21
2.5136404E+002
  0
INSERT
  2
*XH33
  8
108
 10
5.076496E+002
 20
2.5053522E+002
  0
LINE
  8
104
  6
CONTINUOUS
 62
40
 10
5.0828595E+002
 20
2.3636404E+002
 11
5.1204471E+002
 21
2.3636404E+002
  0
LINE
  8
104
  6
CONTINUOUS
 62
40
 10
5.1204471E+002
 20
2.5136404E+002
 11
5.1204471E+002
 21
2.3636404E+002
  0
LINE
  8
104
  6
CONTINUOUS
 62
40
 10
5.1204471E+002
 20
2.3636404E+002
 11
5.2572553E+002
 21
2.2436404E+002
  0
LINE
  8
104
  6
CONTINUOUS
 62
40
 10
5.6243906E+002
 20
2.5636404E+002
 11
4.9343906E+002
 21
2.5636404E+002
  0
LINE
  8
104
  6
CONTINUOUS
 62
40
 10
4.9343906E+002
 20
2.5636404E+002
 11
4.9343906E+002
 21
2.5136404E+002
  0
LINE
  8
104
  6
CONTINUOUS
 62
40
 10
4.9343906E+002
 20
2.5136404E+002
 11
5.6243906E+002
 21
2.5136404E+002
  0
LINE
  8
104
  6
CONTINUOUS
 62
40
 10
5.6243906E+002
 20
2.5136404E+002
 11
5.6243906E+002
 21
2.5636404E+002
  0
DIMENSION
  8
MED-0
  6
CONTINUOUS
 62
4
  1
<> - 58
  2
*D225
  3
DSTYLE1
 10
4.3087045E+002
 20
2.5136404E+002
 11
4.2795395E+002
 21
2.7186455E+002
 70
128
 13
4.0688794E+002
 23
2.5946405E+002
 14
4.1499015E+002
 24
2.5136404E+002
 40
3.0
 50
9.0E+001
  0
LINE
  8
105
  6
HIDDEN
 62
1
 10
3.7928348E+002
 20
1.7374341E+002
 11
3.8304224E+002
 21
1.7511149E+002
  0
LINE
  8
105
  6
HIDDEN
 62
1
 10
3.813356E+002
 20
1.6810524E+002
 11
3.8509436E+002
 21
1.6947332E+002
  0
LINE
  8
105
  6
HIDDEN
 62
1
 10
3.9467438E+002
 20
1.3145723E+002
 11
3.9843317E+002
 21
1.3282531E+002
  0
LINE
  8
105
  6
HIDDEN
 62
1
 10
3.7723136E+002
 20
1.7938156E+002
 11
3.9638449E+002
 21
1.2675879E+002
  0
LINE
  8
105
  6
HIDDEN
 62
1
 10
3.9638449E+002
 20
1.2675879E+002
 11
4.0014325E+002
 21
1.2812686E+002
  0
LINE
  8
105
  6
HIDDEN
 62
1
 10
4.0014325E+002
 20
1.2812686E+002
 11
3.8099012E+002
 21
1.8074965E+002
  0
LINE
  8
105
  6
HIDDEN
 62
1
 10
3.8099012E+002
 20
1.8074965E+002
 11
3.7723136E+002
 21
1.7938156E+002
  0
LINE
  8
104
  6
CONTINUOUS
 62
40
 10
4.0231388E+002
 20
1.715011E+002
 11
3.8599012E+002
 21
1.8074965E+002
  0
LINE
  8
104
  6
CONTINUOUS
 62
40
 10
3.8599012E+002
 20
1.8074965E+002
 11
3.8599012E+002
 21
1.8574965E+002
  0
LINE
  8
104
  6
CONTINUOUS
 62
40
 10
3.8599012E+002
 20
1.8574965E+002
 11
3.4599012E+002
 21
1.8574965E+002
  0
LINE
  8
104
  6
CONTINUOUS
 62
40
 10
3.4599012E+002
 20
1.8574965E+002
 11
3.4599012E+002
 21
1.8074965E+002
  0
LINE
  8
104
  6
CONTINUOUS
 62
40
 10
3.4599012E+002
 20
1.8074965E+002
 11
3.6774616E+002
 21
1.3833887E+002
  0
ARC
  8
104
  6
CONTINUOUS
 62
40
 10
3.8999014E+002
 20
1.4974964E+002
 40
2.5000006E+001
 50
2.0715703E+002
 51
4.2047405E+002
  0
LINE
  8
104
  6
CONTINUOUS
 62
40
 10
3.8599012E+002
 20
1.8074965E+002
 11
3.4599012E+002
 21
1.8074965E+002
  0
LINE
  8
106
  6
CENTERLINE
 62
1
 10
3.8999012E+002
 20
1.8300746E+002
 11
3.8999015E+002
 21
1.1765199E+002
  0
LINE
  8
106
  6
CENTERLINE
 62
1
 10
4.2131436E+002
 20
1.4974965E+002
 11
3.5479874E+002
 21
1.4974965E+002
  0
ARC
  8
98
  6
CONTINUOUS
 62
1
 10
3.9313215E+002
 20
2.441754E+002
 40
1.4377833
 50
2.6950118E+002
 51
4.4950118E+002
  0
ARC
  8
98
  6
CONTINUOUS
 62
1
 10
3.9315718E+002
 20
2.4705085E+002
 40
1.4377833
 50
2.6950118E+002
 51
4.4950118E+002
  0
ARC
  8
98
  6
CONTINUOUS
 62
1
 10
3.9318222E+002
 20
2.4992631E+002
 40
1.4377833
 50
2.6950118E+002
 51
4.4950118E+002
  0
ARC
  8
98
  6
CONTINUOUS
 62
1
 10
3.7569669E+002
 20
2.2604824E+002
 40
1.6842041
 50
2.7E+002
 51
4.5E+002
  0
ARC
  8
98
  6
CONTINUOUS
 62
1
 10
3.7569669E+002
 20
2.2941665E+002
 40
1.6842041
 50
2.7E+002
 51
4.5E+002
  0
ARC
  8
98
  6
CONTINUOUS
 62
1
 10
3.7569669E+002
 20
2.3278506E+002
 40
1.6842041
 50
2.7E+002
 51
4.5E+002
  0
ARC
  8
98
  6
CONTINUOUS
 62
1
 10
3.7569669E+002
 20
2.3615347E+002
 40
1.6842041
 50
2.7E+002
 51
4.5E+002
  0
LINE
  8
104
  6
CONTINUOUS
 62
40
 10
4.0549015E+002
 20
2.5036404E+002
 11
4.0014325E+002
 21
2.5036404E+002
  0
LINE
  8
104
  6
CONTINUOUS
 62
40
 10
3.9467438E+002
 20
2.5036404E+002
 11
3.7449015E+002
 21
2.5036404E+002
  0
LINE
  8
106
  6
CENTERLINE
 62
1
 10
3.8999015E+002
 20
2.776538E+002
 11
3.8999015E+002
 21
2.4248636E+002
  0
LINE
  8
104
  6
CONTINUOUS
 62
40
 10
4.0794013E+002
 20
2.5136404E+002
 11
4.0894013E+002
 21
2.5136404E+002
  0
LINE
  8
104
  6
CONTINUOUS
 62
40
 10
4.0894013E+002
 20
2.5136404E+002
 11
4.0894013E+002
 21
2.5036404E+002
  0
LINE
  8
104
  6
CONTINUOUS
 62
40
 10
4.0894013E+002
 20
2.5036404E+002
 11
4.0549015E+002
 21
2.5036404E+002
  0
LINE
  8
104
  6
CONTINUOUS
 62
40
 10
4.0549015E+002
 20
2.5036404E+002
 11
4.0549015E+002
 21
2.4336404E+002
  0
LINE
  8
104
  6
CONTINUOUS
 62
40
 10
4.0549015E+002
 20
2.4336404E+002
 11
4.0014325E+002
 21
2.4336404E+002
  0
LINE
  8
104
  6
CONTINUOUS
 62
40
 10
3.9467438E+002
 20
2.4336404E+002
 11
3.7449015E+002
 21
2.4336404E+002
  0
LINE
  8
104
  6
CONTINUOUS
 62
40
 10
3.7449015E+002
 20
2.4336404E+002
 11
3.7449015E+002
 21
2.4936404E+002
  0
LINE
  8
104
  6
CONTINUOUS
 62
40
 10
3.7449015E+002
 20
2.4936404E+002
 11
3.7449015E+002
 21
2.5036404E+002
  0
LINE
  8
104
  6
CONTINUOUS
 62
40
 10
3.7449015E+002
 20
2.5036404E+002
 11
3.7094013E+002
 21
2.5036404E+002
  0
LINE
  8
104
  6
CONTINUOUS
 62
40
 10
3.7094013E+002
 20
2.5036404E+002
 11
3.7094013E+002
 21
2.5136404E+002
  0
LINE
  8
104
  6
CONTINUOUS
 62
40
 10
3.7204013E+002
 20
2.5636404E+002
 11
3.7049015E+002
 21
2.5636404E+002
  0
LINE
  8
104
  6
CONTINUOUS
 62
40
 10
3.7049015E+002
 20
2.5636404E+002
 11
4.0794013E+002
 21
2.5636404E+002
  0
LINE
  8
104
  6
CONTINUOUS
 62
40
 10
4.0794013E+002
 20
2.5636404E+002
 11
3.7204013E+002
 21
2.5636404E+002
  0
LINE
  8
104
  6
CONTINUOUS
 62
40
 10
4.0224015E+002
 20
2.5961404E+002
 11
4.0872013E+002
 21
2.590285E+002
  0
ARC
  8
104
  6
CONTINUOUS
 62
40
 10
4.0854014E+002
 20
2.5703662E+002
 40
1.9999972
 50
3.5999999E+002
 51
4.4483667E+002
  0
LINE
  8
104
  6
CONTINUOUS
 62
40
 10
4.1054013E+002
 20
2.5703662E+002
 11
4.1054013E+002
 21
2.5636404E+002
  0
LINE
  8
104
  6
CONTINUOUS
 62
40
 10
4.1054013E+002
 20
2.5636404E+002
 11
3.6944016E+002
 21
2.5636404E+002
  0
LINE
  8
104
  6
CONTINUOUS
 62
40
 10
3.6944016E+002
 20
2.5636404E+002
 11
3.6944016E+002
 21
2.5703662E+002
  0
ARC
  8
104
  6
CONTINUOUS
 62
40
 10
3.7144014E+002
 20
2.5703663E+002
 40
1.9999829
 50
9.5162957E+001
 51
1.8000039E+002
  0
LINE
  8
104
  6
CONTINUOUS
 62
40
 10
3.7126016E+002
 20
2.590285E+002
 11
3.7624115E+002
 21
2.5947859E+002
  0
LINE
  8
104
  6
CONTINUOUS
 62
40
 10
3.7624115E+002
 20
2.5947859E+002
 11
3.7729013E+002
 21
2.5957337E+002
  0
LINE
  8
104
  6
CONTINUOUS
 62
40
 10
3.7729013E+002
 20
2.5957337E+002
 11
4.0224015E+002
 21
2.5961404E+002
  0
LINE
  8
104
  6
CONTINUOUS
 62
40
 10
3.7972348E+002
 20
2.6686404E+002
 11
3.7892328E+002
 21
2.6686404E+002
  0
LINE
  8
104
  6
CONTINUOUS
 62
40
 10
3.7873895E+002
 20
2.5957572E+002
 11
3.7892328E+002
 21
2.6686404E+002
  0
LINE
  8
104
  6
CONTINUOUS
 62
40
 10
3.7892328E+002
 20
2.6686404E+002
 11
3.7929016E+002
 21
2.7386404E+002
  0
LINE
  8
104
  6
CONTINUOUS
 62
40
 10
3.7929016E+002
 20
2.7386404E+002
 11
4.0069013E+002
 21
2.7386404E+002
  0
LINE
  8
104
  6
CONTINUOUS
 62
40
 10
4.0069013E+002
 20
2.7386404E+002
 11
4.010567E+002
 21
2.6687638E+002
  0
LINE
  8
104
  6
CONTINUOUS
 62
40
 10
4.010567E+002
 20
2.6687638E+002
 11
4.01223E+002
 21
2.5961238E+002
  0
LINE
  8
104
  6
CONTINUOUS
 62
40
 10
4.0042679E+002
 20
2.5961108E+002
 11
4.0025745E+002
 21
2.6683448E+002
  0
LINE
  8
104
  6
CONTINUOUS
 62
40
 10
4.0025745E+002
 20
2.6683448E+002
 11
3.9988904E+002
 21
2.7386404E+002
  0
LINE
  8
104
  6
CONTINUOUS
 62
40
 10
4.0025745E+002
 20
2.6683448E+002
 11
4.010567E+002
 21
2.6687638E+002
  0
LINE
  8
104
  6
CONTINUOUS
 62
40
 10
3.7955304E+002
 20
2.5957705E+002
 11
3.7972348E+002
 21
2.6686404E+002
  0
LINE
  8
104
  6
CONTINUOUS
 62
40
 10
3.7972348E+002
 20
2.6686404E+002
 11
3.8009137E+002
 21
2.7386404E+002
  0
LINE
  8
105
  6
HIDDEN
 62
1
 10
3.8103427E+002
 20
2.2436404E+002
 11
3.8103427E+002
 21
2.4595877E+002
  0
LINE
  8
105
  6
HIDDEN
 62
1
 10
3.8103427E+002
 20
2.4595877E+002
 11
3.8289932E+002
 21
2.5136404E+002
  0
LINE
  8
104
  6
CONTINUOUS
 62
40
 10
3.9638449E+002
 20
2.4859643E+002
 11
3.9402954E+002
 21
2.5136404E+002
  0
LINE
  8
104
  6
CONTINUOUS
 62
40
 10
3.9402954E+002
 20
2.5136404E+002
 11
3.9638449E+002
 21
2.5136404E+002
  0
LINE
  8
104
  6
CONTINUOUS
 62
40
 10
3.9638449E+002
 20
2.5136404E+002
 11
3.9638449E+002
 21
2.4859643E+002
  0
INSERT
  2
*XH35
  8
108
 10
3.9551696E+002
 20
2.5029303E+002
  0
LINE
  8
105
  6
HIDDEN
 62
1
 10
3.8509439E+002
 20
2.5136404E+002
 11
3.8509439E+002
 21
2.4336404E+002
  0
LINE
  8
104
  6
CONTINUOUS
 62
40
 10
3.8509439E+002
 20
2.4336404E+002
 11
3.8509439E+002
 21
2.4273767E+002
  0
LINE
  8
104
  6
CONTINUOUS
 62
40
 10
3.77336E+002
 20
2.2436404E+002
 11
3.77336E+002
 21
2.4336404E+002
  0
LINE
  8
105
  6
HIDDEN
 62
1
 10
3.77336E+002
 20
2.4336404E+002
 11
3.77336E+002
 21
2.4583615E+002
  0
LINE
  8
105
  6
HIDDEN
 62
1
 10
3.77336E+002
 20
2.4583615E+002
 11
3.7914011E+002
 21
2.5136404E+002
  0
LINE
  8
105
  6
HIDDEN
 62
1
 10
3.813356E+002
 20
2.4336404E+002
 11
3.813356E+002
 21
2.5136404E+002
  0
LINE
  8
104
  6
CONTINUOUS
 62
40
 10
3.9467438E+002
 20
2.5136404E+002
 11
3.9467438E+002
 21
2.4273767E+002
  0
LINE
  8
104
  6
CONTINUOUS
 62
40
 10
3.9467438E+002
 20
2.4273767E+002
 11
3.813356E+002
 21
2.4273767E+002
  0
LINE
  8
104
  6
CONTINUOUS
 62
40
 10
3.813356E+002
 20
2.4273767E+002
 11
3.813356E+002
 21
2.4336404E+002
  0
LINE
  8
104
  6
CONTINUOUS
 62
40
 10
4.0014325E+002
 20
2.5136404E+002
 11
4.0014325E+002
 21
2.3636404E+002
  0
LINE
  8
104
  6
CONTINUOUS
 62
40
 10
4.0014325E+002
 20
2.3636404E+002
 11
3.8646247E+002
 21
2.2436404E+002
  0
LINE
  8
104
  6
CONTINUOUS
 62
40
 10
3.8646247E+002
 20
2.2436404E+002
 11
3.77336E+002
 21
2.2436404E+002
  0
LINE
  8
104
  6
CONTINUOUS
 62
40
 10
3.4599015E+002
 20
2.5136404E+002
 11
3.4599015E+002
 21
2.2436404E+002
  0
LINE
  8
104
  6
CONTINUOUS
 62
40
 10
3.4599015E+002
 20
2.2436404E+002
 11
3.77336E+002
 21
2.2436404E+002
  0
LINE
  8
105
  6
HIDDEN
 62
1
 10
3.8599015E+002
 20
2.2436404E+002
 11
3.8599015E+002
 21
2.5136404E+002
  0
INSERT
  2
*XH36
  8
108
 10
4.007796E+002
 20
2.5053522E+002
  0
LINE
  8
104
  6
CONTINUOUS
 62
40
 10
4.0014325E+002
 20
2.3636404E+002
 11
3.9638449E+002
 21
2.3636404E+002
  0
LINE
  8
104
  6
CONTINUOUS
 62
40
 10
3.9638449E+002
 20
2.5136404E+002
 11
3.9638449E+002
 21
2.3636404E+002
  0
LINE
  8
104
  6
CONTINUOUS
 62
40
 10
3.9638449E+002
 20
2.3636404E+002
 11
3.8270368E+002
 21
2.2436404E+002
  0
LINE
  8
104
  6
CONTINUOUS
 62
40
 10
3.4599015E+002
 20
2.5636404E+002
 11
4.1499015E+002
 21
2.5636404E+002
  0
LINE
  8
104
  6
CONTINUOUS
 62
40
 10
4.1499015E+002
 20
2.5636404E+002
 11
4.1499015E+002
 21
2.5136404E+002
  0
LINE
  8
104
  6
CONTINUOUS
 62
40
 10
4.1499015E+002
 20
2.5136404E+002
 11
3.4599015E+002
 21
2.5136404E+002
  0
LINE
  8
104
  6
CONTINUOUS
 62
40
 10
3.4599015E+002
 20
2.5136404E+002
 11
3.4599015E+002
 21
2.5636404E+002
  0
CIRCLE
  8
104
  6
CONTINUOUS
 62
40
 10
3.8999015E+002
 20
1.4974965E+002
 40
2.0549987E+001
  0
CIRCLE
  8
104
  6
CONTINUOUS
 62
40
 10
3.8999015E+002
 20
1.4974965E+002
 40
4.0
  0
CIRCLE
  8
104
  6
CONTINUOUS
 62
40
 10
3.8999015E+002
 20
1.4974965E+002
 40
1.2200004E+001
  0
ARC
  8
104
  6
CONTINUOUS
 62
40
 10
3.8999015E+002
 20
1.4974965E+002
 40
1.1250002E+001
 50
1.4655673E+002
 51
2.1344327E+002
  0
LINE
  8
104
  6
CONTINUOUS
 62
40
 10
3.8060279E+002
 20
1.5594965E+002
 11
3.993775E+002
 21
1.5594965E+002
  0
ARC
  8
104
  6
CONTINUOUS
 62
40
 10
3.8999015E+002
 20
1.4974965E+002
 40
1.1250001E+001
 50
3.2655673E+002
 51
3.9344327E+002
  0
LINE
  8
104
  6
CONTINUOUS
 62
40
 10
3.993775E+002
 20
1.4354965E+002
 11
3.8060279E+002
 21
1.4354965E+002
  0
ARC
  8
104
  6
CONTINUOUS
 62
40
 10
3.8999015E+002
 20
1.4974965E+002
 40
1.0700005E+001
 50
1.5307435E+002
 51
2.0692565E+002
  0
LINE
  8
104
  6
CONTINUOUS
 62
40
 10
3.8045008E+002
 20
1.5459498E+002
 11
3.9953019E+002
 21
1.5459498E+002
  0
ARC
  8
104
  6
CONTINUOUS
 62
40
 10
3.8999015E+002
 20
1.4974965E+002
 40
1.0699978E+001
 50
3.3307427E+002
 51
3.8692573E+002
  0
LINE
  8
104
  6
CONTINUOUS
 62
40
 10
3.9953019E+002
 20
1.4490433E+002
 11
3.8045008E+002
 21
1.4490433E+002
  0
LINE
  8
104
  6
CONTINUOUS
 62
40
 10
3.8045008E+002
 20
1.4490433E+002
 11
3.8023297E+002
 21
1.4414965E+002
  0
LINE
  8
104
  6
CONTINUOUS
 62
40
 10
3.8023297E+002
 20
1.4414965E+002
 11
3.9974732E+002
 21
1.4414965E+002
  0
LINE
  8
104
  6
CONTINUOUS
 62
40
 10
3.9974732E+002
 20
1.4414965E+002
 11
3.9953022E+002
 21
1.4490433E+002
  0
LINE
  8
104
  6
CONTINUOUS
 62
40
 10
3.9953022E+002
 20
1.5459498E+002
 11
3.9974732E+002
 21
1.5534965E+002
  0
LINE
  8
104
  6
CONTINUOUS
 62
40
 10
3.9974732E+002
 20
1.5534965E+002
 11
3.8023297E+002
 21
1.5534965E+002
  0
LINE
  8
104
  6
CONTINUOUS
 62
40
 10
3.8023297E+002
 20
1.5534965E+002
 11
3.8045008E+002
 21
1.5459498E+002
  0
ARC
  8
99
  6
CONTINUOUS
 62
1
 10
3.8999014E+002
 20
1.4974965E+002
 40
2.4999952
 50
3.4596412E+002
 51
6.4443568E+002
  0
CIRCLE
  8
104
  6
CONTINUOUS
 62
40
 10
3.8999015E+002
 20
1.4974965E+002
 40
1.2699996E+001
  0
CIRCLE
  8
104
  6
CONTINUOUS
 62
40
 10
3.8999015E+002
 20
1.4974965E+002
 40
2.0
  0
TEXT
  8
103
  6
CONTINUOUS
 62
40
 10
4.2877545E+002
 20
1.0508165E+002
 40
7.0
  1
Anschweisslager 7474K
 41
6.6428571E-001
 72
1
 11
3.7995045E+002
 21
1.0158165E+002
 73
2
  0
TEXT
  8
103
  6
CONTINUOUS
 62
40
 10
5.7773873E+002
 20
1.0585209E+002
 40
7.0
  1
Anschweisslager 7474AX
 41
6.6477273E-001
 72
1
 11
5.2655123E+002
 21
1.0235209E+002
 73
2
  0
LINE
  8
104
  6
CONTINUOUS
 62
40
 10
2.3290774E+002
 20
2.6686404E+002
 11
2.3210753E+002
 21
2.6686404E+002
  0
LINE
  8
104
  6
CONTINUOUS
 62
40
 10
2.3192321E+002
 20
2.5957572E+002
 11
2.3210753E+002
 21
2.6686404E+002
  0
LINE
  8
104
  6
CONTINUOUS
 62
40
 10
2.3210753E+002
 20
2.6686404E+002
 11
2.3247442E+002
 21
2.7386404E+002
  0
LINE
  8
104
  6
CONTINUOUS
 62
40
 10
2.3247442E+002
 20
2.7386404E+002
 11
2.5387438E+002
 21
2.7386404E+002
  0
LINE
  8
104
  6
CONTINUOUS
 62
40
 10
2.5387438E+002
 20
2.7386404E+002
 11
2.5424096E+002
 21
2.6687638E+002
  0
LINE
  8
104
  6
CONTINUOUS
 62
40
 10
2.5424096E+002
 20
2.6687638E+002
 11
2.5440725E+002
 21
2.5961238E+002
  0
LINE
  8
104
  6
CONTINUOUS
 62
40
 10
2.5361104E+002
 20
2.5961108E+002
 11
2.534417E+002
 21
2.6683448E+002
  0
LINE
  8
104
  6
CONTINUOUS
 62
40
 10
2.534417E+002
 20
2.6683448E+002
 11
2.5307329E+002
 21
2.7386404E+002
  0
LINE
  8
104
  6
CONTINUOUS
 62
40
 10
2.534417E+002
 20
2.6683448E+002
 11
2.5424096E+002
 21
2.6687638E+002
  0
LINE
  8
104
  6
CONTINUOUS
 62
40
 10
2.3273729E+002
 20
2.5957705E+002
 11
2.3290774E+002
 21
2.6686404E+002
  0
LINE
  8
104
  6
CONTINUOUS
 62
40
 10
2.3290774E+002
 20
2.6686404E+002
 11
2.3327562E+002
 21
2.7386404E+002
  0
TEXT
  8
103
  6
CONTINUOUS
 62
40
 10
2.8791009E+002
 20
1.0399897E+002
 40
7.0
  1
Anschraublager 7473K
 41
6.6375E-001
 72
1
 11
2.4144759E+002
 21
1.0049897E+002
 73
2
  0
TEXT
  8
103
  6
CONTINUOUS
 62
40
 10
2.1954358E+002
 20
3.0195975E+002
 40
5.0
  1
DIN-L
 41
6.3E-001
 72
1
 11
2.1166858E+002
 21
2.9945975E+002
 73
2
  0
DIMENSION
  8
MED-0
  6
CONTINUOUS
 62
4
  1
<> - 58
  2
*D416
  3
DSTYLE1
 10
2.9447704E+002
 20
2.5936404E+002
 11
2.9156154E+002
 21
2.7430106E+002
 70
128
 13
2.6817437E+002
 23
2.5136404E+002
 14
2.6201392E+002
 24
2.5936404E+002
 40
3.0
 50
9.0E+001
  0
LINE
  8
106
  6
CENTERLINE
 62
1
 10
2.0917438E+002
 20
1.8802099E+002
 11
2.0917438E+002
 21
1.7865228E+002
  0
LINE
  8
106
  6
CENTERLINE
 62
1
 10
2.2917438E+002
 20
1.7865228E+002
 11
2.2917438E+002
 21
1.8822033E+002
  0
LINE
  8
106
  6
CENTERLINE
 62
1
 10
2.1917438E+002
 20
1.8933909E+002
 11
2.1917438E+002
 21
1.7818036E+002
  0
LINE
  8
104
  6
CONTINUOUS
 62
40
 10
2.3917438E+002
 20
1.8115545E+002
 11
1.9917438E+002
 21
1.8115545E+002
  0
LINE
  8
104
  6
CONTINUOUS
 62
40
 10
1.9917438E+002
 20
1.8115545E+002
 11
1.9917438E+002
 21
1.8615545E+002
  0
LINE
  8
104
  6
CONTINUOUS
 62
40
 10
1.9917438E+002
 20
1.8615545E+002
 11
2.3917438E+002
 21
1.8615545E+002
  0
LINE
  8
104
  6
CONTINUOUS
 62
40
 10
2.3917438E+002
 20
1.8615545E+002
 11
2.3917438E+002
 21
1.8115545E+002
  0
LINE
  8
104
  6
CONTINUOUS
 62
40
 10
1.9917438E+002
 20
1.8115545E+002
 11
2.2093043E+002
 21
1.3874466E+002
  0
ARC
  8
104
  6
CONTINUOUS
 62
40
 10
2.4317438E+002
 20
1.5015545E+002
 40
2.4999996E+001
 50
2.0715709E+002
 51
4.2046539E+002
  0
LINE
  8
104
  6
CONTINUOUS
 62
40
 10
2.5549811E+002
 20
1.7190689E+002
 11
2.3917438E+002
 21
1.8115545E+002
  0
LINE
  8
106
  6
CENTERLINE
 62
1
 10
2.4317438E+002
 20
1.9324353E+002
 11
2.4317438E+002
 21
1.5765738E+002
  0
LINE
  8
106
  6
CENTERLINE
 62
1
 10
2.4317438E+002
 20
1.5496437E+002
 11
2.4317438E+002
 21
1.1745467E+002
  0
LINE
  8
106
  6
CENTERLINE
 62
1
 10
2.7318212E+002
 20
1.5015545E+002
 11
2.4177979E+002
 21
1.5015545E+002
  0
LINE
  8
106
  6
CENTERLINE
 62
1
 10
2.4177979E+002
 20
1.5015545E+002
 11
2.1470548E+002
 21
1.5015545E+002
  0
LINE
  8
106
  6
CENTERLINE
 62
1
 10
2.4317438E+002
 20
2.3926028E+002
 11
2.4317438E+002
 21
2.7807169E+002
  0
LINE
  8
104
  6
CONTINUOUS
 62
40
 10
2.5867438E+002
 20
2.5036404E+002
 11
2.2767441E+002
 21
2.5036404E+002
  0
LINE
  8
104
  6
CONTINUOUS
 62
40
 10
2.252244E+002
 20
2.5136404E+002
 11
2.242244E+002
 21
2.5136404E+002
  0
LINE
  8
104
  6
CONTINUOUS
 62
40
 10
2.242244E+002
 20
2.5136404E+002
 11
2.242244E+002
 21
2.5036404E+002
  0
LINE
  8
104
  6
CONTINUOUS
 62
40
 10
2.242244E+002
 20
2.5036404E+002
 11
2.2767441E+002
 21
2.5036404E+002
  0
LINE
  8
104
  6
CONTINUOUS
 62
40
 10
2.2767441E+002
 20
2.5036404E+002
 11
2.2767441E+002
 21
2.4986404E+002
  0
LINE
  8
104
  6
CONTINUOUS
 62
40
 10
2.2767441E+002
 20
2.4986404E+002
 11
2.2767441E+002
 21
2.4336404E+002
  0
LINE
  8
104
  6
CONTINUOUS
 62
40
 10
2.2767441E+002
 20
2.4336404E+002
 11
2.5867438E+002
 21
2.4336404E+002
  0
LINE
  8
104
  6
CONTINUOUS
 62
40
 10
2.5867438E+002
 20
2.4336404E+002
 11
2.5867438E+002
 21
2.5036404E+002
  0
LINE
  8
104
  6
CONTINUOUS
 62
40
 10
2.5867438E+002
 20
2.5036404E+002
 11
2.6212439E+002
 21
2.5036404E+002
  0
LINE
  8
104
  6
CONTINUOUS
 62
40
 10
2.6212439E+002
 20
2.5036404E+002
 11
2.6212439E+002
 21
2.5136404E+002
  0
LINE
  8
104
  6
CONTINUOUS
 62
40
 10
2.6212439E+002
 20
2.5136404E+002
 11
2.6112439E+002
 21
2.5136404E+002
  0
LINE
  8
104
  6
CONTINUOUS
 62
40
 10
2.6112439E+002
 20
2.5636404E+002
 11
2.252244E+002
 21
2.5636404E+002
  0
LINE
  8
104
  6
CONTINUOUS
 62
40
 10
2.5542438E+002
 20
2.5961404E+002
 11
2.6190436E+002
 21
2.590285E+002
  0
ARC
  8
104
  6
CONTINUOUS
 62
40
 10
2.6172434E+002
 20
2.5703661E+002
 40
2.0000115
 50
3.25297E-004
 51
8.4835861E+001
  0
LINE
  8
104
  6
CONTINUOUS
 62
40
 10
2.6372436E+002
 20
2.5703662E+002
 11
2.6372436E+002
 21
2.5636404E+002
  0
LINE
  8
104
  6
CONTINUOUS
 62
40
 10
2.6372436E+002
 20
2.5636404E+002
 11
2.2262439E+002
 21
2.5636404E+002
  0
LINE
  8
104
  6
CONTINUOUS
 62
40
 10
2.2262439E+002
 20
2.5636404E+002
 11
2.2262439E+002
 21
2.5703662E+002
  0
ARC
  8
104
  6
CONTINUOUS
 62
40
 10
2.2462439E+002
 20
2.5703662E+002
 40
1.9999969
 50
9.5163324E+001
 51
1.8000002E+002
  0
LINE
  8
104
  6
CONTINUOUS
 62
40
 10
2.244444E+002
 20
2.590285E+002
 11
2.2942539E+002
 21
2.5947859E+002
  0
LINE
  8
104
  6
CONTINUOUS
 62
40
 10
2.2942539E+002
 20
2.5947859E+002
 11
2.3047437E+002
 21
2.5957337E+002
  0
LINE
  8
104
  6
CONTINUOUS
 62
40
 10
2.3047437E+002
 20
2.5957337E+002
 11
2.5542438E+002
 21
2.5961404E+002
  0
ARC
  8
104
  6
CONTINUOUS
 62
40
 10
2.2917441E+002
 20
2.7636404E+002
 40
5.7499642
 50
3.3422837E+002
 51
6.6357566E+002
  0
LINE
  8
106
  6
CENTERLINE
 62
1
 10
2.2917441E+002
 20
2.829944E+002
 11
2.2917441E+002
 21
2.6951094E+002
  0
LINE
  8
106
  6
CENTERLINE
 62
1
 10
2.0917441E+002
 20
2.8283942E+002
 11
2.0917441E+002
 21
2.6966593E+002
  0
LINE
  8
106
  6
CENTERLINE
 62
1
 10
2.3696885E+002
 20
2.7636404E+002
 11
2.2209055E+002
 21
2.7636404E+002
  0
LINE
  8
106
  6
CENTERLINE
 62
1
 10
2.1604624E+002
 20
2.7636404E+002
 11
2.0209781E+002
 21
2.7636404E+002
  0
LINE
  8
106
  6
CENTERLINE
 62
1
 10
2.2627506E+002
 20
2.6336404E+002
 11
2.1186173E+002
 21
2.6336404E+002
  0
CIRCLE
  8
104
  6
CONTINUOUS
 62
40
 10
2.2917441E+002
 20
2.7636404E+002
 40
3.199982
  0
CIRCLE
  8
104
  6
CONTINUOUS
 62
40
 10
2.0917441E+002
 20
2.7636404E+002
 40
3.199982
  0
CIRCLE
  8
104
  6
CONTINUOUS
 62
40
 10
2.1917441E+002
 20
2.6336404E+002
 40
3.199982
  0
CIRCLE
  8
104
  6
CONTINUOUS
 62
40
 10
2.0917441E+002
 20
2.7636404E+002
 40
5.75
  0
CIRCLE
  8
104
  6
CONTINUOUS
 62
40
 10
2.1917441E+002
 20
2.6336404E+002
 40
5.75
  0
LINE
  8
106
  6
CENTERLINE
 62
1
 10
2.1917441E+002
 20
2.8578409E+002
 11
2.1917441E+002
 21
2.4920826E+002
  0
LINE
  8
104
  6
CONTINUOUS
 62
40
 10
1.9917441E+002
 20
2.5136404E+002
 11
2.6817437E+002
 21
2.5136404E+002
  0
LINE
  8
104
  6
CONTINUOUS
 62
40
 10
2.6817437E+002
 20
2.5136404E+002
 11
2.6817437E+002
 21
2.5636404E+002
  0
LINE
  8
104
  6
CONTINUOUS
 62
40
 10
2.6817437E+002
 20
2.5636404E+002
 11
1.9917441E+002
 21
2.5636404E+002
  0
LINE
  8
104
  6
CONTINUOUS
 62
40
 10
1.9917441E+002
 20
2.5636404E+002
 11
1.9917441E+002
 21
2.5136404E+002
  0
LINE
  8
104
  6
CONTINUOUS
 62
40
 10
2.3917438E+002
 20
2.7886404E+002
 11
2.3917438E+002
 21
2.7386404E+002
  0
LINE
  8
104
  6
CONTINUOUS
 62
40
 10
2.3917438E+002
 20
2.7386404E+002
 11
2.3917438E+002
 21
2.8336403E+002
  0
LINE
  8
104
  6
CONTINUOUS
 62
40
 10
2.3917438E+002
 20
2.8336403E+002
 11
1.9917441E+002
 21
2.8336403E+002
  0
LINE
  8
104
  6
CONTINUOUS
 62
40
 10
1.9917441E+002
 20
2.8336403E+002
 11
1.9917441E+002
 21
2.5636404E+002
  0
CIRCLE
  8
104
  6
CONTINUOUS
 62
40
 10
2.4317438E+002
 20
1.5015545E+002
 40
2.0549973E+001
  0
CIRCLE
  8
104
  6
CONTINUOUS
 62
40
 10
2.4317438E+002
 20
1.5015545E+002
 40
4.0
  0
CIRCLE
  8
104
  6
CONTINUOUS
 62
40
 10
2.4317438E+002
 20
1.5015545E+002
 40
1.2200004E+001
  0
ARC
  8
104
  6
CONTINUOUS
 62
40
 10
2.4317438E+002
 20
1.5015545E+002
 40
1.1250001E+001
 50
1.4655673E+002
 51
2.1344327E+002
  0
LINE
  8
104
  6
CONTINUOUS
 62
40
 10
2.3378702E+002
 20
1.5635545E+002
 11
2.5256174E+002
 21
1.5635545E+002
  0
ARC
  8
104
  6
CONTINUOUS
 62
40
 10
2.4317438E+002
 20
1.5015545E+002
 40
1.1250002E+001
 50
3.2655673E+002
 51
3.9344327E+002
  0
LINE
  8
104
  6
CONTINUOUS
 62
40
 10
2.5256174E+002
 20
1.4395545E+002
 11
2.3378702E+002
 21
1.4395545E+002
  0
ARC
  8
104
  6
CONTINUOUS
 62
40
 10
2.4317438E+002
 20
1.5015545E+002
 40
1.0700004E+001
 50
1.5307435E+002
 51
2.0692565E+002
  0
LINE
  8
104
  6
CONTINUOUS
 62
40
 10
2.3363431E+002
 20
1.5500078E+002
 11
2.5271442E+002
 21
1.5500078E+002
  0
ARC
  8
104
  6
CONTINUOUS
 62
40
 10
2.4317438E+002
 20
1.5015545E+002
 40
1.0699978E+001
 50
3.3307427E+002
 51
3.8692573E+002
  0
LINE
  8
104
  6
CONTINUOUS
 62
40
 10
2.5271442E+002
 20
1.4531012E+002
 11
2.3363431E+002
 21
1.4531012E+002
  0
LINE
  8
104
  6
CONTINUOUS
 62
40
 10
2.3363431E+002
 20
1.4531012E+002
 11
2.3341721E+002
 21
1.4455545E+002
  0
LINE
  8
104
  6
CONTINUOUS
 62
40
 10
2.3341721E+002
 20
1.4455545E+002
 11
2.5293155E+002
 21
1.4455545E+002
  0
LINE
  8
104
  6
CONTINUOUS
 62
40
 10
2.5293155E+002
 20
1.4455545E+002
 11
2.5271445E+002
 21
1.4531012E+002
  0
LINE
  8
104
  6
CONTINUOUS
 62
40
 10
2.5271445E+002
 20
1.5500078E+002
 11
2.5293155E+002
 21
1.5575545E+002
  0
LINE
  8
104
  6
CONTINUOUS
 62
40
 10
2.5293155E+002
 20
1.5575545E+002
 11
2.3341721E+002
 21
1.5575545E+002
  0
LINE
  8
104
  6
CONTINUOUS
 62
40
 10
2.3341721E+002
 20
1.5575545E+002
 11
2.3363431E+002
 21
1.5500078E+002
  0
ARC
  8
99
  6
CONTINUOUS
 62
1
 10
2.4317438E+002
 20
1.5015545E+002
 40
2.4999946
 50
3.4596413E+002
 51
6.4443567E+002
  0
CIRCLE
  8
104
  6
CONTINUOUS
 62
40
 10
2.4317438E+002
 20
1.5015545E+002
 40
1.2699997E+001
  0
CIRCLE
  8
104
  6
CONTINUOUS
 62
40
 10
2.4317438E+002
 20
1.5015545E+002
 40
2.0
  0
TEXT
  8
103
  6
CONTINUOUS
 62
40
 10
1.3697796E+002
 20
1.0230231E+002
 40
7.0
  1
Anschraublager 7476AX
 41
6.6428571E-001
 72
1
 11
8.8152959E+001
 21
9.880231E+001
 73
2
  0
TEXT
  8
103
  6
CONTINUOUS
 62
40
 10
2.8229908E+001
 20
4.0889898E+002
 40
5.0
  1
M 1:1
 41
6.3E-001
 72
1
 11
2.0354908E+001
 21
4.0639898E+002
 73
2
  0
DIMENSION
  8
MED-0
  6
CONTINUOUS
 62
4
  2
*D505
  3
DSTYLE1
 10
1.8964302E+001
 20
2.5936403E+002
 11
1.6047802E+001
 21
2.683948E+002
 70
128
 13
4.2492232E+001
 23
2.5136404E+002
 14
7.407585E+001
 24
2.5936403E+002
 40
3.0
 50
9.0E+001
  0
LINE
  8
106
  6
CENTERLINE
 62
1
 10
6.3001021E+001
 20
1.5015544E+002
 11
1.1557866E+002
 21
1.5015544E+002
  0
LINE
  8
106
  6
CENTERLINE
 62
1
 10
8.9992232E+001
 20
1.8692786E+002
 11
8.9992232E+001
 21
1.1917538E+002
  0
LINE
  8
106
  6
CENTERLINE
 62
1
 10
5.3992232E+001
 20
1.8736633E+002
 11
5.3992232E+001
 21
1.7499794E+002
  0
LINE
  8
106
  6
CENTERLINE
 62
1
 10
7.1992232E+001
 20
1.8694706E+002
 11
7.1992232E+001
 21
1.7562684E+002
  0
LINE
  8
106
  6
CENTERLINE
 62
1
 10
1.0799223E+002
 20
1.871567E+002
 11
1.0799223E+002
 21
1.7541721E+002
  0
LINE
  8
106
  6
CENTERLINE
 62
1
 10
1.2599223E+002
 20
1.8757596E+002
 11
1.2599223E+002
 21
1.7499794E+002
  0
LINE
  8
104
  6
CONTINUOUS
 62
40
 10
1.3749223E+002
 20
1.8347139E+002
 11
4.2492232E+001
 21
1.8347139E+002
  0
LINE
  8
104
  6
CONTINUOUS
 62
40
 10
4.2492232E+001
 20
1.8347139E+002
 11
4.2492232E+001
 21
1.2347139E+002
  0
LINE
  8
104
  6
CONTINUOUS
 62
40
 10
4.2492232E+001
 20
1.2347139E+002
 11
1.3749223E+002
 21
1.2347139E+002
  0
LINE
  8
104
  6
CONTINUOUS
 62
40
 10
1.3749223E+002
 20
1.2347139E+002
 11
1.3749223E+002
 21
1.8347139E+002
  0
LINE
  8
105
  6
HIDDEN
 62
1
 10
1.3749223E+002
 20
1.7847139E+002
 11
4.2492232E+001
 21
1.7847139E+002
  0
LINE
  8
104
  6
CONTINUOUS
 62
40
 10
8.7992248E+001
 20
2.3836404E+002
 11
8.4992248E+001
 21
2.3836404E+002
  0
LINE
  8
104
  6
CONTINUOUS
 62
40
 10
8.4992248E+001
 20
2.3836404E+002
 11
8.7992248E+001
 21
2.3536404E+002
  0
LINE
  8
104
  6
CONTINUOUS
 62
40
 10
8.7992248E+001
 20
2.3536404E+002
 11
8.7992248E+001
 21
2.3836404E+002
  0
INSERT
  2
*XH39
  8
108
 10
8.6705321E+001
 20
2.375075E+002
  0
INSERT
  2
*XH40
  8
108
 10
8.7251319E+001
 20
2.368459E+002
  0
INSERT
  2
*XH41
  8
108
 10
8.6962514E+001
 20
2.3718666E+002
  0
INSERT
  2
*XH42
  8
108
 10
8.721408E+001
 20
2.3758587E+002
  0
LINE
  8
104
  6
CONTINUOUS
 62
40
 10
8.7992248E+001
 20
2.4636404E+002
 11
8.4992248E+001
 21
2.4636404E+002
  0
LINE
  8
104
  6
CONTINUOUS
 62
40
 10
8.4992248E+001
 20
2.4636404E+002
 11
8.7992248E+001
 21
2.4336404E+002
  0
LINE
  8
104
  6
CONTINUOUS
 62
40
 10
8.7992248E+001
 20
2.4336404E+002
 11
8.7992248E+001
 21
2.4636404E+002
  0
INSERT
  2
*XH43
  8
108
 10
8.6705321E+001
 20
2.455075E+002
  0
INSERT
  2
*XH44
  8
108
 10
8.7251319E+001
 20
2.448459E+002
  0
INSERT
  2
*XH45
  8
108
 10
8.6962514E+001
 20
2.4518666E+002
  0
INSERT
  2
*XH46
  8
108
 10
8.721408E+001
 20
2.4558587E+002
  0
LINE
  8
104
  6
CONTINUOUS
 62
40
 10
9.1992248E+001
 20
2.4636404E+002
 11
9.4992248E+001
 21
2.4636404E+002
  0
LINE
  8
104
  6
CONTINUOUS
 62
40
 10
9.4992248E+001
 20
2.4636404E+002
 11
9.1992248E+001
 21
2.4336404E+002
  0
LINE
  8
104
  6
CONTINUOUS
 62
40
 10
9.1992248E+001
 20
2.4336404E+002
 11
9.1992248E+001
 21
2.4636404E+002
  0
INSERT
  2
*XH47
  8
108
 10
9.3279174E+001
 20
2.455075E+002
  0
INSERT
  2
*XH48
  8
108
 10
9.2733176E+001
 20
2.448459E+002
  0
INSERT
  2
*XH49
  8
108
 10
9.3021974E+001
 20
2.4518666E+002
  0
INSERT
  2
*XH50
  8
108
 10
9.2770408E+001
 20
2.4558587E+002
  0
LINE
  8
104
  6
CONTINUOUS
 62
40
 10
9.1992248E+001
 20
2.3836404E+002
 11
9.4992248E+001
 21
2.3836404E+002
  0
LINE
  8
104
  6
CONTINUOUS
 62
40
 10
9.4992248E+001
 20
2.3836404E+002
 11
9.1992248E+001
 21
2.3536404E+002
  0
LINE
  8
104
  6
CONTINUOUS
 62
40
 10
9.1992248E+001
 20
2.3536404E+002
 11
9.1992248E+001
 21
2.3836404E+002
  0
INSERT
  2
*XH51
  8
108
 10
9.3279174E+001
 20
2.375075E+002
  0
INSERT
  2
*XH52
  8
108
 10
9.2733176E+001
 20
2.368459E+002
  0
INSERT
  2
*XH53
  8
108
 10
9.3021974E+001
 20
2.3718666E+002
  0
INSERT
  2
*XH54
  8
108
 10
9.2770408E+001
 20
2.3758587E+002
  0
LINE
  8
104
  6
CONTINUOUS
 62
40
 10
8.7992248E+001
 20
2.4636404E+002
 11
9.1992248E+001
 21
2.4636404E+002
  0
LINE
  8
104
  6
CONTINUOUS
 62
40
 10
9.1992248E+001
 20
2.4636404E+002
 11
9.1992248E+001
 21
2.2036404E+002
  0
LINE
  8
104
  6
CONTINUOUS
 62
40
 10
9.1992248E+001
 20
2.2036404E+002
 11
8.7992248E+001
 21
2.2036404E+002
  0
LINE
  8
104
  6
CONTINUOUS
 62
40
 10
8.7992248E+001
 20
2.2036404E+002
 11
8.7992248E+001
 21
2.4636404E+002
  0
LINE
  8
104
  6
CONTINUOUS
 62
40
 10
9.1992248E+001
 20
2.3136404E+002
 11
8.7992248E+001
 21
2.3136404E+002
  0
LINE
  8
104
  6
CONTINUOUS
 62
40
 10
1.0799225E+002
 20
2.5136404E+002
 11
7.1992248E+001
 21
2.5136404E+002
  0
LINE
  8
104
  6
CONTINUOUS
 62
40
 10
7.1992248E+001
 20
2.3986404E+002
 11
8.7992248E+001
 21
2.3986404E+002
  0
LINE
  8
104
  6
CONTINUOUS
 62
40
 10
9.1992248E+001
 20
2.3986404E+002
 11
1.0799225E+002
 21
2.3986404E+002
  0
LINE
  8
104
  6
CONTINUOUS
 62
40
 10
1.0799223E+002
 20
2.4636404E+002
 11
1.0799223E+002
 21
2.3986404E+002
  0
LINE
  8
104
  6
CONTINUOUS
 62
40
 10
1.0799223E+002
 20
2.3986404E+002
 11
1.0772774E+002
 21
2.3836404E+002
  0
LINE
  8
104
  6
CONTINUOUS
 62
40
 10
1.0772774E+002
 20
2.3836404E+002
 11
9.1992232E+001
 21
2.3836404E+002
  0
LINE
  8
104
  6
CONTINUOUS
 62
40
 10
8.7992232E+001
 20
2.3836404E+002
 11
7.2256713E+001
 21
2.3836404E+002
  0
LINE
  8
104
  6
CONTINUOUS
 62
40
 10
7.2256713E+001
 20
2.3836404E+002
 11
7.1992232E+001
 21
2.3986404E+002
  0
LINE
  8
104
  6
CONTINUOUS
 62
40
 10
7.1992232E+001
 20
2.3986404E+002
 11
7.1992232E+001
 21
2.4636404E+002
  0
LINE
  8
106
  6
CENTERLINE
 62
1
 10
8.9992248E+001
 20
2.3546365E+002
 11
8.9992248E+001
 21
2.7653476E+002
  0
LINE
  8
106
  6
CENTERLINE
 62
1
 10
1.2599225E+002
 20
2.4559906E+002
 11
1.2599225E+002
 21
2.2749178E+002
  0
LINE
  8
106
  6
CENTERLINE
 62
1
 10
1.0799225E+002
 20
2.1848554E+002
 11
1.0799225E+002
 21
2.3829927E+002
  0
LINE
  8
106
  6
CENTERLINE
 62
1
 10
7.1992248E+001
 20
2.1858034E+002
 11
7.1992248E+001
 21
2.3848887E+002
  0
LINE
  8
106
  6
CENTERLINE
 62
1
 10
5.3992247E+001
 20
2.4569387E+002
 11
5.3992247E+001
 21
2.2711257E+002
  0
LINE
  8
106
  6
CENTERLINE
 62
1
 10
4.4462722E+001
 20
2.3636404E+002
 11
6.3328429E+001
 21
2.3636404E+002
  0
LINE
  8
106
  6
CENTERLINE
 62
1
 10
6.2759612E+001
 20
2.2836404E+002
 11
8.2004531E+001
 21
2.2836404E+002
  0
LINE
  8
106
  6
CENTERLINE
 62
1
 10
9.7741744E+001
 20
2.2836404E+002
 11
1.1765028E+002
 21
2.2836404E+002
  0
LINE
  8
106
  6
CENTERLINE
 62
1
 10
1.1641785E+002
 20
2.3636404E+002
 11
1.3509395E+002
 21
2.3636404E+002
  0
CIRCLE
  8
104
  6
CONTINUOUS
 62
40
 10
1.2599225E+002
 20
2.3636404E+002
 40
8.199996
  0
CIRCLE
  8
104
  6
CONTINUOUS
 62
40
 10
5.3992247E+001
 20
2.3636404E+002
 40
8.199997
  0
CIRCLE
  8
104
  6
CONTINUOUS
 62
40
 10
7.1992248E+001
 20
2.2836404E+002
 40
8.199997
  0
CIRCLE
  8
104
  6
CONTINUOUS
 62
40
 10
1.0799225E+002
 20
2.2836404E+002
 40
8.199996
  0
CIRCLE
  8
104
  6
CONTINUOUS
 62
40
 10
1.2599225E+002
 20
2.3636404E+002
 40
4.5
  0
CIRCLE
  8
104
  6
CONTINUOUS
 62
40
 10
5.3992247E+001
 20
2.3636404E+002
 40
4.5
  0
CIRCLE
  8
104
  6
CONTINUOUS
 62
40
 10
7.1992248E+001
 20
2.2836404E+002
 40
4.5
  0
CIRCLE
  8
104
  6
CONTINUOUS
 62
40
 10
1.0799225E+002
 20
2.2836404E+002
 40
4.5
  0
LINE
  8
104
  6
CONTINUOUS
 62
40
 10
1.3749225E+002
 20
2.1636404E+002
 11
4.2492247E+001
 21
2.1636404E+002
  0
LINE
  8
104
  6
CONTINUOUS
 62
40
 10
4.2492247E+001
 20
2.1636404E+002
 11
4.2492247E+001
 21
2.5136404E+002
  0
LINE
  8
104
  6
CONTINUOUS
 62
40
 10
4.2492247E+001
 20
2.5136404E+002
 11
1.3749225E+002
 21
2.5136404E+002
  0
LINE
  8
104
  6
CONTINUOUS
 62
40
 10
1.3749225E+002
 20
2.5136404E+002
 11
1.3749225E+002
 21
2.1636404E+002
  0
LINE
  8
104
  6
CONTINUOUS
 62
40
 10
1.3749225E+002
 20
2.4636404E+002
 11
4.2492247E+001
 21
2.4636404E+002
  0
LINE
  8
106
  6
CENTERLINE
 62
1
 10
8.9992248E+001
 20
2.5593843E+002
 11
8.9992248E+001
 21
2.1252186E+002
  0
LINE
  8
104
  6
CONTINUOUS
 62
40
 10
1.0949223E+002
 20
2.5198344E+002
 11
1.0949223E+002
 21
2.5136404E+002
  0
LINE
  8
104
  6
CONTINUOUS
 62
40
 10
1.0949223E+002
 20
2.5136404E+002
 11
7.0492248E+001
 21
2.5136404E+002
  0
LINE
  8
104
  6
CONTINUOUS
 62
40
 10
7.0492248E+001
 20
2.5136404E+002
 11
7.0492248E+001
 21
2.5198344E+002
  0
LINE
  8
104
  6
CONTINUOUS
 62
40
 10
1.0224223E+002
 20
2.5523344E+002
 11
1.0872223E+002
 21
2.546479E+002
  0
ARC
  8
104
  6
CONTINUOUS
 62
40
 10
1.0854226E+002
 20
2.5265602E+002
 40
1.9999888
 50
3.5999981E+002
 51
4.4483735E+002
  0
LINE
  8
104
  6
CONTINUOUS
 62
40
 10
1.1054225E+002
 20
2.5265602E+002
 11
1.1054225E+002
 21
2.5198344E+002
  0
LINE
  8
104
  6
CONTINUOUS
 62
40
 10
1.1054225E+002
 20
2.5198344E+002
 11
6.9442245E+001
 21
2.5198344E+002
  0
LINE
  8
104
  6
CONTINUOUS
 62
40
 10
6.9442245E+001
 20
2.5198344E+002
 11
6.9442245E+001
 21
2.5265602E+002
  0
ARC
  8
104
  6
CONTINUOUS
 62
40
 10
7.1442249E+001
 20
2.5265601E+002
 40
2.0000044
 50
9.5163511E+001
 51
1.7999982E+002
  0
LINE
  8
104
  6
CONTINUOUS
 62
40
 10
7.1262252E+001
 20
2.546479E+002
 11
7.6243255E+001
 21
2.5509799E+002
  0
LINE
  8
104
  6
CONTINUOUS
 62
40
 10
7.6243255E+001
 20
2.5509799E+002
 11
7.729222E+001
 21
2.5519277E+002
  0
LINE
  8
104
  6
CONTINUOUS
 62
40
 10
7.729222E+001
 20
2.5519277E+002
 11
1.0224223E+002
 21
2.5523344E+002
  0
ARC
  8
MED-9
  6
CONTINUOUS
 62
40
 10
8.6462691E+001
 20
2.218172E+002
 40
1.5
 50
2.7E+002
 51
4.5E+002
  0
ARC
  8
MED-9
  6
CONTINUOUS
 62
40
 10
8.6462691E+001
 20
2.248172E+002
 40
1.5
 50
2.7E+002
 51
4.5E+002
  0
ARC
  8
MED-9
  6
CONTINUOUS
 62
40
 10
8.6462691E+001
 20
2.278172E+002
 40
1.5
 50
2.7E+002
 51
4.5E+002
  0
ARC
  8
MED-9
  6
CONTINUOUS
 62
40
 10
8.6462691E+001
 20
2.308172E+002
 40
1.5
 50
2.7E+002
 51
4.5E+002
  0
ARC
  8
MED-9
  6
CONTINUOUS
 62
40
 10
8.6462691E+001
 20
2.338172E+002
 40
1.5
 50
2.7E+002
 51
4.5E+002
  0
ARC
  8
MED-9
  6
CONTINUOUS
 62
40
 10
9.3521804E+001
 20
2.338172E+002
 40
1.5
 50
9.0E+001
 51
2.7E+002
  0
ARC
  8
MED-9
  6
CONTINUOUS
 62
40
 10
9.3521804E+001
 20
2.308172E+002
 40
1.5
 50
9.0E+001
 51
2.7E+002
  0
ARC
  8
MED-9
  6
CONTINUOUS
 62
40
 10
9.3521804E+001
 20
2.278172E+002
 40
1.5
 50
9.0E+001
 51
2.7E+002
  0
ARC
  8
MED-9
  6
CONTINUOUS
 62
40
 10
9.3521804E+001
 20
2.248172E+002
 40
1.5
 50
9.0E+001
 51
2.7E+002
  0
ARC
  8
MED-9
  6
CONTINUOUS
 62
40
 10
9.3521804E+001
 20
2.218172E+002
 40
1.5
 50
9.0E+001
 51
2.7E+002
  0
CIRCLE
  8
104
  6
CONTINUOUS
 62
40
 10
8.9992217E+001
 20
1.5015545E+002
 40
1.15E+001
  0
CIRCLE
  8
104
  6
CONTINUOUS
 62
40
 10
8.9992217E+001
 20
1.5015544E+002
 40
2.0550018E+001
  0
CIRCLE
  8
104
  6
CONTINUOUS
 62
40
 10
8.9992217E+001
 20
1.5015544E+002
 40
4.0
  0
ARC
  8
104
  6
CONTINUOUS
 62
40
 10
8.9992217E+001
 20
1.5015544E+002
 40
1.1250001E+001
 50
1.4655673E+002
 51
2.1344327E+002
  0
LINE
  8
104
  6
CONTINUOUS
 62
40
 10
8.0604857E+001
 20
1.5635544E+002
 11
9.9379577E+001
 21
1.5635544E+002
  0
ARC
  8
104
  6
CONTINUOUS
 62
40
 10
8.9992217E+001
 20
1.5015544E+002
 40
1.1250001E+001
 50
3.2655673E+002
 51
3.9344327E+002
  0
LINE
  8
104
  6
CONTINUOUS
 62
40
 10
9.9379577E+001
 20
1.4395544E+002
 11
8.0604857E+001
 21
1.4395544E+002
  0
ARC
  8
104
  6
CONTINUOUS
 62
40
 10
8.9992232E+001
 20
1.5015544E+002
 40
1.0700006E+001
 50
1.5307434E+002
 51
2.0692566E+002
  0
LINE
  8
104
  6
CONTINUOUS
 62
40
 10
8.0452163E+001
 20
1.5500077E+002
 11
9.9532287E+001
 21
1.5500077E+002
  0
ARC
  8
104
  6
CONTINUOUS
 62
40
 10
8.9992232E+001
 20
1.5015544E+002
 40
1.0699992E+001
 50
3.330743E+002
 51
3.869257E+002
  0
LINE
  8
104
  6
CONTINUOUS
 62
40
 10
9.9532287E+001
 20
1.4531012E+002
 11
8.0452163E+001
 21
1.4531012E+002
  0
LINE
  8
104
  6
CONTINUOUS
 62
40
 10
8.0452163E+001
 20
1.4531012E+002
 11
8.0235045E+001
 21
1.4455544E+002
  0
LINE
  8
104
  6
CONTINUOUS
 62
40
 10
8.0235045E+001
 20
1.4455544E+002
 11
9.9749404E+001
 21
1.4455544E+002
  0
LINE
  8
104
  6
CONTINUOUS
 62
40
 10
9.9749404E+001
 20
1.4455544E+002
 11
9.9532287E+001
 21
1.4531012E+002
  0
LINE
  8
104
  6
CONTINUOUS
 62
40
 10
9.9532287E+001
 20
1.5500077E+002
 11
9.9749404E+001
 21
1.5575544E+002
  0
LINE
  8
104
  6
CONTINUOUS
 62
40
 10
9.9749404E+001
 20
1.5575544E+002
 11
8.0235045E+001
 21
1.5575544E+002
  0
LINE
  8
104
  6
CONTINUOUS
 62
40
 10
8.0235045E+001
 20
1.5575544E+002
 11
8.0452163E+001
 21
1.5500077E+002
  0
ARC
  8
99
  6
CONTINUOUS
 62
1
 10
8.9992227E+001
 20
1.5015544E+002
 40
2.4999994
 50
3.4596406E+002
 51
6.444361E+002
  0
CIRCLE
  8
104
  6
CONTINUOUS
 62
40
 10
8.9992232E+001
 20
1.5015544E+002
 40
2.0
  0
LINE
  8
98
  6
CONTINUOUS
 62
1
 10
5.0
 20
5.0
 11
5.89E+002
 21
5.0
  0
LINE
  8
98
  6
CONTINUOUS
 62
1
 10
5.89E+002
 20
5.0
 11
5.89E+002
 21
4.15E+002
  0
LINE
  8
98
  6
CONTINUOUS
 62
1
 10
5.89E+002
 20
4.15E+002
 11
5.0
 21
4.15E+002
  0
LINE
  8
98
  6
CONTINUOUS
 62
1
 10
5.0
 20
4.15E+002
 11
5.0
 21
5.0
  0
LINE
  8
104
  6
CONTINUOUS
 62
40
 10
1.0374124E+002
 20
2.5588372E+002
 11
1.0269226E+002
 21
2.559785E+002
  0
LINE
  8
104
  6
CONTINUOUS
 62
40
 10
1.0269226E+002
 20
2.559785E+002
 11
7.7742248E+001
 21
2.5601918E+002
  0
LINE
  8
104
  6
CONTINUOUS
 62
40
 10
1.0025891E+002
 20
2.6326918E+002
 11
1.0105911E+002
 21
2.6326918E+002
  0
LINE
  8
104
  6
CONTINUOUS
 62
40
 10
1.0124344E+002
 20
2.5598086E+002
 11
1.0105911E+002
 21
2.6326918E+002
  0
LINE
  8
104
  6
CONTINUOUS
 62
40
 10
1.0105911E+002
 20
2.6326918E+002
 11
1.0069223E+002
 21
2.7026918E+002
  0
LINE
  8
104
  6
CONTINUOUS
 62
40
 10
1.0069223E+002
 20
2.7026918E+002
 11
7.9292265E+001
 21
2.7026918E+002
  0
LINE
  8
104
  6
CONTINUOUS
 62
40
 10
7.9292265E+001
 20
2.7026918E+002
 11
7.8925689E+001
 21
2.6328151E+002
  0
LINE
  8
104
  6
CONTINUOUS
 62
40
 10
7.8925689E+001
 20
2.6328151E+002
 11
7.8759399E+001
 21
2.5601751E+002
  0
LINE
  8
104
  6
CONTINUOUS
 62
40
 10
7.9555601E+001
 20
2.5601622E+002
 11
7.9724943E+001
 21
2.6323962E+002
  0
LINE
  8
104
  6
CONTINUOUS
 62
40
 10
7.9724943E+001
 20
2.6323962E+002
 11
8.0093352E+001
 21
2.7026918E+002
  0
LINE
  8
104
  6
CONTINUOUS
 62
40
 10
7.9724943E+001
 20
2.6323962E+002
 11
7.8925689E+001
 21
2.6328151E+002
  0
LINE
  8
104
  6
CONTINUOUS
 62
40
 10
1.0042935E+002
 20
2.5598219E+002
 11
1.0025891E+002
 21
2.6326918E+002
  0
LINE
  8
104
  6
CONTINUOUS
 62
40
 10
1.0025891E+002
 20
2.6326918E+002
 11
9.989102E+001
 21
2.7026918E+002
  0
LINE
  8
104
  6
CONTINUOUS
 62
6
 10
5.0
 20
2.5136404E+002
 11
5.89E+002
 21
2.5136404E+002
  0
TEXT
  8
103
  6
CONTINUOUS
 62
40
 10
1.6447331E+002
 20
2.591342E+002
 40
5.0
  1
OKFF
 41
8.0E-001
  0
LINE
  8
104
  6
CONTINUOUS
 62
1
 10
1.6441367E+002
 20
2.5798101E+002
 11
1.7705177E+002
 21
2.5798101E+002
  0
LINE
  8
104
  6
CONTINUOUS
 62
1
 10
1.7705177E+002
 20
2.5798101E+002
 11
1.8034114E+002
 21
2.5136404E+002
  0
LINE
  8
104
  6
CONTINUOUS
 62
1
 10
1.8034114E+002
 20
2.5136404E+002
 11
1.8276488E+002
 21
2.5469164E+002
  0
ENDSEC
  0
EOF
