  0
SECTION
  2
HEADER
  9
$ACADVER
  1
AC1009
999
I-DEAS 8 Not Encoded
  9
$EXTMIN
 10
0.0
 20
0.0
  9
$EXTMAX
 10
5.94E+002
 20
4.2E+002
  9
$TEXTSIZE
 40
1.25E-001
  9
$LTSCALE
 40
1.0
  9
$CLAYER
  8
104
  9
$CECOLOR
 62
40
  9
$DIMASZ
 40
1.25E-001
  9
$DIMEXO
 40
6.25E-002
  9
$DIMDLI
 40
2.5E-001
  9
$DIMEXE
 40
1.25E-001
  9
$DIMTP
 40
5.0E-003
  9
$DIMTM
 40
-5.0E-003
  9
$DIMTXT
 40
3.0
  9
$DIMLIM
 70
0
  9
$DIMTIH
 70
1
  9
$DIMTOH
 70
1
  9
$DIMSE1
 70
0
  9
$DIMSE2
 70
0
  9
$DIMTAD
 70
0
  9
$DIMASO
 70
1
  9
$DIMALT
 70
0
  9
$DIMALTD
 70
0
  9
$DIMTOFL
 70
1
  9
$DIMTIX
 70
0
  9
$DIMSAH
 70
0
  9
$DIMTFAC
 40
1.0
  9
$DIMGAP
 40
6.25E-002
  9
$LUNITS
 70
2
  9
$LUPREC
 70
3
  9
$FILLETRAD
 40
2.0
  9
$AUNITS
 70
0
  9
$AUPREC
 70
1
  9
$CHAMFERA
 40
1.0E+001
  9
$CHAMFERB
 40
1.0E+001
  9
$ANGBASE
 50
0.0
  9
$ANGDIR
 70
0
  9
$PDMODE
 70
2
  9
$PDSIZE
 40
-1.0E-002
  9
$SPLINETYPE
 70
6
  0
ENDSEC
  0
SECTION
  2
TABLES
  0
TABLE
  2
LTYPE
 70
7
  0
LTYPE
  2
HIDDENNEW00
  3
_ 
 70
64
 72
65
 73
3
 40
4.5
 49
1.5
 49
-1.5
 49
1.5
  0
LTYPE
  2
HIDDENNEW01
  3
_ 
 70
64
 72
65
 73
3
 40
4.5
 49
1.5
 49
-1.5
 49
1.5
  0
LTYPE
  2
HIDDEN
  3
_ 
 70
64
 72
65
 73
3
 40
4.5
 49
1.5
 49
-1.5
 49
1.5
  0
LTYPE
  2
CENTERLINE
  3
_ 
 70
64
 72
65
 73
5
 40
3.0E+001
 49
1.2E+001
 49
-1.5
 49
3.0
 49
-1.5
 49
1.2E+001
  0
LTYPE
  2
PHANTOM
  3
_ 
 70
64
 72
65
 73
7
 40
2.95E+001
 49
9.5
 49
-1.5
 49
3.0
 49
-1.5
 49
3.0
 49
-1.5
 49
9.5
  0
LTYPE
  2
SHORT_DASH
  3
_ 
 70
64
 72
65
 73
3
 40
3.0
 49
7.5E-001
 49
-1.5
 49
7.5E-001
  0
LTYPE
  2
LONG_DASH
  3
_ 
 70
64
 72
65
 73
3
 40
9.0
 49
2.25
 49
-4.5
 49
2.25
  0
ENDTAB
  0
TABLE
  2
LAYER
 70
258
  0
LAYER
  2
MED-1
 70
0
 62
3
  6
HIDDENNEW00
  0
LAYER
  2
2
 70
0
 62
7
  6
CONTINUOUS
  0
LAYER
  2
3
 70
0
 62
7
  6
CONTINUOUS
  0
LAYER
  2
4
 70
0
 62
7
  6
CONTINUOUS
  0
LAYER
  2
MED-5
 70
0
 62
5
  6
HIDDENNEW00
  0
LAYER
  2
MED-6
 70
0
 62
6
  6
HIDDENNEW00
  0
LAYER
  2
7
 70
0
 62
7
  6
CONTINUOUS
  0
LAYER
  2
8
 70
0
 62
7
  6
CONTINUOUS
  0
LAYER
  2
9
 70
0
 62
7
  6
CONTINUOUS
  0
LAYER
  2
10
 70
0
 62
7
  6
CONTINUOUS
  0
LAYER
  2
MED-11
 70
0
 62
70
  6
HIDDENNEW00
  0
LAYER
  2
12
 70
0
 62
7
  6
CONTINUOUS
  0
LAYER
  2
13
 70
0
 62
7
  6
CONTINUOUS
  0
LAYER
  2
14
 70
0
 62
7
  6
CONTINUOUS
  0
LAYER
  2
15
 70
0
 62
7
  6
CONTINUOUS
  0
LAYER
  2
16
 70
0
 62
7
  6
CONTINUOUS
  0
LAYER
  2
17
 70
0
 62
7
  6
CONTINUOUS
  0
LAYER
  2
18
 70
0
 62
7
  6
CONTINUOUS
  0
LAYER
  2
19
 70
0
 62
7
  6
CONTINUOUS
  0
LAYER
  2
20
 70
0
 62
7
  6
CONTINUOUS
  0
LAYER
  2
21
 70
0
 62
7
  6
CONTINUOUS
  0
LAYER
  2
22
 70
0
 62
7
  6
CONTINUOUS
  0
LAYER
  2
23
 70
0
 62
7
  6
CONTINUOUS
  0
LAYER
  2
24
 70
0
 62
7
  6
CONTINUOUS
  0
LAYER
  2
25
 70
0
 62
7
  6
CONTINUOUS
  0
LAYER
  2
26
 70
0
 62
7
  6
CONTINUOUS
  0
LAYER
  2
27
 70
0
 62
7
  6
CONTINUOUS
  0
LAYER
  2
28
 70
0
 62
7
  6
CONTINUOUS
  0
LAYER
  2
29
 70
0
 62
7
  6
CONTINUOUS
  0
LAYER
  2
30
 70
0
 62
7
  6
CONTINUOUS
  0
LAYER
  2
31
 70
0
 62
7
  6
CONTINUOUS
  0
LAYER
  2
32
 70
0
 62
7
  6
CONTINUOUS
  0
LAYER
  2
33
 70
0
 62
7
  6
CONTINUOUS
  0
LAYER
  2
34
 70
0
 62
7
  6
CONTINUOUS
  0
LAYER
  2
35
 70
0
 62
7
  6
CONTINUOUS
  0
LAYER
  2
36
 70
0
 62
7
  6
CONTINUOUS
  0
LAYER
  2
37
 70
0
 62
7
  6
CONTINUOUS
  0
LAYER
  2
38
 70
0
 62
7
  6
CONTINUOUS
  0
LAYER
  2
39
 70
0
 62
7
  6
CONTINUOUS
  0
LAYER
  2
40
 70
0
 62
7
  6
CONTINUOUS
  0
LAYER
  2
41
 70
0
 62
7
  6
CONTINUOUS
  0
LAYER
  2
42
 70
0
 62
7
  6
CONTINUOUS
  0
LAYER
  2
43
 70
0
 62
7
  6
CONTINUOUS
  0
LAYER
  2
44
 70
0
 62
7
  6
CONTINUOUS
  0
LAYER
  2
45
 70
0
 62
7
  6
CONTINUOUS
  0
LAYER
  2
46
 70
0
 62
7
  6
CONTINUOUS
  0
LAYER
  2
47
 70
0
 62
7
  6
CONTINUOUS
  0
LAYER
  2
48
 70
0
 62
7
  6
CONTINUOUS
  0
LAYER
  2
49
 70
0
 62
7
  6
CONTINUOUS
  0
LAYER
  2
50
 70
0
 62
7
  6
CONTINUOUS
  0
LAYER
  2
51
 70
0
 62
7
  6
CONTINUOUS
  0
LAYER
  2
52
 70
0
 62
7
  6
CONTINUOUS
  0
LAYER
  2
53
 70
0
 62
7
  6
CONTINUOUS
  0
LAYER
  2
54
 70
0
 62
7
  6
CONTINUOUS
  0
LAYER
  2
55
 70
0
 62
7
  6
CONTINUOUS
  0
LAYER
  2
56
 70
0
 62
7
  6
CONTINUOUS
  0
LAYER
  2
57
 70
0
 62
7
  6
CONTINUOUS
  0
LAYER
  2
58
 70
0
 62
7
  6
CONTINUOUS
  0
LAYER
  2
59
 70
0
 62
7
  6
CONTINUOUS
  0
LAYER
  2
60
 70
0
 62
7
  6
CONTINUOUS
  0
LAYER
  2
61
 70
0
 62
7
  6
CONTINUOUS
  0
LAYER
  2
62
 70
0
 62
7
  6
CONTINUOUS
  0
LAYER
  2
63
 70
0
 62
7
  6
CONTINUOUS
  0
LAYER
  2
64
 70
0
 62
7
  6
CONTINUOUS
  0
LAYER
  2
65
 70
0
 62
7
  6
CONTINUOUS
  0
LAYER
  2
66
 70
0
 62
7
  6
CONTINUOUS
  0
LAYER
  2
67
 70
0
 62
7
  6
CONTINUOUS
  0
LAYER
  2
68
 70
0
 62
7
  6
CONTINUOUS
  0
LAYER
  2
69
 70
0
 62
7
  6
CONTINUOUS
  0
LAYER
  2
70
 70
0
 62
7
  6
CONTINUOUS
  0
LAYER
  2
71
 70
0
 62
7
  6
CONTINUOUS
  0
LAYER
  2
72
 70
0
 62
7
  6
CONTINUOUS
  0
LAYER
  2
73
 70
0
 62
7
  6
CONTINUOUS
  0
LAYER
  2
74
 70
0
 62
7
  6
CONTINUOUS
  0
LAYER
  2
75
 70
0
 62
7
  6
CONTINUOUS
  0
LAYER
  2
76
 70
0
 62
7
  6
CONTINUOUS
  0
LAYER
  2
77
 70
0
 62
7
  6
CONTINUOUS
  0
LAYER
  2
78
 70
0
 62
7
  6
CONTINUOUS
  0
LAYER
  2
79
 70
0
 62
7
  6
CONTINUOUS
  0
LAYER
  2
80
 70
0
 62
7
  6
CONTINUOUS
  0
LAYER
  2
81
 70
0
 62
7
  6
CONTINUOUS
  0
LAYER
  2
82
 70
0
 62
7
  6
CONTINUOUS
  0
LAYER
  2
83
 70
0
 62
7
  6
CONTINUOUS
  0
LAYER
  2
84
 70
0
 62
7
  6
CONTINUOUS
  0
LAYER
  2
85
 70
0
 62
7
  6
CONTINUOUS
  0
LAYER
  2
86
 70
0
 62
7
  6
CONTINUOUS
  0
LAYER
  2
87
 70
0
 62
7
  6
CONTINUOUS
  0
LAYER
  2
88
 70
0
 62
7
  6
CONTINUOUS
  0
LAYER
  2
89
 70
0
 62
7
  6
CONTINUOUS
  0
LAYER
  2
90
 70
0
 62
7
  6
CONTINUOUS
  0
LAYER
  2
91
 70
0
 62
7
  6
CONTINUOUS
  0
LAYER
  2
92
 70
0
 62
7
  6
CONTINUOUS
  0
LAYER
  2
93
 70
0
 62
7
  6
CONTINUOUS
  0
LAYER
  2
94
 70
0
 62
7
  6
CONTINUOUS
  0
LAYER
  2
95
 70
0
 62
7
  6
CONTINUOUS
  0
LAYER
  2
96
 70
0
 62
7
  6
CONTINUOUS
  0
LAYER
  2
97
 70
0
 62
7
  6
CONTINUOUS
  0
LAYER
  2
98
 70
0
 62
7
  6
CONTINUOUS
  0
LAYER
  2
99
 70
0
 62
7
  6
CONTINUOUS
  0
LAYER
  2
MED-0
 70
0
 62
230
  6
HIDDENNEW00
  0
LAYER
  2
101
 70
0
 62
7
  6
CONTINUOUS
  0
LAYER
  2
102
 70
0
 62
7
  6
CONTINUOUS
  0
LAYER
  2
103
 70
0
 62
7
  6
CONTINUOUS
  0
LAYER
  2
104
 70
0
 62
7
  6
CONTINUOUS
  0
LAYER
  2
105
 70
0
 62
7
  6
CONTINUOUS
  0
LAYER
  2
106
 70
0
 62
7
  6
CONTINUOUS
  0
LAYER
  2
107
 70
0
 62
7
  6
CONTINUOUS
  0
LAYER
  2
108
 70
0
 62
7
  6
CONTINUOUS
  0
LAYER
  2
Drafting_Hidden_Entities
 70
1
 62
7
  6
CONTINUOUS
  0
ENDTAB
  0
TABLE
  2
STYLE
 70
1
  0
STYLE
  2
STANDARD
 70
64
 40
0.0
 41
1.0
 50
0.0
 71
0
 42
1.0
  3
monotxt.shx
  4

  0
ENDTAB
  0
TABLE
  2
VIEW
 70
0
  0
ENDTAB
  0
TABLE
  2
DIMSTYLE
 70
1
  0
DIMSTYLE
  2
DSTYLE1
 70
0
  3

  4

  5

  6

  7

 40
1.0
 41
3.5
 42
1.0
 43
3.8E-001
 44
1.0
 45
0.0
 46
0.0
 47
1.0E-001
 48
1.0E-001
 71
0
 72
0
 73
0
 74
0
 75
0
 76
0
 77
1
 78
11
140
3.5
141
9.0E-002
142
0.0
143
1.0
144
1.0
145
0.0
146
1.0
147
1.1655
170
0
171
2
172
0
173
0
174
0
175
0
176
0
177
0
178
0
  0
ENDTAB
  0
ENDSEC
  0
SECTION
  2
BLOCKS
  0
BLOCK
  2
*AH13
  3
*AH
 10
0.0
 20
0.0
 70
65
  0
LINE
  8
MED-1
  6
CONTINUOUS
 62
0
 10
0.0
 20
0.0
 11
1.0
 21
-1.666679E-001
  0
LINE
  8
MED-1
  6
CONTINUOUS
 62
0
 10
1.0
 20
-1.666679E-001
 11
1.0
 21
1.66668E-001
  0
LINE
  8
MED-1
  6
CONTINUOUS
 62
0
 10
1.0
 20
1.66668E-001
 11
0.0
 21
0.0
  0
ENDBLK
  0
BLOCK
  2
1
 10
0.0
 20
0.0
 70
0
  0
TEXT
  8
103
  6
CONTINUOUS
 62
40
 10
-6.6192931
 20
4.0163639E+001
 40
5.0
  1
Tuerhebel 8021
 41
6.5892857E-001
 72
1
 11
-2.9681793E+001
 21
3.7663639E+001
 73
2
  0
LINE
  8
105
  6
HIDDEN
 62
1
 10
-1.4729999E+002
 20
1.53E-005
 11
-1.468111E+002
 21
1.4E+001
  0
LINE
  8
105
  6
HIDDEN
 62
1
 10
-1.2469998E+002
 20
0.0
 11
-1.2518887E+002
 21
1.4E+001
  0
LINE
  8
105
  6
HIDDEN
 62
1
 10
-9.7499985E+001
 20
0.0
 11
-1.0074999E+002
 21
3.25
  0
LINE
  8
105
  6
HIDDEN
 62
1
 10
-1.0074999E+002
 20
3.25
 11
-1.0724999E+002
 21
3.25
  0
LINE
  8
105
  6
HIDDEN
 62
1
 10
-1.0724999E+002
 20
3.25
 11
-1.1049999E+002
 21
0.0
  0
LINE
  8
105
  6
HIDDEN
 62
1
 10
-1.0724999E+002
 20
3.25
 11
-1.0724999E+002
 21
9.75
  0
LINE
  8
105
  6
HIDDEN
 62
1
 10
-1.0074999E+002
 20
1.0E+001
 11
-1.0074999E+002
 21
3.25
  0
LINE
  8
105
  6
HIDDEN
 62
1
 10
-1.5974998E+002
 20
1.0E+001
 11
-1.5974998E+002
 21
3.25
  0
LINE
  8
105
  6
HIDDEN
 62
1
 10
-1.6624998E+002
 20
1.0E+001
 11
-1.6624998E+002
 21
3.25
  0
LINE
  8
105
  6
HIDDEN
 62
1
 10
-1.6786349E+002
 20
1.6364899
 11
-1.6624998E+002
 21
3.25
  0
LINE
  8
105
  6
HIDDEN
 62
1
 10
-1.6624998E+002
 20
3.25
 11
-1.5974998E+002
 21
3.25
  0
LINE
  8
105
  6
HIDDEN
 62
1
 10
-1.5974998E+002
 20
3.25
 11
-1.5649998E+002
 21
0.0
  0
LINE
  8
106
  6
CENTERLINE
 62
1
 10
-1.6299998E+002
 20
1.233606E+001
 11
-1.6299998E+002
 21
-2.4222412
  0
LINE
  8
105
  6
HIDDEN
 62
1
 10
-9.9499985E+001
 20
1.0E+001
 11
-9.9499985E+001
 21
6.0
  0
LINE
  8
105
  6
HIDDEN
 62
1
 10
-9.6499985E+001
 20
6.0
 11
-9.6499985E+001
 21
0.0
  0
LINE
  8
105
  6
HIDDEN
 62
1
 10
-1.7049998E+002
 20
0.0
 11
-1.7049998E+002
 21
6.0
  0
LINE
  8
105
  6
HIDDEN
 62
1
 10
-1.6749998E+002
 20
1.0E+001
 11
-1.6749998E+002
 21
6.0
  0
LINE
  8
104
  6
CONTINUOUS
 62
40
 10
-1.2099999E+002
 20
1.0E+001
 11
-1.2099999E+002
 21
1.25E+001
  0
LINE
  8
104
  6
CONTINUOUS
 62
40
 10
-1.2099999E+002
 20
1.25E+001
 11
-1.2249999E+002
 21
1.4E+001
  0
LINE
  8
104
  6
CONTINUOUS
 62
40
 10
-1.2249999E+002
 20
1.4E+001
 11
-1.4949998E+002
 21
1.4E+001
  0
LINE
  8
104
  6
CONTINUOUS
 62
40
 10
-1.4949998E+002
 20
1.4E+001
 11
-1.5099998E+002
 21
1.25E+001
  0
LINE
  8
104
  6
CONTINUOUS
 62
40
 10
-1.5099998E+002
 20
1.25E+001
 11
-1.5099998E+002
 21
1.0E+001
  0
LINE
  8
104
  6
CONTINUOUS
 62
40
 10
-1.5099998E+002
 20
1.25E+001
 11
-1.2099999E+002
 21
1.25E+001
  0
LINE
  8
106
  6
CENTERLINE
 62
1
 10
-1.3599999E+002
 20
2.2296875E+001
 11
-1.3599999E+002
 21
-1.1988281E+001
  0
LINE
  8
105
  6
HIDDEN
 62
1
 10
-5.525E+001
 20
7.5
 11
-5.675E+001
 21
6.0
  0
LINE
  8
105
  6
HIDDEN
 62
1
 10
-4.875E+001
 20
7.5
 11
-4.725E+001
 21
6.0
  0
LINE
  8
105
  6
HIDDEN
 62
1
 10
-1.325E+001
 20
7.5
 11
-1.475E+001
 21
6.0
  0
LINE
  8
105
  6
HIDDEN
 62
1
 10
-6.75
 20
7.5
 11
-4.916077
 21
6.0
  0
LINE
  8
105
  6
HIDDEN
 62
1
 10
-1.325E+001
 20
1.0E+001
 11
-1.325E+001
 21
7.5
  0
LINE
  8
105
  6
HIDDEN
 62
1
 10
-1.325E+001
 20
7.5
 11
-6.75
 21
7.5
  0
LINE
  8
105
  6
HIDDEN
 62
1
 10
-6.75
 20
7.5
 11
-6.75
 21
1.0E+001
  0
LINE
  8
105
  6
HIDDEN
 62
1
 10
-5.525E+001
 20
1.0E+001
 11
-5.525E+001
 21
7.5
  0
LINE
  8
105
  6
HIDDEN
 62
1
 10
-5.525E+001
 20
7.5
 11
-4.875E+001
 21
7.5
  0
LINE
  8
105
  6
HIDDEN
 62
1
 10
-4.875E+001
 20
7.5
 11
-4.875E+001
 21
1.0E+001
  0
LINE
  8
106
  6
CENTERLINE
 62
1
 10
-5.2E+001
 20
1.3103744E+001
 11
-5.2E+001
 21
-2.2372284
  0
LINE
  8
106
  6
CENTERLINE
 62
1
 10
-1.0E+001
 20
1.3776474E+001
 11
-1.0E+001
 21
-4.4235992
  0
LINE
  8
106
  6
CENTERLINE
 62
1
 10
-1.0399999E+002
 20
1.4281021E+001
 11
-1.0399999E+002
 21
-3.9190521
  0
LINE
  8
104
  6
CONTINUOUS
 62
40
 10
-1.7399998E+002
 20
0.0
 11
0.0
 21
0.0
  0
LINE
  8
104
  6
CONTINUOUS
 62
40
 10
0.0
 20
0.0
 11
0.0
 21
1.0E+001
  0
LINE
  8
104
  6
CONTINUOUS
 62
40
 10
0.0
 20
1.0E+001
 11
-1.7399998E+002
 21
1.0E+001
  0
LINE
  8
104
  6
CONTINUOUS
 62
40
 10
-1.7399998E+002
 20
1.0E+001
 11
-1.7399998E+002
 21
0.0
  0
LINE
  8
105
  6
HIDDEN
 62
1
 10
-1.7399998E+002
 20
6.0
 11
-3.3078766E+001
 21
6.0
  0
LINE
  8
105
  6
HIDDEN
 62
1
 10
-3.3078766E+001
 20
6.0
 11
0.0
 21
6.0
  0
LINE
  8
MED-11
  6
SHORT_DASH
 62
40
 10
4.2841614E+001
 20
0.0
 11
4.3575317E+001
 21
1.4E+001
  0
LINE
  8
MED-11
  6
SHORT_DASH
 62
40
 10
5.360791E+001
 20
1.4E+001
 11
5.4341644E+001
 21
0.0
  0
LINE
  8
104
  6
CONTINUOUS
 62
40
 10
6.0591644E+001
 20
0.0
 11
3.6591644E+001
 21
0.0
  0
LINE
  8
104
  6
CONTINUOUS
 62
40
 10
3.7591644E+001
 20
1.2499973E+001
 11
3.9091614E+001
 21
1.4E+001
  0
LINE
  8
104
  6
CONTINUOUS
 62
40
 10
3.9091614E+001
 20
1.4E+001
 11
5.8091614E+001
 21
1.4E+001
  0
LINE
  8
104
  6
CONTINUOUS
 62
40
 10
5.8091614E+001
 20
1.4E+001
 11
5.9591644E+001
 21
1.2500004E+001
  0
LINE
  8
104
  6
CONTINUOUS
 62
40
 10
3.7591644E+001
 20
1.0E+001
 11
3.7591644E+001
 21
1.25E+001
  0
LINE
  8
104
  6
CONTINUOUS
 62
40
 10
3.7591644E+001
 20
1.25E+001
 11
5.9591644E+001
 21
1.25E+001
  0
LINE
  8
104
  6
CONTINUOUS
 62
40
 10
5.9591644E+001
 20
1.25E+001
 11
5.9591644E+001
 21
1.0E+001
  0
LINE
  8
104
  6
CONTINUOUS
 62
40
 10
6.4591658E+001
 20
0.0
 11
6.4591658E+001
 21
6.0
  0
ARC
  8
104
  6
CONTINUOUS
 62
40
 10
6.0591657E+001
 20
5.9999992
 40
4.0000008
 50
1.15572E-005
 51
8.9999988E+001
  0
LINE
  8
104
  6
CONTINUOUS
 62
40
 10
6.0591658E+001
 20
1.0E+001
 11
3.6591658E+001
 21
1.0E+001
  0
ARC
  8
104
  6
CONTINUOUS
 62
40
 10
3.659165E+001
 20
5.9999998
 40
4.0000002
 50
8.9999888E+001
 51
1.8E+002
  0
LINE
  8
104
  6
CONTINUOUS
 62
40
 10
3.259165E+001
 20
6.0
 11
3.259165E+001
 21
0.0
  0
LINE
  8
104
  6
CONTINUOUS
 62
40
 10
3.259165E+001
 20
0.0
 11
3.6591658E+001
 21
0.0
  0
LINE
  8
104
  6
CONTINUOUS
 62
40
 10
3.6591658E+001
 20
0.0
 11
3.6591658E+001
 21
6.0
  0
LINE
  8
104
  6
CONTINUOUS
 62
40
 10
3.6591658E+001
 20
6.0
 11
6.0591658E+001
 21
6.0
  0
LINE
  8
104
  6
CONTINUOUS
 62
40
 10
6.0591658E+001
 20
6.0
 11
6.0591658E+001
 21
0.0
  0
LINE
  8
104
  6
CONTINUOUS
 62
40
 10
6.0591658E+001
 20
0.0
 11
6.4591658E+001
 21
0.0
  0
LINE
  8
106
  6
CENTERLINE
 62
1
 10
4.8591644E+001
 20
-1.7092209
 11
4.8591644E+001
 21
1.515271E+001
  0
POINT
  8
Drafting_Hidden_Entities
  6
CONTINUOUS
 62
1
 10
0.0
 20
0.0
  0
ENDBLK
  0
BLOCK
  2
11
 10
0.0
 20
0.0
 70
0
  0
TEXT
  8
103
  6
CONTINUOUS
 62
40
 10
-1.8141216E+002
 20
9.0602533E+001
 40
7.0
  1
Tuerhebel 7456/1
 41
6.609375E-001
 72
1
 11
-2.1842466E+002
 21
8.7102533E+001
 73
2
  0
LINE
  8
106
  6
CENTERLINE
 62
1
 10
-1.1398386E+002
 20
8.8131445E+001
 11
-1.1398386E+002
 21
4.213146E+001
  0
LINE
  8
106
  6
CENTERLINE
 62
1
 10
-6.198386E+001
 20
8.4165624E+001
 11
-6.198386E+001
 21
4.6750265E+001
  0
LINE
  8
106
  6
CENTERLINE
 62
1
 10
-9.98386
 20
8.4165624E+001
 11
-9.98386
 21
4.213146E+001
  0
LINE
  8
106
  6
CENTERLINE
 62
1
 10
-1.6925869E+002
 20
5.963146E+001
 11
-1.8213436E+002
 21
5.963146E+001
  0
LINE
  8
106
  6
CENTERLINE
 62
1
 10
-1.8213436E+002
 20
5.963146E+001
 11
-1.478134E+002
 21
5.963146E+001
  0
LINE
  8
106
  6
CENTERLINE
 62
1
 10
-9.048386E+001
 20
7.5174429E+001
 11
-9.048386E+001
 21
4.2303335E+001
  0
LINE
  8
106
  6
CENTERLINE
 62
1
 10
-3.348386E+001
 20
4.2303335E+001
 11
-3.348386E+001
 21
7.6721304E+001
  0
LINE
  8
105
  6
HIDDEN
 62
1
 10
-9.373386E+001
 20
4.9631475E+001
 11
-9.373386E+001
 21
6.1631475E+001
  0
LINE
  8
105
  6
HIDDEN
 62
1
 10
-9.373386E+001
 20
6.1631475E+001
 11
-8.723386E+001
 21
6.1631475E+001
  0
LINE
  8
105
  6
HIDDEN
 62
1
 10
-8.723386E+001
 20
6.1631475E+001
 11
-8.723386E+001
 21
4.9631475E+001
  0
LINE
  8
105
  6
HIDDEN
 62
1
 10
-9.373386E+001
 20
6.1631475E+001
 11
-9.2683857E+001
 21
6.2064489E+001
  0
LINE
  8
105
  6
HIDDEN
 62
1
 10
-9.2683857E+001
 20
6.2064489E+001
 11
-8.8283863E+001
 21
6.2064489E+001
  0
LINE
  8
105
  6
HIDDEN
 62
1
 10
-8.8283863E+001
 20
6.2064489E+001
 11
-8.723386E+001
 21
6.1631475E+001
  0
LINE
  8
105
  6
HIDDEN
 62
1
 10
-8.748386E+001
 20
6.1775808E+001
 11
-8.748386E+001
 21
6.9631475E+001
  0
LINE
  8
105
  6
HIDDEN
 62
1
 10
-8.8283863E+001
 20
6.9631475E+001
 11
-8.8283863E+001
 21
6.2064489E+001
  0
LINE
  8
105
  6
HIDDEN
 62
1
 10
-9.2683857E+001
 20
6.9591116E+001
 11
-9.2683857E+001
 21
6.2064489E+001
  0
LINE
  8
105
  6
HIDDEN
 62
1
 10
-9.348386E+001
 20
6.9631475E+001
 11
-9.348386E+001
 21
6.1775808E+001
  0
LINE
  8
105
  6
HIDDEN
 62
1
 10
-1.6648374E+002
 20
7.263146E+001
 11
-1.6448374E+002
 21
7.263146E+001
  0
LINE
  8
105
  6
HIDDEN
 62
1
 10
-1.6448374E+002
 20
7.263146E+001
 11
-1.6448374E+002
 21
6.463146E+001
  0
LINE
  8
105
  6
HIDDEN
 62
1
 10
-1.6448374E+002
 20
6.463146E+001
 11
-1.6648374E+002
 21
6.463146E+001
  0
LINE
  8
105
  6
HIDDEN
 62
1
 10
-1.6448374E+002
 20
6.613146E+001
 11
-1.5148374E+002
 21
6.613146E+001
  0
LINE
  8
105
  6
HIDDEN
 62
1
 10
-1.5148374E+002
 20
6.613146E+001
 11
-1.5004036E+002
 21
6.863146E+001
  0
LINE
  8
105
  6
HIDDEN
 62
1
 10
-1.5004036E+002
 20
6.863146E+001
 11
-1.5148374E+002
 21
7.113146E+001
  0
LINE
  8
105
  6
HIDDEN
 62
1
 10
-1.5148374E+002
 20
7.113146E+001
 11
-1.6448374E+002
 21
7.113146E+001
  0
LINE
  8
105
  6
HIDDEN
 62
1
 10
-1.6448374E+002
 20
7.163146E+001
 11
-1.5448374E+002
 21
7.163146E+001
  0
LINE
  8
105
  6
HIDDEN
 62
1
 10
-1.5448374E+002
 20
7.163146E+001
 11
-1.5448374E+002
 21
6.563146E+001
  0
LINE
  8
105
  6
HIDDEN
 62
1
 10
-1.5448374E+002
 20
6.563146E+001
 11
-1.6448374E+002
 21
6.563146E+001
  0
LINE
  8
105
  6
HIDDEN
 62
1
 10
-1.5148374E+002
 20
6.613146E+001
 11
-1.5148374E+002
 21
7.113146E+001
  0
LINE
  8
105
  6
HIDDEN
 62
1
 10
-1.6648374E+002
 20
6.363146E+001
 11
-1.6448374E+002
 21
6.363146E+001
  0
LINE
  8
105
  6
HIDDEN
 62
1
 10
-1.6448374E+002
 20
6.363146E+001
 11
-1.6448374E+002
 21
5.563146E+001
  0
LINE
  8
105
  6
HIDDEN
 62
1
 10
-1.6448374E+002
 20
5.563146E+001
 11
-1.6648374E+002
 21
5.563146E+001
  0
LINE
  8
105
  6
HIDDEN
 62
1
 10
-1.6448374E+002
 20
5.713146E+001
 11
-1.5148374E+002
 21
5.713146E+001
  0
LINE
  8
105
  6
HIDDEN
 62
1
 10
-1.5148374E+002
 20
5.713146E+001
 11
-1.5004036E+002
 21
5.963146E+001
  0
LINE
  8
105
  6
HIDDEN
 62
1
 10
-1.5004036E+002
 20
5.963146E+001
 11
-1.5148374E+002
 21
6.213146E+001
  0
LINE
  8
105
  6
HIDDEN
 62
1
 10
-1.5148374E+002
 20
6.213146E+001
 11
-1.6448374E+002
 21
6.213146E+001
  0
LINE
  8
105
  6
HIDDEN
 62
1
 10
-1.6448374E+002
 20
6.263146E+001
 11
-1.5448374E+002
 21
6.263146E+001
  0
LINE
  8
105
  6
HIDDEN
 62
1
 10
-1.5448374E+002
 20
6.263146E+001
 11
-1.5448374E+002
 21
5.663146E+001
  0
LINE
  8
105
  6
HIDDEN
 62
1
 10
-1.5448374E+002
 20
5.663146E+001
 11
-1.6448374E+002
 21
5.663146E+001
  0
LINE
  8
105
  6
HIDDEN
 62
1
 10
-1.5148374E+002
 20
5.713146E+001
 11
-1.5148374E+002
 21
6.213146E+001
  0
LINE
  8
104
  6
CONTINUOUS
 62
40
 10
-2.1070464E+002
 20
-2.2654363
 11
-1.9069909E+002
 21
-2.9640447
  0
ARC
  8
104
  6
CONTINUOUS
 62
40
 10
-2.0048375E+002
 20
3.6314575
 40
1.1800012E+001
 50
3.2601746E+002
 51
3.8998249E+002
  0
LINE
  8
104
  6
CONTINUOUS
 62
40
 10
-1.9026284E+002
 20
9.5283411
 11
-2.1026839E+002
 21
1.022695E+001
  0
ARC
  8
104
  6
CONTINUOUS
 62
40
 10
-2.0048386E+002
 20
3.6314528
 40
1.1799899E+001
 50
1.4601712E+002
 51
2.0998284E+002
  0
LINE
  8
104
  6
CONTINUOUS
 62
40
 10
-2.0982837E+002
 20
-1.1515753
 11
-1.9149575E+002
 21
-1.791773
  0
ARC
  8
104
  6
CONTINUOUS
 62
40
 10
-2.0048374E+002
 20
3.6314628
 40
1.0497403E+001
 50
3.2889377E+002
 51
3.8710619E+002
  0
LINE
  8
104
  6
CONTINUOUS
 62
40
 10
-1.9113933E+002
 20
8.4145106
 11
-2.0947195E+002
 21
9.0547083
  0
ARC
  8
104
  6
CONTINUOUS
 62
40
 10
-2.0048374E+002
 20
3.6314583
 40
1.04976E+001
 50
1.4889433E+002
 51
2.0710555E+002
  0
LINE
  8
99
  6
CONTINUOUS
 62
1
 10
-2.4918125E+001
 20
6.8746359E+001
 11
-2.4918125E+001
 21
5.0631475E+001
  0
LINE
  8
99
  6
CONTINUOUS
 62
1
 10
-1.9269749E+001
 20
5.0631475E+001
 11
-1.9269749E+001
 21
7.213146E+001
  0
LINE
  8
99
  6
CONTINUOUS
 62
1
 10
-7.6918125E+001
 20
6.8631475E+001
 11
-7.6918125E+001
 21
5.0631475E+001
  0
LINE
  8
99
  6
CONTINUOUS
 62
1
 10
-7.1322636E+001
 20
5.0631475E+001
 11
-7.1322636E+001
 21
7.0508795E+001
  0
LINE
  8
99
  6
CONTINUOUS
 62
1
 10
-5.2643559E+001
 20
7.0508795E+001
 11
-5.2643559E+001
 21
5.0631475E+001
  0
LINE
  8
99
  6
CONTINUOUS
 62
1
 10
-4.7049564E+001
 20
5.0631475E+001
 11
-4.7049564E+001
 21
6.863146E+001
  0
LINE
  8
99
  6
CONTINUOUS
 62
1
 10
-1.2541814E+002
 20
6.866358E+001
 11
-1.2541814E+002
 21
5.0606451E+001
  0
LINE
  8
99
  6
CONTINUOUS
 62
1
 10
-1.1982227E+002
 20
5.5403005E+001
 11
-1.1981846E+002
 21
5.0610906E+001
  0
LINE
  8
99
  6
CONTINUOUS
 62
1
 10
-1.1981766E+002
 20
4.5631475E+001
 11
-1.1982152E+002
 21
4.3131459E+001
  0
LINE
  8
99
  6
CONTINUOUS
 62
1
 10
-1.0114298E+002
 20
4.313146E+001
 11
-1.0114298E+002
 21
4.5631475E+001
  0
LINE
  8
99
  6
CONTINUOUS
 62
1
 10
-1.0114298E+002
 20
5.0625768E+001
 11
-1.0114298E+002
 21
7.213146E+001
  0
LINE
  8
99
  6
CONTINUOUS
 62
1
 10
-9.5548768E+001
 20
6.888294E+001
 11
-9.5534247E+001
 21
5.0630239E+001
  0
LINE
  8
99
  6
CONTINUOUS
 62
1
 10
-1.38523E+002
 20
4.413146E+001
 11
-1.6648374E+002
 21
4.413146E+001
  0
LINE
  8
99
  6
CONTINUOUS
 62
1
 10
-1.6648374E+002
 20
4.613146E+001
 11
-1.3735024E+002
 21
4.613146E+001
  0
LINE
  8
104
  6
CONTINUOUS
 62
40
 10
-1.2121418E+002
 20
7.313146E+001
 11
-1.1971207E+002
 21
7.313146E+001
  0
LINE
  8
104
  6
CONTINUOUS
 62
40
 10
-1.0825562E+002
 20
7.313146E+001
 11
-9.8753544E+001
 21
7.313146E+001
  0
LINE
  8
104
  6
CONTINUOUS
 62
40
 10
-7.0963139E+001
 20
7.313146E+001
 11
-6.771207E+001
 21
7.313146E+001
  0
LINE
  8
104
  6
CONTINUOUS
 62
40
 10
-5.6255619E+001
 20
7.313146E+001
 11
-5.3004581E+001
 21
7.313146E+001
  0
LINE
  8
104
  6
CONTINUOUS
 62
40
 10
-2.1214146E+001
 20
7.313146E+001
 11
-1.571207E+001
 21
7.313146E+001
  0
LINE
  8
104
  6
CONTINUOUS
 62
40
 10
-4.157444
 20
7.313146E+001
 11
1.01614
 21
7.313146E+001
  0
LINE
  8
104
  6
CONTINUOUS
 62
40
 10
1.01614
 20
4.9631475E+001
 11
-2.598386E+001
 21
4.9631475E+001
  0
LINE
  8
104
  6
CONTINUOUS
 62
40
 10
-9.398386E+001
 20
4.9631475E+001
 11
-1.3026973E+002
 21
4.960259E+001
  0
LINE
  8
104
  6
CONTINUOUS
 62
40
 10
-1.2281272E+002
 20
4.5631475E+001
 11
-9.8882816E+001
 21
4.5631475E+001
  0
LINE
  8
104
  6
CONTINUOUS
 62
40
 10
-2.1084873E+001
 20
4.5631475E+001
 11
1.01614
 21
4.5631475E+001
  0
ARC
  8
104
  6
CONTINUOUS
 62
40
 10
-1.1398386E+002
 20
7.063146E+001
 40
6.25
 50
0.0
 51
1.8E+002
  0
LINE
  8
104
  6
CONTINUOUS
 62
40
 10
-1.2023386E+002
 20
7.063146E+001
 11
-1.2023386E+002
 21
5.863146E+001
  0
ARC
  8
104
  6
CONTINUOUS
 62
40
 10
-1.1398386E+002
 20
5.863146E+001
 40
6.25
 50
1.8E+002
 51
3.6E+002
  0
LINE
  8
104
  6
CONTINUOUS
 62
40
 10
-1.0773386E+002
 20
5.863146E+001
 11
-1.0773386E+002
 21
7.063146E+001
  0
ARC
  8
104
  6
CONTINUOUS
 62
40
 10
-1.1398386E+002
 20
7.063146E+001
 40
3.25
 50
0.0
 51
1.8E+002
  0
LINE
  8
104
  6
CONTINUOUS
 62
40
 10
-1.1723386E+002
 20
7.063146E+001
 11
-1.1723386E+002
 21
5.863146E+001
  0
ARC
  8
104
  6
CONTINUOUS
 62
40
 10
-1.1398386E+002
 20
5.863146E+001
 40
3.25
 50
1.8E+002
 51
3.6E+002
  0
LINE
  8
104
  6
CONTINUOUS
 62
40
 10
-1.1073386E+002
 20
5.863146E+001
 11
-1.1073386E+002
 21
7.063146E+001
  0
ARC
  8
104
  6
CONTINUOUS
 62
40
 10
-6.198386E+001
 20
7.063146E+001
 40
3.25
 50
0.0
 51
1.8E+002
  0
LINE
  8
104
  6
CONTINUOUS
 62
40
 10
-6.523386E+001
 20
7.063146E+001
 11
-6.523386E+001
 21
5.863146E+001
  0
ARC
  8
104
  6
CONTINUOUS
 62
40
 10
-6.198386E+001
 20
5.863146E+001
 40
3.25
 50
1.8E+002
 51
3.6E+002
  0
LINE
  8
104
  6
CONTINUOUS
 62
40
 10
-5.873386E+001
 20
5.863146E+001
 11
-5.873386E+001
 21
7.063146E+001
  0
ARC
  8
104
  6
CONTINUOUS
 62
40
 10
-6.198386E+001
 20
7.063146E+001
 40
6.25
 50
0.0
 51
1.8E+002
  0
LINE
  8
104
  6
CONTINUOUS
 62
40
 10
-6.823386E+001
 20
7.063146E+001
 11
-6.823386E+001
 21
5.863146E+001
  0
ARC
  8
104
  6
CONTINUOUS
 62
40
 10
-6.198386E+001
 20
5.863146E+001
 40
6.25
 50
1.8E+002
 51
3.6E+002
  0
LINE
  8
104
  6
CONTINUOUS
 62
40
 10
-5.573386E+001
 20
5.863146E+001
 11
-5.573386E+001
 21
7.063146E+001
  0
ARC
  8
104
  6
CONTINUOUS
 62
40
 10
-9.98386
 20
7.063146E+001
 40
6.25
 50
0.0
 51
1.8E+002
  0
LINE
  8
104
  6
CONTINUOUS
 62
40
 10
-1.623386E+001
 20
7.063146E+001
 11
-1.623386E+001
 21
5.863146E+001
  0
ARC
  8
104
  6
CONTINUOUS
 62
40
 10
-9.98386
 20
5.863146E+001
 40
6.25
 50
1.8E+002
 51
3.6E+002
  0
LINE
  8
104
  6
CONTINUOUS
 62
40
 10
-3.73386
 20
5.863146E+001
 11
-3.73386
 21
7.063146E+001
  0
ARC
  8
104
  6
CONTINUOUS
 62
40
 10
-9.98386
 20
7.063146E+001
 40
3.25
 50
0.0
 51
1.8E+002
  0
LINE
  8
104
  6
CONTINUOUS
 62
40
 10
-1.323386E+001
 20
7.063146E+001
 11
-1.323386E+001
 21
5.863146E+001
  0
ARC
  8
104
  6
CONTINUOUS
 62
40
 10
-9.98386
 20
5.863146E+001
 40
3.25
 50
1.8E+002
 51
3.6E+002
  0
LINE
  8
104
  6
CONTINUOUS
 62
40
 10
-6.73386
 20
5.863146E+001
 11
-6.73386
 21
7.063146E+001
  0
LINE
  8
106
  6
CENTERLINE
 62
1
 10
-1.9979666E+002
 20
2.330689E+001
 11
-2.0118108E+002
 21
-1.6337443E+001
  0
LINE
  8
106
  6
CENTERLINE
 62
1
 10
-2.2335865E+002
 20
4.4302729
 11
-1.7810695E+002
 21
2.8500422
  0
ARC
  8
104
  6
CONTINUOUS
 62
40
 10
-1.9748386E+002
 20
3.63146
 40
1.75E+001
 50
2.7E+002
 51
4.5E+002
  0
LINE
  8
104
  6
CONTINUOUS
 62
40
 10
-1.9748386E+002
 20
2.113146E+001
 11
-2.0348386E+002
 21
2.113146E+001
  0
LINE
  8
106
  6
CENTERLINE
 62
1
 10
-1.6826459E+002
 20
6.863146E+001
 11
-1.4591404E+002
 21
6.863146E+001
  0
ARC
  8
104
  6
CONTINUOUS
 62
40
 10
-1.9750661E+002
 20
3.6285601
 40
1.7497115E+001
 50
2.7007448E+002
 51
2.8494244E+002
  0
LINE
  8
104
  6
CONTINUOUS
 62
40
 10
-1.9748386E+002
 20
-1.386854E+001
 11
-2.0348386E+002
 21
-1.386854E+001
  0
ARC
  8
104
  6
CONTINUOUS
 62
40
 10
-2.0348386E+002
 20
3.6314526
 40
1.7499993E+001
 50
1.7999998E+002
 51
2.7E+002
  0
ARC
  8
104
  6
CONTINUOUS
 62
40
 10
-2.0348386E+002
 20
3.6314565
 40
1.7499988E+001
 50
8.9999988E+001
 51
1.7999999E+002
  0
LINE
  8
104
  6
CONTINUOUS
 62
40
 10
-2.0348386E+002
 20
2.1131445E+001
 11
-1.722065E+002
 21
2.2869085E+001
  0
ARC
  8
104
  6
CONTINUOUS
 62
40
 10
-1.7248385E+002
 20
2.7861375E+001
 40
4.9999883
 50
2.731798E+002
 51
3.6000022E+002
  0
LINE
  8
104
  6
CONTINUOUS
 62
40
 10
-1.6748386E+002
 20
2.7861395E+001
 11
-1.6748386E+002
 21
3.163146E+001
  0
LINE
  8
104
  6
CONTINUOUS
 62
40
 10
-1.6748386E+002
 20
3.163146E+001
 11
-1.6648374E+002
 21
3.163146E+001
  0
LINE
  8
104
  6
CONTINUOUS
 62
40
 10
-1.6648374E+002
 20
3.163146E+001
 11
-1.6648374E+002
 21
3.7501333E+001
  0
LINE
  8
104
  6
CONTINUOUS
 62
40
 10
-1.6648374E+002
 20
3.7501333E+001
 11
-1.6648374E+002
 21
4.236199E+001
  0
LINE
  8
104
  6
CONTINUOUS
 62
40
 10
-1.6648374E+002
 20
4.236199E+001
 11
-1.6648374E+002
 21
7.4363577E+001
  0
ARC
  8
104
  6
CONTINUOUS
 62
40
 10
-1.654839E+002
 20
7.2631528E+001
 40
1.999917
 50
8.9998829E+001
 51
1.1999599E+002
  0
LINE
  8
104
  6
CONTINUOUS
 62
40
 10
-1.6548386E+002
 20
7.4631445E+001
 11
-1.6548386E+002
 21
7.463146E+001
  0
LINE
  8
104
  6
CONTINUOUS
 62
40
 10
-1.6548386E+002
 20
7.463146E+001
 11
-1.4123386E+002
 21
7.463146E+001
  0
ARC
  8
104
  6
CONTINUOUS
 62
40
 10
-1.4123386E+002
 20
7.2631449E+001
 40
2.0000107
 50
3.061729E-004
 51
8.9999923E+001
  0
LINE
  8
104
  6
CONTINUOUS
 62
40
 10
-1.3923385E+002
 20
7.263146E+001
 11
-1.3923385E+002
 21
7.163146E+001
  0
ARC
  8
104
  6
CONTINUOUS
 62
40
 10
-1.3723387E+002
 20
7.1631464E+001
 40
1.9999811
 50
1.8000012E+002
 51
2.7000031E+002
  0
LINE
  8
104
  6
CONTINUOUS
 62
40
 10
-1.3723386E+002
 20
6.9631483E+001
 11
-1.2598386E+002
 21
6.9631483E+001
  0
ARC
  8
104
  6
CONTINUOUS
 62
40
 10
-1.2598386E+002
 20
7.463147E+001
 40
4.9999869
 50
2.7000002E+002
 51
3.6000006E+002
  0
LINE
  8
104
  6
CONTINUOUS
 62
40
 10
-1.2098388E+002
 20
7.4631475E+001
 11
-1.2098388E+002
 21
7.763146E+001
  0
ARC
  8
104
  6
CONTINUOUS
 62
40
 10
-1.1898386E+002
 20
7.763146E+001
 40
2.000015
 50
9.0E+001
 51
1.8E+002
  0
LINE
  8
104
  6
CONTINUOUS
 62
40
 10
-1.1898386E+002
 20
7.9631475E+001
 11
-1.0098386E+002
 21
7.9631475E+001
  0
ARC
  8
104
  6
CONTINUOUS
 62
40
 10
-1.0098387E+002
 20
7.7631458E+001
 40
2.0000166
 50
4.65924E-005
 51
8.9999753E+001
  0
LINE
  8
104
  6
CONTINUOUS
 62
40
 10
-9.8983852E+001
 20
7.763146E+001
 11
-9.8983852E+001
 21
7.463146E+001
  0
ARC
  8
104
  6
CONTINUOUS
 62
40
 10
-9.3983859E+001
 20
7.4631476E+001
 40
4.9999928
 50
1.8000018E+002
 51
2.7000033E+002
  0
LINE
  8
104
  6
CONTINUOUS
 62
40
 10
-9.398383E+001
 20
6.9631483E+001
 11
-7.5870609E+001
 21
6.9631483E+001
  0
ARC
  8
104
  6
CONTINUOUS
 62
40
 10
-7.5870585E+001
 20
7.463147E+001
 40
4.9999867
 50
2.6999972E+002
 51
3.2999998E+002
  0
LINE
  8
104
  6
CONTINUOUS
 62
40
 10
-7.154047E+001
 20
7.2131475E+001
 11
-6.7787693E+001
 21
7.863146E+001
  0
ARC
  8
104
  6
CONTINUOUS
 62
40
 10
-6.6055649E+001
 20
7.7631442E+001
 40
2.0000033
 50
9.0000546E+001
 51
1.4999945E+002
  0
LINE
  8
104
  6
CONTINUOUS
 62
40
 10
-6.6055668E+001
 20
7.9631445E+001
 11
-5.7912052E+001
 21
7.9631445E+001
  0
ARC
  8
104
  6
CONTINUOUS
 62
40
 10
-5.7912049E+001
 20
7.7631442E+001
 40
2.0000027
 50
3.0000044E+001
 51
9.0000076E+001
  0
LINE
  8
104
  6
CONTINUOUS
 62
40
 10
-5.6179997E+001
 20
7.8631445E+001
 11
-5.2427219E+001
 21
7.213146E+001
  0
ARC
  8
104
  6
CONTINUOUS
 62
40
 10
-4.8097088E+001
 20
7.4631452E+001
 40
4.9999997
 50
2.0999989E+002
 51
2.6999973E+002
  0
LINE
  8
104
  6
CONTINUOUS
 62
40
 10
-4.8097111E+001
 20
6.9631452E+001
 11
-2.598386E+001
 21
6.9631452E+001
  0
ARC
  8
104
  6
CONTINUOUS
 62
40
 10
-2.5983852E+001
 20
7.4631444E+001
 40
4.9999915
 50
2.699999E+002
 51
3.6000019E+002
  0
LINE
  8
104
  6
CONTINUOUS
 62
40
 10
-2.098386E+001
 20
7.463146E+001
 11
-2.098386E+001
 21
7.763146E+001
  0
ARC
  8
104
  6
CONTINUOUS
 62
40
 10
-1.8983857E+001
 20
7.7631472E+001
 40
2.0000029
 50
9.0000083E+001
 51
1.8000035E+002
  0
LINE
  8
104
  6
CONTINUOUS
 62
40
 10
-1.898386E+001
 20
7.9631475E+001
 11
-9.8386E-001
 21
7.9631475E+001
  0
ARC
  8
104
  6
CONTINUOUS
 62
40
 10
-9.8386311E-001
 20
7.7631457E+001
 40
2.0000181
 50
8.89602E-005
 51
8.9999911E+001
  0
LINE
  8
104
  6
CONTINUOUS
 62
40
 10
1.016155
 20
7.763146E+001
 11
1.016155
 21
4.213146E+001
  0
LINE
  8
104
  6
CONTINUOUS
 62
40
 10
1.016155
 20
4.213146E+001
 11
-2.098383E+001
 21
4.213146E+001
  0
LINE
  8
104
  6
CONTINUOUS
 62
40
 10
-2.098383E+001
 20
4.213146E+001
 11
-2.098383E+001
 21
4.463146E+001
  0
ARC
  8
104
  6
CONTINUOUS
 62
40
 10
-2.5983841E+001
 20
4.4631457E+001
 40
5.0000109
 50
3.35316E-005
 51
9.0000219E+001
  0
LINE
  8
104
  6
CONTINUOUS
 62
40
 10
-2.598386E+001
 20
4.9631468E+001
 11
-9.398386E+001
 21
4.9631468E+001
  0
ARC
  8
104
  6
CONTINUOUS
 62
40
 10
-9.3983862E+001
 20
4.4631478E+001
 40
4.9999897
 50
8.9999973E+001
 51
1.8000004E+002
  0
LINE
  8
104
  6
CONTINUOUS
 62
40
 10
-9.8983852E+001
 20
4.4631475E+001
 11
-9.8983852E+001
 21
4.213146E+001
  0
LINE
  8
104
  6
CONTINUOUS
 62
40
 10
-9.8983852E+001
 20
4.213146E+001
 11
-1.2141553E+002
 21
4.213146E+001
  0
ARC
  8
104
  6
CONTINUOUS
 62
40
 10
-1.3026128E+002
 20
4.0629247E+001
 40
8.9723956
 50
9.6382018
 51
9.4826239E+001
  0
ARC
  8
104
  6
CONTINUOUS
 62
40
 10
-1.3028637E+002
 20
4.104368E+001
 40
8.557326
 50
9.4892285E+001
 51
1.1444282E+002
  0
ARC
  8
104
  6
CONTINUOUS
 62
40
 10
-1.300556E+002
 20
4.0547766E+001
 40
9.1042845
 50
1.1447358E+002
 51
1.3323355E+002
  0
ARC
  8
104
  6
CONTINUOUS
 62
40
 10
-1.2961286E+002
 20
4.0072698E+001
 40
9.7536663
 50
1.3321683E+002
 51
1.5113448E+002
  0
ARC
  8
104
  6
CONTINUOUS
 62
40
 10
-1.2919063E+002
 20
3.9830113E+001
 40
1.0240556E+001
 50
1.5108631E+002
 51
1.6843097E+002
  0
LINE
  8
104
  6
CONTINUOUS
 62
40
 10
-1.3922313E+002
 20
4.188384E+001
 11
-1.3923386E+002
 21
3.7501333E+001
  0
LINE
  8
104
  6
CONTINUOUS
 62
40
 10
-1.3923386E+002
 20
3.7501333E+001
 11
-1.3923386E+002
 21
2.363146E+001
  0
LINE
  8
104
  6
CONTINUOUS
 62
40
 10
-1.3923386E+002
 20
2.363146E+001
 11
-1.4884023E+002
 21
8.442438E-001
  0
ARC
  8
104
  6
CONTINUOUS
 62
40
 10
-1.54369E+002
 20
3.1749953
 40
5.9999762
 50
2.8486988E+002
 51
3.3714128E+002
  0
LINE
  8
104
  6
CONTINUOUS
 62
40
 10
-1.5282926E+002
 20
-2.6240484
 11
-1.92995E+002
 21
-1.3276896E+001
  0
LINE
  8
105
  6
HIDDEN
 62
1
 10
-1.6448374E+002
 20
5.663146E+001
 11
-1.7848374E+002
 21
5.663146E+001
  0
LINE
  8
104
  6
CONTINUOUS
 62
40
 10
-1.6648374E+002
 20
6.563146E+001
 11
-1.7848374E+002
 21
6.563146E+001
  0
LINE
  8
104
  6
CONTINUOUS
 62
40
 10
-1.7848374E+002
 20
6.563146E+001
 11
-1.7848374E+002
 21
5.363146E+001
  0
LINE
  8
104
  6
CONTINUOUS
 62
40
 10
-1.6648374E+002
 20
5.363146E+001
 11
-1.7848374E+002
 21
5.363146E+001
  0
LINE
  8
105
  6
HIDDEN
 62
1
 10
-1.6448374E+002
 20
6.263146E+001
 11
-1.7848374E+002
 21
6.263146E+001
  0
LINE
  8
105
  6
HIDDEN
 62
1
 10
-1.6448374E+002
 20
6.213146E+001
 11
-1.7848374E+002
 21
6.213146E+001
  0
LINE
  8
105
  6
HIDDEN
 62
1
 10
-1.6448374E+002
 20
5.713146E+001
 11
-1.7848374E+002
 21
5.713146E+001
  0
LINE
  8
105
  6
HIDDEN
 62
1
 10
-9.348386E+001
 20
6.1775808E+001
 11
-9.348386E+001
 21
5.4134558E+001
  0
LINE
  8
105
  6
HIDDEN
 62
1
 10
-8.748386E+001
 20
6.1775808E+001
 11
-8.748386E+001
 21
5.4134558E+001
  0
LINE
  8
105
  6
HIDDEN
 62
1
 10
-8.748386E+001
 20
5.4134558E+001
 11
-9.348386E+001
 21
5.4134558E+001
  0
LINE
  8
105
  6
HIDDEN
 62
1
 10
-9.2683857E+001
 20
6.2064489E+001
 11
-9.2683857E+001
 21
5.4134558E+001
  0
LINE
  8
105
  6
HIDDEN
 62
1
 10
-8.8283863E+001
 20
6.2064489E+001
 11
-8.8283863E+001
 21
5.4134558E+001
  0
LINE
  8
106
  6
CENTERLINE
 62
1
 10
-9.048386E+001
 20
8.9633093E+001
 11
-9.048386E+001
 21
6.9591116E+001
  0
LINE
  8
99
  6
CONTINUOUS
 62
1
 10
-9.2683857E+001
 20
6.9591116E+001
 11
-9.2683857E+001
 21
8.2134558E+001
  0
LINE
  8
99
  6
CONTINUOUS
 62
1
 10
-9.2683857E+001
 20
8.2134558E+001
 11
-9.348386E+001
 21
8.3000585E+001
  0
LINE
  8
99
  6
CONTINUOUS
 62
1
 10
-8.8283863E+001
 20
6.9591116E+001
 11
-8.8283863E+001
 21
8.2134558E+001
  0
LINE
  8
99
  6
CONTINUOUS
 62
1
 10
-8.8283863E+001
 20
8.2134558E+001
 11
-8.748386E+001
 21
8.3000585E+001
  0
LINE
  8
104
  6
CONTINUOUS
 62
40
 10
-9.348386E+001
 20
8.4134558E+001
 11
-9.348386E+001
 21
6.9591116E+001
  0
LINE
  8
104
  6
CONTINUOUS
 62
40
 10
-8.748386E+001
 20
6.9591116E+001
 11
-8.748386E+001
 21
8.4134558E+001
  0
LINE
  8
104
  6
CONTINUOUS
 62
40
 10
-9.348386E+001
 20
8.2134558E+001
 11
-8.748386E+001
 21
8.2134558E+001
  0
LINE
  8
104
  6
CONTINUOUS
 62
40
 10
-9.6008854E+001
 20
8.4134558E+001
 11
-8.4958836E+001
 21
8.4134558E+001
  0
LINE
  8
104
  6
CONTINUOUS
 62
40
 10
-8.4958836E+001
 20
8.7699133E+001
 11
-8.5707615E+001
 21
8.8131445E+001
  0
LINE
  8
104
  6
CONTINUOUS
 62
40
 10
-8.5707615E+001
 20
8.8131445E+001
 11
-9.5260075E+001
 21
8.8131445E+001
  0
LINE
  8
104
  6
CONTINUOUS
 62
40
 10
-9.5260075E+001
 20
8.8131445E+001
 11
-9.6008854E+001
 21
8.7699133E+001
  0
LINE
  8
104
  6
CONTINUOUS
 62
40
 10
-8.7485447E+001
 20
8.4134558E+001
 11
-8.7485447E+001
 21
8.7572607E+001
  0
ARC
  8
104
  6
CONTINUOUS
 62
40
 10
-9.4894525E+001
 20
8.6215489E+001
 40
1.8555129
 50
1.0657282E+002
 51
1.2690932E+002
  0
ARC
  8
104
  6
CONTINUOUS
 62
40
 10
-9.4862368E+001
 20
8.6101207E+001
 40
1.9742207
 50
8.7007559E+001
 51
1.0652127E+002
  0
ARC
  8
104
  6
CONTINUOUS
 62
40
 10
-9.4870462E+001
 20
8.5940438E+001
 40
2.1351925
 50
6.849565E+001
 51
8.7015883E+001
  0
ARC
  8
104
  6
CONTINUOUS
 62
40
 10
-9.4918195E+001
 20
8.5813776E+001
 40
2.2705362
 50
5.0770465E+001
 51
6.8546619E+001
  0
ARC
  8
104
  6
CONTINUOUS
 62
40
 10
-9.0483805E+001
 20
7.9854559E+001
 40
8.280001
 50
6.876952E+001
 51
1.1123107E+002
  0
ARC
  8
104
  6
CONTINUOUS
 62
40
 10
-8.6049549E+001
 20
8.5813837E+001
 40
2.2704791
 50
1.114526E+002
 51
1.2922896E+002
  0
ARC
  8
104
  6
CONTINUOUS
 62
40
 10
-8.6097262E+001
 20
8.5940452E+001
 40
2.1351864
 50
9.2983375E+001
 51
1.1150355E+002
  0
ARC
  8
104
  6
CONTINUOUS
 62
40
 10
-8.6105351E+001
 20
8.610117E+001
 40
1.9742651
 50
7.3478374E+001
 51
9.29917E+001
  0
ARC
  8
104
  6
CONTINUOUS
 62
40
 10
-8.6073201E+001
 20
8.6215425E+001
 40
1.8555858
 50
5.309098E+001
 51
7.3426855E+001
  0
LINE
  8
104
  6
CONTINUOUS
 62
40
 10
-8.4958836E+001
 20
8.7699133E+001
 11
-8.4958836E+001
 21
8.4134558E+001
  0
LINE
  8
104
  6
CONTINUOUS
 62
40
 10
-9.6008854E+001
 20
8.7699133E+001
 11
-9.6008854E+001
 21
8.4134558E+001
  0
LINE
  8
104
  6
CONTINUOUS
 62
40
 10
-9.3482273E+001
 20
8.4134558E+001
 11
-9.3482273E+001
 21
8.7572576E+001
  0
LINE
  8
105
  6
HIDDEN
 62
1
 10
-3.673386E+001
 20
4.9631445E+001
 11
-3.673386E+001
 21
6.1631445E+001
  0
LINE
  8
105
  6
HIDDEN
 62
1
 10
-3.673386E+001
 20
6.1631445E+001
 11
-3.023386E+001
 21
6.1631445E+001
  0
LINE
  8
105
  6
HIDDEN
 62
1
 10
-3.023386E+001
 20
6.1631445E+001
 11
-3.023386E+001
 21
4.9631445E+001
  0
LINE
  8
105
  6
HIDDEN
 62
1
 10
-3.673386E+001
 20
6.1631445E+001
 11
-3.5683872E+001
 21
6.2064459E+001
  0
LINE
  8
105
  6
HIDDEN
 62
1
 10
-3.5683872E+001
 20
6.2064459E+001
 11
-3.1283848E+001
 21
6.2064459E+001
  0
LINE
  8
105
  6
HIDDEN
 62
1
 10
-3.1283848E+001
 20
6.2064459E+001
 11
-3.023386E+001
 21
6.1631445E+001
  0
LINE
  8
105
  6
HIDDEN
 62
1
 10
-3.048386E+001
 20
6.1775778E+001
 11
-3.048386E+001
 21
6.9631445E+001
  0
LINE
  8
105
  6
HIDDEN
 62
1
 10
-3.1283848E+001
 20
6.9631445E+001
 11
-3.1283848E+001
 21
6.2064459E+001
  0
LINE
  8
105
  6
HIDDEN
 62
1
 10
-3.5683872E+001
 20
6.9591085E+001
 11
-3.5683872E+001
 21
6.2064459E+001
  0
LINE
  8
105
  6
HIDDEN
 62
1
 10
-3.648386E+001
 20
6.9631445E+001
 11
-3.648386E+001
 21
6.1775778E+001
  0
LINE
  8
105
  6
HIDDEN
 62
1
 10
-3.648386E+001
 20
6.1775778E+001
 11
-3.648386E+001
 21
5.4134527E+001
  0
LINE
  8
105
  6
HIDDEN
 62
1
 10
-3.048386E+001
 20
6.1775778E+001
 11
-3.048386E+001
 21
5.4134527E+001
  0
LINE
  8
105
  6
HIDDEN
 62
1
 10
-3.048386E+001
 20
5.4134527E+001
 11
-3.648386E+001
 21
5.4134527E+001
  0
LINE
  8
105
  6
HIDDEN
 62
1
 10
-3.5683872E+001
 20
6.2064459E+001
 11
-3.5683872E+001
 21
5.4134527E+001
  0
LINE
  8
105
  6
HIDDEN
 62
1
 10
-3.1283848E+001
 20
6.2064459E+001
 11
-3.1283848E+001
 21
5.4134527E+001
  0
LINE
  8
106
  6
CENTERLINE
 62
1
 10
-3.348386E+001
 20
8.9633062E+001
 11
-3.348386E+001
 21
6.9591085E+001
  0
LINE
  8
99
  6
CONTINUOUS
 62
1
 10
-3.5683872E+001
 20
6.9591085E+001
 11
-3.5683872E+001
 21
8.2134527E+001
  0
LINE
  8
99
  6
CONTINUOUS
 62
1
 10
-3.5683872E+001
 20
8.2134527E+001
 11
-3.648386E+001
 21
8.3000555E+001
  0
LINE
  8
99
  6
CONTINUOUS
 62
1
 10
-3.1283848E+001
 20
6.9591085E+001
 11
-3.1283848E+001
 21
8.2134527E+001
  0
LINE
  8
99
  6
CONTINUOUS
 62
1
 10
-3.1283848E+001
 20
8.2134527E+001
 11
-3.048386E+001
 21
8.3000555E+001
  0
LINE
  8
104
  6
CONTINUOUS
 62
40
 10
-3.648386E+001
 20
8.4134527E+001
 11
-3.648386E+001
 21
6.9591085E+001
  0
LINE
  8
104
  6
CONTINUOUS
 62
40
 10
-3.048386E+001
 20
6.9591085E+001
 11
-3.048386E+001
 21
8.4134527E+001
  0
LINE
  8
104
  6
CONTINUOUS
 62
40
 10
-3.648386E+001
 20
8.2134527E+001
 11
-3.048386E+001
 21
8.2134527E+001
  0
LINE
  8
104
  6
CONTINUOUS
 62
40
 10
-3.9008854E+001
 20
8.4134527E+001
 11
-2.7958836E+001
 21
8.4134527E+001
  0
LINE
  8
104
  6
CONTINUOUS
 62
40
 10
-2.7958836E+001
 20
8.7699102E+001
 11
-2.8707615E+001
 21
8.8131414E+001
  0
LINE
  8
104
  6
CONTINUOUS
 62
40
 10
-2.8707615E+001
 20
8.8131414E+001
 11
-3.8260075E+001
 21
8.8131414E+001
  0
LINE
  8
104
  6
CONTINUOUS
 62
40
 10
-3.8260075E+001
 20
8.8131414E+001
 11
-3.9008854E+001
 21
8.7699102E+001
  0
LINE
  8
104
  6
CONTINUOUS
 62
40
 10
-3.0485447E+001
 20
8.4134527E+001
 11
-3.0485447E+001
 21
8.7572576E+001
  0
ARC
  8
104
  6
CONTINUOUS
 62
40
 10
-3.7894514E+001
 20
8.6215441E+001
 40
1.855533
 50
1.0657288E+002
 51
1.2690927E+002
  0
ARC
  8
104
  6
CONTINUOUS
 62
40
 10
-3.7862363E+001
 20
8.6101177E+001
 40
1.9742217
 50
8.7007598E+001
 51
1.0652134E+002
  0
ARC
  8
104
  6
CONTINUOUS
 62
40
 10
-3.7870455E+001
 20
8.5940428E+001
 40
2.1351742
 50
6.8495549E+001
 51
8.7015916E+001
  0
ARC
  8
104
  6
CONTINUOUS
 62
40
 10
-3.7918186E+001
 20
8.5813776E+001
 40
2.2705068
 50
5.0770176E+001
 51
6.854651E+001
  0
ARC
  8
104
  6
CONTINUOUS
 62
40
 10
-3.3483806E+001
 20
7.9854528E+001
 40
8.2800014
 50
6.8769511E+001
 51
1.1123106E+002
  0
ARC
  8
104
  6
CONTINUOUS
 62
40
 10
-2.9049551E+001
 20
8.5813811E+001
 40
2.2704741
 50
1.1145261E+002
 51
1.29229E+002
  0
ARC
  8
104
  6
CONTINUOUS
 62
40
 10
-2.9097263E+001
 20
8.5940423E+001
 40
2.1351845
 50
9.2983373E+001
 51
1.1150356E+002
  0
ARC
  8
104
  6
CONTINUOUS
 62
40
 10
-2.9105352E+001
 20
8.6101138E+001
 40
1.9742666
 50
7.347838E+001
 51
9.2991697E+001
  0
ARC
  8
104
  6
CONTINUOUS
 62
40
 10
-2.9073202E+001
 20
8.621539E+001
 40
1.8555899
 50
5.3091017E+001
 51
7.3426863E+001
  0
LINE
  8
104
  6
CONTINUOUS
 62
40
 10
-2.7958836E+001
 20
8.7699102E+001
 11
-2.7958836E+001
 21
8.4134527E+001
  0
LINE
  8
104
  6
CONTINUOUS
 62
40
 10
-3.9008854E+001
 20
8.7699102E+001
 11
-3.9008854E+001
 21
8.4134527E+001
  0
LINE
  8
104
  6
CONTINUOUS
 62
40
 10
-3.6482273E+001
 20
8.4134527E+001
 11
-3.6482273E+001
 21
8.7572546E+001
  0
LINE
  8
106
  6
CENTERLINE
 62
1
 10
4.3771741E+001
 20
6.2787361E+001
 11
6.3813733E+001
 21
6.2787361E+001
  0
LINE
  8
106
  6
CENTERLINE
 62
1
 10
6.3813733E+001
 20
6.2787361E+001
 11
6.67599E+001
 21
6.2787361E+001
  0
LINE
  8
105
  6
HIDDEN
 62
1
 10
6.3813733E+001
 20
6.5287361E+001
 11
5.1270276E+001
 21
6.5287361E+001
  0
LINE
  8
105
  6
HIDDEN
 62
1
 10
5.1270276E+001
 20
6.5287361E+001
 11
5.0404248E+001
 21
6.5787361E+001
  0
LINE
  8
105
  6
HIDDEN
 62
1
 10
6.3813733E+001
 20
6.0287361E+001
 11
5.1270276E+001
 21
6.0287361E+001
  0
LINE
  8
105
  6
HIDDEN
 62
1
 10
5.1270276E+001
 20
6.0287361E+001
 11
5.0404248E+001
 21
5.9787361E+001
  0
LINE
  8
105
  6
HIDDEN
 62
1
 10
4.9270276E+001
 20
6.5787361E+001
 11
6.3813733E+001
 21
6.5787361E+001
  0
LINE
  8
105
  6
HIDDEN
 62
1
 10
6.3813733E+001
 20
5.9787361E+001
 11
4.9270276E+001
 21
5.9787361E+001
  0
LINE
  8
104
  6
CONTINUOUS
 62
40
 10
5.4035855E+001
 20
6.5787361E+001
 11
4.9270276E+001
 21
6.5787361E+001
  0
LINE
  8
104
  6
CONTINUOUS
 62
40
 10
5.4035855E+001
 20
5.9787361E+001
 11
4.9270276E+001
 21
5.9787361E+001
  0
LINE
  8
104
  6
CONTINUOUS
 62
40
 10
5.1270276E+001
 20
6.5787361E+001
 11
5.1270276E+001
 21
5.9787361E+001
  0
LINE
  8
104
  6
CONTINUOUS
 62
40
 10
4.9270276E+001
 20
6.8312355E+001
 11
4.9270276E+001
 21
5.7262336E+001
  0
LINE
  8
104
  6
CONTINUOUS
 62
40
 10
4.5705701E+001
 20
5.7262336E+001
 11
4.5273388E+001
 21
5.8011115E+001
  0
LINE
  8
104
  6
CONTINUOUS
 62
40
 10
4.5273388E+001
 20
5.8011115E+001
 11
4.5273388E+001
 21
6.7563575E+001
  0
LINE
  8
104
  6
CONTINUOUS
 62
40
 10
4.5273388E+001
 20
6.7563575E+001
 11
4.5705701E+001
 21
6.8312355E+001
  0
LINE
  8
104
  6
CONTINUOUS
 62
40
 10
4.9270276E+001
 20
5.9788948E+001
 11
4.5832226E+001
 21
5.9788948E+001
  0
ARC
  8
104
  6
CONTINUOUS
 62
40
 10
4.7189345E+001
 20
6.7198027E+001
 40
1.8555125
 50
1.430907E+002
 51
1.634272E+002
  0
ARC
  8
104
  6
CONTINUOUS
 62
40
 10
4.7303632E+001
 20
6.7165869E+001
 40
1.974225
 50
1.6347874E+002
 51
1.8299242E+002
  0
ARC
  8
104
  6
CONTINUOUS
 62
40
 10
4.7464402E+001
 20
6.7173962E+001
 40
2.1351987
 50
1.8298409E+002
 51
2.0150428E+002
  0
ARC
  8
104
  6
CONTINUOUS
 62
40
 10
4.7591062E+001
 20
6.7221695E+001
 40
2.2705401
 50
2.0145331E+002
 51
2.1922943E+002
  0
ARC
  8
104
  6
CONTINUOUS
 62
40
 10
5.3550274E+001
 20
6.2787306E+001
 40
8.2800008
 50
1.5876893E+002
 51
2.0123048E+002
  0
ARC
  8
104
  6
CONTINUOUS
 62
40
 10
4.759101E+001
 20
5.835304E+001
 40
2.2704963
 50
1.4077109E+002
 51
1.585474E+002
  0
ARC
  8
104
  6
CONTINUOUS
 62
40
 10
4.746438E+001
 20
5.840076E+001
 40
2.1351875
 50
1.5849644E+002
 51
1.7701664E+002
  0
ARC
  8
104
  6
CONTINUOUS
 62
40
 10
4.7303648E+001
 20
5.8408849E+001
 40
1.9742523
 50
1.7700831E+002
 51
1.9652175E+002
  0
ARC
  8
104
  6
CONTINUOUS
 62
40
 10
4.7189388E+001
 20
5.8376697E+001
 40
1.855567
 50
1.9657328E+002
 51
2.1690932E+002
  0
LINE
  8
104
  6
CONTINUOUS
 62
40
 10
4.5705701E+001
 20
5.7262336E+001
 11
4.9270276E+001
 21
5.7262336E+001
  0
LINE
  8
104
  6
CONTINUOUS
 62
40
 10
4.5705701E+001
 20
6.8312355E+001
 11
4.9270276E+001
 21
6.8312355E+001
  0
LINE
  8
104
  6
CONTINUOUS
 62
40
 10
4.9270276E+001
 20
6.5785774E+001
 11
4.5832257E+001
 21
6.5785774E+001
  0
LINE
  8
105
  6
HIDDEN
 62
1
 10
1.3522227E+002
 20
6.3805908E+001
 11
1.2477042E+002
 21
6.3805908E+001
  0
LINE
  8
105
  6
HIDDEN
 62
1
 10
1.3508052E+002
 20
6.1101066E+001
 11
1.2462867E+002
 21
6.1101066E+001
  0
LINE
  8
105
  6
HIDDEN
 62
1
 10
1.3569297E+002
 20
7.2787361E+001
 11
1.3522227E+002
 21
6.3805908E+001
  0
LINE
  8
105
  6
HIDDEN
 62
1
 10
1.3522227E+002
 20
6.3805908E+001
 11
1.3508052E+002
 21
6.1101066E+001
  0
LINE
  8
105
  6
HIDDEN
 62
1
 10
1.3508052E+002
 20
6.1101066E+001
 11
1.3569297E+002
 21
5.2787361E+001
  0
LINE
  8
105
  6
HIDDEN
 62
1
 10
1.2419297E+002
 20
5.2787361E+001
 11
1.2466574E+002
 21
6.1808303E+001
  0
LINE
  8
105
  6
HIDDEN
 62
1
 10
1.2466574E+002
 20
6.1808303E+001
 11
1.2479524E+002
 21
6.4279373E+001
  0
LINE
  8
105
  6
HIDDEN
 62
1
 10
1.2479524E+002
 20
6.4279373E+001
 11
1.2402339E+002
 21
7.2787361E+001
  0
LINE
  8
106
  6
CENTERLINE
 62
1
 10
7.3942967E+001
 20
6.7616874E+001
 11
7.3942967E+001
 21
5.6787361E+001
  0
LINE
  8
106
  6
CENTERLINE
 62
1
 10
6.4942967E+001
 20
5.7178459E+001
 11
6.4942967E+001
 21
6.8396278E+001
  0
CIRCLE
  8
104
  6
CONTINUOUS
 62
40
 10
7.3942971E+001
 20
6.2787361E+001
 40
4.0
  0
CIRCLE
  8
104
  6
CONTINUOUS
 62
40
 10
6.4942971E+001
 20
6.2787361E+001
 40
4.0
  0
LINE
  8
104
  6
CONTINUOUS
 62
40
 10
1.0194298E+002
 20
6.7787361E+001
 11
1.0194298E+002
 21
5.7787361E+001
  0
LINE
  8
106
  6
CENTERLINE
 62
1
 10
1.2994297E+002
 20
7.5864631E+001
 11
1.2994297E+002
 21
4.6009719E+001
  0
LINE
  8
106
  6
CENTERLINE
 62
1
 10
6.8674786E+001
 20
6.2787361E+001
 11
6.67599E+001
 21
6.2787361E+001
  0
LINE
  8
106
  6
CENTERLINE
 62
1
 10
6.67599E+001
 20
6.2787361E+001
 11
7.7935925E+001
 21
6.2787361E+001
  0
LINE
  8
106
  6
CENTERLINE
 62
1
 10
7.7935925E+001
 20
6.2787361E+001
 11
8.0182263E+001
 21
6.2787361E+001
  0
LINE
  8
99
  6
CONTINUOUS
 62
1
 10
1.1027339E+002
 20
6.6787361E+001
 11
1.1027339E+002
 21
5.8787361E+001
  0
LINE
  8
104
  6
CONTINUOUS
 62
40
 10
9.1273388E+001
 20
5.7787361E+001
 11
9.1273388E+001
 21
5.5287361E+001
  0
LINE
  8
104
  6
CONTINUOUS
 62
40
 10
9.1273388E+001
 20
5.5287361E+001
 11
8.9273388E+001
 21
5.3287361E+001
  0
LINE
  8
104
  6
CONTINUOUS
 62
40
 10
8.9273388E+001
 20
5.3287361E+001
 11
8.7773388E+001
 21
5.3287361E+001
  0
LINE
  8
104
  6
CONTINUOUS
 62
40
 10
8.7773388E+001
 20
5.3287361E+001
 11
8.7773388E+001
 21
5.5787361E+001
  0
LINE
  8
104
  6
CONTINUOUS
 62
40
 10
8.7773388E+001
 20
5.5787361E+001
 11
8.3773388E+001
 21
5.5787361E+001
  0
LINE
  8
104
  6
CONTINUOUS
 62
40
 10
8.3773388E+001
 20
5.5787361E+001
 11
8.3773388E+001
 21
5.3287361E+001
  0
LINE
  8
104
  6
CONTINUOUS
 62
40
 10
8.3773388E+001
 20
5.3287361E+001
 11
6.0273388E+001
 21
5.3287361E+001
  0
LINE
  8
104
  6
CONTINUOUS
 62
40
 10
6.0273388E+001
 20
5.3287361E+001
 11
6.0273388E+001
 21
5.5787361E+001
  0
LINE
  8
104
  6
CONTINUOUS
 62
40
 10
6.0273388E+001
 20
5.5787361E+001
 11
5.6218457E+001
 21
5.5787361E+001
  0
ARC
  8
104
  6
CONTINUOUS
 62
40
 10
5.621844E+001
 20
5.7787323E+001
 40
1.9999615
 50
1.8499915E+002
 51
2.700005E+002
  0
LINE
  8
104
  6
CONTINUOUS
 62
40
 10
5.4226086E+001
 20
5.7613044E+001
 11
5.3773388E+001
 21
6.2787361E+001
  0
LINE
  8
104
  6
CONTINUOUS
 62
40
 10
5.3773388E+001
 20
6.2787361E+001
 11
5.4226086E+001
 21
6.7961677E+001
  0
ARC
  8
104
  6
CONTINUOUS
 62
40
 10
5.6218457E+001
 20
6.778738E+001
 40
1.9999808
 50
9.0000011E+001
 51
1.7500037E+002
  0
LINE
  8
104
  6
CONTINUOUS
 62
40
 10
5.6218457E+001
 20
6.9787361E+001
 11
6.0273388E+001
 21
6.9787361E+001
  0
LINE
  8
104
  6
CONTINUOUS
 62
40
 10
6.0273388E+001
 20
6.9787361E+001
 11
6.0273388E+001
 21
7.2287361E+001
  0
LINE
  8
104
  6
CONTINUOUS
 62
40
 10
6.0273388E+001
 20
7.2287361E+001
 11
8.3773388E+001
 21
7.2287361E+001
  0
LINE
  8
104
  6
CONTINUOUS
 62
40
 10
8.3773388E+001
 20
7.2287361E+001
 11
8.3773388E+001
 21
6.9787361E+001
  0
LINE
  8
104
  6
CONTINUOUS
 62
40
 10
8.3773388E+001
 20
6.9787361E+001
 11
8.7773388E+001
 21
6.9787361E+001
  0
LINE
  8
104
  6
CONTINUOUS
 62
40
 10
8.7773388E+001
 20
6.9787361E+001
 11
8.7773388E+001
 21
7.2287361E+001
  0
LINE
  8
104
  6
CONTINUOUS
 62
40
 10
8.7773388E+001
 20
7.2287361E+001
 11
8.9273388E+001
 21
7.2287361E+001
  0
LINE
  8
104
  6
CONTINUOUS
 62
40
 10
8.9273388E+001
 20
7.2287361E+001
 11
9.1273388E+001
 21
7.0287361E+001
  0
LINE
  8
104
  6
CONTINUOUS
 62
40
 10
9.1273388E+001
 20
7.0287361E+001
 11
9.1273388E+001
 21
6.7787361E+001
  0
LINE
  8
105
  6
HIDDEN
 62
1
 10
9.1273388E+001
 20
5.7787361E+001
 11
9.1273388E+001
 21
6.7787361E+001
  0
LINE
  8
104
  6
CONTINUOUS
 62
40
 10
9.3273388E+001
 20
5.7787361E+001
 11
8.9773388E+001
 21
5.7787361E+001
  0
LINE
  8
104
  6
CONTINUOUS
 62
40
 10
8.9773388E+001
 20
5.7787361E+001
 11
8.7273388E+001
 21
5.6787361E+001
  0
LINE
  8
104
  6
CONTINUOUS
 62
40
 10
8.7273388E+001
 20
5.6787361E+001
 11
6.2630993E+001
 21
5.6787361E+001
  0
ARC
  8
104
  6
CONTINUOUS
 62
40
 10
6.2630968E+001
 20
5.8787347E+001
 40
1.9999855
 50
1.8499978E+002
 51
2.7000073E+002
  0
LINE
  8
104
  6
CONTINUOUS
 62
40
 10
6.0638592E+001
 20
5.8613044E+001
 11
6.0273388E+001
 21
6.2787361E+001
  0
LINE
  8
104
  6
CONTINUOUS
 62
40
 10
6.0273388E+001
 20
6.2787361E+001
 11
6.0638592E+001
 21
6.6961677E+001
  0
ARC
  8
104
  6
CONTINUOUS
 62
40
 10
6.2630984E+001
 20
6.6787365E+001
 40
2.0000031
 50
8.9999756E+001
 51
1.7499999E+002
  0
LINE
  8
104
  6
CONTINUOUS
 62
40
 10
6.2630993E+001
 20
6.8787368E+001
 11
8.3773388E+001
 21
6.8787368E+001
  0
LINE
  8
104
  6
CONTINUOUS
 62
40
 10
8.3773388E+001
 20
6.8787368E+001
 11
8.7273388E+001
 21
6.8787368E+001
  0
LINE
  8
104
  6
CONTINUOUS
 62
40
 10
8.7273388E+001
 20
6.8787368E+001
 11
8.9773388E+001
 21
6.7787361E+001
  0
LINE
  8
104
  6
CONTINUOUS
 62
40
 10
8.9773388E+001
 20
6.7787361E+001
 11
9.3273388E+001
 21
6.7787361E+001
  0
LINE
  8
104
  6
CONTINUOUS
 62
40
 10
9.3273388E+001
 20
6.7787361E+001
 11
1.121067E+002
 21
6.7787361E+001
  0
LINE
  8
104
  6
CONTINUOUS
 62
40
 10
1.121067E+002
 20
6.7787361E+001
 11
1.1254085E+002
 21
6.7787361E+001
  0
LINE
  8
104
  6
CONTINUOUS
 62
40
 10
1.1254085E+002
 20
6.7787361E+001
 11
1.2607264E+002
 21
6.7787361E+001
  0
LINE
  8
104
  6
CONTINUOUS
 62
40
 10
1.2607264E+002
 20
6.7787361E+001
 11
1.2822506E+002
 21
6.8584396E+001
  0
LINE
  8
104
  6
CONTINUOUS
 62
40
 10
1.2822506E+002
 20
6.8584396E+001
 11
1.2903222E+002
 21
6.9660602E+001
  0
LINE
  8
104
  6
CONTINUOUS
 62
40
 10
9.3273388E+001
 20
5.7787361E+001
 11
1.1194298E+002
 21
5.7787361E+001
  0
LINE
  8
104
  6
CONTINUOUS
 62
40
 10
1.1194298E+002
 20
5.7787361E+001
 11
1.1253959E+002
 21
5.7787361E+001
  0
LINE
  8
104
  6
CONTINUOUS
 62
40
 10
1.1253959E+002
 20
5.7787361E+001
 11
1.2607264E+002
 21
5.7787361E+001
  0
LINE
  8
104
  6
CONTINUOUS
 62
40
 10
1.2607264E+002
 20
5.7787361E+001
 11
1.2728338E+002
 21
5.7015148E+001
  0
LINE
  8
104
  6
CONTINUOUS
 62
40
 10
1.2728338E+002
 20
5.7015148E+001
 11
1.2822506E+002
 21
5.5938941E+001
  0
ARC
  8
105
  6
HIDDEN
 62
1
 10
6.6130981E+001
 20
6.6787361E+001
 40
2.0000005
 50
8.9999668E+001
 51
1.7499986E+002
  0
LINE
  8
105
  6
HIDDEN
 62
1
 10
6.4138592E+001
 20
6.6961677E+001
 11
6.3773388E+001
 21
6.2787361E+001
  0
LINE
  8
105
  6
HIDDEN
 62
1
 10
6.3773388E+001
 20
6.2787361E+001
 11
6.4138592E+001
 21
5.8613044E+001
  0
ARC
  8
105
  6
HIDDEN
 62
1
 10
6.6130965E+001
 20
5.8787364E+001
 40
1.999984
 50
1.8500029E+002
 51
2.7000081E+002
  0
LINE
  8
104
  6
CONTINUOUS
 62
40
 10
1.2292042E+002
 20
5.2787361E+001
 11
1.3661714E+002
 21
5.2787361E+001
  0
LINE
  8
104
  6
CONTINUOUS
 62
40
 10
1.3661714E+002
 20
7.2787361E+001
 11
1.2292042E+002
 21
7.2787361E+001
  0
LINE
  8
104
  6
CONTINUOUS
 62
40
 10
1.3552342E+002
 20
7.2787361E+001
 11
1.3647236E+002
 21
7.2787361E+001
  0
LINE
  8
104
  6
CONTINUOUS
 62
40
 10
1.3647236E+002
 20
7.2787361E+001
 11
1.4381617E+002
 21
7.2787376E+001
  0
ARC
  8
104
  6
CONTINUOUS
 62
40
 10
1.4381617E+002
 20
6.9787365E+001
 40
3.0000108
 50
5.0000308
 51
8.9999853E+001
  0
LINE
  8
104
  6
CONTINUOUS
 62
40
 10
1.4680476E+002
 20
7.0048835E+001
 11
1.4744008E+002
 21
6.2787361E+001
  0
LINE
  8
104
  6
CONTINUOUS
 62
40
 10
1.4744008E+002
 20
6.2787361E+001
 11
1.4680476E+002
 21
5.5525855E+001
  0
ARC
  8
104
  6
CONTINUOUS
 62
40
 10
1.438162E+002
 20
5.5787341E+001
 40
2.9999771
 50
2.6999947E+002
 51
3.549996E+002
  0
LINE
  8
104
  6
CONTINUOUS
 62
40
 10
1.4381617E+002
 20
5.2787364E+001
 11
1.3647236E+002
 21
5.2787364E+001
  0
LINE
  8
104
  6
CONTINUOUS
 62
40
 10
1.2307441E+002
 20
5.2787361E+001
 11
1.157306E+002
 21
5.2787361E+001
  0
ARC
  8
104
  6
CONTINUOUS
 62
40
 10
1.1573058E+002
 20
5.5787342E+001
 40
2.999981
 50
1.8500041E+002
 51
2.7000045E+002
  0
LINE
  8
104
  6
CONTINUOUS
 62
40
 10
1.1274202E+002
 20
5.5525855E+001
 11
1.121067E+002
 21
5.7787361E+001
  0
LINE
  8
104
  6
CONTINUOUS
 62
40
 10
1.121067E+002
 20
6.7787361E+001
 11
1.1274202E+002
 21
7.0048835E+001
  0
ARC
  8
104
  6
CONTINUOUS
 62
40
 10
1.1573061E+002
 20
6.9787371E+001
 40
3.0000054
 50
9.0000053E+001
 51
1.7500006E+002
  0
LINE
  8
104
  6
CONTINUOUS
 62
40
 10
1.157306E+002
 20
7.2787376E+001
 11
1.2402339E+002
 21
7.2787361E+001
  0
POINT
  8
Drafting_Hidden_Entities
  6
CONTINUOUS
 62
1
 10
0.0
 20
0.0
  0
ENDBLK
  0
BLOCK
  2
11NEW00
 10
0.0
 20
0.0
 70
0
  0
TEXT
  8
103
  6
CONTINUOUS
 62
40
 10
-1.8141216E+002
 20
9.0602533E+001
 40
7.0
  1
Tuerhebel 7456/1
 41
6.609375E-001
 72
1
 11
-2.1842466E+002
 21
8.7102533E+001
 73
2
  0
LINE
  8
106
  6
CENTERLINE
 62
1
 10
-1.1398386E+002
 20
8.8131445E+001
 11
-1.1398386E+002
 21
4.213146E+001
  0
LINE
  8
106
  6
CENTERLINE
 62
1
 10
-6.198386E+001
 20
8.4165624E+001
 11
-6.198386E+001
 21
4.6750265E+001
  0
LINE
  8
106
  6
CENTERLINE
 62
1
 10
-9.98386
 20
8.4165624E+001
 11
-9.98386
 21
4.213146E+001
  0
LINE
  8
106
  6
CENTERLINE
 62
1
 10
-1.6925869E+002
 20
5.963146E+001
 11
-1.8213436E+002
 21
5.963146E+001
  0
LINE
  8
106
  6
CENTERLINE
 62
1
 10
-1.8213436E+002
 20
5.963146E+001
 11
-1.478134E+002
 21
5.963146E+001
  0
LINE
  8
106
  6
CENTERLINE
 62
1
 10
-9.048386E+001
 20
7.5174429E+001
 11
-9.048386E+001
 21
4.2303335E+001
  0
LINE
  8
106
  6
CENTERLINE
 62
1
 10
-3.348386E+001
 20
4.2303335E+001
 11
-3.348386E+001
 21
7.6721304E+001
  0
LINE
  8
105
  6
HIDDEN
 62
1
 10
-9.373386E+001
 20
4.9631475E+001
 11
-9.373386E+001
 21
6.1631475E+001
  0
LINE
  8
105
  6
HIDDEN
 62
1
 10
-9.373386E+001
 20
6.1631475E+001
 11
-8.723386E+001
 21
6.1631475E+001
  0
LINE
  8
105
  6
HIDDEN
 62
1
 10
-8.723386E+001
 20
6.1631475E+001
 11
-8.723386E+001
 21
4.9631475E+001
  0
LINE
  8
105
  6
HIDDEN
 62
1
 10
-9.373386E+001
 20
6.1631475E+001
 11
-9.2683857E+001
 21
6.2064489E+001
  0
LINE
  8
105
  6
HIDDEN
 62
1
 10
-9.2683857E+001
 20
6.2064489E+001
 11
-8.8283863E+001
 21
6.2064489E+001
  0
LINE
  8
105
  6
HIDDEN
 62
1
 10
-8.8283863E+001
 20
6.2064489E+001
 11
-8.723386E+001
 21
6.1631475E+001
  0
LINE
  8
105
  6
HIDDEN
 62
1
 10
-8.748386E+001
 20
6.1775808E+001
 11
-8.748386E+001
 21
6.9631475E+001
  0
LINE
  8
105
  6
HIDDEN
 62
1
 10
-8.8283863E+001
 20
6.9631475E+001
 11
-8.8283863E+001
 21
6.2064489E+001
  0
LINE
  8
105
  6
HIDDEN
 62
1
 10
-9.2683857E+001
 20
6.9591116E+001
 11
-9.2683857E+001
 21
6.2064489E+001
  0
LINE
  8
105
  6
HIDDEN
 62
1
 10
-9.348386E+001
 20
6.9631475E+001
 11
-9.348386E+001
 21
6.1775808E+001
  0
LINE
  8
105
  6
HIDDEN
 62
1
 10
-1.6648374E+002
 20
7.263146E+001
 11
-1.6448374E+002
 21
7.263146E+001
  0
LINE
  8
105
  6
HIDDEN
 62
1
 10
-1.6448374E+002
 20
7.263146E+001
 11
-1.6448374E+002
 21
6.463146E+001
  0
LINE
  8
105
  6
HIDDEN
 62
1
 10
-1.6448374E+002
 20
6.463146E+001
 11
-1.6648374E+002
 21
6.463146E+001
  0
LINE
  8
105
  6
HIDDEN
 62
1
 10
-1.6448374E+002
 20
6.613146E+001
 11
-1.5148374E+002
 21
6.613146E+001
  0
LINE
  8
105
  6
HIDDEN
 62
1
 10
-1.5148374E+002
 20
6.613146E+001
 11
-1.5004036E+002
 21
6.863146E+001
  0
LINE
  8
105
  6
HIDDEN
 62
1
 10
-1.5004036E+002
 20
6.863146E+001
 11
-1.5148374E+002
 21
7.113146E+001
  0
LINE
  8
105
  6
HIDDEN
 62
1
 10
-1.5148374E+002
 20
7.113146E+001
 11
-1.6448374E+002
 21
7.113146E+001
  0
LINE
  8
105
  6
HIDDEN
 62
1
 10
-1.6448374E+002
 20
7.163146E+001
 11
-1.5448374E+002
 21
7.163146E+001
  0
LINE
  8
105
  6
HIDDEN
 62
1
 10
-1.5448374E+002
 20
7.163146E+001
 11
-1.5448374E+002
 21
6.563146E+001
  0
LINE
  8
105
  6
HIDDEN
 62
1
 10
-1.5448374E+002
 20
6.563146E+001
 11
-1.6448374E+002
 21
6.563146E+001
  0
LINE
  8
105
  6
HIDDEN
 62
1
 10
-1.5148374E+002
 20
6.613146E+001
 11
-1.5148374E+002
 21
7.113146E+001
  0
LINE
  8
105
  6
HIDDEN
 62
1
 10
-1.6648374E+002
 20
6.363146E+001
 11
-1.6448374E+002
 21
6.363146E+001
  0
LINE
  8
105
  6
HIDDEN
 62
1
 10
-1.6448374E+002
 20
6.363146E+001
 11
-1.6448374E+002
 21
5.563146E+001
  0
LINE
  8
105
  6
HIDDEN
 62
1
 10
-1.6448374E+002
 20
5.563146E+001
 11
-1.6648374E+002
 21
5.563146E+001
  0
LINE
  8
105
  6
HIDDEN
 62
1
 10
-1.6448374E+002
 20
5.713146E+001
 11
-1.5148374E+002
 21
5.713146E+001
  0
LINE
  8
105
  6
HIDDEN
 62
1
 10
-1.5148374E+002
 20
5.713146E+001
 11
-1.5004036E+002
 21
5.963146E+001
  0
LINE
  8
105
  6
HIDDEN
 62
1
 10
-1.5004036E+002
 20
5.963146E+001
 11
-1.5148374E+002
 21
6.213146E+001
  0
LINE
  8
105
  6
HIDDEN
 62
1
 10
-1.5148374E+002
 20
6.213146E+001
 11
-1.6448374E+002
 21
6.213146E+001
  0
LINE
  8
105
  6
HIDDEN
 62
1
 10
-1.6448374E+002
 20
6.263146E+001
 11
-1.5448374E+002
 21
6.263146E+001
  0
LINE
  8
105
  6
HIDDEN
 62
1
 10
-1.5448374E+002
 20
6.263146E+001
 11
-1.5448374E+002
 21
5.663146E+001
  0
LINE
  8
105
  6
HIDDEN
 62
1
 10
-1.5448374E+002
 20
5.663146E+001
 11
-1.6448374E+002
 21
5.663146E+001
  0
LINE
  8
105
  6
HIDDEN
 62
1
 10
-1.5148374E+002
 20
5.713146E+001
 11
-1.5148374E+002
 21
6.213146E+001
  0
LINE
  8
104
  6
CONTINUOUS
 62
40
 10
-2.1070464E+002
 20
-2.2654363
 11
-1.9069909E+002
 21
-2.9640447
  0
ARC
  8
104
  6
CONTINUOUS
 62
40
 10
-2.0048375E+002
 20
3.6314575
 40
1.1800012E+001
 50
3.2601746E+002
 51
3.8998249E+002
  0
LINE
  8
104
  6
CONTINUOUS
 62
40
 10
-1.9026284E+002
 20
9.5283411
 11
-2.1026839E+002
 21
1.022695E+001
  0
ARC
  8
104
  6
CONTINUOUS
 62
40
 10
-2.0048386E+002
 20
3.6314528
 40
1.1799899E+001
 50
1.4601712E+002
 51
2.0998284E+002
  0
LINE
  8
104
  6
CONTINUOUS
 62
40
 10
-2.0982837E+002
 20
-1.1515753
 11
-1.9149575E+002
 21
-1.791773
  0
ARC
  8
104
  6
CONTINUOUS
 62
40
 10
-2.0048374E+002
 20
3.6314628
 40
1.0497403E+001
 50
3.2889377E+002
 51
3.8710619E+002
  0
LINE
  8
104
  6
CONTINUOUS
 62
40
 10
-1.9113933E+002
 20
8.4145106
 11
-2.0947195E+002
 21
9.0547083
  0
ARC
  8
104
  6
CONTINUOUS
 62
40
 10
-2.0048374E+002
 20
3.6314583
 40
1.04976E+001
 50
1.4889433E+002
 51
2.0710555E+002
  0
LINE
  8
99
  6
CONTINUOUS
 62
1
 10
-2.4918125E+001
 20
6.8746359E+001
 11
-2.4918125E+001
 21
5.0631475E+001
  0
LINE
  8
99
  6
CONTINUOUS
 62
1
 10
-1.9269749E+001
 20
5.0631475E+001
 11
-1.9269749E+001
 21
7.213146E+001
  0
LINE
  8
99
  6
CONTINUOUS
 62
1
 10
-7.6918125E+001
 20
6.8631475E+001
 11
-7.6918125E+001
 21
5.0631475E+001
  0
LINE
  8
99
  6
CONTINUOUS
 62
1
 10
-7.1322636E+001
 20
5.0631475E+001
 11
-7.1322636E+001
 21
7.0508795E+001
  0
LINE
  8
99
  6
CONTINUOUS
 62
1
 10
-5.2643559E+001
 20
7.0508795E+001
 11
-5.2643559E+001
 21
5.0631475E+001
  0
LINE
  8
99
  6
CONTINUOUS
 62
1
 10
-4.7049564E+001
 20
5.0631475E+001
 11
-4.7049564E+001
 21
6.863146E+001
  0
LINE
  8
99
  6
CONTINUOUS
 62
1
 10
-1.2541814E+002
 20
6.866358E+001
 11
-1.2541814E+002
 21
5.0606451E+001
  0
LINE
  8
99
  6
CONTINUOUS
 62
1
 10
-1.1982227E+002
 20
5.5403005E+001
 11
-1.1981846E+002
 21
5.0610906E+001
  0
LINE
  8
99
  6
CONTINUOUS
 62
1
 10
-1.1981766E+002
 20
4.5631475E+001
 11
-1.1982152E+002
 21
4.3131459E+001
  0
LINE
  8
99
  6
CONTINUOUS
 62
1
 10
-1.0114298E+002
 20
4.313146E+001
 11
-1.0114298E+002
 21
4.5631475E+001
  0
LINE
  8
99
  6
CONTINUOUS
 62
1
 10
-1.0114298E+002
 20
5.0625768E+001
 11
-1.0114298E+002
 21
7.213146E+001
  0
LINE
  8
99
  6
CONTINUOUS
 62
1
 10
-9.5548768E+001
 20
6.888294E+001
 11
-9.5534247E+001
 21
5.0630239E+001
  0
LINE
  8
99
  6
CONTINUOUS
 62
1
 10
-1.38523E+002
 20
4.413146E+001
 11
-1.6648374E+002
 21
4.413146E+001
  0
LINE
  8
99
  6
CONTINUOUS
 62
1
 10
-1.6648374E+002
 20
4.613146E+001
 11
-1.3735024E+002
 21
4.613146E+001
  0
LINE
  8
104
  6
CONTINUOUS
 62
40
 10
-1.2121418E+002
 20
7.313146E+001
 11
-1.1971207E+002
 21
7.313146E+001
  0
LINE
  8
104
  6
CONTINUOUS
 62
40
 10
-1.0825562E+002
 20
7.313146E+001
 11
-9.8753544E+001
 21
7.313146E+001
  0
LINE
  8
104
  6
CONTINUOUS
 62
40
 10
-7.0963139E+001
 20
7.313146E+001
 11
-6.771207E+001
 21
7.313146E+001
  0
LINE
  8
104
  6
CONTINUOUS
 62
40
 10
-5.6255619E+001
 20
7.313146E+001
 11
-5.3004581E+001
 21
7.313146E+001
  0
LINE
  8
104
  6
CONTINUOUS
 62
40
 10
-2.1214146E+001
 20
7.313146E+001
 11
-1.571207E+001
 21
7.313146E+001
  0
LINE
  8
104
  6
CONTINUOUS
 62
40
 10
-4.157444
 20
7.313146E+001
 11
1.01614
 21
7.313146E+001
  0
LINE
  8
104
  6
CONTINUOUS
 62
40
 10
1.01614
 20
4.9631475E+001
 11
-2.598386E+001
 21
4.9631475E+001
  0
LINE
  8
104
  6
CONTINUOUS
 62
40
 10
-9.398386E+001
 20
4.9631475E+001
 11
-1.3026973E+002
 21
4.960259E+001
  0
LINE
  8
104
  6
CONTINUOUS
 62
40
 10
-1.2281272E+002
 20
4.5631475E+001
 11
-9.8882816E+001
 21
4.5631475E+001
  0
LINE
  8
104
  6
CONTINUOUS
 62
40
 10
-2.1084873E+001
 20
4.5631475E+001
 11
1.01614
 21
4.5631475E+001
  0
ARC
  8
104
  6
CONTINUOUS
 62
40
 10
-1.1398386E+002
 20
7.063146E+001
 40
6.25
 50
0.0
 51
1.8E+002
  0
LINE
  8
104
  6
CONTINUOUS
 62
40
 10
-1.2023386E+002
 20
7.063146E+001
 11
-1.2023386E+002
 21
5.863146E+001
  0
ARC
  8
104
  6
CONTINUOUS
 62
40
 10
-1.1398386E+002
 20
5.863146E+001
 40
6.25
 50
1.8E+002
 51
3.6E+002
  0
LINE
  8
104
  6
CONTINUOUS
 62
40
 10
-1.0773386E+002
 20
5.863146E+001
 11
-1.0773386E+002
 21
7.063146E+001
  0
ARC
  8
104
  6
CONTINUOUS
 62
40
 10
-1.1398386E+002
 20
7.063146E+001
 40
3.25
 50
0.0
 51
1.8E+002
  0
LINE
  8
104
  6
CONTINUOUS
 62
40
 10
-1.1723386E+002
 20
7.063146E+001
 11
-1.1723386E+002
 21
5.863146E+001
  0
ARC
  8
104
  6
CONTINUOUS
 62
40
 10
-1.1398386E+002
 20
5.863146E+001
 40
3.25
 50
1.8E+002
 51
3.6E+002
  0
LINE
  8
104
  6
CONTINUOUS
 62
40
 10
-1.1073386E+002
 20
5.863146E+001
 11
-1.1073386E+002
 21
7.063146E+001
  0
ARC
  8
104
  6
CONTINUOUS
 62
40
 10
-6.198386E+001
 20
7.063146E+001
 40
3.25
 50
0.0
 51
1.8E+002
  0
LINE
  8
104
  6
CONTINUOUS
 62
40
 10
-6.523386E+001
 20
7.063146E+001
 11
-6.523386E+001
 21
5.863146E+001
  0
ARC
  8
104
  6
CONTINUOUS
 62
40
 10
-6.198386E+001
 20
5.863146E+001
 40
3.25
 50
1.8E+002
 51
3.6E+002
  0
LINE
  8
104
  6
CONTINUOUS
 62
40
 10
-5.873386E+001
 20
5.863146E+001
 11
-5.873386E+001
 21
7.063146E+001
  0
ARC
  8
104
  6
CONTINUOUS
 62
40
 10
-6.198386E+001
 20
7.063146E+001
 40
6.25
 50
0.0
 51
1.8E+002
  0
LINE
  8
104
  6
CONTINUOUS
 62
40
 10
-6.823386E+001
 20
7.063146E+001
 11
-6.823386E+001
 21
5.863146E+001
  0
ARC
  8
104
  6
CONTINUOUS
 62
40
 10
-6.198386E+001
 20
5.863146E+001
 40
6.25
 50
1.8E+002
 51
3.6E+002
  0
LINE
  8
104
  6
CONTINUOUS
 62
40
 10
-5.573386E+001
 20
5.863146E+001
 11
-5.573386E+001
 21
7.063146E+001
  0
ARC
  8
104
  6
CONTINUOUS
 62
40
 10
-9.98386
 20
7.063146E+001
 40
6.25
 50
0.0
 51
1.8E+002
  0
LINE
  8
104
  6
CONTINUOUS
 62
40
 10
-1.623386E+001
 20
7.063146E+001
 11
-1.623386E+001
 21
5.863146E+001
  0
ARC
  8
104
  6
CONTINUOUS
 62
40
 10
-9.98386
 20
5.863146E+001
 40
6.25
 50
1.8E+002
 51
3.6E+002
  0
LINE
  8
104
  6
CONTINUOUS
 62
40
 10
-3.73386
 20
5.863146E+001
 11
-3.73386
 21
7.063146E+001
  0
ARC
  8
104
  6
CONTINUOUS
 62
40
 10
-9.98386
 20
7.063146E+001
 40
3.25
 50
0.0
 51
1.8E+002
  0
LINE
  8
104
  6
CONTINUOUS
 62
40
 10
-1.323386E+001
 20
7.063146E+001
 11
-1.323386E+001
 21
5.863146E+001
  0
ARC
  8
104
  6
CONTINUOUS
 62
40
 10
-9.98386
 20
5.863146E+001
 40
3.25
 50
1.8E+002
 51
3.6E+002
  0
LINE
  8
104
  6
CONTINUOUS
 62
40
 10
-6.73386
 20
5.863146E+001
 11
-6.73386
 21
7.063146E+001
  0
LINE
  8
106
  6
CENTERLINE
 62
1
 10
-1.9979666E+002
 20
2.330689E+001
 11
-2.0118108E+002
 21
-1.6337443E+001
  0
LINE
  8
106
  6
CENTERLINE
 62
1
 10
-2.2335865E+002
 20
4.4302729
 11
-1.7810695E+002
 21
2.8500422
  0
ARC
  8
104
  6
CONTINUOUS
 62
40
 10
-1.9748386E+002
 20
3.63146
 40
1.75E+001
 50
2.7E+002
 51
4.5E+002
  0
LINE
  8
104
  6
CONTINUOUS
 62
40
 10
-1.9748386E+002
 20
2.113146E+001
 11
-2.0348386E+002
 21
2.113146E+001
  0
LINE
  8
106
  6
CENTERLINE
 62
1
 10
-1.6826459E+002
 20
6.863146E+001
 11
-1.4591404E+002
 21
6.863146E+001
  0
ARC
  8
104
  6
CONTINUOUS
 62
40
 10
-1.9750661E+002
 20
3.6285601
 40
1.7497115E+001
 50
2.7007448E+002
 51
2.8494244E+002
  0
LINE
  8
104
  6
CONTINUOUS
 62
40
 10
-1.9748386E+002
 20
-1.386854E+001
 11
-2.0348386E+002
 21
-1.386854E+001
  0
ARC
  8
104
  6
CONTINUOUS
 62
40
 10
-2.0348386E+002
 20
3.6314526
 40
1.7499993E+001
 50
1.7999998E+002
 51
2.7E+002
  0
ARC
  8
104
  6
CONTINUOUS
 62
40
 10
-2.0348386E+002
 20
3.6314565
 40
1.7499988E+001
 50
8.9999988E+001
 51
1.7999999E+002
  0
LINE
  8
104
  6
CONTINUOUS
 62
40
 10
-2.0348386E+002
 20
2.1131445E+001
 11
-1.722065E+002
 21
2.2869085E+001
  0
ARC
  8
104
  6
CONTINUOUS
 62
40
 10
-1.7248385E+002
 20
2.7861375E+001
 40
4.9999883
 50
2.731798E+002
 51
3.6000022E+002
  0
LINE
  8
104
  6
CONTINUOUS
 62
40
 10
-1.6748386E+002
 20
2.7861395E+001
 11
-1.6748386E+002
 21
3.163146E+001
  0
LINE
  8
104
  6
CONTINUOUS
 62
40
 10
-1.6748386E+002
 20
3.163146E+001
 11
-1.6648374E+002
 21
3.163146E+001
  0
LINE
  8
104
  6
CONTINUOUS
 62
40
 10
-1.6648374E+002
 20
3.163146E+001
 11
-1.6648374E+002
 21
3.7501333E+001
  0
LINE
  8
104
  6
CONTINUOUS
 62
40
 10
-1.6648374E+002
 20
3.7501333E+001
 11
-1.6648374E+002
 21
4.236199E+001
  0
LINE
  8
104
  6
CONTINUOUS
 62
40
 10
-1.6648374E+002
 20
4.236199E+001
 11
-1.6648374E+002
 21
7.4363577E+001
  0
ARC
  8
104
  6
CONTINUOUS
 62
40
 10
-1.654839E+002
 20
7.2631528E+001
 40
1.999917
 50
8.9998829E+001
 51
1.1999599E+002
  0
LINE
  8
104
  6
CONTINUOUS
 62
40
 10
-1.6548386E+002
 20
7.4631445E+001
 11
-1.6548386E+002
 21
7.463146E+001
  0
LINE
  8
104
  6
CONTINUOUS
 62
40
 10
-1.6548386E+002
 20
7.463146E+001
 11
-1.4123386E+002
 21
7.463146E+001
  0
ARC
  8
104
  6
CONTINUOUS
 62
40
 10
-1.4123386E+002
 20
7.2631449E+001
 40
2.0000107
 50
3.061729E-004
 51
8.9999923E+001
  0
LINE
  8
104
  6
CONTINUOUS
 62
40
 10
-1.3923385E+002
 20
7.263146E+001
 11
-1.3923385E+002
 21
7.163146E+001
  0
ARC
  8
104
  6
CONTINUOUS
 62
40
 10
-1.3723387E+002
 20
7.1631464E+001
 40
1.9999811
 50
1.8000012E+002
 51
2.7000031E+002
  0
LINE
  8
104
  6
CONTINUOUS
 62
40
 10
-1.3723386E+002
 20
6.9631483E+001
 11
-1.2598386E+002
 21
6.9631483E+001
  0
ARC
  8
104
  6
CONTINUOUS
 62
40
 10
-1.2598386E+002
 20
7.463147E+001
 40
4.9999869
 50
2.7000002E+002
 51
3.6000006E+002
  0
LINE
  8
104
  6
CONTINUOUS
 62
40
 10
-1.2098388E+002
 20
7.4631475E+001
 11
-1.2098388E+002
 21
7.763146E+001
  0
ARC
  8
104
  6
CONTINUOUS
 62
40
 10
-1.1898386E+002
 20
7.763146E+001
 40
2.000015
 50
9.0E+001
 51
1.8E+002
  0
LINE
  8
104
  6
CONTINUOUS
 62
40
 10
-1.1898386E+002
 20
7.9631475E+001
 11
-1.0098386E+002
 21
7.9631475E+001
  0
ARC
  8
104
  6
CONTINUOUS
 62
40
 10
-1.0098387E+002
 20
7.7631458E+001
 40
2.0000166
 50
4.65924E-005
 51
8.9999753E+001
  0
LINE
  8
104
  6
CONTINUOUS
 62
40
 10
-9.8983852E+001
 20
7.763146E+001
 11
-9.8983852E+001
 21
7.463146E+001
  0
ARC
  8
104
  6
CONTINUOUS
 62
40
 10
-9.3983859E+001
 20
7.4631476E+001
 40
4.9999928
 50
1.8000018E+002
 51
2.7000033E+002
  0
LINE
  8
104
  6
CONTINUOUS
 62
40
 10
-9.398383E+001
 20
6.9631483E+001
 11
-7.5870609E+001
 21
6.9631483E+001
  0
ARC
  8
104
  6
CONTINUOUS
 62
40
 10
-7.5870585E+001
 20
7.463147E+001
 40
4.9999867
 50
2.6999972E+002
 51
3.2999998E+002
  0
LINE
  8
104
  6
CONTINUOUS
 62
40
 10
-7.154047E+001
 20
7.2131475E+001
 11
-6.7787693E+001
 21
7.863146E+001
  0
ARC
  8
104
  6
CONTINUOUS
 62
40
 10
-6.6055649E+001
 20
7.7631442E+001
 40
2.0000033
 50
9.0000546E+001
 51
1.4999945E+002
  0
LINE
  8
104
  6
CONTINUOUS
 62
40
 10
-6.6055668E+001
 20
7.9631445E+001
 11
-5.7912052E+001
 21
7.9631445E+001
  0
ARC
  8
104
  6
CONTINUOUS
 62
40
 10
-5.7912049E+001
 20
7.7631442E+001
 40
2.0000027
 50
3.0000044E+001
 51
9.0000076E+001
  0
LINE
  8
104
  6
CONTINUOUS
 62
40
 10
-5.6179997E+001
 20
7.8631445E+001
 11
-5.2427219E+001
 21
7.213146E+001
  0
ARC
  8
104
  6
CONTINUOUS
 62
40
 10
-4.8097088E+001
 20
7.4631452E+001
 40
4.9999997
 50
2.0999989E+002
 51
2.6999973E+002
  0
LINE
  8
104
  6
CONTINUOUS
 62
40
 10
-4.8097111E+001
 20
6.9631452E+001
 11
-2.598386E+001
 21
6.9631452E+001
  0
ARC
  8
104
  6
CONTINUOUS
 62
40
 10
-2.5983852E+001
 20
7.4631444E+001
 40
4.9999915
 50
2.699999E+002
 51
3.6000019E+002
  0
LINE
  8
104
  6
CONTINUOUS
 62
40
 10
-2.098386E+001
 20
7.463146E+001
 11
-2.098386E+001
 21
7.763146E+001
  0
ARC
  8
104
  6
CONTINUOUS
 62
40
 10
-1.8983857E+001
 20
7.7631472E+001
 40
2.0000029
 50
9.0000083E+001
 51
1.8000035E+002
  0
LINE
  8
104
  6
CONTINUOUS
 62
40
 10
-1.898386E+001
 20
7.9631475E+001
 11
-9.8386E-001
 21
7.9631475E+001
  0
ARC
  8
104
  6
CONTINUOUS
 62
40
 10
-9.8386311E-001
 20
7.7631457E+001
 40
2.0000181
 50
8.89602E-005
 51
8.9999911E+001
  0
LINE
  8
104
  6
CONTINUOUS
 62
40
 10
1.016155
 20
7.763146E+001
 11
1.016155
 21
4.213146E+001
  0
LINE
  8
104
  6
CONTINUOUS
 62
40
 10
1.016155
 20
4.213146E+001
 11
-2.098383E+001
 21
4.213146E+001
  0
LINE
  8
104
  6
CONTINUOUS
 62
40
 10
-2.098383E+001
 20
4.213146E+001
 11
-2.098383E+001
 21
4.463146E+001
  0
ARC
  8
104
  6
CONTINUOUS
 62
40
 10
-2.5983841E+001
 20
4.4631457E+001
 40
5.0000109
 50
3.35316E-005
 51
9.0000219E+001
  0
LINE
  8
104
  6
CONTINUOUS
 62
40
 10
-2.598386E+001
 20
4.9631468E+001
 11
-9.398386E+001
 21
4.9631468E+001
  0
ARC
  8
104
  6
CONTINUOUS
 62
40
 10
-9.3983862E+001
 20
4.4631478E+001
 40
4.9999897
 50
8.9999973E+001
 51
1.8000004E+002
  0
LINE
  8
104
  6
CONTINUOUS
 62
40
 10
-9.8983852E+001
 20
4.4631475E+001
 11
-9.8983852E+001
 21
4.213146E+001
  0
LINE
  8
104
  6
CONTINUOUS
 62
40
 10
-9.8983852E+001
 20
4.213146E+001
 11
-1.2141553E+002
 21
4.213146E+001
  0
ARC
  8
104
  6
CONTINUOUS
 62
40
 10
-1.3026128E+002
 20
4.0629247E+001
 40
8.9723956
 50
9.6382018
 51
9.4826239E+001
  0
ARC
  8
104
  6
CONTINUOUS
 62
40
 10
-1.3028637E+002
 20
4.104368E+001
 40
8.557326
 50
9.4892285E+001
 51
1.1444282E+002
  0
ARC
  8
104
  6
CONTINUOUS
 62
40
 10
-1.300556E+002
 20
4.0547766E+001
 40
9.1042845
 50
1.1447358E+002
 51
1.3323355E+002
  0
ARC
  8
104
  6
CONTINUOUS
 62
40
 10
-1.2961286E+002
 20
4.0072698E+001
 40
9.7536663
 50
1.3321683E+002
 51
1.5113448E+002
  0
ARC
  8
104
  6
CONTINUOUS
 62
40
 10
-1.2919063E+002
 20
3.9830113E+001
 40
1.0240556E+001
 50
1.5108631E+002
 51
1.6843097E+002
  0
LINE
  8
104
  6
CONTINUOUS
 62
40
 10
-1.3922313E+002
 20
4.188384E+001
 11
-1.3923386E+002
 21
3.7501333E+001
  0
LINE
  8
104
  6
CONTINUOUS
 62
40
 10
-1.3923386E+002
 20
3.7501333E+001
 11
-1.3923386E+002
 21
2.363146E+001
  0
LINE
  8
104
  6
CONTINUOUS
 62
40
 10
-1.3923386E+002
 20
2.363146E+001
 11
-1.4884023E+002
 21
8.442438E-001
  0
ARC
  8
104
  6
CONTINUOUS
 62
40
 10
-1.54369E+002
 20
3.1749953
 40
5.9999762
 50
2.8486988E+002
 51
3.3714128E+002
  0
LINE
  8
104
  6
CONTINUOUS
 62
40
 10
-1.5282926E+002
 20
-2.6240484
 11
-1.92995E+002
 21
-1.3276896E+001
  0
LINE
  8
105
  6
HIDDEN
 62
1
 10
-1.6448374E+002
 20
5.663146E+001
 11
-1.7848374E+002
 21
5.663146E+001
  0
LINE
  8
104
  6
CONTINUOUS
 62
40
 10
-1.6648374E+002
 20
6.563146E+001
 11
-1.7848374E+002
 21
6.563146E+001
  0
LINE
  8
104
  6
CONTINUOUS
 62
40
 10
-1.7848374E+002
 20
6.563146E+001
 11
-1.7848374E+002
 21
5.363146E+001
  0
LINE
  8
104
  6
CONTINUOUS
 62
40
 10
-1.6648374E+002
 20
5.363146E+001
 11
-1.7848374E+002
 21
5.363146E+001
  0
LINE
  8
105
  6
HIDDEN
 62
1
 10
-1.6448374E+002
 20
6.263146E+001
 11
-1.7848374E+002
 21
6.263146E+001
  0
LINE
  8
105
  6
HIDDEN
 62
1
 10
-1.6448374E+002
 20
6.213146E+001
 11
-1.7848374E+002
 21
6.213146E+001
  0
LINE
  8
105
  6
HIDDEN
 62
1
 10
-1.6448374E+002
 20
5.713146E+001
 11
-1.7848374E+002
 21
5.713146E+001
  0
LINE
  8
105
  6
HIDDEN
 62
1
 10
-9.348386E+001
 20
6.1775808E+001
 11
-9.348386E+001
 21
5.4134558E+001
  0
LINE
  8
105
  6
HIDDEN
 62
1
 10
-8.748386E+001
 20
6.1775808E+001
 11
-8.748386E+001
 21
5.4134558E+001
  0
LINE
  8
105
  6
HIDDEN
 62
1
 10
-8.748386E+001
 20
5.4134558E+001
 11
-9.348386E+001
 21
5.4134558E+001
  0
LINE
  8
105
  6
HIDDEN
 62
1
 10
-9.2683857E+001
 20
6.2064489E+001
 11
-9.2683857E+001
 21
5.4134558E+001
  0
LINE
  8
105
  6
HIDDEN
 62
1
 10
-8.8283863E+001
 20
6.2064489E+001
 11
-8.8283863E+001
 21
5.4134558E+001
  0
LINE
  8
106
  6
CENTERLINE
 62
1
 10
-9.048386E+001
 20
8.9633093E+001
 11
-9.048386E+001
 21
6.9591116E+001
  0
LINE
  8
99
  6
CONTINUOUS
 62
1
 10
-9.2683857E+001
 20
6.9591116E+001
 11
-9.2683857E+001
 21
8.2134558E+001
  0
LINE
  8
99
  6
CONTINUOUS
 62
1
 10
-9.2683857E+001
 20
8.2134558E+001
 11
-9.348386E+001
 21
8.3000585E+001
  0
LINE
  8
99
  6
CONTINUOUS
 62
1
 10
-8.8283863E+001
 20
6.9591116E+001
 11
-8.8283863E+001
 21
8.2134558E+001
  0
LINE
  8
99
  6
CONTINUOUS
 62
1
 10
-8.8283863E+001
 20
8.2134558E+001
 11
-8.748386E+001
 21
8.3000585E+001
  0
LINE
  8
104
  6
CONTINUOUS
 62
40
 10
-9.348386E+001
 20
8.4134558E+001
 11
-9.348386E+001
 21
6.9591116E+001
  0
LINE
  8
104
  6
CONTINUOUS
 62
40
 10
-8.748386E+001
 20
6.9591116E+001
 11
-8.748386E+001
 21
8.4134558E+001
  0
LINE
  8
104
  6
CONTINUOUS
 62
40
 10
-9.348386E+001
 20
8.2134558E+001
 11
-8.748386E+001
 21
8.2134558E+001
  0
LINE
  8
104
  6
CONTINUOUS
 62
40
 10
-9.6008854E+001
 20
8.4134558E+001
 11
-8.4958836E+001
 21
8.4134558E+001
  0
LINE
  8
104
  6
CONTINUOUS
 62
40
 10
-8.4958836E+001
 20
8.7699133E+001
 11
-8.5707615E+001
 21
8.8131445E+001
  0
LINE
  8
104
  6
CONTINUOUS
 62
40
 10
-8.5707615E+001
 20
8.8131445E+001
 11
-9.5260075E+001
 21
8.8131445E+001
  0
LINE
  8
104
  6
CONTINUOUS
 62
40
 10
-9.5260075E+001
 20
8.8131445E+001
 11
-9.6008854E+001
 21
8.7699133E+001
  0
LINE
  8
104
  6
CONTINUOUS
 62
40
 10
-8.7485447E+001
 20
8.4134558E+001
 11
-8.7485447E+001
 21
8.7572607E+001
  0
ARC
  8
104
  6
CONTINUOUS
 62
40
 10
-9.4894525E+001
 20
8.6215489E+001
 40
1.8555129
 50
1.0657282E+002
 51
1.2690932E+002
  0
ARC
  8
104
  6
CONTINUOUS
 62
40
 10
-9.4862368E+001
 20
8.6101207E+001
 40
1.9742207
 50
8.7007559E+001
 51
1.0652127E+002
  0
ARC
  8
104
  6
CONTINUOUS
 62
40
 10
-9.4870462E+001
 20
8.5940438E+001
 40
2.1351925
 50
6.849565E+001
 51
8.7015883E+001
  0
ARC
  8
104
  6
CONTINUOUS
 62
40
 10
-9.4918195E+001
 20
8.5813776E+001
 40
2.2705362
 50
5.0770465E+001
 51
6.8546619E+001
  0
ARC
  8
104
  6
CONTINUOUS
 62
40
 10
-9.0483805E+001
 20
7.9854559E+001
 40
8.280001
 50
6.876952E+001
 51
1.1123107E+002
  0
ARC
  8
104
  6
CONTINUOUS
 62
40
 10
-8.6049549E+001
 20
8.5813837E+001
 40
2.2704791
 50
1.114526E+002
 51
1.2922896E+002
  0
ARC
  8
104
  6
CONTINUOUS
 62
40
 10
-8.6097262E+001
 20
8.5940452E+001
 40
2.1351864
 50
9.2983375E+001
 51
1.1150355E+002
  0
ARC
  8
104
  6
CONTINUOUS
 62
40
 10
-8.6105351E+001
 20
8.610117E+001
 40
1.9742651
 50
7.3478374E+001
 51
9.29917E+001
  0
ARC
  8
104
  6
CONTINUOUS
 62
40
 10
-8.6073201E+001
 20
8.6215425E+001
 40
1.8555858
 50
5.309098E+001
 51
7.3426855E+001
  0
LINE
  8
104
  6
CONTINUOUS
 62
40
 10
-8.4958836E+001
 20
8.7699133E+001
 11
-8.4958836E+001
 21
8.4134558E+001
  0
LINE
  8
104
  6
CONTINUOUS
 62
40
 10
-9.6008854E+001
 20
8.7699133E+001
 11
-9.6008854E+001
 21
8.4134558E+001
  0
LINE
  8
104
  6
CONTINUOUS
 62
40
 10
-9.3482273E+001
 20
8.4134558E+001
 11
-9.3482273E+001
 21
8.7572576E+001
  0
LINE
  8
105
  6
HIDDEN
 62
1
 10
-3.673386E+001
 20
4.9631445E+001
 11
-3.673386E+001
 21
6.1631445E+001
  0
LINE
  8
105
  6
HIDDEN
 62
1
 10
-3.673386E+001
 20
6.1631445E+001
 11
-3.023386E+001
 21
6.1631445E+001
  0
LINE
  8
105
  6
HIDDEN
 62
1
 10
-3.023386E+001
 20
6.1631445E+001
 11
-3.023386E+001
 21
4.9631445E+001
  0
LINE
  8
105
  6
HIDDEN
 62
1
 10
-3.673386E+001
 20
6.1631445E+001
 11
-3.5683872E+001
 21
6.2064459E+001
  0
LINE
  8
105
  6
HIDDEN
 62
1
 10
-3.5683872E+001
 20
6.2064459E+001
 11
-3.1283848E+001
 21
6.2064459E+001
  0
LINE
  8
105
  6
HIDDEN
 62
1
 10
-3.1283848E+001
 20
6.2064459E+001
 11
-3.023386E+001
 21
6.1631445E+001
  0
LINE
  8
105
  6
HIDDEN
 62
1
 10
-3.048386E+001
 20
6.1775778E+001
 11
-3.048386E+001
 21
6.9631445E+001
  0
LINE
  8
105
  6
HIDDEN
 62
1
 10
-3.1283848E+001
 20
6.9631445E+001
 11
-3.1283848E+001
 21
6.2064459E+001
  0
LINE
  8
105
  6
HIDDEN
 62
1
 10
-3.5683872E+001
 20
6.9591085E+001
 11
-3.5683872E+001
 21
6.2064459E+001
  0
LINE
  8
105
  6
HIDDEN
 62
1
 10
-3.648386E+001
 20
6.9631445E+001
 11
-3.648386E+001
 21
6.1775778E+001
  0
LINE
  8
105
  6
HIDDEN
 62
1
 10
-3.648386E+001
 20
6.1775778E+001
 11
-3.648386E+001
 21
5.4134527E+001
  0
LINE
  8
105
  6
HIDDEN
 62
1
 10
-3.048386E+001
 20
6.1775778E+001
 11
-3.048386E+001
 21
5.4134527E+001
  0
LINE
  8
105
  6
HIDDEN
 62
1
 10
-3.048386E+001
 20
5.4134527E+001
 11
-3.648386E+001
 21
5.4134527E+001
  0
LINE
  8
105
  6
HIDDEN
 62
1
 10
-3.5683872E+001
 20
6.2064459E+001
 11
-3.5683872E+001
 21
5.4134527E+001
  0
LINE
  8
105
  6
HIDDEN
 62
1
 10
-3.1283848E+001
 20
6.2064459E+001
 11
-3.1283848E+001
 21
5.4134527E+001
  0
LINE
  8
106
  6
CENTERLINE
 62
1
 10
-3.348386E+001
 20
8.9633062E+001
 11
-3.348386E+001
 21
6.9591085E+001
  0
LINE
  8
99
  6
CONTINUOUS
 62
1
 10
-3.5683872E+001
 20
6.9591085E+001
 11
-3.5683872E+001
 21
8.2134527E+001
  0
LINE
  8
99
  6
CONTINUOUS
 62
1
 10
-3.5683872E+001
 20
8.2134527E+001
 11
-3.648386E+001
 21
8.3000555E+001
  0
LINE
  8
99
  6
CONTINUOUS
 62
1
 10
-3.1283848E+001
 20
6.9591085E+001
 11
-3.1283848E+001
 21
8.2134527E+001
  0
LINE
  8
99
  6
CONTINUOUS
 62
1
 10
-3.1283848E+001
 20
8.2134527E+001
 11
-3.048386E+001
 21
8.3000555E+001
  0
LINE
  8
104
  6
CONTINUOUS
 62
40
 10
-3.648386E+001
 20
8.4134527E+001
 11
-3.648386E+001
 21
6.9591085E+001
  0
LINE
  8
104
  6
CONTINUOUS
 62
40
 10
-3.048386E+001
 20
6.9591085E+001
 11
-3.048386E+001
 21
8.4134527E+001
  0
LINE
  8
104
  6
CONTINUOUS
 62
40
 10
-3.648386E+001
 20
8.2134527E+001
 11
-3.048386E+001
 21
8.2134527E+001
  0
LINE
  8
104
  6
CONTINUOUS
 62
40
 10
-3.9008854E+001
 20
8.4134527E+001
 11
-2.7958836E+001
 21
8.4134527E+001
  0
LINE
  8
104
  6
CONTINUOUS
 62
40
 10
-2.7958836E+001
 20
8.7699102E+001
 11
-2.8707615E+001
 21
8.8131414E+001
  0
LINE
  8
104
  6
CONTINUOUS
 62
40
 10
-2.8707615E+001
 20
8.8131414E+001
 11
-3.8260075E+001
 21
8.8131414E+001
  0
LINE
  8
104
  6
CONTINUOUS
 62
40
 10
-3.8260075E+001
 20
8.8131414E+001
 11
-3.9008854E+001
 21
8.7699102E+001
  0
LINE
  8
104
  6
CONTINUOUS
 62
40
 10
-3.0485447E+001
 20
8.4134527E+001
 11
-3.0485447E+001
 21
8.7572576E+001
  0
ARC
  8
104
  6
CONTINUOUS
 62
40
 10
-3.7894514E+001
 20
8.6215441E+001
 40
1.855533
 50
1.0657288E+002
 51
1.2690927E+002
  0
ARC
  8
104
  6
CONTINUOUS
 62
40
 10
-3.7862363E+001
 20
8.6101177E+001
 40
1.9742217
 50
8.7007598E+001
 51
1.0652134E+002
  0
ARC
  8
104
  6
CONTINUOUS
 62
40
 10
-3.7870455E+001
 20
8.5940428E+001
 40
2.1351742
 50
6.8495549E+001
 51
8.7015916E+001
  0
ARC
  8
104
  6
CONTINUOUS
 62
40
 10
-3.7918186E+001
 20
8.5813776E+001
 40
2.2705068
 50
5.0770176E+001
 51
6.854651E+001
  0
ARC
  8
104
  6
CONTINUOUS
 62
40
 10
-3.3483806E+001
 20
7.9854528E+001
 40
8.2800014
 50
6.8769511E+001
 51
1.1123106E+002
  0
ARC
  8
104
  6
CONTINUOUS
 62
40
 10
-2.9049551E+001
 20
8.5813811E+001
 40
2.2704741
 50
1.1145261E+002
 51
1.29229E+002
  0
ARC
  8
104
  6
CONTINUOUS
 62
40
 10
-2.9097263E+001
 20
8.5940423E+001
 40
2.1351845
 50
9.2983373E+001
 51
1.1150356E+002
  0
ARC
  8
104
  6
CONTINUOUS
 62
40
 10
-2.9105352E+001
 20
8.6101138E+001
 40
1.9742666
 50
7.347838E+001
 51
9.2991697E+001
  0
ARC
  8
104
  6
CONTINUOUS
 62
40
 10
-2.9073202E+001
 20
8.621539E+001
 40
1.8555899
 50
5.3091017E+001
 51
7.3426863E+001
  0
LINE
  8
104
  6
CONTINUOUS
 62
40
 10
-2.7958836E+001
 20
8.7699102E+001
 11
-2.7958836E+001
 21
8.4134527E+001
  0
LINE
  8
104
  6
CONTINUOUS
 62
40
 10
-3.9008854E+001
 20
8.7699102E+001
 11
-3.9008854E+001
 21
8.4134527E+001
  0
LINE
  8
104
  6
CONTINUOUS
 62
40
 10
-3.6482273E+001
 20
8.4134527E+001
 11
-3.6482273E+001
 21
8.7572546E+001
  0
LINE
  8
106
  6
CENTERLINE
 62
1
 10
4.3771741E+001
 20
6.2787361E+001
 11
6.3813733E+001
 21
6.2787361E+001
  0
LINE
  8
106
  6
CENTERLINE
 62
1
 10
6.3813733E+001
 20
6.2787361E+001
 11
6.67599E+001
 21
6.2787361E+001
  0
LINE
  8
105
  6
HIDDEN
 62
1
 10
6.3813733E+001
 20
6.5287361E+001
 11
5.1270276E+001
 21
6.5287361E+001
  0
LINE
  8
105
  6
HIDDEN
 62
1
 10
5.1270276E+001
 20
6.5287361E+001
 11
5.0404248E+001
 21
6.5787361E+001
  0
LINE
  8
105
  6
HIDDEN
 62
1
 10
6.3813733E+001
 20
6.0287361E+001
 11
5.1270276E+001
 21
6.0287361E+001
  0
LINE
  8
105
  6
HIDDEN
 62
1
 10
5.1270276E+001
 20
6.0287361E+001
 11
5.0404248E+001
 21
5.9787361E+001
  0
LINE
  8
105
  6
HIDDEN
 62
1
 10
4.9270276E+001
 20
6.5787361E+001
 11
6.3813733E+001
 21
6.5787361E+001
  0
LINE
  8
105
  6
HIDDEN
 62
1
 10
6.3813733E+001
 20
5.9787361E+001
 11
4.9270276E+001
 21
5.9787361E+001
  0
LINE
  8
104
  6
CONTINUOUS
 62
40
 10
5.4035855E+001
 20
6.5787361E+001
 11
4.9270276E+001
 21
6.5787361E+001
  0
LINE
  8
104
  6
CONTINUOUS
 62
40
 10
5.4035855E+001
 20
5.9787361E+001
 11
4.9270276E+001
 21
5.9787361E+001
  0
LINE
  8
104
  6
CONTINUOUS
 62
40
 10
5.1270276E+001
 20
6.5787361E+001
 11
5.1270276E+001
 21
5.9787361E+001
  0
LINE
  8
104
  6
CONTINUOUS
 62
40
 10
4.9270276E+001
 20
6.8312355E+001
 11
4.9270276E+001
 21
5.7262336E+001
  0
LINE
  8
104
  6
CONTINUOUS
 62
40
 10
4.5705701E+001
 20
5.7262336E+001
 11
4.5273388E+001
 21
5.8011115E+001
  0
LINE
  8
104
  6
CONTINUOUS
 62
40
 10
4.5273388E+001
 20
5.8011115E+001
 11
4.5273388E+001
 21
6.7563575E+001
  0
LINE
  8
104
  6
CONTINUOUS
 62
40
 10
4.5273388E+001
 20
6.7563575E+001
 11
4.5705701E+001
 21
6.8312355E+001
  0
LINE
  8
104
  6
CONTINUOUS
 62
40
 10
4.9270276E+001
 20
5.9788948E+001
 11
4.5832226E+001
 21
5.9788948E+001
  0
ARC
  8
104
  6
CONTINUOUS
 62
40
 10
4.7189345E+001
 20
6.7198027E+001
 40
1.8555125
 50
1.430907E+002
 51
1.634272E+002
  0
ARC
  8
104
  6
CONTINUOUS
 62
40
 10
4.7303632E+001
 20
6.7165869E+001
 40
1.974225
 50
1.6347874E+002
 51
1.8299242E+002
  0
ARC
  8
104
  6
CONTINUOUS
 62
40
 10
4.7464402E+001
 20
6.7173962E+001
 40
2.1351987
 50
1.8298409E+002
 51
2.0150428E+002
  0
ARC
  8
104
  6
CONTINUOUS
 62
40
 10
4.7591062E+001
 20
6.7221695E+001
 40
2.2705401
 50
2.0145331E+002
 51
2.1922943E+002
  0
ARC
  8
104
  6
CONTINUOUS
 62
40
 10
5.3550274E+001
 20
6.2787306E+001
 40
8.2800008
 50
1.5876893E+002
 51
2.0123048E+002
  0
ARC
  8
104
  6
CONTINUOUS
 62
40
 10
4.759101E+001
 20
5.835304E+001
 40
2.2704963
 50
1.4077109E+002
 51
1.585474E+002
  0
ARC
  8
104
  6
CONTINUOUS
 62
40
 10
4.746438E+001
 20
5.840076E+001
 40
2.1351875
 50
1.5849644E+002
 51
1.7701664E+002
  0
ARC
  8
104
  6
CONTINUOUS
 62
40
 10
4.7303648E+001
 20
5.8408849E+001
 40
1.9742523
 50
1.7700831E+002
 51
1.9652175E+002
  0
ARC
  8
104
  6
CONTINUOUS
 62
40
 10
4.7189388E+001
 20
5.8376697E+001
 40
1.855567
 50
1.9657328E+002
 51
2.1690932E+002
  0
LINE
  8
104
  6
CONTINUOUS
 62
40
 10
4.5705701E+001
 20
5.7262336E+001
 11
4.9270276E+001
 21
5.7262336E+001
  0
LINE
  8
104
  6
CONTINUOUS
 62
40
 10
4.5705701E+001
 20
6.8312355E+001
 11
4.9270276E+001
 21
6.8312355E+001
  0
LINE
  8
104
  6
CONTINUOUS
 62
40
 10
4.9270276E+001
 20
6.5785774E+001
 11
4.5832257E+001
 21
6.5785774E+001
  0
LINE
  8
105
  6
HIDDEN
 62
1
 10
1.3522227E+002
 20
6.3805908E+001
 11
1.2477042E+002
 21
6.3805908E+001
  0
LINE
  8
105
  6
HIDDEN
 62
1
 10
1.3508052E+002
 20
6.1101066E+001
 11
1.2462867E+002
 21
6.1101066E+001
  0
LINE
  8
105
  6
HIDDEN
 62
1
 10
1.3569297E+002
 20
7.2787361E+001
 11
1.3522227E+002
 21
6.3805908E+001
  0
LINE
  8
105
  6
HIDDEN
 62
1
 10
1.3522227E+002
 20
6.3805908E+001
 11
1.3508052E+002
 21
6.1101066E+001
  0
LINE
  8
105
  6
HIDDEN
 62
1
 10
1.3508052E+002
 20
6.1101066E+001
 11
1.3569297E+002
 21
5.2787361E+001
  0
LINE
  8
105
  6
HIDDEN
 62
1
 10
1.2419297E+002
 20
5.2787361E+001
 11
1.2466574E+002
 21
6.1808303E+001
  0
LINE
  8
105
  6
HIDDEN
 62
1
 10
1.2466574E+002
 20
6.1808303E+001
 11
1.2479524E+002
 21
6.4279373E+001
  0
LINE
  8
105
  6
HIDDEN
 62
1
 10
1.2479524E+002
 20
6.4279373E+001
 11
1.2402339E+002
 21
7.2787361E+001
  0
LINE
  8
106
  6
CENTERLINE
 62
1
 10
7.3942967E+001
 20
6.7616874E+001
 11
7.3942967E+001
 21
5.6787361E+001
  0
LINE
  8
106
  6
CENTERLINE
 62
1
 10
6.4942967E+001
 20
5.7178459E+001
 11
6.4942967E+001
 21
6.8396278E+001
  0
CIRCLE
  8
104
  6
CONTINUOUS
 62
40
 10
7.3942971E+001
 20
6.2787361E+001
 40
4.0
  0
CIRCLE
  8
104
  6
CONTINUOUS
 62
40
 10
6.4942971E+001
 20
6.2787361E+001
 40
4.0
  0
LINE
  8
104
  6
CONTINUOUS
 62
40
 10
1.0194298E+002
 20
6.7787361E+001
 11
1.0194298E+002
 21
5.7787361E+001
  0
LINE
  8
106
  6
CENTERLINE
 62
1
 10
1.2994297E+002
 20
7.5864631E+001
 11
1.2994297E+002
 21
4.6009719E+001
  0
LINE
  8
106
  6
CENTERLINE
 62
1
 10
6.8674786E+001
 20
6.2787361E+001
 11
6.67599E+001
 21
6.2787361E+001
  0
LINE
  8
106
  6
CENTERLINE
 62
1
 10
6.67599E+001
 20
6.2787361E+001
 11
7.7935925E+001
 21
6.2787361E+001
  0
LINE
  8
106
  6
CENTERLINE
 62
1
 10
7.7935925E+001
 20
6.2787361E+001
 11
8.0182263E+001
 21
6.2787361E+001
  0
LINE
  8
99
  6
CONTINUOUS
 62
1
 10
1.1027339E+002
 20
6.6787361E+001
 11
1.1027339E+002
 21
5.8787361E+001
  0
LINE
  8
104
  6
CONTINUOUS
 62
40
 10
9.1273388E+001
 20
5.7787361E+001
 11
9.1273388E+001
 21
5.5287361E+001
  0
LINE
  8
104
  6
CONTINUOUS
 62
40
 10
9.1273388E+001
 20
5.5287361E+001
 11
8.9273388E+001
 21
5.3287361E+001
  0
LINE
  8
104
  6
CONTINUOUS
 62
40
 10
8.9273388E+001
 20
5.3287361E+001
 11
8.7773388E+001
 21
5.3287361E+001
  0
LINE
  8
104
  6
CONTINUOUS
 62
40
 10
8.7773388E+001
 20
5.3287361E+001
 11
8.7773388E+001
 21
5.5787361E+001
  0
LINE
  8
104
  6
CONTINUOUS
 62
40
 10
8.7773388E+001
 20
5.5787361E+001
 11
8.3773388E+001
 21
5.5787361E+001
  0
LINE
  8
104
  6
CONTINUOUS
 62
40
 10
8.3773388E+001
 20
5.5787361E+001
 11
8.3773388E+001
 21
5.3287361E+001
  0
LINE
  8
104
  6
CONTINUOUS
 62
40
 10
8.3773388E+001
 20
5.3287361E+001
 11
6.0273388E+001
 21
5.3287361E+001
  0
LINE
  8
104
  6
CONTINUOUS
 62
40
 10
6.0273388E+001
 20
5.3287361E+001
 11
6.0273388E+001
 21
5.5787361E+001
  0
LINE
  8
104
  6
CONTINUOUS
 62
40
 10
6.0273388E+001
 20
5.5787361E+001
 11
5.6218457E+001
 21
5.5787361E+001
  0
ARC
  8
104
  6
CONTINUOUS
 62
40
 10
5.621844E+001
 20
5.7787323E+001
 40
1.9999615
 50
1.8499915E+002
 51
2.700005E+002
  0
LINE
  8
104
  6
CONTINUOUS
 62
40
 10
5.4226086E+001
 20
5.7613044E+001
 11
5.3773388E+001
 21
6.2787361E+001
  0
LINE
  8
104
  6
CONTINUOUS
 62
40
 10
5.3773388E+001
 20
6.2787361E+001
 11
5.4226086E+001
 21
6.7961677E+001
  0
ARC
  8
104
  6
CONTINUOUS
 62
40
 10
5.6218457E+001
 20
6.778738E+001
 40
1.9999808
 50
9.0000011E+001
 51
1.7500037E+002
  0
LINE
  8
104
  6
CONTINUOUS
 62
40
 10
5.6218457E+001
 20
6.9787361E+001
 11
6.0273388E+001
 21
6.9787361E+001
  0
LINE
  8
104
  6
CONTINUOUS
 62
40
 10
6.0273388E+001
 20
6.9787361E+001
 11
6.0273388E+001
 21
7.2287361E+001
  0
LINE
  8
104
  6
CONTINUOUS
 62
40
 10
6.0273388E+001
 20
7.2287361E+001
 11
8.3773388E+001
 21
7.2287361E+001
  0
LINE
  8
104
  6
CONTINUOUS
 62
40
 10
8.3773388E+001
 20
7.2287361E+001
 11
8.3773388E+001
 21
6.9787361E+001
  0
LINE
  8
104
  6
CONTINUOUS
 62
40
 10
8.3773388E+001
 20
6.9787361E+001
 11
8.7773388E+001
 21
6.9787361E+001
  0
LINE
  8
104
  6
CONTINUOUS
 62
40
 10
8.7773388E+001
 20
6.9787361E+001
 11
8.7773388E+001
 21
7.2287361E+001
  0
LINE
  8
104
  6
CONTINUOUS
 62
40
 10
8.7773388E+001
 20
7.2287361E+001
 11
8.9273388E+001
 21
7.2287361E+001
  0
LINE
  8
104
  6
CONTINUOUS
 62
40
 10
8.9273388E+001
 20
7.2287361E+001
 11
9.1273388E+001
 21
7.0287361E+001
  0
LINE
  8
104
  6
CONTINUOUS
 62
40
 10
9.1273388E+001
 20
7.0287361E+001
 11
9.1273388E+001
 21
6.7787361E+001
  0
LINE
  8
105
  6
HIDDEN
 62
1
 10
9.1273388E+001
 20
5.7787361E+001
 11
9.1273388E+001
 21
6.7787361E+001
  0
LINE
  8
104
  6
CONTINUOUS
 62
40
 10
9.3273388E+001
 20
5.7787361E+001
 11
8.9773388E+001
 21
5.7787361E+001
  0
LINE
  8
104
  6
CONTINUOUS
 62
40
 10
8.9773388E+001
 20
5.7787361E+001
 11
8.7273388E+001
 21
5.6787361E+001
  0
LINE
  8
104
  6
CONTINUOUS
 62
40
 10
8.7273388E+001
 20
5.6787361E+001
 11
6.2630993E+001
 21
5.6787361E+001
  0
ARC
  8
104
  6
CONTINUOUS
 62
40
 10
6.2630968E+001
 20
5.8787347E+001
 40
1.9999855
 50
1.8499978E+002
 51
2.7000073E+002
  0
LINE
  8
104
  6
CONTINUOUS
 62
40
 10
6.0638592E+001
 20
5.8613044E+001
 11
6.0273388E+001
 21
6.2787361E+001
  0
LINE
  8
104
  6
CONTINUOUS
 62
40
 10
6.0273388E+001
 20
6.2787361E+001
 11
6.0638592E+001
 21
6.6961677E+001
  0
ARC
  8
104
  6
CONTINUOUS
 62
40
 10
6.2630984E+001
 20
6.6787365E+001
 40
2.0000031
 50
8.9999756E+001
 51
1.7499999E+002
  0
LINE
  8
104
  6
CONTINUOUS
 62
40
 10
6.2630993E+001
 20
6.8787368E+001
 11
8.3773388E+001
 21
6.8787368E+001
  0
LINE
  8
104
  6
CONTINUOUS
 62
40
 10
8.3773388E+001
 20
6.8787368E+001
 11
8.7273388E+001
 21
6.8787368E+001
  0
LINE
  8
104
  6
CONTINUOUS
 62
40
 10
8.7273388E+001
 20
6.8787368E+001
 11
8.9773388E+001
 21
6.7787361E+001
  0
LINE
  8
104
  6
CONTINUOUS
 62
40
 10
8.9773388E+001
 20
6.7787361E+001
 11
9.3273388E+001
 21
6.7787361E+001
  0
LINE
  8
104
  6
CONTINUOUS
 62
40
 10
9.3273388E+001
 20
6.7787361E+001
 11
1.121067E+002
 21
6.7787361E+001
  0
LINE
  8
104
  6
CONTINUOUS
 62
40
 10
1.121067E+002
 20
6.7787361E+001
 11
1.1254085E+002
 21
6.7787361E+001
  0
LINE
  8
104
  6
CONTINUOUS
 62
40
 10
1.1254085E+002
 20
6.7787361E+001
 11
1.2607264E+002
 21
6.7787361E+001
  0
LINE
  8
104
  6
CONTINUOUS
 62
40
 10
1.2607264E+002
 20
6.7787361E+001
 11
1.2822506E+002
 21
6.8584396E+001
  0
LINE
  8
104
  6
CONTINUOUS
 62
40
 10
1.2822506E+002
 20
6.8584396E+001
 11
1.2903222E+002
 21
6.9660602E+001
  0
LINE
  8
104
  6
CONTINUOUS
 62
40
 10
9.3273388E+001
 20
5.7787361E+001
 11
1.1194298E+002
 21
5.7787361E+001
  0
LINE
  8
104
  6
CONTINUOUS
 62
40
 10
1.1194298E+002
 20
5.7787361E+001
 11
1.1253959E+002
 21
5.7787361E+001
  0
LINE
  8
104
  6
CONTINUOUS
 62
40
 10
1.1253959E+002
 20
5.7787361E+001
 11
1.2607264E+002
 21
5.7787361E+001
  0
LINE
  8
104
  6
CONTINUOUS
 62
40
 10
1.2607264E+002
 20
5.7787361E+001
 11
1.2728338E+002
 21
5.7015148E+001
  0
LINE
  8
104
  6
CONTINUOUS
 62
40
 10
1.2728338E+002
 20
5.7015148E+001
 11
1.2822506E+002
 21
5.5938941E+001
  0
ARC
  8
105
  6
HIDDEN
 62
1
 10
6.6130981E+001
 20
6.6787361E+001
 40
2.0000005
 50
8.9999668E+001
 51
1.7499986E+002
  0
LINE
  8
105
  6
HIDDEN
 62
1
 10
6.4138592E+001
 20
6.6961677E+001
 11
6.3773388E+001
 21
6.2787361E+001
  0
LINE
  8
105
  6
HIDDEN
 62
1
 10
6.3773388E+001
 20
6.2787361E+001
 11
6.4138592E+001
 21
5.8613044E+001
  0
ARC
  8
105
  6
HIDDEN
 62
1
 10
6.6130965E+001
 20
5.8787364E+001
 40
1.999984
 50
1.8500029E+002
 51
2.7000081E+002
  0
LINE
  8
104
  6
CONTINUOUS
 62
40
 10
1.2292042E+002
 20
5.2787361E+001
 11
1.3661714E+002
 21
5.2787361E+001
  0
LINE
  8
104
  6
CONTINUOUS
 62
40
 10
1.3661714E+002
 20
7.2787361E+001
 11
1.2292042E+002
 21
7.2787361E+001
  0
LINE
  8
104
  6
CONTINUOUS
 62
40
 10
1.3552342E+002
 20
7.2787361E+001
 11
1.3647236E+002
 21
7.2787361E+001
  0
LINE
  8
104
  6
CONTINUOUS
 62
40
 10
1.3647236E+002
 20
7.2787361E+001
 11
1.4381617E+002
 21
7.2787376E+001
  0
ARC
  8
104
  6
CONTINUOUS
 62
40
 10
1.4381617E+002
 20
6.9787365E+001
 40
3.0000108
 50
5.0000308
 51
8.9999853E+001
  0
LINE
  8
104
  6
CONTINUOUS
 62
40
 10
1.4680476E+002
 20
7.0048835E+001
 11
1.4744008E+002
 21
6.2787361E+001
  0
LINE
  8
104
  6
CONTINUOUS
 62
40
 10
1.4744008E+002
 20
6.2787361E+001
 11
1.4680476E+002
 21
5.5525855E+001
  0
ARC
  8
104
  6
CONTINUOUS
 62
40
 10
1.438162E+002
 20
5.5787341E+001
 40
2.9999771
 50
2.6999947E+002
 51
3.549996E+002
  0
LINE
  8
104
  6
CONTINUOUS
 62
40
 10
1.4381617E+002
 20
5.2787364E+001
 11
1.3647236E+002
 21
5.2787364E+001
  0
LINE
  8
104
  6
CONTINUOUS
 62
40
 10
1.2307441E+002
 20
5.2787361E+001
 11
1.157306E+002
 21
5.2787361E+001
  0
ARC
  8
104
  6
CONTINUOUS
 62
40
 10
1.1573058E+002
 20
5.5787342E+001
 40
2.999981
 50
1.8500041E+002
 51
2.7000045E+002
  0
LINE
  8
104
  6
CONTINUOUS
 62
40
 10
1.1274202E+002
 20
5.5525855E+001
 11
1.121067E+002
 21
5.7787361E+001
  0
LINE
  8
104
  6
CONTINUOUS
 62
40
 10
1.121067E+002
 20
6.7787361E+001
 11
1.1274202E+002
 21
7.0048835E+001
  0
ARC
  8
104
  6
CONTINUOUS
 62
40
 10
1.1573061E+002
 20
6.9787371E+001
 40
3.0000054
 50
9.0000053E+001
 51
1.7500006E+002
  0
LINE
  8
104
  6
CONTINUOUS
 62
40
 10
1.157306E+002
 20
7.2787376E+001
 11
1.2402339E+002
 21
7.2787361E+001
  0
POINT
  8
Drafting_Hidden_Entities
  6
CONTINUOUS
 62
1
 10
0.0
 20
0.0
  0
ENDBLK
  0
BLOCK
  2
*XH48
  3
*XH
 10
0.0
 20
0.0
 70
65
  0
LINE
  8
108
  6
CONTINUOUS
 62
1
 10
1.4689843E+001
 20
-1.4321923
 11
1.4857827E+001
 21
-1.2641933
  0
LINE
  8
108
  6
CONTINUOUS
 62
1
 10
1.4857827E+001
 20
-9.8135632E-001
 11
1.4407006E+001
 21
-1.4321923
  0
LINE
  8
108
  6
CONTINUOUS
 62
1
 10
1.4124154E+001
 20
-1.4321923
 11
1.4857827E+001
 21
-6.9851932E-001
  0
LINE
  8
108
  6
CONTINUOUS
 62
1
 10
1.4857827E+001
 20
-4.1568232E-001
 11
1.3841317E+001
 21
-1.4321923
  0
LINE
  8
108
  6
CONTINUOUS
 62
1
 10
1.3558464E+001
 20
-1.4321923
 11
1.4857827E+001
 21
-1.3284532E-001
  0
LINE
  8
108
  6
CONTINUOUS
 62
1
 10
1.4857827E+001
 20
1.5002168E-001
 11
1.3275628E+001
 21
-1.4321923
  0
LINE
  8
108
  6
CONTINUOUS
 62
1
 10
1.2992791E+001
 20
-1.4321923
 11
1.4857827E+001
 21
4.3285868E-001
  0
LINE
  8
108
  6
CONTINUOUS
 62
1
 10
1.4857827E+001
 20
7.1569568E-001
 11
1.2709938E+001
 21
-1.4321923
  0
LINE
  8
108
  6
CONTINUOUS
 62
1
 10
1.2427102E+001
 20
-1.4321923
 11
1.4857827E+001
 21
9.9853268E-001
  0
LINE
  8
108
  6
CONTINUOUS
 62
1
 10
1.4857827E+001
 20
1.2813697
 11
1.2144265E+001
 21
-1.4321923
  0
LINE
  8
108
  6
CONTINUOUS
 62
1
 10
1.1861412E+001
 20
-1.4321923
 11
1.4857827E+001
 21
1.5642367
  0
LINE
  8
108
  6
CONTINUOUS
 62
1
 10
1.4578576E+001
 20
1.5678077
 11
1.1578576E+001
 21
-1.4321923
  0
LINE
  8
108
  6
CONTINUOUS
 62
1
 10
1.1295723E+001
 20
-1.4321923
 11
1.4295723E+001
 21
1.5678077
  0
LINE
  8
108
  6
CONTINUOUS
 62
1
 10
1.4012886E+001
 20
1.5678077
 11
1.1012886E+001
 21
-1.4321923
  0
LINE
  8
108
  6
CONTINUOUS
 62
1
 10
1.073005E+001
 20
-1.4321923
 11
1.373005E+001
 21
1.5678077
  0
LINE
  8
108
  6
CONTINUOUS
 62
1
 10
1.3447197E+001
 20
1.5678077
 11
1.0447197E+001
 21
-1.4321923
  0
LINE
  8
108
  6
CONTINUOUS
 62
1
 10
1.016436E+001
 20
-1.4321923
 11
1.316436E+001
 21
1.5678077
  0
LINE
  8
108
  6
CONTINUOUS
 62
1
 10
1.2881508E+001
 20
1.5678077
 11
9.8815077
 21
-1.4321923
  0
LINE
  8
108
  6
CONTINUOUS
 62
1
 10
9.5986707
 20
-1.4321923
 11
1.2598671E+001
 21
1.5678077
  0
LINE
  8
108
  6
CONTINUOUS
 62
1
 10
1.2315834E+001
 20
1.5678077
 11
9.3158337
 21
-1.4321923
  0
LINE
  8
108
  6
CONTINUOUS
 62
1
 10
9.0329817
 20
-1.4321923
 11
1.2032982E+001
 21
1.5678077
  0
LINE
  8
108
  6
CONTINUOUS
 62
1
 10
1.1750145E+001
 20
1.5678077
 11
8.7501447
 21
-1.4321923
  0
LINE
  8
108
  6
CONTINUOUS
 62
1
 10
8.4673077
 20
-1.4321923
 11
1.1467308E+001
 21
1.5678077
  0
LINE
  8
108
  6
CONTINUOUS
 62
1
 10
1.1184456E+001
 20
1.5678077
 11
8.1844557
 21
-1.4321923
  0
LINE
  8
108
  6
CONTINUOUS
 62
1
 10
7.9016187
 20
-1.4321923
 11
1.0901619E+001
 21
1.5678077
  0
LINE
  8
108
  6
CONTINUOUS
 62
1
 10
1.0618767E+001
 20
1.5678077
 11
7.6187667
 21
-1.4321923
  0
LINE
  8
108
  6
CONTINUOUS
 62
1
 10
7.3359297
 20
-1.4321923
 11
1.033593E+001
 21
1.5678077
  0
LINE
  8
108
  6
CONTINUOUS
 62
1
 10
1.0053093E+001
 20
1.5678077
 11
7.0530927
 21
-1.4321923
  0
LINE
  8
108
  6
CONTINUOUS
 62
1
 10
6.7702407
 20
-1.4321923
 11
9.7702407
 21
1.5678077
  0
LINE
  8
108
  6
CONTINUOUS
 62
1
 10
9.4874037
 20
1.5678077
 11
6.4874037
 21
-1.4321923
  0
LINE
  8
108
  6
CONTINUOUS
 62
1
 10
6.2045667
 20
-1.4321923
 11
9.2045667
 21
1.5678077
  0
LINE
  8
108
  6
CONTINUOUS
 62
1
 10
8.9217147
 20
1.5678077
 11
5.9217147
 21
-1.4321923
  0
LINE
  8
108
  6
CONTINUOUS
 62
1
 10
5.6388777
 20
-1.4321923
 11
8.6388777
 21
1.5678077
  0
LINE
  8
108
  6
CONTINUOUS
 62
1
 10
8.3560257
 20
1.5678077
 11
5.3560257
 21
-1.4321923
  0
LINE
  8
108
  6
CONTINUOUS
 62
1
 10
5.0731887
 20
-1.4321923
 11
8.0731887
 21
1.5678077
  0
LINE
  8
108
  6
CONTINUOUS
 62
1
 10
7.7903517
 20
1.5678077
 11
4.7903517
 21
-1.4321923
  0
LINE
  8
108
  6
CONTINUOUS
 62
1
 10
4.5074997
 20
-1.4321923
 11
7.5074997
 21
1.5678077
  0
LINE
  8
108
  6
CONTINUOUS
 62
1
 10
7.2246627
 20
1.5678077
 11
4.2246627
 21
-1.4321923
  0
LINE
  8
108
  6
CONTINUOUS
 62
1
 10
3.9418257
 20
-1.4321923
 11
6.9418107
 21
1.5678077
  0
LINE
  8
108
  6
CONTINUOUS
 62
1
 10
6.6589737
 20
1.5678077
 11
3.6589737
 21
-1.4321923
  0
LINE
  8
108
  6
CONTINUOUS
 62
1
 10
3.3761367
 20
-1.4321923
 11
6.3761367
 21
1.5678077
  0
LINE
  8
108
  6
CONTINUOUS
 62
1
 10
6.0932847
 20
1.5678077
 11
3.0932847
 21
-1.4321923
  0
LINE
  8
108
  6
CONTINUOUS
 62
1
 10
2.8104477
 20
-1.4321923
 11
5.8104477
 21
1.5678077
  0
LINE
  8
108
  6
CONTINUOUS
 62
1
 10
5.5276107
 20
1.5678077
 11
2.5276107
 21
-1.4321923
  0
LINE
  8
108
  6
CONTINUOUS
 62
1
 10
2.2447587
 20
-1.4321923
 11
5.2447587
 21
1.5678077
  0
LINE
  8
108
  6
CONTINUOUS
 62
1
 10
4.9619217
 20
1.5678077
 11
1.9619217
 21
-1.4321923
  0
LINE
  8
108
  6
CONTINUOUS
 62
1
 10
1.6790847
 20
-1.4321923
 11
4.6790847
 21
1.5678077
  0
LINE
  8
108
  6
CONTINUOUS
 62
1
 10
4.3962327
 20
1.5678077
 11
1.3962327
 21
-1.4321923
  0
LINE
  8
108
  6
CONTINUOUS
 62
1
 10
1.1133957
 20
-1.4321923
 11
4.1133957
 21
1.5678077
  0
LINE
  8
108
  6
CONTINUOUS
 62
1
 10
3.8305437
 20
1.5678077
 11
8.305437E-001
 21
-1.4321923
  0
LINE
  8
108
  6
CONTINUOUS
 62
1
 10
5.477067E-001
 20
-1.4321923
 11
3.5477067
 21
1.5678077
  0
LINE
  8
108
  6
CONTINUOUS
 62
1
 10
3.2648697
 20
1.5678077
 11
2.648697E-001
 21
-1.4321923
  0
LINE
  8
108
  6
CONTINUOUS
 62
1
 10
-1.7982296E-002
 20
-1.4321923
 11
2.9820177
 21
1.5678077
  0
LINE
  8
108
  6
CONTINUOUS
 62
1
 10
2.6991807
 20
1.5678077
 11
-3.008193E-001
 21
-1.4321923
  0
LINE
  8
108
  6
CONTINUOUS
 62
1
 10
-5.836563E-001
 20
-1.4321923
 11
2.4163437
 21
1.5678077
  0
LINE
  8
108
  6
CONTINUOUS
 62
1
 10
2.1334917
 20
1.5678077
 11
-8.665083E-001
 21
-1.4321923
  0
LINE
  8
108
  6
CONTINUOUS
 62
1
 10
-1.1493453
 20
-1.4321923
 11
1.8506547
 21
1.5678077
  0
LINE
  8
108
  6
CONTINUOUS
 62
1
 10
1.5678027
 20
1.5678077
 11
-1.4321973
 21
-1.4321923
  0
LINE
  8
108
  6
CONTINUOUS
 62
1
 10
-1.7150343
 20
-1.4321923
 11
1.2849657
 21
1.5678077
  0
LINE
  8
108
  6
CONTINUOUS
 62
1
 10
1.0021287
 20
1.5678077
 11
-1.9978713
 21
-1.4321923
  0
LINE
  8
108
  6
CONTINUOUS
 62
1
 10
-2.2807233
 20
-1.4321923
 11
7.192767E-001
 21
1.5678077
  0
LINE
  8
108
  6
CONTINUOUS
 62
1
 10
4.364397E-001
 20
1.5678077
 11
-2.5635603
 21
-1.4321923
  0
LINE
  8
108
  6
CONTINUOUS
 62
1
 10
-2.8464123
 20
-1.4321923
 11
1.535877E-001
 21
1.5678077
  0
LINE
  8
108
  6
CONTINUOUS
 62
1
 10
-1.292493E-001
 20
1.5678077
 11
-3.1292493
 21
-1.4321923
  0
LINE
  8
108
  6
CONTINUOUS
 62
1
 10
-3.4120863
 20
-1.4321923
 11
-4.120863E-001
 21
1.5678077
  0
LINE
  8
108
  6
CONTINUOUS
 62
1
 10
-6.949383E-001
 20
1.5678077
 11
-3.6949383
 21
-1.4321923
  0
LINE
  8
108
  6
CONTINUOUS
 62
1
 10
-3.9777753
 20
-1.4321923
 11
-9.777753E-001
 21
1.5678077
  0
LINE
  8
108
  6
CONTINUOUS
 62
1
 10
-1.2606123
 20
1.5678077
 11
-4.2606123
 21
-1.4321923
  0
LINE
  8
108
  6
CONTINUOUS
 62
1
 10
-4.5434643
 20
-1.4321923
 11
-1.5434643
 21
1.5678077
  0
LINE
  8
108
  6
CONTINUOUS
 62
1
 10
-1.8263013
 20
1.5678077
 11
-4.8263013
 21
-1.4321923
  0
LINE
  8
108
  6
CONTINUOUS
 62
1
 10
-5.1091533
 20
-1.4321923
 11
-2.1091533
 21
1.5678077
  0
LINE
  8
108
  6
CONTINUOUS
 62
1
 10
-2.3919903
 20
1.5678077
 11
-5.3919903
 21
-1.4321923
  0
LINE
  8
108
  6
CONTINUOUS
 62
1
 10
-5.6748273
 20
-1.4321923
 11
-2.6748273
 21
1.5678077
  0
LINE
  8
108
  6
CONTINUOUS
 62
1
 10
-2.9576793
 20
1.5678077
 11
-5.9576793
 21
-1.4321923
  0
LINE
  8
108
  6
CONTINUOUS
 62
1
 10
-6.2405163
 20
-1.4321923
 11
-3.2405163
 21
1.5678077
  0
LINE
  8
108
  6
CONTINUOUS
 62
1
 10
-3.5233533
 20
1.5678077
 11
-6.5233533
 21
-1.4321923
  0
LINE
  8
108
  6
CONTINUOUS
 62
1
 10
-6.8062053
 20
-1.4321923
 11
-3.8062053
 21
1.5678077
  0
LINE
  8
108
  6
CONTINUOUS
 62
1
 10
-4.0890423
 20
1.5678077
 11
-7.0890423
 21
-1.4321923
  0
LINE
  8
108
  6
CONTINUOUS
 62
1
 10
-7.3718943
 20
-1.4321923
 11
-4.3718943
 21
1.5678077
  0
LINE
  8
108
  6
CONTINUOUS
 62
1
 10
-4.6547313
 20
1.5678077
 11
-7.6547313
 21
-1.4321923
  0
LINE
  8
108
  6
CONTINUOUS
 62
1
 10
-7.9375683
 20
-1.4321923
 11
-4.9375683
 21
1.5678077
  0
LINE
  8
108
  6
CONTINUOUS
 62
1
 10
-5.2204203
 20
1.5678077
 11
-8.2204203
 21
-1.4321923
  0
LINE
  8
108
  6
CONTINUOUS
 62
1
 10
-8.5032573
 20
-1.4321923
 11
-5.5032573
 21
1.5678077
  0
LINE
  8
108
  6
CONTINUOUS
 62
1
 10
-5.7860943
 20
1.5678077
 11
-8.7860943
 21
-1.4321923
  0
LINE
  8
108
  6
CONTINUOUS
 62
1
 10
-9.0689463
 20
-1.4321923
 11
-6.0689463
 21
1.5678077
  0
LINE
  8
108
  6
CONTINUOUS
 62
1
 10
-6.3517833
 20
1.5678077
 11
-9.3517833
 21
-1.4321923
  0
LINE
  8
108
  6
CONTINUOUS
 62
1
 10
-9.6346353
 20
-1.4321923
 11
-6.6346353
 21
1.5678077
  0
LINE
  8
108
  6
CONTINUOUS
 62
1
 10
-6.9174723
 20
1.5678077
 11
-9.9174723
 21
-1.4321923
  0
LINE
  8
108
  6
CONTINUOUS
 62
1
 10
-1.0200309E+001
 20
-1.4321923
 11
-7.2003093
 21
1.5678077
  0
LINE
  8
108
  6
CONTINUOUS
 62
1
 10
-7.4831613
 20
1.5678077
 11
-1.0483161E+001
 21
-1.4321923
  0
LINE
  8
108
  6
CONTINUOUS
 62
1
 10
-1.0765998E+001
 20
-1.4321923
 11
-7.7659983
 21
1.5678077
  0
LINE
  8
108
  6
CONTINUOUS
 62
1
 10
-8.0488513
 20
1.5678077
 11
-1.1048851E+001
 21
-1.4321923
  0
LINE
  8
108
  6
CONTINUOUS
 62
1
 10
-1.1331687E+001
 20
-1.4321923
 11
-8.3316873
 21
1.5678077
  0
LINE
  8
108
  6
CONTINUOUS
 62
1
 10
-8.6145243
 20
1.5678077
 11
-1.1614524E+001
 21
-1.4321923
  0
LINE
  8
108
  6
CONTINUOUS
 62
1
 10
-1.1897377E+001
 20
-1.4321923
 11
-8.8973773
 21
1.5678077
  0
LINE
  8
108
  6
CONTINUOUS
 62
1
 10
-9.1802133
 20
1.5678077
 11
-1.2180213E+001
 21
-1.4321923
  0
LINE
  8
108
  6
CONTINUOUS
 62
1
 10
-1.246305E+001
 20
-1.4321923
 11
-9.4630503
 21
1.5678077
  0
LINE
  8
108
  6
CONTINUOUS
 62
1
 10
-9.7459033
 20
1.5678077
 11
-1.2745903E+001
 21
-1.4321923
  0
LINE
  8
108
  6
CONTINUOUS
 62
1
 10
-1.3028739E+001
 20
-1.4321923
 11
-1.0028739E+001
 21
1.5678077
  0
LINE
  8
108
  6
CONTINUOUS
 62
1
 10
-1.0311592E+001
 20
1.5678077
 11
-1.3311592E+001
 21
-1.4321923
  0
LINE
  8
108
  6
CONTINUOUS
 62
1
 10
-1.3594429E+001
 20
-1.4321923
 11
-1.0594429E+001
 21
1.5678077
  0
LINE
  8
108
  6
CONTINUOUS
 62
1
 10
-1.0877265E+001
 20
1.5678077
 11
-1.3877265E+001
 21
-1.4321923
  0
LINE
  8
108
  6
CONTINUOUS
 62
1
 10
-1.4160118E+001
 20
-1.4321923
 11
-1.1160118E+001
 21
1.5678077
  0
LINE
  8
108
  6
CONTINUOUS
 62
1
 10
-1.1442955E+001
 20
1.5678077
 11
-1.4442955E+001
 21
-1.4321923
  0
LINE
  8
108
  6
CONTINUOUS
 62
1
 10
-1.4725791E+001
 20
-1.4321923
 11
-1.1725791E+001
 21
1.5678077
  0
LINE
  8
108
  6
CONTINUOUS
 62
1
 10
-1.2008644E+001
 20
1.5678077
 11
-1.5008644E+001
 21
-1.4321923
  0
LINE
  8
108
  6
CONTINUOUS
 62
1
 10
-1.5291481E+001
 20
-1.4321923
 11
-1.2291481E+001
 21
1.5678077
  0
LINE
  8
108
  6
CONTINUOUS
 62
1
 10
-1.2574333E+001
 20
1.5678077
 11
-1.5574333E+001
 21
-1.4321923
  0
LINE
  8
108
  6
CONTINUOUS
 62
1
 10
-1.585717E+001
 20
-1.4321923
 11
-1.285717E+001
 21
1.5678077
  0
LINE
  8
108
  6
CONTINUOUS
 62
1
 10
-1.3140007E+001
 20
1.5678077
 11
-1.6140007E+001
 21
-1.4321923
  0
LINE
  8
108
  6
CONTINUOUS
 62
1
 10
-1.6422859E+001
 20
-1.4321923
 11
-1.3422859E+001
 21
1.5678077
  0
LINE
  8
108
  6
CONTINUOUS
 62
1
 10
-1.3705696E+001
 20
1.5678077
 11
-1.6705696E+001
 21
-1.4321923
  0
LINE
  8
108
  6
CONTINUOUS
 62
1
 10
-1.6988548E+001
 20
-1.4321923
 11
-1.3988548E+001
 21
1.5678077
  0
LINE
  8
108
  6
CONTINUOUS
 62
1
 10
-1.4271385E+001
 20
1.5678077
 11
-1.7271385E+001
 21
-1.4321923
  0
LINE
  8
108
  6
CONTINUOUS
 62
1
 10
-1.7554222E+001
 20
-1.4321923
 11
-1.4554222E+001
 21
1.5678077
  0
ENDBLK
  0
BLOCK
  2
*XH49
  3
*XH
 10
0.0
 20
0.0
 70
65
  0
LINE
  8
108
  6
CONTINUOUS
 62
1
 10
-2.7582888
 20
-1.5257223E+001
 11
-2.4977138
 21
-1.4996663E+001
  0
LINE
  8
108
  6
CONTINUOUS
 62
1
 10
-2.4977138
 20
-1.4713827E+001
 11
-3.0411258
 21
-1.5257223E+001
  0
LINE
  8
108
  6
CONTINUOUS
 62
1
 10
-3.3239618
 20
-1.5257223E+001
 11
-2.4977138
 21
-1.443099E+001
  0
LINE
  8
108
  6
CONTINUOUS
 62
1
 10
-2.4977138
 20
-1.4148153E+001
 11
-3.6068148
 21
-1.5257223E+001
  0
LINE
  8
108
  6
CONTINUOUS
 62
1
 10
-3.8896518
 20
-1.5257223E+001
 11
-2.4977138
 21
-1.3865285E+001
  0
LINE
  8
108
  6
CONTINUOUS
 62
1
 10
-2.4977138
 20
-1.3582448E+001
 11
-4.1724878
 21
-1.5257223E+001
  0
LINE
  8
108
  6
CONTINUOUS
 62
1
 10
-4.4553408
 20
-1.5257223E+001
 11
-2.4977138
 21
-1.3299611E+001
  0
LINE
  8
108
  6
CONTINUOUS
 62
1
 10
-2.4977138
 20
-1.3016775E+001
 11
-4.7381778
 21
-1.5257223E+001
  0
LINE
  8
108
  6
CONTINUOUS
 62
1
 10
-5.0210298
 20
-1.5257223E+001
 11
-2.4977138
 21
-1.2733938E+001
  0
LINE
  8
108
  6
CONTINUOUS
 62
1
 10
-2.4977138
 20
-1.245107E+001
 11
-5.3038668
 21
-1.5257223E+001
  0
LINE
  8
108
  6
CONTINUOUS
 62
1
 10
-5.4977138
 20
-1.5168233E+001
 11
-2.4977138
 21
-1.2168233E+001
  0
LINE
  8
108
  6
CONTINUOUS
 62
1
 10
-2.4977138
 20
-1.1885396E+001
 11
-5.4977138
 21
-1.4885396E+001
  0
LINE
  8
108
  6
CONTINUOUS
 62
1
 10
-5.4977138
 20
-1.4602559E+001
 11
-2.4977138
 21
-1.1602559E+001
  0
LINE
  8
108
  6
CONTINUOUS
 62
1
 10
-2.4977138
 20
-1.1319723E+001
 11
-5.4977138
 21
-1.4319723E+001
  0
LINE
  8
108
  6
CONTINUOUS
 62
1
 10
-5.4977138
 20
-1.4036855E+001
 11
-2.4977138
 21
-1.1036855E+001
  0
LINE
  8
108
  6
CONTINUOUS
 62
1
 10
-2.4977138
 20
-1.0754018E+001
 11
-5.4977138
 21
-1.3754018E+001
  0
LINE
  8
108
  6
CONTINUOUS
 62
1
 10
-5.4977138
 20
-1.3471181E+001
 11
-2.4977138
 21
-1.0471181E+001
  0
LINE
  8
108
  6
CONTINUOUS
 62
1
 10
1.2716229E+001
 20
4.7427466
 11
1.285925E+001
 21
4.8857826
  0
LINE
  8
108
  6
CONTINUOUS
 62
1
 10
1.2717831E+001
 20
5.0272006
 11
1.2433377E+001
 21
4.7427466
  0
LINE
  8
108
  6
CONTINUOUS
 62
1
 10
-2.4977138
 20
-1.0188344E+001
 11
-5.4977138
 21
-1.3188344E+001
  0
LINE
  8
108
  6
CONTINUOUS
 62
1
 10
-5.4977138
 20
-1.2905507E+001
 11
-2.4977138
 21
-9.9055074
  0
LINE
  8
108
  6
CONTINUOUS
 62
1
 10
1.215054E+001
 20
4.7427466
 11
1.2576413E+001
 21
5.1686196
  0
LINE
  8
108
  6
CONTINUOUS
 62
1
 10
1.2434994E+001
 20
5.3100376
 11
1.1867688E+001
 21
4.7427466
  0
LINE
  8
108
  6
CONTINUOUS
 62
1
 10
-2.4977138
 20
-9.6226404
 11
-5.4977138
 21
-1.262264E+001
  0
LINE
  8
108
  6
CONTINUOUS
 62
1
 10
-5.4977138
 20
-1.2339803E+001
 11
-2.4977138
 21
-9.3398034
  0
LINE
  8
108
  6
CONTINUOUS
 62
1
 10
1.1584851E+001
 20
4.7427466
 11
1.2293561E+001
 21
5.4514566
  0
LINE
  8
108
  6
CONTINUOUS
 62
1
 10
1.2152142E+001
 20
5.5929056
 11
1.1302014E+001
 21
4.7427466
  0
LINE
  8
108
  6
CONTINUOUS
 62
1
 10
-2.4977138
 20
-9.0569664
 11
-5.4977138
 21
-1.2056966E+001
  0
LINE
  8
108
  6
CONTINUOUS
 62
1
 10
-5.4977138
 20
-1.1774129E+001
 11
-2.4977138
 21
-8.7741294
  0
LINE
  8
108
  6
CONTINUOUS
 62
1
 10
1.1019162E+001
 20
4.7427466
 11
1.2010724E+001
 21
5.7343236
  0
LINE
  8
108
  6
CONTINUOUS
 62
1
 10
1.1869305E+001
 20
5.8757426
 11
1.0736325E+001
 21
4.7427466
  0
LINE
  8
108
  6
CONTINUOUS
 62
1
 10
-2.4977138
 20
-8.4912924
 11
-5.4977138
 21
-1.1491292E+001
  0
LINE
  8
108
  6
CONTINUOUS
 62
1
 10
-5.4977138
 20
-1.1208455E+001
 11
-2.4977138
 21
-8.2084554
  0
LINE
  8
108
  6
CONTINUOUS
 62
1
 10
1.0453473E+001
 20
4.7427466
 11
1.1727887E+001
 21
6.0171606
  0
LINE
  8
108
  6
CONTINUOUS
 62
1
 10
1.1586453E+001
 20
6.1585786
 11
1.0170636E+001
 21
4.7427466
  0
LINE
  8
108
  6
CONTINUOUS
 62
1
 10
-2.4977138
 20
-7.9255884
 11
-5.4977138
 21
-1.0925588E+001
  0
LINE
  8
108
  6
CONTINUOUS
 62
1
 10
-5.4977138
 20
-1.0642751E+001
 11
-2.4977138
 21
-7.6427514
  0
LINE
  8
108
  6
CONTINUOUS
 62
1
 10
9.8877992
 20
4.7427466
 11
1.1445035E+001
 21
6.2999976
  0
LINE
  8
108
  6
CONTINUOUS
 62
1
 10
1.1303616E+001
 20
6.4414156
 11
9.6049472
 21
4.7427466
  0
LINE
  8
108
  6
CONTINUOUS
 62
1
 10
-2.4977138
 20
-7.3599144
 11
-5.4977138
 21
-1.0359914E+001
  0
LINE
  8
108
  6
CONTINUOUS
 62
1
 10
-5.4977138
 20
-1.0077077E+001
 11
-2.4977138
 21
-7.0770774
  0
LINE
  8
108
  6
CONTINUOUS
 62
1
 10
9.3221102
 20
4.7427466
 11
1.1162198E+001
 21
6.5828346
  0
LINE
  8
108
  6
CONTINUOUS
 62
1
 10
1.1020779E+001
 20
6.7242526
 11
9.0392732
 21
4.7427466
  0
LINE
  8
108
  6
CONTINUOUS
 62
1
 10
-2.4977138
 20
-6.7942404
 11
-5.4977138
 21
-9.7942404
  0
LINE
  8
108
  6
CONTINUOUS
 62
1
 10
-5.4977138
 20
-9.5113734
 11
-2.4977138
 21
-6.5113734
  0
LINE
  8
108
  6
CONTINUOUS
 62
1
 10
8.7564212
 20
4.7427466
 11
1.0879361E+001
 21
6.8656716
  0
LINE
  8
108
  6
CONTINUOUS
 62
1
 10
1.0737927E+001
 20
7.0071206
 11
8.4735842
 21
4.7427466
  0
LINE
  8
108
  6
CONTINUOUS
 62
1
 10
-2.4977138
 20
-6.2285364
 11
-5.4977138
 21
-9.2285364
  0
LINE
  8
108
  6
CONTINUOUS
 62
1
 10
-5.4977138
 20
-8.9456994
 11
-2.4977138
 21
-5.9456994
  0
LINE
  8
108
  6
CONTINUOUS
 62
1
 10
8.1907322
 20
4.7427466
 11
1.0596509E+001
 21
7.1485386
  0
LINE
  8
108
  6
CONTINUOUS
 62
1
 10
1.045509E+001
 20
7.2899576
 11
7.9078952
 21
4.7427466
  0
LINE
  8
108
  6
CONTINUOUS
 62
1
 10
-2.4977138
 20
-5.6628624
 11
-5.4977138
 21
-8.6628624
  0
LINE
  8
108
  6
CONTINUOUS
 62
1
 10
-5.4977138
 20
-8.3800254
 11
-2.4977138
 21
-5.3800254
  0
LINE
  8
108
  6
CONTINUOUS
 62
1
 10
7.6250582
 20
4.7427466
 11
1.0313672E+001
 21
7.4313756
  0
LINE
  8
108
  6
CONTINUOUS
 62
1
 10
1.0172253E+001
 20
7.5727946
 11
7.3422062
 21
4.7427466
  0
LINE
  8
108
  6
CONTINUOUS
 62
1
 10
-2.4977138
 20
-5.0971584
 11
-5.4977138
 21
-8.0971584
  0
LINE
  8
108
  6
CONTINUOUS
 62
1
 10
-5.4977138
 20
-7.8143214
 11
-2.4977138
 21
-4.8143214
  0
LINE
  8
108
  6
CONTINUOUS
 62
1
 10
7.0593692
 20
4.7427466
 11
1.003082E+001
 21
7.7142126
  0
LINE
  8
108
  6
CONTINUOUS
 62
1
 10
9.7765322
 20
7.7427466
 11
6.7765172
 21
4.7427466
  0
LINE
  8
108
  6
CONTINUOUS
 62
1
 10
-2.4977138
 20
-4.5314844
 11
-5.4977138
 21
-7.5314844
  0
LINE
  8
108
  6
CONTINUOUS
 62
1
 10
-5.4977138
 20
-7.2486474
 11
-2.4977138
 21
-4.2486474
  0
LINE
  8
108
  6
CONTINUOUS
 62
1
 10
6.4936802
 20
4.7427466
 11
9.4936802
 21
7.7427466
  0
LINE
  8
108
  6
CONTINUOUS
 62
1
 10
9.2108432
 20
7.7427466
 11
6.2108432
 21
4.7427466
  0
LINE
  8
108
  6
CONTINUOUS
 62
1
 10
-2.4977138
 20
-3.9658104
 11
-5.4977138
 21
-6.9658104
  0
LINE
  8
108
  6
CONTINUOUS
 62
1
 10
-5.4977138
 20
-6.6829734
 11
-2.4977138
 21
-3.6829734
  0
LINE
  8
108
  6
CONTINUOUS
 62
1
 10
5.9279912
 20
4.7427466
 11
8.9279912
 21
7.7427466
  0
LINE
  8
108
  6
CONTINUOUS
 62
1
 10
8.6451542
 20
7.7427466
 11
5.6451542
 21
4.7427466
  0
LINE
  8
108
  6
CONTINUOUS
 62
1
 10
-2.4977138
 20
-3.4001064
 11
-5.4977138
 21
-6.4001064
  0
LINE
  8
108
  6
CONTINUOUS
 62
1
 10
-5.4977138
 20
-6.1172694
 11
-2.4977138
 21
-3.1172694
  0
LINE
  8
108
  6
CONTINUOUS
 62
1
 10
5.3623172
 20
4.7427466
 11
8.3623172
 21
7.7427466
  0
LINE
  8
108
  6
CONTINUOUS
 62
1
 10
8.0794652
 20
7.7427466
 11
5.0794652
 21
4.7427466
  0
LINE
  8
108
  6
CONTINUOUS
 62
1
 10
-2.4977138
 20
-2.8344324
 11
-5.4977138
 21
-5.8344324
  0
LINE
  8
108
  6
CONTINUOUS
 62
1
 10
-5.4977138
 20
-5.5515954
 11
-2.4977138
 21
-2.5515954
  0
LINE
  8
108
  6
CONTINUOUS
 62
1
 10
4.7966282
 20
4.7427466
 11
7.7966282
 21
7.7427466
  0
LINE
  8
108
  6
CONTINUOUS
 62
1
 10
7.5137762
 20
7.7427466
 11
4.5137762
 21
4.7427466
  0
LINE
  8
108
  6
CONTINUOUS
 62
1
 10
-2.4977138
 20
-2.2687584
 11
-5.4977138
 21
-5.2687584
  0
LINE
  8
108
  6
CONTINUOUS
 62
1
 10
-5.4977138
 20
-4.9858914
 11
-2.4977138
 21
-1.9858914
  0
LINE
  8
108
  6
CONTINUOUS
 62
1
 10
4.2309392
 20
4.7427466
 11
7.2309392
 21
7.7427466
  0
LINE
  8
108
  6
CONTINUOUS
 62
1
 10
6.9481022
 20
7.7427466
 11
3.9481022
 21
4.7427466
  0
LINE
  8
108
  6
CONTINUOUS
 62
1
 10
-2.4977138
 20
-1.7030544
 11
-5.4977138
 21
-4.7030544
  0
LINE
  8
108
  6
CONTINUOUS
 62
1
 10
-5.4977138
 20
-4.4202174
 11
-2.4977138
 21
-1.4202174
  0
LINE
  8
108
  6
CONTINUOUS
 62
1
 10
3.6652502
 20
4.7427466
 11
6.6652502
 21
7.7427466
  0
LINE
  8
108
  6
CONTINUOUS
 62
1
 10
6.3824132
 20
7.7427466
 11
3.3824132
 21
4.7427466
  0
LINE
  8
108
  6
CONTINUOUS
 62
1
 10
-2.4977138
 20
-1.1373804
 11
-5.4977138
 21
-4.1373804
  0
LINE
  8
108
  6
CONTINUOUS
 62
1
 10
-5.4977138
 20
-3.8545434
 11
-2.4977138
 21
-8.5454339E-001
  0
LINE
  8
108
  6
CONTINUOUS
 62
1
 10
3.0995762
 20
4.7427466
 11
6.0995762
 21
7.7427466
  0
LINE
  8
108
  6
CONTINUOUS
 62
1
 10
5.8167242
 20
7.7427466
 11
2.8167242
 21
4.7427466
  0
LINE
  8
108
  6
CONTINUOUS
 62
1
 10
-2.4977138
 20
-5.7167639E-001
 11
-5.4977138
 21
-3.5716764
  0
LINE
  8
108
  6
CONTINUOUS
 62
1
 10
-5.4977138
 20
-3.2888394
 11
-2.4977138
 21
-2.8883939E-001
  0
LINE
  8
108
  6
CONTINUOUS
 62
1
 10
2.5338872
 20
4.7427466
 11
5.5338872
 21
7.7427466
  0
LINE
  8
108
  6
CONTINUOUS
 62
1
 10
5.2510342
 20
7.7427466
 11
2.2510342
 21
4.7427466
  0
LINE
  8
108
  6
CONTINUOUS
 62
1
 10
-2.4977138
 20
-6.0023878E-003
 11
-5.4977138
 21
-3.0060024
  0
LINE
  8
108
  6
CONTINUOUS
 62
1
 10
-5.4977138
 20
-2.7231654
 11
-2.4977138
 21
2.7683461E-001
  0
LINE
  8
108
  6
CONTINUOUS
 62
1
 10
1.9681982
 20
4.7427466
 11
4.9681982
 21
7.7427466
  0
LINE
  8
108
  6
CONTINUOUS
 62
1
 10
4.6853612
 20
7.7427466
 11
1.6853612
 21
4.7427466
  0
LINE
  8
108
  6
CONTINUOUS
 62
1
 10
-2.4977138
 20
5.5967161E-001
 11
-5.4977138
 21
-2.4403284
  0
LINE
  8
108
  6
CONTINUOUS
 62
1
 10
-5.4977138
 20
-2.1574614
 11
-2.4977138
 21
8.4253861E-001
  0
LINE
  8
108
  6
CONTINUOUS
 62
1
 10
1.4025082
 20
4.7427466
 11
4.4025082
 21
7.7427466
  0
LINE
  8
108
  6
CONTINUOUS
 62
1
 10
4.1196722
 20
7.7427466
 11
1.1196722
 21
4.7427466
  0
LINE
  8
108
  6
CONTINUOUS
 62
1
 10
-2.4977138
 20
1.1253756
 11
-5.4977138
 21
-1.8746244
  0
LINE
  8
108
  6
CONTINUOUS
 62
1
 10
-5.4977138
 20
-1.5917874
 11
-2.4977138
 21
1.4082126
  0
LINE
  8
108
  6
CONTINUOUS
 62
1
 10
8.3681917E-001
 20
4.7427466
 11
3.8368192
 21
7.7427466
  0
LINE
  8
108
  6
CONTINUOUS
 62
1
 10
3.5539822
 20
7.7427466
 11
5.5398217E-001
 21
4.7427466
  0
LINE
  8
108
  6
CONTINUOUS
 62
1
 10
-2.4977138
 20
1.6910496
 11
-5.4977138
 21
-1.3089504
  0
LINE
  8
108
  6
CONTINUOUS
 62
1
 10
-5.4977138
 20
-1.0261134
 11
-2.4977138
 21
1.9738866
  0
LINE
  8
108
  6
CONTINUOUS
 62
1
 10
2.7114617E-001
 20
4.7427466
 11
3.2711462
 21
7.7427466
  0
LINE
  8
108
  6
CONTINUOUS
 62
1
 10
2.9882932
 20
7.7427466
 11
-1.1706827E-002
 21
4.7427466
  0
LINE
  8
108
  6
CONTINUOUS
 62
1
 10
-2.4977138
 20
2.2567236
 11
-5.4977138
 21
-7.4327639E-001
  0
LINE
  8
108
  6
CONTINUOUS
 62
1
 10
-5.4977138
 20
-4.6040939E-001
 11
-2.4977138
 21
2.5395906
  0
LINE
  8
108
  6
CONTINUOUS
 62
1
 10
-2.9454383E-001
 20
4.7427466
 11
2.7054562
 21
7.7427466
  0
LINE
  8
108
  6
CONTINUOUS
 62
1
 10
2.4226202
 20
7.7427466
 11
-5.7739583E-001
 21
4.7427466
  0
LINE
  8
108
  6
CONTINUOUS
 62
1
 10
-2.4977138
 20
2.8224276
 11
-5.4977138
 21
-1.7757239E-001
  0
LINE
  8
108
  6
CONTINUOUS
 62
1
 10
-5.4977138
 20
1.0526461E-001
 11
-2.4977138
 21
3.1052646
  0
LINE
  8
108
  6
CONTINUOUS
 62
1
 10
-8.6023283E-001
 20
4.7427466
 11
2.1397672
 21
7.7427466
  0
LINE
  8
108
  6
CONTINUOUS
 62
1
 10
1.8569302
 20
7.7427466
 11
-1.1430698
 21
4.7427466
  0
LINE
  8
108
  6
CONTINUOUS
 62
1
 10
-2.4977138
 20
3.3881016
 11
-5.4977138
 21
3.8810161E-001
  0
LINE
  8
108
  6
CONTINUOUS
 62
1
 10
-5.4977138
 20
6.7093861E-001
 11
-2.4977138
 21
3.6709386
  0
LINE
  8
108
  6
CONTINUOUS
 62
1
 10
-1.4259218
 20
4.7427466
 11
1.5740782
 21
7.7427466
  0
LINE
  8
108
  6
CONTINUOUS
 62
1
 10
1.2912412
 20
7.7427466
 11
-1.7087588
 21
4.7427466
  0
LINE
  8
108
  6
CONTINUOUS
 62
1
 10
-2.4977138
 20
3.9538066
 11
-5.4977138
 21
9.5380661E-001
  0
LINE
  8
108
  6
CONTINUOUS
 62
1
 10
-5.4977138
 20
1.2366426
 11
-2.4977138
 21
4.2366426
  0
LINE
  8
108
  6
CONTINUOUS
 62
1
 10
-1.9915958
 20
4.7427466
 11
1.0084042
 21
7.7427466
  0
LINE
  8
108
  6
CONTINUOUS
 62
1
 10
7.2555217E-001
 20
7.7427466
 11
-2.2744478
 21
4.7427466
  0
LINE
  8
108
  6
CONTINUOUS
 62
1
 10
-2.4977138
 20
4.5194796
 11
-5.4977138
 21
1.5194796
  0
LINE
  8
108
  6
CONTINUOUS
 62
1
 10
-5.4977138
 20
1.8023166
 11
4.4271517E-001
 21
7.7427466
  0
LINE
  8
108
  6
CONTINUOUS
 62
1
 10
1.5986317E-001
 20
7.7427466
 11
-5.4977138
 21
2.0851536
  0
LINE
  8
108
  6
CONTINUOUS
 62
1
 10
-5.4977138
 20
2.3680216
 11
-1.2297383E-001
 21
7.7427466
  0
LINE
  8
108
  6
CONTINUOUS
 62
1
 10
-4.0581083E-001
 20
7.7427466
 11
-5.4977138
 21
2.6508586
  0
LINE
  8
108
  6
CONTINUOUS
 62
1
 10
-5.4977138
 20
2.9336946
 11
-6.8866283E-001
 21
7.7427466
  0
LINE
  8
108
  6
CONTINUOUS
 62
1
 10
-9.7149983E-001
 20
7.7427466
 11
-5.4977138
 21
3.2165316
  0
LINE
  8
108
  6
CONTINUOUS
 62
1
 10
-5.4977138
 20
3.4993686
 11
-1.2543368
 21
7.7427466
  0
LINE
  8
108
  6
CONTINUOUS
 62
1
 10
-1.5371888
 20
7.7427466
 11
-5.4977138
 21
3.7822366
  0
LINE
  8
108
  6
CONTINUOUS
 62
1
 10
-5.4977138
 20
4.0650736
 11
-1.8200258
 21
7.7427466
  0
LINE
  8
108
  6
CONTINUOUS
 62
1
 10
-2.1028778
 20
7.7427466
 11
-5.4977138
 21
4.3479106
  0
LINE
  8
108
  6
CONTINUOUS
 62
1
 10
-5.4977138
 20
4.6307466
 11
-2.3857148
 21
7.7427466
  0
LINE
  8
108
  6
CONTINUOUS
 62
1
 10
-2.6685518
 20
7.7427466
 11
-5.4977138
 21
4.9135836
  0
LINE
  8
108
  6
CONTINUOUS
 62
1
 10
-5.4977138
 20
5.1964206
 11
-2.9514038
 21
7.7427466
  0
LINE
  8
108
  6
CONTINUOUS
 62
1
 10
-3.2342408
 20
7.7427466
 11
-5.4977138
 21
5.4792886
  0
LINE
  8
108
  6
CONTINUOUS
 62
1
 10
-5.4977138
 20
5.7621256
 11
-3.5170928
 21
7.7427466
  0
LINE
  8
108
  6
CONTINUOUS
 62
1
 10
-3.7999298
 20
7.7427466
 11
-5.4977138
 21
6.0449626
  0
LINE
  8
108
  6
CONTINUOUS
 62
1
 10
-5.4977138
 20
6.3277986
 11
-4.0827668
 21
7.7427466
  0
LINE
  8
108
  6
CONTINUOUS
 62
1
 10
-4.3656188
 20
7.7427466
 11
-5.4977138
 21
6.6106356
  0
LINE
  8
108
  6
CONTINUOUS
 62
1
 10
-5.4977138
 20
6.8935036
 11
-4.6484558
 21
7.7427466
  0
LINE
  8
108
  6
CONTINUOUS
 62
1
 10
-4.9312928
 20
7.7427466
 11
-5.4977138
 21
7.1763406
  0
LINE
  8
108
  6
CONTINUOUS
 62
1
 10
-5.4977138
 20
7.4591776
 11
-5.2141448
 21
7.7427466
  0
ENDBLK
  0
BLOCK
  2
*XH50
  3
*XH
 10
0.0
 20
0.0
 70
65
  0
LINE
  8
108
  6
CONTINUOUS
 62
1
 10
3.6784565
 20
-1.0463669E+001
 11
5.4661915
 21
-8.6759492
  0
LINE
  8
108
  6
CONTINUOUS
 62
1
 10
6.3912095
 20
-2.0940702
 11
-1.9887795
 21
-1.0474045E+001
  0
LINE
  8
108
  6
CONTINUOUS
 62
1
 10
-5.2563275
 20
-8.0847622
 11
6.0934045
 21
3.2649688
  0
LINE
  8
108
  6
CONTINUOUS
 62
1
 10
5.3614705
 20
8.1898958
 11
-5.5380355
 21
-2.7096102
  0
LINE
  8
108
  6
CONTINUOUS
 62
1
 10
-5.4724525
 20
3.0128328
 11
1.0406545
 21
9.5259248
  0
LINE
  8
108
  6
CONTINUOUS
 62
1
 10
-4.6162055
 20
9.5259248
 11
-5.1595865
 21
8.9825588
  0
ENDBLK
  0
BLOCK
  2
*XH51
  3
*XH
 10
0.0
 20
0.0
 70
65
  0
LINE
  8
108
  6
CONTINUOUS
 62
1
 10
2.44895
 20
-8.8647617
 11
4.905936
 21
-6.4077907
  0
LINE
  8
108
  6
CONTINUOUS
 62
1
 10
5.218787
 20
-4.380647E-001
 11
-3.20791
 21
-8.8647617
  0
LINE
  8
108
  6
CONTINUOUS
 62
1
 10
-5.973734
 20
-5.9737397
 11
5.093787
 21
5.0937963
  0
LINE
  8
108
  6
CONTINUOUS
 62
1
 10
4.812079
 20
1.0468948E+001
 11
-6.670786
 21
-1.0139307
  0
LINE
  8
108
  6
CONTINUOUS
 62
1
 10
-6.448648
 20
4.8650663
 11
-1.78461E-001
 21
1.1135238E+001
  0
ENDBLK
  0
BLOCK
  2
*XH52
  3
*XH
 10
0.0
 20
0.0
 70
65
  0
LINE
  8
108
  6
CONTINUOUS
 62
1
 10
-1.3016744
 20
-5.5443081
 11
3.8648606
 21
-3.7777312E-001
  0
LINE
  8
108
  6
CONTINUOUS
 62
1
 10
3.5673906
 20
2.1531719
 11
-2.6416244
 21
-4.0558431
  0
LINE
  8
108
  6
CONTINUOUS
 62
1
 10
-2.9901504
 20
-1.5759241
 11
2.1531756
 21
3.5673869
  0
LINE
  8
108
  6
CONTINUOUS
 62
1
 10
2.1305062E-001
 20
4.4556919
 11
-2.8650284
 21
1.3775979
  0
ENDBLK
  0
BLOCK
  2
*XH53
  3
*XH
 10
0.0
 20
0.0
 70
65
  0
LINE
  8
108
  6
CONTINUOUS
 62
1
 10
1.8421268
 20
-3.8147335
 11
2.1685268
 21
-3.4883175
  0
LINE
  8
108
  6
CONTINUOUS
 62
1
 10
2.7297758
 20
-9.86385E-002
 11
-1.1350772
 21
-3.9635075
  0
LINE
  8
108
  6
CONTINUOUS
 62
1
 10
-2.7370972
 20
-2.7370975
 11
2.6610048
 21
2.6610045
  0
LINE
  8
108
  6
CONTINUOUS
 62
1
 10
2.3124788
 20
5.1408935
 11
-4.1106932
 21
-1.2822635
  0
LINE
  8
108
  6
CONTINUOUS
 62
1
 10
-4.1106932
 20
1.5461675
 11
3.796478E-001
 21
6.0364925
  0
ENDBLK
  0
BLOCK
  2
*XH54
  3
*XH
 10
0.0
 20
0.0
 70
65
  0
LINE
  8
108
  6
CONTINUOUS
 62
1
 10
1.468984E+001
 20
-1.4321923
 11
1.4857824E+001
 21
-1.2641933
  0
LINE
  8
108
  6
CONTINUOUS
 62
1
 10
1.4857824E+001
 20
-9.8135632E-001
 11
1.4407003E+001
 21
-1.4321923
  0
LINE
  8
108
  6
CONTINUOUS
 62
1
 10
1.4124159E+001
 20
-1.4321923
 11
1.4857824E+001
 21
-6.9851932E-001
  0
LINE
  8
108
  6
CONTINUOUS
 62
1
 10
1.4857824E+001
 20
-4.1568232E-001
 11
1.3841314E+001
 21
-1.4321923
  0
LINE
  8
108
  6
CONTINUOUS
 62
1
 10
1.3558469E+001
 20
-1.4321923
 11
1.4857824E+001
 21
-1.3284532E-001
  0
LINE
  8
108
  6
CONTINUOUS
 62
1
 10
1.4857824E+001
 20
1.5002168E-001
 11
1.3275633E+001
 21
-1.4321923
  0
LINE
  8
108
  6
CONTINUOUS
 62
1
 10
1.2992788E+001
 20
-1.4321923
 11
1.4857824E+001
 21
4.3285868E-001
  0
LINE
  8
108
  6
CONTINUOUS
 62
1
 10
1.4857824E+001
 20
7.1569568E-001
 11
1.2709943E+001
 21
-1.4321923
  0
LINE
  8
108
  6
CONTINUOUS
 62
1
 10
1.2427099E+001
 20
-1.4321923
 11
1.4857824E+001
 21
9.9853268E-001
  0
LINE
  8
108
  6
CONTINUOUS
 62
1
 10
1.4857824E+001
 20
1.2813697
 11
1.2144262E+001
 21
-1.4321923
  0
LINE
  8
108
  6
CONTINUOUS
 62
1
 10
1.1861417E+001
 20
-1.4321923
 11
1.4857824E+001
 21
1.5642367
  0
LINE
  8
108
  6
CONTINUOUS
 62
1
 10
1.4578573E+001
 20
1.5678077
 11
1.1578573E+001
 21
-1.4321923
  0
LINE
  8
108
  6
CONTINUOUS
 62
1
 10
1.1295728E+001
 20
-1.4321923
 11
1.4295728E+001
 21
1.5678077
  0
LINE
  8
108
  6
CONTINUOUS
 62
1
 10
1.4012884E+001
 20
1.5678077
 11
1.1012884E+001
 21
-1.4321923
  0
LINE
  8
108
  6
CONTINUOUS
 62
1
 10
1.0730047E+001
 20
-1.4321923
 11
1.3730047E+001
 21
1.5678077
  0
LINE
  8
108
  6
CONTINUOUS
 62
1
 10
1.3447202E+001
 20
1.5678077
 11
1.0447202E+001
 21
-1.4321923
  0
LINE
  8
108
  6
CONTINUOUS
 62
1
 10
1.0164358E+001
 20
-1.4321923
 11
1.3164358E+001
 21
1.5678077
  0
LINE
  8
108
  6
CONTINUOUS
 62
1
 10
1.2881513E+001
 20
1.5678077
 11
9.881513
 21
-1.4321923
  0
LINE
  8
108
  6
CONTINUOUS
 62
1
 10
9.598676
 20
-1.4321923
 11
1.2598676E+001
 21
1.5678077
  0
LINE
  8
108
  6
CONTINUOUS
 62
1
 10
1.2315832E+001
 20
1.5678077
 11
9.315832
 21
-1.4321923
  0
LINE
  8
108
  6
CONTINUOUS
 62
1
 10
9.032987
 20
-1.4321923
 11
1.2032987E+001
 21
1.5678077
  0
LINE
  8
108
  6
CONTINUOUS
 62
1
 10
1.1750143E+001
 20
1.5678077
 11
8.750143
 21
-1.4321923
  0
LINE
  8
108
  6
CONTINUOUS
 62
1
 10
8.467306
 20
-1.4321923
 11
1.1467306E+001
 21
1.5678077
  0
LINE
  8
108
  6
CONTINUOUS
 62
1
 10
1.1184461E+001
 20
1.5678077
 11
8.184461
 21
-1.4321923
  0
LINE
  8
108
  6
CONTINUOUS
 62
1
 10
7.901617
 20
-1.4321923
 11
1.0901617E+001
 21
1.5678077
  0
LINE
  8
108
  6
CONTINUOUS
 62
1
 10
1.0618772E+001
 20
1.5678077
 11
7.618772
 21
-1.4321923
  0
LINE
  8
108
  6
CONTINUOUS
 62
1
 10
7.335935
 20
-1.4321923
 11
1.0335935E+001
 21
1.5678077
  0
LINE
  8
108
  6
CONTINUOUS
 62
1
 10
1.0053091E+001
 20
1.5678077
 11
7.053091
 21
-1.4321923
  0
LINE
  8
108
  6
CONTINUOUS
 62
1
 10
6.770246
 20
-1.4321923
 11
9.770246
 21
1.5678077
  0
LINE
  8
108
  6
CONTINUOUS
 62
1
 10
9.487402
 20
1.5678077
 11
6.487402
 21
-1.4321923
  0
LINE
  8
108
  6
CONTINUOUS
 62
1
 10
6.204565
 20
-1.4321923
 11
9.204565
 21
1.5678077
  0
LINE
  8
108
  6
CONTINUOUS
 62
1
 10
8.92172
 20
1.5678077
 11
5.92172
 21
-1.4321923
  0
LINE
  8
108
  6
CONTINUOUS
 62
1
 10
5.638876
 20
-1.4321923
 11
8.638876
 21
1.5678077
  0
LINE
  8
108
  6
CONTINUOUS
 62
1
 10
8.356031
 20
1.5678077
 11
5.356031
 21
-1.4321923
  0
LINE
  8
108
  6
CONTINUOUS
 62
1
 10
5.073194
 20
-1.4321923
 11
8.073194
 21
1.5678077
  0
LINE
  8
108
  6
CONTINUOUS
 62
1
 10
7.79035
 20
1.5678077
 11
4.79035
 21
-1.4321923
  0
LINE
  8
108
  6
CONTINUOUS
 62
1
 10
4.507505
 20
-1.4321923
 11
7.507505
 21
1.5678077
  0
LINE
  8
108
  6
CONTINUOUS
 62
1
 10
7.224661
 20
1.5678077
 11
4.224661
 21
-1.4321923
  0
LINE
  8
108
  6
CONTINUOUS
 62
1
 10
3.941824
 20
-1.4321923
 11
6.941816
 21
1.5678077
  0
LINE
  8
108
  6
CONTINUOUS
 62
1
 10
6.658979
 20
1.5678077
 11
3.658971
 21
-1.4321923
  0
LINE
  8
108
  6
CONTINUOUS
 62
1
 10
3.376135
 20
-1.4321923
 11
6.376135
 21
1.5678077
  0
LINE
  8
108
  6
CONTINUOUS
 62
1
 10
6.09329
 20
1.5678077
 11
3.09329
 21
-1.4321923
  0
LINE
  8
108
  6
CONTINUOUS
 62
1
 10
2.810445
 20
-1.4321923
 11
5.810445
 21
1.5678077
  0
LINE
  8
108
  6
CONTINUOUS
 62
1
 10
5.527609
 20
1.5678077
 11
2.527609
 21
-1.4321923
  0
LINE
  8
108
  6
CONTINUOUS
 62
1
 10
2.244764
 20
-1.4321923
 11
5.244764
 21
1.5678077
  0
LINE
  8
108
  6
CONTINUOUS
 62
1
 10
4.961919
 20
1.5678077
 11
1.961919
 21
-1.4321923
  0
LINE
  8
108
  6
CONTINUOUS
 62
1
 10
1.679083
 20
-1.4321923
 11
4.679083
 21
1.5678077
  0
LINE
  8
108
  6
CONTINUOUS
 62
1
 10
4.39623
 20
1.5678077
 11
1.39623
 21
-1.4321923
  0
LINE
  8
108
  6
CONTINUOUS
 62
1
 10
1.113393
 20
-1.4321923
 11
4.113393
 21
1.5678077
  0
LINE
  8
108
  6
CONTINUOUS
 62
1
 10
3.830549
 20
1.5678077
 11
8.3054895E-001
 21
-1.4321923
  0
LINE
  8
108
  6
CONTINUOUS
 62
1
 10
5.4770395E-001
 20
-1.4321923
 11
3.547704
 21
1.5678077
  0
LINE
  8
108
  6
CONTINUOUS
 62
1
 10
3.264867
 20
1.5678077
 11
2.6486695E-001
 21
-1.4321923
  0
LINE
  8
108
  6
CONTINUOUS
 62
1
 10
-1.7977048E-002
 20
-1.4321923
 11
2.982023
 21
1.5678077
  0
LINE
  8
108
  6
CONTINUOUS
 62
1
 10
2.699178
 20
1.5678077
 11
-3.0082205E-001
 21
-1.4321923
  0
LINE
  8
108
  6
CONTINUOUS
 62
1
 10
-5.8365905E-001
 20
-1.4321923
 11
2.416341
 21
1.5678077
  0
LINE
  8
108
  6
CONTINUOUS
 62
1
 10
2.133489
 20
1.5678077
 11
-8.6651105E-001
 21
-1.4321923
  0
LINE
  8
108
  6
CONTINUOUS
 62
1
 10
-1.149348
 20
-1.4321923
 11
1.850652
 21
1.5678077
  0
LINE
  8
108
  6
CONTINUOUS
 62
1
 10
1.567808
 20
1.5678077
 11
-1.432192
 21
-1.4321923
  0
LINE
  8
108
  6
CONTINUOUS
 62
1
 10
-1.715037
 20
-1.4321923
 11
1.284963
 21
1.5678077
  0
LINE
  8
108
  6
CONTINUOUS
 62
1
 10
1.002126
 20
1.5678077
 11
-1.997874
 21
-1.4321923
  0
LINE
  8
108
  6
CONTINUOUS
 62
1
 10
-2.280718
 20
-1.4321923
 11
7.1928195E-001
 21
1.5678077
  0
LINE
  8
108
  6
CONTINUOUS
 62
1
 10
4.3643695E-001
 20
1.5678077
 11
-2.563563
 21
-1.4321923
  0
LINE
  8
108
  6
CONTINUOUS
 62
1
 10
-2.846407
 20
-1.4321923
 11
1.5359295E-001
 21
1.5678077
  0
LINE
  8
108
  6
CONTINUOUS
 62
1
 10
-1.2925205E-001
 20
1.5678077
 11
-3.129252
 21
-1.4321923
  0
LINE
  8
108
  6
CONTINUOUS
 62
1
 10
-3.412089
 20
-1.4321923
 11
-4.1208905E-001
 21
1.5678077
  0
LINE
  8
108
  6
CONTINUOUS
 62
1
 10
-6.9493305E-001
 20
1.5678077
 11
-3.694933
 21
-1.4321923
  0
LINE
  8
108
  6
CONTINUOUS
 62
1
 10
-3.977778
 20
-1.4321923
 11
-9.7777805E-001
 21
1.5678077
  0
LINE
  8
108
  6
CONTINUOUS
 62
1
 10
-1.260615
 20
1.5678077
 11
-4.260615
 21
-1.4321923
  0
LINE
  8
108
  6
CONTINUOUS
 62
1
 10
-4.543467
 20
-1.4321923
 11
-1.543467
 21
1.5678077
  0
LINE
  8
108
  6
CONTINUOUS
 62
1
 10
-1.826304
 20
1.5678077
 11
-4.826304
 21
-1.4321923
  0
LINE
  8
108
  6
CONTINUOUS
 62
1
 10
-5.109148
 20
-1.4321923
 11
-2.109148
 21
1.5678077
  0
LINE
  8
108
  6
CONTINUOUS
 62
1
 10
-2.391993
 20
1.5678077
 11
-5.391993
 21
-1.4321923
  0
LINE
  8
108
  6
CONTINUOUS
 62
1
 10
-5.67483
 20
-1.4321923
 11
-2.67483
 21
1.5678077
  0
LINE
  8
108
  6
CONTINUOUS
 62
1
 10
-2.957674
 20
1.5678077
 11
-5.957674
 21
-1.4321923
  0
LINE
  8
108
  6
CONTINUOUS
 62
1
 10
-6.240519
 20
-1.4321923
 11
-3.240519
 21
1.5678077
  0
LINE
  8
108
  6
CONTINUOUS
 62
1
 10
-3.523356
 20
1.5678077
 11
-6.523356
 21
-1.4321923
  0
LINE
  8
108
  6
CONTINUOUS
 62
1
 10
-6.806208
 20
-1.4321923
 11
-3.806208
 21
1.5678077
  0
LINE
  8
108
  6
CONTINUOUS
 62
1
 10
-4.089045
 20
1.5678077
 11
-7.089045
 21
-1.4321923
  0
LINE
  8
108
  6
CONTINUOUS
 62
1
 10
-7.371889
 20
-1.4321923
 11
-4.371889
 21
1.5678077
  0
LINE
  8
108
  6
CONTINUOUS
 62
1
 10
-4.654734
 20
1.5678077
 11
-7.654734
 21
-1.4321923
  0
LINE
  8
108
  6
CONTINUOUS
 62
1
 10
-7.937571
 20
-1.4321923
 11
-4.937571
 21
1.5678077
  0
LINE
  8
108
  6
CONTINUOUS
 62
1
 10
-5.220415
 20
1.5678077
 11
-8.220415
 21
-1.4321923
  0
LINE
  8
108
  6
CONTINUOUS
 62
1
 10
-8.50326
 20
-1.4321923
 11
-5.50326
 21
1.5678077
  0
LINE
  8
108
  6
CONTINUOUS
 62
1
 10
-5.786097
 20
1.5678077
 11
-8.786097
 21
-1.4321923
  0
LINE
  8
108
  6
CONTINUOUS
 62
1
 10
-9.068949
 20
-1.4321923
 11
-6.068949
 21
1.5678077
  0
LINE
  8
108
  6
CONTINUOUS
 62
1
 10
-6.351786
 20
1.5678077
 11
-9.351786
 21
-1.4321923
  0
LINE
  8
108
  6
CONTINUOUS
 62
1
 10
-9.634631
 20
-1.4321923
 11
-6.634631
 21
1.5678077
  0
LINE
  8
108
  6
CONTINUOUS
 62
1
 10
-6.917475
 20
1.5678077
 11
-9.917475
 21
-1.4321923
  0
LINE
  8
108
  6
CONTINUOUS
 62
1
 10
-1.0200312E+001
 20
-1.4321923
 11
-7.200312
 21
1.5678077
  0
LINE
  8
108
  6
CONTINUOUS
 62
1
 10
-7.483164
 20
1.5678077
 11
-1.0483164E+001
 21
-1.4321923
  0
LINE
  8
108
  6
CONTINUOUS
 62
1
 10
-1.0766001E+001
 20
-1.4321923
 11
-7.766001
 21
1.5678077
  0
LINE
  8
108
  6
CONTINUOUS
 62
1
 10
-8.048846
 20
1.5678077
 11
-1.1048846E+001
 21
-1.4321923
  0
LINE
  8
108
  6
CONTINUOUS
 62
1
 10
-1.133169E+001
 20
-1.4321923
 11
-8.33169
 21
1.5678077
  0
LINE
  8
108
  6
CONTINUOUS
 62
1
 10
-8.614527
 20
1.5678077
 11
-1.1614527E+001
 21
-1.4321923
  0
LINE
  8
108
  6
CONTINUOUS
 62
1
 10
-1.1897372E+001
 20
-1.4321923
 11
-8.897372
 21
1.5678077
  0
LINE
  8
108
  6
CONTINUOUS
 62
1
 10
-9.180216
 20
1.5678077
 11
-1.2180216E+001
 21
-1.4321923
  0
LINE
  8
108
  6
CONTINUOUS
 62
1
 10
-1.2463053E+001
 20
-1.4321923
 11
-9.463053
 21
1.5678077
  0
LINE
  8
108
  6
CONTINUOUS
 62
1
 10
-9.745905
 20
1.5678077
 11
-1.2745905E+001
 21
-1.4321923
  0
LINE
  8
108
  6
CONTINUOUS
 62
1
 10
-1.3028742E+001
 20
-1.4321923
 11
-1.0028742E+001
 21
1.5678077
  0
LINE
  8
108
  6
CONTINUOUS
 62
1
 10
-1.0311587E+001
 20
1.5678077
 11
-1.3311587E+001
 21
-1.4321923
  0
LINE
  8
108
  6
CONTINUOUS
 62
1
 10
-1.3594431E+001
 20
-1.4321923
 11
-1.0594431E+001
 21
1.5678077
  0
LINE
  8
108
  6
CONTINUOUS
 62
1
 10
-1.0877268E+001
 20
1.5678077
 11
-1.3877268E+001
 21
-1.4321923
  0
LINE
  8
108
  6
CONTINUOUS
 62
1
 10
-1.4160113E+001
 20
-1.4321923
 11
-1.1160113E+001
 21
1.5678077
  0
LINE
  8
108
  6
CONTINUOUS
 62
1
 10
-1.1442957E+001
 20
1.5678077
 11
-1.4442957E+001
 21
-1.4321923
  0
LINE
  8
108
  6
CONTINUOUS
 62
1
 10
-1.4725794E+001
 20
-1.4321923
 11
-1.1725794E+001
 21
1.5678077
  0
LINE
  8
108
  6
CONTINUOUS
 62
1
 10
-1.2008646E+001
 20
1.5678077
 11
-1.5008646E+001
 21
-1.4321923
  0
LINE
  8
108
  6
CONTINUOUS
 62
1
 10
-1.5291483E+001
 20
-1.4321923
 11
-1.2291483E+001
 21
1.5678077
  0
LINE
  8
108
  6
CONTINUOUS
 62
1
 10
-1.2574328E+001
 20
1.5678077
 11
-1.5574328E+001
 21
-1.4321923
  0
LINE
  8
108
  6
CONTINUOUS
 62
1
 10
-1.5857172E+001
 20
-1.4321923
 11
-1.2857172E+001
 21
1.5678077
  0
LINE
  8
108
  6
CONTINUOUS
 62
1
 10
-1.3140009E+001
 20
1.5678077
 11
-1.6140009E+001
 21
-1.4321923
  0
LINE
  8
108
  6
CONTINUOUS
 62
1
 10
-1.6422854E+001
 20
-1.4321923
 11
-1.3422854E+001
 21
1.5678077
  0
LINE
  8
108
  6
CONTINUOUS
 62
1
 10
-1.3705698E+001
 20
1.5678077
 11
-1.6705698E+001
 21
-1.4321923
  0
LINE
  8
108
  6
CONTINUOUS
 62
1
 10
-1.6988543E+001
 20
-1.4321923
 11
-1.3988543E+001
 21
1.5678077
  0
LINE
  8
108
  6
CONTINUOUS
 62
1
 10
-1.4271387E+001
 20
1.5678077
 11
-1.7271387E+001
 21
-1.4321923
  0
LINE
  8
108
  6
CONTINUOUS
 62
1
 10
-1.7554224E+001
 20
-1.4321923
 11
-1.4554224E+001
 21
1.5678077
  0
ENDBLK
  0
BLOCK
  2
*XH55
  3
*XH
 10
0.0
 20
0.0
 70
65
  0
LINE
  8
108
  6
CONTINUOUS
 62
1
 10
-2.7582824
 20
-1.5257247E+001
 11
-2.4977154
 21
-1.4996688E+001
  0
LINE
  8
108
  6
CONTINUOUS
 62
1
 10
-2.4977154
 20
-1.4713821E+001
 11
-3.0411194
 21
-1.5257247E+001
  0
LINE
  8
108
  6
CONTINUOUS
 62
1
 10
-3.3239634
 20
-1.5257247E+001
 11
-2.4977154
 21
-1.4430984E+001
  0
LINE
  8
108
  6
CONTINUOUS
 62
1
 10
-2.4977154
 20
-1.4148147E+001
 11
-3.6068084
 21
-1.5257247E+001
  0
LINE
  8
108
  6
CONTINUOUS
 62
1
 10
-3.8896524
 20
-1.5257247E+001
 11
-2.4977154
 21
-1.386531E+001
  0
LINE
  8
108
  6
CONTINUOUS
 62
1
 10
-2.4977154
 20
-1.3582473E+001
 11
-4.1724894
 21
-1.5257247E+001
  0
LINE
  8
108
  6
CONTINUOUS
 62
1
 10
-4.4553344
 20
-1.5257247E+001
 11
-2.4977154
 21
-1.3299606E+001
  0
LINE
  8
108
  6
CONTINUOUS
 62
1
 10
-2.4977154
 20
-1.3016769E+001
 11
-4.7381784
 21
-1.5257247E+001
  0
LINE
  8
108
  6
CONTINUOUS
 62
1
 10
-5.0210234
 20
-1.5257247E+001
 11
-2.4977154
 21
-1.2733932E+001
  0
LINE
  8
108
  6
CONTINUOUS
 62
1
 10
-2.4977154
 20
-1.2451095E+001
 11
-5.3038674
 21
-1.5257247E+001
  0
LINE
  8
108
  6
CONTINUOUS
 62
1
 10
-5.4977154
 20
-1.5168258E+001
 11
-2.4977154
 21
-1.2168258E+001
  0
LINE
  8
108
  6
CONTINUOUS
 62
1
 10
-2.4977154
 20
-1.1885421E+001
 11
-5.4977154
 21
-1.4885421E+001
  0
LINE
  8
108
  6
CONTINUOUS
 62
1
 10
-5.4977154
 20
-1.4602554E+001
 11
-2.4977154
 21
-1.1602554E+001
  0
LINE
  8
108
  6
CONTINUOUS
 62
1
 10
-2.4977154
 20
-1.1319717E+001
 11
-5.4977154
 21
-1.4319717E+001
  0
LINE
  8
108
  6
CONTINUOUS
 62
1
 10
-5.4977154
 20
-1.403688E+001
 11
-2.4977154
 21
-1.103688E+001
  0
LINE
  8
108
  6
CONTINUOUS
 62
1
 10
-2.4977154
 20
-1.0754043E+001
 11
-5.4977154
 21
-1.3754043E+001
  0
LINE
  8
108
  6
CONTINUOUS
 62
1
 10
-5.4977154
 20
-1.3471206E+001
 11
-2.4977154
 21
-1.0471206E+001
  0
LINE
  8
108
  6
CONTINUOUS
 62
1
 10
1.2716228E+001
 20
4.7427535
 11
1.2859249E+001
 21
4.8857895
  0
LINE
  8
108
  6
CONTINUOUS
 62
1
 10
1.2717831E+001
 20
5.0272075
 11
1.2433376E+001
 21
4.7427535
  0
LINE
  8
108
  6
CONTINUOUS
 62
1
 10
-2.4977154
 20
-1.0188339E+001
 11
-5.4977154
 21
-1.3188339E+001
  0
LINE
  8
108
  6
CONTINUOUS
 62
1
 10
-5.4977154
 20
-1.2905502E+001
 11
-2.4977154
 21
-9.9055015
  0
LINE
  8
108
  6
CONTINUOUS
 62
1
 10
1.2150539E+001
 20
4.7427535
 11
1.2576412E+001
 21
5.1686265
  0
LINE
  8
108
  6
CONTINUOUS
 62
1
 10
1.2434994E+001
 20
5.3100445
 11
1.1867695E+001
 21
4.7427535
  0
LINE
  8
108
  6
CONTINUOUS
 62
1
 10
-2.4977154
 20
-9.6226645
 11
-5.4977154
 21
-1.2622665E+001
  0
LINE
  8
108
  6
CONTINUOUS
 62
1
 10
-5.4977154
 20
-1.2339828E+001
 11
-2.4977154
 21
-9.3398275
  0
LINE
  8
108
  6
CONTINUOUS
 62
1
 10
1.158485E+001
 20
4.7427535
 11
1.2293568E+001
 21
5.4514625
  0
LINE
  8
108
  6
CONTINUOUS
 62
1
 10
1.2152142E+001
 20
5.5929115
 11
1.1302013E+001
 21
4.7427535
  0
LINE
  8
108
  6
CONTINUOUS
 62
1
 10
-2.4977154
 20
-9.0569905
 11
-5.4977154
 21
-1.2056991E+001
  0
LINE
  8
108
  6
CONTINUOUS
 62
1
 10
-5.4977154
 20
-1.1774123E+001
 11
-2.4977154
 21
-8.7741225
  0
LINE
  8
108
  6
CONTINUOUS
 62
1
 10
1.1019161E+001
 20
4.7427535
 11
1.2010723E+001
 21
5.7343305
  0
LINE
  8
108
  6
CONTINUOUS
 62
1
 10
1.1869305E+001
 20
5.8757485
 11
1.0736324E+001
 21
4.7427535
  0
LINE
  8
108
  6
CONTINUOUS
 62
1
 10
-2.4977154
 20
-8.4912865
 11
-5.4977154
 21
-1.1491287E+001
  0
LINE
  8
108
  6
CONTINUOUS
 62
1
 10
-5.4977154
 20
-1.120845E+001
 11
-2.4977154
 21
-8.2084495
  0
LINE
  8
108
  6
CONTINUOUS
 62
1
 10
1.045348E+001
 20
4.7427535
 11
1.1727886E+001
 21
6.0171675
  0
LINE
  8
108
  6
CONTINUOUS
 62
1
 10
1.158646E+001
 20
6.1585855
 11
1.0170635E+001
 21
4.7427535
  0
LINE
  8
108
  6
CONTINUOUS
 62
1
 10
-2.4977154
 20
-7.9256125
 11
-5.4977154
 21
-1.0925613E+001
  0
LINE
  8
108
  6
CONTINUOUS
 62
1
 10
-5.4977154
 20
-1.0642776E+001
 11
-2.4977154
 21
-7.6427755
  0
LINE
  8
108
  6
CONTINUOUS
 62
1
 10
9.8877976
 20
4.7427535
 11
1.1445042E+001
 21
6.3000045
  0
LINE
  8
108
  6
CONTINUOUS
 62
1
 10
1.1303616E+001
 20
6.4414225
 11
9.6049536
 21
4.7427535
  0
LINE
  8
108
  6
CONTINUOUS
 62
1
 10
-2.4977154
 20
-7.3599075
 11
-5.4977154
 21
-1.0359908E+001
  0
LINE
  8
108
  6
CONTINUOUS
 62
1
 10
-5.4977154
 20
-1.0077071E+001
 11
-2.4977154
 21
-7.0770705
  0
LINE
  8
108
  6
CONTINUOUS
 62
1
 10
9.3221086
 20
4.7427535
 11
1.1162197E+001
 21
6.5828415
  0
LINE
  8
108
  6
CONTINUOUS
 62
1
 10
1.1020779E+001
 20
6.7242595
 11
9.0392716
 21
4.7427535
  0
LINE
  8
108
  6
CONTINUOUS
 62
1
 10
-2.4977154
 20
-6.7942345
 11
-5.4977154
 21
-9.7942345
  0
LINE
  8
108
  6
CONTINUOUS
 62
1
 10
-5.4977154
 20
-9.5113975
 11
-2.4977154
 21
-6.5113975
  0
LINE
  8
108
  6
CONTINUOUS
 62
1
 10
8.7564196
 20
4.7427535
 11
1.087936E+001
 21
6.8656785
  0
LINE
  8
108
  6
CONTINUOUS
 62
1
 10
1.0737934E+001
 20
7.0071275
 11
8.4735826
 21
4.7427535
  0
LINE
  8
108
  6
CONTINUOUS
 62
1
 10
-2.4977154
 20
-6.2285605
 11
-5.4977154
 21
-9.2285605
  0
LINE
  8
108
  6
CONTINUOUS
 62
1
 10
-5.4977154
 20
-8.9457235
 11
-2.4977154
 21
-5.9457235
  0
LINE
  8
108
  6
CONTINUOUS
 62
1
 10
8.1907386
 20
4.7427535
 11
1.0596508E+001
 21
7.1485455
  0
LINE
  8
108
  6
CONTINUOUS
 62
1
 10
1.045509E+001
 20
7.2899635
 11
7.9078936
 21
4.7427535
  0
LINE
  8
108
  6
CONTINUOUS
 62
1
 10
-2.4977154
 20
-5.6628555
 11
-5.4977154
 21
-8.6628555
  0
LINE
  8
108
  6
CONTINUOUS
 62
1
 10
-5.4977154
 20
-8.3800185
 11
-2.4977154
 21
-5.3800185
  0
LINE
  8
108
  6
CONTINUOUS
 62
1
 10
7.6250566
 20
4.7427535
 11
1.0313671E+001
 21
7.4313825
  0
LINE
  8
108
  6
CONTINUOUS
 62
1
 10
1.0172253E+001
 20
7.5728005
 11
7.3422126
 21
4.7427535
  0
LINE
  8
108
  6
CONTINUOUS
 62
1
 10
-2.4977154
 20
-5.0971825
 11
-5.4977154
 21
-8.0971825
  0
LINE
  8
108
  6
CONTINUOUS
 62
1
 10
-5.4977154
 20
-7.8143455
 11
-2.4977154
 21
-4.8143455
  0
LINE
  8
108
  6
CONTINUOUS
 62
1
 10
7.0593676
 20
4.7427535
 11
1.0030827E+001
 21
7.7142195
  0
LINE
  8
108
  6
CONTINUOUS
 62
1
 10
9.7765306
 20
7.7427535
 11
6.7765236
 21
4.7427535
  0
LINE
  8
108
  6
CONTINUOUS
 62
1
 10
-2.4977154
 20
-4.5315085
 11
-5.4977154
 21
-7.5315085
  0
LINE
  8
108
  6
CONTINUOUS
 62
1
 10
-5.4977154
 20
-7.2486405
 11
-2.4977154
 21
-4.2486405
  0
LINE
  8
108
  6
CONTINUOUS
 62
1
 10
6.4936786
 20
4.7427535
 11
9.4936786
 21
7.7427535
  0
LINE
  8
108
  6
CONTINUOUS
 62
1
 10
9.2108416
 20
7.7427535
 11
6.2108416
 21
4.7427535
  0
LINE
  8
108
  6
CONTINUOUS
 62
1
 10
-2.4977154
 20
-3.9658035
 11
-5.4977154
 21
-6.9658035
  0
LINE
  8
108
  6
CONTINUOUS
 62
1
 10
-5.4977154
 20
-6.6829665
 11
-2.4977154
 21
-3.6829665
  0
LINE
  8
108
  6
CONTINUOUS
 62
1
 10
5.9279976
 20
4.7427535
 11
8.9279976
 21
7.7427535
  0
LINE
  8
108
  6
CONTINUOUS
 62
1
 10
8.6451526
 20
7.7427535
 11
5.6451526
 21
4.7427535
  0
LINE
  8
108
  6
CONTINUOUS
 62
1
 10
-2.4977154
 20
-3.4001305
 11
-5.4977154
 21
-6.4001305
  0
LINE
  8
108
  6
CONTINUOUS
 62
1
 10
-5.4977154
 20
-6.1172935
 11
-2.4977154
 21
-3.1172935
  0
LINE
  8
108
  6
CONTINUOUS
 62
1
 10
5.3623156
 20
4.7427535
 11
8.3623156
 21
7.7427535
  0
LINE
  8
108
  6
CONTINUOUS
 62
1
 10
8.0794716
 20
7.7427535
 11
5.0794716
 21
4.7427535
  0
LINE
  8
108
  6
CONTINUOUS
 62
1
 10
-2.4977154
 20
-2.8344255
 11
-5.4977154
 21
-5.8344255
  0
LINE
  8
108
  6
CONTINUOUS
 62
1
 10
-5.4977154
 20
-5.5515885
 11
-2.4977154
 21
-2.5515885
  0
LINE
  8
108
  6
CONTINUOUS
 62
1
 10
4.7966266
 20
4.7427535
 11
7.7966266
 21
7.7427535
  0
LINE
  8
108
  6
CONTINUOUS
 62
1
 10
7.5137826
 20
7.7427535
 11
4.5137826
 21
4.7427535
  0
LINE
  8
108
  6
CONTINUOUS
 62
1
 10
-2.4977154
 20
-2.2687515
 11
-5.4977154
 21
-5.2687515
  0
LINE
  8
108
  6
CONTINUOUS
 62
1
 10
-5.4977154
 20
-4.9859145
 11
-2.4977154
 21
-1.9859145
  0
LINE
  8
108
  6
CONTINUOUS
 62
1
 10
4.2309376
 20
4.7427535
 11
7.2309376
 21
7.7427535
  0
LINE
  8
108
  6
CONTINUOUS
 62
1
 10
6.9481006
 20
7.7427535
 11
3.9481006
 21
4.7427535
  0
LINE
  8
108
  6
CONTINUOUS
 62
1
 10
-2.4977154
 20
-1.7030785
 11
-5.4977154
 21
-4.7030785
  0
LINE
  8
108
  6
CONTINUOUS
 62
1
 10
-5.4977154
 20
-4.4202105
 11
-2.4977154
 21
-1.4202105
  0
LINE
  8
108
  6
CONTINUOUS
 62
1
 10
3.6652566
 20
4.7427535
 11
6.6652566
 21
7.7427535
  0
LINE
  8
108
  6
CONTINUOUS
 62
1
 10
6.3824116
 20
7.7427535
 11
3.3824116
 21
4.7427535
  0
LINE
  8
108
  6
CONTINUOUS
 62
1
 10
-2.4977154
 20
-1.1373735
 11
-5.4977154
 21
-4.1373735
  0
LINE
  8
108
  6
CONTINUOUS
 62
1
 10
-5.4977154
 20
-3.8545365
 11
-2.4977154
 21
-8.5453651E-001
  0
LINE
  8
108
  6
CONTINUOUS
 62
1
 10
3.0995746
 20
4.7427535
 11
6.0995746
 21
7.7427535
  0
LINE
  8
108
  6
CONTINUOUS
 62
1
 10
5.8167306
 20
7.7427535
 11
2.8167306
 21
4.7427535
  0
LINE
  8
108
  6
CONTINUOUS
 62
1
 10
-2.4977154
 20
-5.7169951E-001
 11
-5.4977154
 21
-3.5716995
  0
LINE
  8
108
  6
CONTINUOUS
 62
1
 10
-5.4977154
 20
-3.2888625
 11
-2.4977154
 21
-2.8886251E-001
  0
LINE
  8
108
  6
CONTINUOUS
 62
1
 10
2.5338856
 20
4.7427535
 11
5.5338856
 21
7.7427535
  0
LINE
  8
108
  6
CONTINUOUS
 62
1
 10
5.2510406
 20
7.7427535
 11
2.2510406
 21
4.7427535
  0
LINE
  8
108
  6
CONTINUOUS
 62
1
 10
-2.4977154
 20
-6.0265137E-003
 11
-5.4977154
 21
-3.0060265
  0
LINE
  8
108
  6
CONTINUOUS
 62
1
 10
-5.4977154
 20
-2.7231585
 11
-2.4977154
 21
2.7684149E-001
  0
LINE
  8
108
  6
CONTINUOUS
 62
1
 10
1.9681966
 20
4.7427535
 11
4.9681966
 21
7.7427535
  0
LINE
  8
108
  6
CONTINUOUS
 62
1
 10
4.6853596
 20
7.7427535
 11
1.6853596
 21
4.7427535
  0
LINE
  8
108
  6
CONTINUOUS
 62
1
 10
-2.4977154
 20
5.5967849E-001
 11
-5.4977154
 21
-2.4403215
  0
LINE
  8
108
  6
CONTINUOUS
 62
1
 10
-5.4977154
 20
-2.1574845
 11
-2.4977154
 21
8.4254549E-001
  0
LINE
  8
108
  6
CONTINUOUS
 62
1
 10
1.4025146
 20
4.7427535
 11
4.4025146
 21
7.7427535
  0
LINE
  8
108
  6
CONTINUOUS
 62
1
 10
4.1196706
 20
7.7427535
 11
1.1196706
 21
4.7427535
  0
LINE
  8
108
  6
CONTINUOUS
 62
1
 10
-2.4977154
 20
1.1253825
 11
-5.4977154
 21
-1.8746475
  0
LINE
  8
108
  6
CONTINUOUS
 62
1
 10
-5.4977154
 20
-1.5918105
 11
-2.4977154
 21
1.4082195
  0
LINE
  8
108
  6
CONTINUOUS
 62
1
 10
8.368256E-001
 20
4.7427535
 11
3.8368256
 21
7.7427535
  0
LINE
  8
108
  6
CONTINUOUS
 62
1
 10
3.5539816
 20
7.7427535
 11
5.539816E-001
 21
4.7427535
  0
LINE
  8
108
  6
CONTINUOUS
 62
1
 10
-2.4977154
 20
1.6910565
 11
-5.4977154
 21
-1.3089435
  0
LINE
  8
108
  6
CONTINUOUS
 62
1
 10
-5.4977154
 20
-1.0261065
 11
-2.4977154
 21
1.9738935
  0
LINE
  8
108
  6
CONTINUOUS
 62
1
 10
2.711446E-001
 20
4.7427535
 11
3.2711446
 21
7.7427535
  0
LINE
  8
108
  6
CONTINUOUS
 62
1
 10
2.9882996
 20
7.7427535
 11
-1.1700398E-002
 21
4.7427535
  0
LINE
  8
108
  6
CONTINUOUS
 62
1
 10
-2.4977154
 20
2.2567305
 11
-5.4977154
 21
-7.4326951E-001
  0
LINE
  8
108
  6
CONTINUOUS
 62
1
 10
-5.4977154
 20
-4.6043251E-001
 11
-2.4977154
 21
2.5395975
  0
LINE
  8
108
  6
CONTINUOUS
 62
1
 10
-2.945444E-001
 20
4.7427535
 11
2.7054556
 21
7.7427535
  0
LINE
  8
108
  6
CONTINUOUS
 62
1
 10
2.4226186
 20
7.7427535
 11
-5.773894E-001
 21
4.7427535
  0
LINE
  8
108
  6
CONTINUOUS
 62
1
 10
-2.4977154
 20
2.8224345
 11
-5.4977154
 21
-1.7759551E-001
  0
LINE
  8
108
  6
CONTINUOUS
 62
1
 10
-5.4977154
 20
1.0527149E-001
 11
-2.4977154
 21
3.1052715
  0
LINE
  8
108
  6
CONTINUOUS
 62
1
 10
-8.602264E-001
 20
4.7427535
 11
2.1397736
 21
7.7427535
  0
LINE
  8
108
  6
CONTINUOUS
 62
1
 10
1.8569296
 20
7.7427535
 11
-1.1430704
 21
4.7427535
  0
LINE
  8
108
  6
CONTINUOUS
 62
1
 10
-2.4977154
 20
3.3881085
 11
-5.4977154
 21
3.8810849E-001
  0
LINE
  8
108
  6
CONTINUOUS
 62
1
 10
-5.4977154
 20
6.7094549E-001
 11
-2.4977154
 21
3.6709455
  0
LINE
  8
108
  6
CONTINUOUS
 62
1
 10
-1.4259154
 20
4.7427535
 11
1.5740846
 21
7.7427535
  0
LINE
  8
108
  6
CONTINUOUS
 62
1
 10
1.2912406
 20
7.7427535
 11
-1.7087594
 21
4.7427535
  0
LINE
  8
108
  6
CONTINUOUS
 62
1
 10
-2.4977154
 20
3.9538125
 11
-5.4977154
 21
9.5381249E-001
  0
LINE
  8
108
  6
CONTINUOUS
 62
1
 10
-5.4977154
 20
1.2366495
 11
-2.4977154
 21
4.2366495
  0
LINE
  8
108
  6
CONTINUOUS
 62
1
 10
-1.9915964
 20
4.7427535
 11
1.0084036
 21
7.7427535
  0
LINE
  8
108
  6
CONTINUOUS
 62
1
 10
7.255586E-001
 20
7.7427535
 11
-2.2744414
 21
4.7427535
  0
LINE
  8
108
  6
CONTINUOUS
 62
1
 10
-2.4977154
 20
4.5194865
 11
-5.4977154
 21
1.5194865
  0
LINE
  8
108
  6
CONTINUOUS
 62
1
 10
-5.4977154
 20
1.8023235
 11
4.427146E-001
 21
7.7427535
  0
LINE
  8
108
  6
CONTINUOUS
 62
1
 10
1.598696E-001
 20
7.7427535
 11
-5.4977154
 21
2.0851605
  0
LINE
  8
108
  6
CONTINUOUS
 62
1
 10
-5.4977154
 20
2.3680275
 11
-1.229674E-001
 21
7.7427535
  0
LINE
  8
108
  6
CONTINUOUS
 62
1
 10
-4.058114E-001
 20
7.7427535
 11
-5.4977154
 21
2.6508645
  0
LINE
  8
108
  6
CONTINUOUS
 62
1
 10
-5.4977154
 20
2.9337015
 11
-6.886564E-001
 21
7.7427535
  0
LINE
  8
108
  6
CONTINUOUS
 62
1
 10
-9.715004E-001
 20
7.7427535
 11
-5.4977154
 21
3.2165385
  0
LINE
  8
108
  6
CONTINUOUS
 62
1
 10
-5.4977154
 20
3.4993755
 11
-1.2543374
 21
7.7427535
  0
LINE
  8
108
  6
CONTINUOUS
 62
1
 10
-1.5371824
 20
7.7427535
 11
-5.4977154
 21
3.7822435
  0
LINE
  8
108
  6
CONTINUOUS
 62
1
 10
-5.4977154
 20
4.0650795
 11
-1.8200264
 21
7.7427535
  0
LINE
  8
108
  6
CONTINUOUS
 62
1
 10
-2.1028714
 20
7.7427535
 11
-5.4977154
 21
4.3479165
  0
LINE
  8
108
  6
CONTINUOUS
 62
1
 10
-5.4977154
 20
4.6307535
 11
-2.3857084
 21
7.7427535
  0
LINE
  8
108
  6
CONTINUOUS
 62
1
 10
-2.6685524
 20
7.7427535
 11
-5.4977154
 21
4.9135905
  0
LINE
  8
108
  6
CONTINUOUS
 62
1
 10
-5.4977154
 20
5.1964275
 11
-2.9513974
 21
7.7427535
  0
LINE
  8
108
  6
CONTINUOUS
 62
1
 10
-3.2342414
 20
7.7427535
 11
-5.4977154
 21
5.4792955
  0
LINE
  8
108
  6
CONTINUOUS
 62
1
 10
-5.4977154
 20
5.7621315
 11
-3.5170864
 21
7.7427535
  0
LINE
  8
108
  6
CONTINUOUS
 62
1
 10
-3.7999234
 20
7.7427535
 11
-5.4977154
 21
6.0449685
  0
LINE
  8
108
  6
CONTINUOUS
 62
1
 10
-5.4977154
 20
6.3278055
 11
-4.0827674
 21
7.7427535
  0
LINE
  8
108
  6
CONTINUOUS
 62
1
 10
-4.3656124
 20
7.7427535
 11
-5.4977154
 21
6.6106425
  0
LINE
  8
108
  6
CONTINUOUS
 62
1
 10
-5.4977154
 20
6.8935105
 11
-4.6484574
 21
7.7427535
  0
LINE
  8
108
  6
CONTINUOUS
 62
1
 10
-4.9312934
 20
7.7427535
 11
-5.4977154
 21
7.1763475
  0
LINE
  8
108
  6
CONTINUOUS
 62
1
 10
-5.4977154
 20
7.4591835
 11
-5.2141384
 21
7.7427535
  0
ENDBLK
  0
BLOCK
  2
*XH56
  3
*XH
 10
0.0
 20
0.0
 70
65
  0
LINE
  8
108
  6
CONTINUOUS
 62
1
 10
3.6784637
 20
-1.0463667E+001
 11
5.4661907
 21
-8.6759467
  0
LINE
  8
108
  6
CONTINUOUS
 62
1
 10
6.3912097
 20
-2.0940677
 11
-1.9887803
 21
-1.0474073E+001
  0
LINE
  8
108
  6
CONTINUOUS
 62
1
 10
-5.2563283
 20
-8.0847597
 11
6.0934037
 21
3.2649713
  0
LINE
  8
108
  6
CONTINUOUS
 62
1
 10
5.3614697
 20
8.1898983
 11
-5.5380353
 21
-2.7096077
  0
LINE
  8
108
  6
CONTINUOUS
 62
1
 10
-5.4724533
 20
3.0128353
 11
1.0406537
 21
9.5259273
  0
LINE
  8
108
  6
CONTINUOUS
 62
1
 10
-4.6162063
 20
9.5259273
 11
-5.1595873
 21
8.9825613
  0
ENDBLK
  0
BLOCK
  2
*XH57
  3
*XH
 10
0.0
 20
0.0
 70
65
  0
LINE
  8
108
  6
CONTINUOUS
 62
1
 10
2.4489481
 20
-8.8647795
 11
4.9059341
 21
-6.4077785
  0
LINE
  8
108
  6
CONTINUOUS
 62
1
 10
5.2187851
 20
-4.380525E-001
 11
-3.2079119
 21
-8.8647795
  0
LINE
  8
108
  6
CONTINUOUS
 62
1
 10
-5.9737349
 20
-5.9737275
 11
5.0937851
 21
5.0937775
  0
LINE
  8
108
  6
CONTINUOUS
 62
1
 10
4.8120851
 20
1.0468961E+001
 11
-6.6707869
 21
-1.0139495
  0
LINE
  8
108
  6
CONTINUOUS
 62
1
 10
-6.4486419
 20
4.8650785
 11
-1.784619E-001
 21
1.1135251E+001
  0
ENDBLK
  0
BLOCK
  2
*XH58
  3
*XH
 10
0.0
 20
0.0
 70
65
  0
LINE
  8
108
  6
CONTINUOUS
 62
1
 10
-1.3016698
 20
-5.5443229
 11
3.8648643
 21
-3.7778888E-001
  0
LINE
  8
108
  6
CONTINUOUS
 62
1
 10
3.5673793
 20
2.1531871
 11
-2.6416208
 21
-4.0558279
  0
LINE
  8
108
  6
CONTINUOUS
 62
1
 10
-2.9901468
 20
-1.5759389
 11
2.1531643
 21
3.5673711
  0
LINE
  8
108
  6
CONTINUOUS
 62
1
 10
2.1305425E-001
 20
4.4557071
 11
-2.8650247
 21
1.3776131
  0
ENDBLK
  0
BLOCK
  2
*XH59
  3
*XH
 10
0.0
 20
0.0
 70
65
  0
LINE
  8
108
  6
CONTINUOUS
 62
1
 10
1.8421312
 20
-3.814725
 11
2.1685322
 21
-3.488309
  0
LINE
  8
108
  6
CONTINUOUS
 62
1
 10
2.7297652
 20
-9.866E-002
 11
-1.1350728
 21
-3.963528
  0
LINE
  8
108
  6
CONTINUOUS
 62
1
 10
-2.7370928
 20
-2.737088
 11
2.6610092
 21
2.660983
  0
LINE
  8
108
  6
CONTINUOUS
 62
1
 10
2.3124682
 20
5.140903
 11
-4.1106888
 21
-1.282254
  0
LINE
  8
108
  6
CONTINUOUS
 62
1
 10
-4.1106888
 20
1.546176
 11
3.796372E-001
 21
6.036502
  0
ENDBLK
  0
BLOCK
  2
1NEW00
 10
0.0
 20
0.0
 70
0
  0
LINE
  8
106
  6
CENTERLINE
 62
1
 10
-1.8986193E+002
 20
-1.1707128E+002
 11
-1.8986193E+002
 21
-1.5558046E+002
  0
LINE
  8
105
  6
HIDDEN
 62
1
 10
-1.4477057E+002
 20
-1.399077E+002
 11
-1.4217057E+002
 21
-1.3730769E+002
  0
LINE
  8
105
  6
HIDDEN
 62
1
 10
-1.4217057E+002
 20
-1.3730769E+002
 11
-1.4217057E+002
 21
-1.149077E+002
  0
LINE
  8
105
  6
HIDDEN
 62
1
 10
-1.4217057E+002
 20
-1.149077E+002
 11
-1.3617057E+002
 21
-1.149077E+002
  0
LINE
  8
105
  6
HIDDEN
 62
1
 10
-1.3617057E+002
 20
-1.149077E+002
 11
-1.3617057E+002
 21
-1.3730769E+002
  0
LINE
  8
105
  6
HIDDEN
 62
1
 10
-1.3617057E+002
 20
-1.3730769E+002
 11
-1.3357053E+002
 21
-1.399077E+002
  0
LINE
  8
105
  6
HIDDEN
 62
1
 10
-1.3617057E+002
 20
-1.3730769E+002
 11
-1.4217057E+002
 21
-1.3730769E+002
  0
LINE
  8
105
  6
HIDDEN
 62
1
 10
-6.770603
 20
-1.399077E+002
 11
-4.170567
 21
-1.3730769E+002
  0
LINE
  8
105
  6
HIDDEN
 62
1
 10
-4.170567
 20
-1.3730769E+002
 11
-4.170567
 21
-1.149077E+002
  0
LINE
  8
105
  6
HIDDEN
 62
1
 10
-4.170567
 20
-1.149077E+002
 11
1.829433
 21
-1.149077E+002
  0
LINE
  8
105
  6
HIDDEN
 62
1
 10
1.829433
 20
-1.149077E+002
 11
1.829433
 21
-1.3730769E+002
  0
LINE
  8
105
  6
HIDDEN
 62
1
 10
1.829433
 20
-1.3730769E+002
 11
4.42947
 21
-1.399077E+002
  0
LINE
  8
105
  6
HIDDEN
 62
1
 10
1.829433
 20
-1.3730769E+002
 11
-4.170567
 21
-1.3730769E+002
  0
LINE
  8
106
  6
CENTERLINE
 62
1
 10
-9.3170567E+001
 20
-1.1272361E+002
 11
-9.3170567E+001
 21
-1.4217152E+002
  0
LINE
  8
106
  6
CENTERLINE
 62
1
 10
-4.7170567E+001
 20
-1.1223076E+002
 11
-4.7170567E+001
 21
-1.4204829E+002
  0
LINE
  8
106
  6
CENTERLINE
 62
1
 10
-1.170567
 20
-1.1235399E+002
 11
-1.170567
 21
-1.4204829E+002
  0
LINE
  8
105
  6
HIDDEN
 62
1
 10
-5.2770603E+001
 20
-1.399077E+002
 11
-5.0170567E+001
 21
-1.3730769E+002
  0
LINE
  8
105
  6
HIDDEN
 62
1
 10
-5.0170567E+001
 20
-1.3730769E+002
 11
-5.0170567E+001
 21
-1.149077E+002
  0
LINE
  8
105
  6
HIDDEN
 62
1
 10
-5.0170567E+001
 20
-1.149077E+002
 11
-4.4170567E+001
 21
-1.149077E+002
  0
LINE
  8
105
  6
HIDDEN
 62
1
 10
-4.4170567E+001
 20
-1.149077E+002
 11
-4.4170567E+001
 21
-1.3730769E+002
  0
LINE
  8
105
  6
HIDDEN
 62
1
 10
-4.4170567E+001
 20
-1.3730769E+002
 11
-4.157053E+001
 21
-1.399077E+002
  0
LINE
  8
105
  6
HIDDEN
 62
1
 10
-4.4170567E+001
 20
-1.3730769E+002
 11
-5.0170567E+001
 21
-1.3730769E+002
  0
LINE
  8
105
  6
HIDDEN
 62
1
 10
-9.8770603E+001
 20
-1.399077E+002
 11
-9.6170567E+001
 21
-1.3730769E+002
  0
LINE
  8
105
  6
HIDDEN
 62
1
 10
-9.6170567E+001
 20
-1.3730769E+002
 11
-9.6170567E+001
 21
-1.149077E+002
  0
LINE
  8
105
  6
HIDDEN
 62
1
 10
-9.6170567E+001
 20
-1.149077E+002
 11
-9.0170567E+001
 21
-1.149077E+002
  0
LINE
  8
105
  6
HIDDEN
 62
1
 10
-9.0170567E+001
 20
-1.149077E+002
 11
-9.0170567E+001
 21
-1.3730769E+002
  0
LINE
  8
105
  6
HIDDEN
 62
1
 10
-9.0170567E+001
 20
-1.3730769E+002
 11
-8.757053E+001
 21
-1.399077E+002
  0
LINE
  8
105
  6
HIDDEN
 62
1
 10
-9.0170567E+001
 20
-1.3730769E+002
 11
-9.6170567E+001
 21
-1.3730769E+002
  0
LINE
  8
106
  6
CENTERLINE
 62
1
 10
-1.3917057E+002
 20
-1.1262028E+002
 11
-1.3917057E+002
 21
-1.4214131E+002
  0
LINE
  8
105
  6
HIDDEN
 62
1
 10
-1.5361374E+002
 20
-1.2990767E+002
 11
-1.5459855E+002
 21
-1.2990767E+002
  0
ARC
  8
105
  6
HIDDEN
 62
1
 10
-1.545987E+002
 20
-1.3090714E+002
 40
9.9947199E-001
 50
8.9991344E+001
 51
1.1471081E+002
  0
ARC
  8
105
  6
HIDDEN
 62
1
 10
-1.5459857E+002
 20
-1.3090766E+002
 40
9.9999854E-001
 50
1.147048E+002
 51
1.7200108E+002
  0
LINE
  8
105
  6
HIDDEN
 62
1
 10
-1.5558884E+002
 20
-1.3076851E+002
 11
-1.5617057E+002
 21
-1.349077E+002
  0
LINE
  8
105
  6
HIDDEN
 62
1
 10
-1.5617057E+002
 20
-1.349077E+002
 11
-1.5558884E+002
 21
-1.3904689E+002
  0
ARC
  8
105
  6
HIDDEN
 62
1
 10
-1.5459855E+002
 20
-1.389077E+002
 40
1.0000252
 50
1.880005E+002
 51
2.7000021E+002
  0
LINE
  8
105
  6
HIDDEN
 62
1
 10
-1.5459855E+002
 20
-1.3990773E+002
 11
-1.5261664E+002
 21
-1.3990773E+002
  0
LINE
  8
105
  6
HIDDEN
 62
1
 10
-1.2273694E+002
 20
-1.299077E+002
 11
1.0126736E+001
 21
-1.299077E+002
  0
LINE
  8
105
  6
HIDDEN
 62
1
 10
1.0126736E+001
 20
-1.299077E+002
 11
1.0829433E+001
 21
-1.349077E+002
  0
LINE
  8
105
  6
HIDDEN
 62
1
 10
1.0829433E+001
 20
-1.349077E+002
 11
1.0126736E+001
 21
-1.399077E+002
  0
LINE
  8
105
  6
HIDDEN
 62
1
 10
1.0126736E+001
 20
-1.399077E+002
 11
-1.2274256E+002
 21
-1.399077E+002
  0
ARC
  8
104
  6
CONTINUOUS
 62
40
 10
-1.2274256E+002
 20
-1.3890769E+002
 40
1.0000039
 50
2.7000023E+002
 51
3.5199879E+002
  0
LINE
  8
104
  6
CONTINUOUS
 62
40
 10
-1.2175229E+002
 20
-1.3904689E+002
 11
-1.2117057E+002
 21
-1.3490776E+002
  0
LINE
  8
104
  6
CONTINUOUS
 62
40
 10
-1.2117057E+002
 20
-1.3490776E+002
 11
-1.2175232E+002
 21
-1.3076851E+002
  0
ARC
  8
104
  6
CONTINUOUS
 62
40
 10
-1.2274261E+002
 20
-1.3090768E+002
 40
1.0000166
 50
8.0000723
 51
8.9998895E+001
  0
LINE
  8
104
  6
CONTINUOUS
 62
40
 10
-1.2274259E+002
 20
-1.2990767E+002
 11
-1.5459858E+002
 21
-1.2990767E+002
  0
LINE
  8
104
  6
CONTINUOUS
 62
40
 10
-1.5459858E+002
 20
-1.2990767E+002
 11
-1.5546787E+002
 21
-1.2990767E+002
  0
LINE
  8
104
  6
CONTINUOUS
 62
40
 10
-1.2274256E+002
 20
-1.399077E+002
 11
-1.8617057E+002
 21
-1.399077E+002
  0
ARC
  8
104
  6
CONTINUOUS
 62
40
 10
-1.8617057E+002
 20
-1.429077E+002
 40
3.0
 50
9.0E+001
 51
1.8E+002
  0
LINE
  8
104
  6
CONTINUOUS
 62
40
 10
-1.5546787E+002
 20
-1.2990767E+002
 11
-1.8617057E+002
 21
-1.2990767E+002
  0
ARC
  8
104
  6
CONTINUOUS
 62
40
 10
-1.8617308E+002
 20
-1.2687291E+002
 40
3.0347525
 50
2.2863417E+002
 51
2.7004744E+002
  0
ARC
  8
104
  6
CONTINUOUS
 62
40
 10
-1.8620512E+002
 20
-1.2690926E+002
 40
2.9863027
 50
1.8677549E+002
 51
2.2863474E+002
  0
LINE
  8
104
  6
CONTINUOUS
 62
40
 10
-1.6943433E+002
 20
-1.399077E+002
 11
-1.7150397E+002
 21
-1.399077E+002
  0
ARC
  8
104
  6
CONTINUOUS
 62
40
 10
-1.7150398E+002
 20
-1.4090771E+002
 40
1.0000164
 50
8.9999357E+001
 51
1.7199993E+002
  0
LINE
  8
104
  6
CONTINUOUS
 62
40
 10
-1.7249427E+002
 20
-1.4076854E+002
 11
-1.7283402E+002
 21
-1.4318605E+002
  0
ARC
  8
104
  6
CONTINUOUS
 62
40
 10
-1.7481456E+002
 20
-1.4290771E+002
 40
2.0000003
 50
2.7000023E+002
 51
3.520003E+002
  0
LINE
  8
104
  6
CONTINUOUS
 62
40
 10
-1.7481455E+002
 20
-1.4490771E+002
 11
-2.0352658E+002
 21
-1.4490771E+002
  0
ARC
  8
104
  6
CONTINUOUS
 62
40
 10
-2.0352655E+002
 20
-1.4290768E+002
 40
2.0000356
 50
1.8800058E+002
 51
2.6999889E+002
  0
LINE
  8
104
  6
CONTINUOUS
 62
40
 10
-2.0550711E+002
 20
-1.4318605E+002
 11
-2.0667057E+002
 21
-1.349077E+002
  0
LINE
  8
104
  6
CONTINUOUS
 62
40
 10
-2.0667057E+002
 20
-1.349077E+002
 11
-2.0550711E+002
 21
-1.2662938E+002
  0
ARC
  8
104
  6
CONTINUOUS
 62
40
 10
-2.0352658E+002
 20
-1.2690775E+002
 40
2.0000051
 50
9.0000228E+001
 51
1.719993E+002
  0
LINE
  8
104
  6
CONTINUOUS
 62
40
 10
-2.0352658E+002
 20
-1.2490774E+002
 11
-1.7481455E+002
 21
-1.2490774E+002
  0
ARC
  8
104
  6
CONTINUOUS
 62
40
 10
-1.7481455E+002
 20
-1.2690774E+002
 40
1.9999939
 50
8.0004226
 51
9.0000052E+001
  0
LINE
  8
104
  6
CONTINUOUS
 62
40
 10
-1.7283402E+002
 20
-1.2662938E+002
 11
-1.7249427E+002
 21
-1.2904686E+002
  0
ARC
  8
104
  6
CONTINUOUS
 62
40
 10
-1.7150397E+002
 20
-1.2890768E+002
 40
1.0000318
 50
1.8799995E+002
 51
2.6999975E+002
  0
LINE
  8
104
  6
CONTINUOUS
 62
40
 10
-1.7150397E+002
 20
-1.2990771E+002
 11
-1.6879233E+002
 21
-1.2990771E+002
  0
TEXT
  8
103
  6
CONTINUOUS
 62
40
 10
-5.1082359E+001
 20
6.1111995E+001
 40
5.0
  1
Tuerhebel 7411/56
 41
6.6176471E-001
 72
1
 11
-7.9207359E+001
 21
5.8611995E+001
 73
2
  0
TEXT
  8
103
  6
CONTINUOUS
 62
40
 10
-4.4934883E+001
 20
-4.8502927E+001
 40
5.0
  1
Tuerhebel 7411/46
 41
6.6176471E-001
 72
1
 11
-7.3059883E+001
 21
-5.1002927E+001
 73
2
  0
DIMENSION
  8
MED-0
  6
CONTINUOUS
 62
4
  2
*D4906
  3
DSTYLE1
 10
1.1752222E+002
 20
7.0153834
 11
8.9599983E+001
 21
9.9308834
 70
128
 13
6.1522217E+001
 23
-7.890073
 14
1.1752222E+002
 24
-4.217878
 40
3.0
 50
0.0
  0
DIMENSION
  8
MED-0
  6
CONTINUOUS
 62
4
  2
*D4907
  3
DSTYLE1
 10
1.0752222E+002
 20
1.1460934E+002
 11
8.4599983E+001
 21
1.1752484E+002
 70
128
 13
6.1522217E+001
 23
1.0058068E+002
 14
1.0752222E+002
 24
1.0458389E+002
 40
3.0
 50
0.0
  0
LINE
  8
104
  6
CONTINUOUS
 62
40
 10
-1.2186181E+002
 20
-4.3234998E+001
 11
-1.5686192E+002
 21
-4.3234998E+001
  0
LINE
  8
104
  6
CONTINUOUS
 62
40
 10
-1.5686192E+002
 20
-4.3635022E+001
 11
-1.2194614E+002
 21
-4.3635022E+001
  0
LINE
  8
106
  6
CENTERLINE
 62
1
 10
-1.581809E+002
 20
-4.343501E+001
 11
-1.2062084E+002
 21
-4.343501E+001
  0
LINE
  8
104
  6
CONTINUOUS
 62
40
 10
-1.9938287E+002
 20
-7.3349012E+001
 11
-1.7993939E+002
 21
-7.4027997E+001
  0
ARC
  8
104
  6
CONTINUOUS
 62
40
 10
-1.8986193E+002
 20
-7.9435002E+001
 40
1.1300112E+001
 50
3.2741302E+002
 51
3.8858691E+002
  0
LINE
  8
104
  6
CONTINUOUS
 62
40
 10
-1.8034074E+002
 20
-8.5521009E+001
 11
-1.9978422E+002
 21
-8.4842023E+001
  0
ARC
  8
104
  6
CONTINUOUS
 62
40
 10
-1.898618E+002
 20
-7.9435014E+001
 40
1.1300004E+001
 50
1.474127E+002
 51
2.0858723E+002
  0
LINE
  8
104
  6
CONTINUOUS
 62
40
 10
-1.9932296E+002
 20
-7.3726331E+001
 11
-1.8002547E+002
 21
-7.440022E+001
  0
ARC
  8
104
  6
CONTINUOUS
 62
40
 10
-1.8986193E+002
 20
-7.9435004E+001
 40
1.1050113E+001
 50
3.2889434E+002
 51
3.871056E+002
  0
LINE
  8
104
  6
CONTINUOUS
 62
40
 10
-1.8040064E+002
 20
-8.5143689E+001
 11
-1.9969814E+002
 21
-8.44698E+001
  0
ARC
  8
104
  6
CONTINUOUS
 62
40
 10
-1.8986193E+002
 20
-7.9435008E+001
 40
1.1049896E+001
 50
1.4889372E+002
 51
2.0710622E+002
  0
CIRCLE
  8
104
  6
CONTINUOUS
 62
40
 10
-1.3917057E+002
 20
-2.343501E+001
 40
6.350006
  0
CIRCLE
  8
104
  6
CONTINUOUS
 62
40
 10
-9.3170586E+001
 20
-2.343501E+001
 40
6.350006
  0
CIRCLE
  8
104
  6
CONTINUOUS
 62
40
 10
-4.7861809E+001
 20
-2.343501E+001
 40
6.350006
  0
CIRCLE
  8
104
  6
CONTINUOUS
 62
40
 10
-1.861809
 20
-2.343501E+001
 40
6.350006
  0
CIRCLE
  8
104
  6
CONTINUOUS
 62
40
 10
-1.861809
 20
-2.343501E+001
 40
3.350006
  0
CIRCLE
  8
104
  6
CONTINUOUS
 62
40
 10
-4.7861809E+001
 20
-2.343501E+001
 40
3.350006
  0
CIRCLE
  8
104
  6
CONTINUOUS
 62
40
 10
-9.3170586E+001
 20
-2.343501E+001
 40
3.350006
  0
CIRCLE
  8
104
  6
CONTINUOUS
 62
40
 10
-1.3917057E+002
 20
-2.343501E+001
 40
3.350006
  0
LINE
  8
106
  6
CENTERLINE
 62
1
 10
-1.3917057E+002
 20
-1.4810987E+001
 11
-1.3917057E+002
 21
-3.1826612E+001
  0
LINE
  8
106
  6
CENTERLINE
 62
1
 10
-9.3170586E+001
 20
-1.4424268E+001
 11
-9.3170586E+001
 21
-3.1633252E+001
  0
LINE
  8
106
  6
CENTERLINE
 62
1
 10
-4.7861809E+001
 20
-1.5004346E+001
 11
-4.7861809E+001
 21
-3.2019971E+001
  0
LINE
  8
106
  6
CENTERLINE
 62
1
 10
-1.861809
 20
-1.4424268E+001
 11
-1.861809
 21
-3.1826612E+001
  0
LINE
  8
106
  6
CENTERLINE
 62
1
 10
-1.6154052E+002
 20
-2.343501E+001
 11
-1.3086181E+002
 21
-2.343501E+001
  0
LINE
  8
106
  6
CENTERLINE
 62
1
 10
-1.0286181E+002
 20
-2.343501E+001
 11
-8.4861809E+001
 21
-2.343501E+001
  0
LINE
  8
106
  6
CENTERLINE
 62
1
 10
-5.6861794E+001
 20
-2.343501E+001
 11
-3.8861809E+001
 21
-2.343501E+001
  0
LINE
  8
106
  6
CENTERLINE
 62
1
 10
-1.0861809E+001
 20
-2.343501E+001
 11
1.3449715E+001
 21
-2.343501E+001
  0
ARC
  8
104
  6
CONTINUOUS
 62
40
 10
-1.2936182E+002
 20
-1.7935016E+001
 40
1.4999896
 50
8.9999603E+001
 51
1.7999979E+002
  0
LINE
  8
104
  6
CONTINUOUS
 62
40
 10
-1.2936181E+002
 20
-1.6435026E+001
 11
-1.0436181E+002
 21
-1.6435026E+001
  0
ARC
  8
104
  6
CONTINUOUS
 62
40
 10
-1.0436182E+002
 20
-1.7935044E+001
 40
1.5000177
 50
1.285776E-003
 51
8.9999478E+001
  0
LINE
  8
104
  6
CONTINUOUS
 62
40
 10
-1.028618E+002
 20
-1.793501E+001
 11
-1.028618E+002
 21
-2.893501E+001
  0
ARC
  8
104
  6
CONTINUOUS
 62
40
 10
-1.0436181E+002
 20
-2.8935005E+001
 40
1.5000046
 50
2.7000002E+002
 51
3.5999983E+002
  0
LINE
  8
104
  6
CONTINUOUS
 62
40
 10
-1.0436181E+002
 20
-3.043501E+001
 11
-1.2936181E+002
 21
-3.043501E+001
  0
ARC
  8
104
  6
CONTINUOUS
 62
40
 10
-1.2936181E+002
 20
-2.8935021E+001
 40
1.499989
 50
1.7999958E+002
 51
2.7000012E+002
  0
LINE
  8
104
  6
CONTINUOUS
 62
40
 10
-1.308618E+002
 20
-2.893501E+001
 11
-1.3086181E+002
 21
-1.793501E+001
  0
ARC
  8
104
  6
CONTINUOUS
 62
40
 10
-8.3361802E+001
 20
-1.7935017E+001
 40
1.500007
 50
9.0000269E+001
 51
1.7999973E+002
  0
LINE
  8
104
  6
CONTINUOUS
 62
40
 10
-8.3361809E+001
 20
-1.643501E+001
 11
-5.8361809E+001
 21
-1.643501E+001
  0
ARC
  8
104
  6
CONTINUOUS
 62
40
 10
-5.8361804E+001
 20
-1.7935013E+001
 40
1.5000031
 50
1.2624566E-003
 51
9.0000189E+001
  0
LINE
  8
104
  6
CONTINUOUS
 62
40
 10
-5.6861801E+001
 20
-1.793498E+001
 11
-5.6861801E+001
 21
-2.893501E+001
  0
ARC
  8
104
  6
CONTINUOUS
 62
40
 10
-5.8361798E+001
 20
-2.8935013E+001
 40
1.4999974
 50
2.7000017E+002
 51
3.600001E+002
  0
LINE
  8
104
  6
CONTINUOUS
 62
40
 10
-5.8361794E+001
 20
-3.043501E+001
 11
-8.3361809E+001
 21
-3.043501E+001
  0
ARC
  8
104
  6
CONTINUOUS
 62
40
 10
-8.3361823E+001
 20
-2.8935016E+001
 40
1.4999939
 50
1.7999977E+002
 51
2.7000054E+002
  0
LINE
  8
104
  6
CONTINUOUS
 62
40
 10
-8.4861817E+001
 20
-2.893501E+001
 11
-8.4861809E+001
 21
-1.793501E+001
  0
ARC
  8
104
  6
CONTINUOUS
 62
40
 10
-3.7361802E+001
 20
-1.7935017E+001
 40
1.5000066
 50
9.0000252E+001
 51
1.7999975E+002
  0
LINE
  8
104
  6
CONTINUOUS
 62
40
 10
-3.7361809E+001
 20
-1.643501E+001
 11
-1.2361809E+001
 21
-1.643501E+001
  0
ARC
  8
104
  6
CONTINUOUS
 62
40
 10
-1.2361817E+001
 20
-1.7935003E+001
 40
1.4999929
 50
8.741231E-004
 51
8.9999699E+001
  0
LINE
  8
104
  6
CONTINUOUS
 62
40
 10
-1.0861824E+001
 20
-1.793498E+001
 11
-1.0861824E+001
 21
-2.893501E+001
  0
ARC
  8
104
  6
CONTINUOUS
 62
40
 10
-1.2361819E+001
 20
-2.8935015E+001
 40
1.4999948
 50
2.7000037E+002
 51
3.600002E+002
  0
LINE
  8
104
  6
CONTINUOUS
 62
40
 10
-1.2361809E+001
 20
-3.043501E+001
 11
-3.7361809E+001
 21
-3.043501E+001
  0
ARC
  8
104
  6
CONTINUOUS
 62
40
 10
-3.7361816E+001
 20
-2.8935017E+001
 40
1.4999935
 50
1.7999975E+002
 51
2.7000025E+002
  0
LINE
  8
104
  6
CONTINUOUS
 62
40
 10
-3.8861809E+001
 20
-2.893501E+001
 11
-3.8861809E+001
 21
-1.793501E+001
  0
LINE
  8
106
  6
CENTERLINE
 62
1
 10
-2.1002702E+002
 20
-7.8730817E+001
 11
-1.6903417E+002
 21
-8.0162336E+001
  0
LINE
  8
106
  6
CENTERLINE
 62
1
 10
-1.8917069E+002
 20
-5.9640577E+001
 11
-1.9054498E+002
 21
-9.8995237E+001
  0
LINE
  8
106
  6
CENTERLINE
 62
1
 10
-1.8986193E+002
 20
-5.746626E+001
 11
-1.8986193E+002
 21
-1.0000532E+002
  0
LINE
  8
106
  6
CENTERLINE
 62
1
 10
-2.1035802E+002
 20
-7.943501E+001
 11
-1.6820568E+002
 21
-7.943501E+001
  0
CIRCLE
  8
104
  6
CONTINUOUS
 62
40
 10
-1.8986193E+002
 20
-7.943501E+001
 40
1.75E+001
  0
LINE
  8
104
  6
CONTINUOUS
 62
40
 10
-1.8986193E+002
 20
-6.193501E+001
 11
-1.6186193E+002
 21
-6.193501E+001
  0
ARC
  8
104
  6
CONTINUOUS
 62
40
 10
-1.6186191E+002
 20
-5.6935016E+001
 40
4.9999937
 50
2.6999984E+002
 51
3.6000007E+002
  0
LINE
  8
104
  6
CONTINUOUS
 62
40
 10
-1.5686192E+002
 20
-5.693501E+001
 11
-1.5686192E+002
 21
-1.543501E+001
  0
ARC
  8
104
  6
CONTINUOUS
 62
40
 10
-1.5486192E+002
 20
-1.5435023E+001
 40
1.9999968
 50
8.999663E+001
 51
1.7999963E+002
  0
LINE
  8
104
  6
CONTINUOUS
 62
40
 10
-1.5486181E+002
 20
-1.3435026E+001
 11
8.138191
 21
-1.3435026E+001
  0
ARC
  8
104
  6
CONTINUOUS
 62
40
 10
8.1381762
 20
-1.5435026E+001
 40
1.9999998
 50
4.516383E-004
 51
8.9999577E+001
  0
LINE
  8
104
  6
CONTINUOUS
 62
40
 10
1.0138176E+001
 20
-1.543501E+001
 11
1.0138176E+001
 21
-3.143501E+001
  0
ARC
  8
104
  6
CONTINUOUS
 62
40
 10
8.138179
 20
-3.1435013E+001
 40
1.999997
 50
2.7000034E+002
 51
3.6000009E+002
  0
LINE
  8
104
  6
CONTINUOUS
 62
40
 10
8.138191
 20
-3.343501E+001
 11
-1.1986181E+002
 21
-3.343501E+001
  0
ARC
  8
104
  6
CONTINUOUS
 62
40
 10
-1.1986181E+002
 20
-3.5435009E+001
 40
1.9999987
 50
8.9999963E+001
 51
1.8000004E+002
  0
LINE
  8
104
  6
CONTINUOUS
 62
40
 10
-1.2186181E+002
 20
-3.543501E+001
 11
-1.2186181E+002
 21
-4.343501E+001
  0
LINE
  8
104
  6
CONTINUOUS
 62
40
 10
-1.2186181E+002
 20
-4.343501E+001
 11
-1.3838858E+002
 21
-8.2626783E+001
  0
ARC
  8
104
  6
CONTINUOUS
 62
40
 10
-1.4299575E+002
 20
-8.0683986E+001
 40
5.0000422
 50
2.8391306E+002
 51
3.3713532E+002
  0
LINE
  8
104
  6
CONTINUOUS
 62
40
 10
-1.4179349E+002
 20
-8.5537336E+001
 11
-1.8644972E+002
 21
-9.6599119E+001
  0
LINE
  8
104
  6
CONTINUOUS
 62
40
 10
6.0022217E+001
 20
-1.2978925E+001
 11
6.0022217E+001
 21
-1.3978925E+001
  0
LINE
  8
104
  6
CONTINUOUS
 62
40
 10
6.0022217E+001
 20
-1.3978925E+001
 11
6.3022217E+001
 21
-1.3978925E+001
  0
LINE
  8
104
  6
CONTINUOUS
 62
40
 10
6.3022217E+001
 20
-1.3978925E+001
 11
6.3115509E+001
 21
-1.2978925E+001
  0
LINE
  8
104
  6
CONTINUOUS
 62
40
 10
6.4022217E+001
 20
-2.4178876E+001
 11
6.4022217E+001
 21
-1.5978925E+001
  0
LINE
  8
104
  6
CONTINUOUS
 62
40
 10
6.4022217E+001
 20
-1.5978925E+001
 11
6.7022217E+001
 21
-1.2978925E+001
  0
LINE
  8
104
  6
CONTINUOUS
 62
40
 10
6.7022217E+001
 20
-1.2978925E+001
 11
5.6022217E+001
 21
-1.2978925E+001
  0
LINE
  8
104
  6
CONTINUOUS
 62
40
 10
5.6022217E+001
 20
-1.2978925E+001
 11
5.9022217E+001
 21
-1.5978925E+001
  0
LINE
  8
104
  6
CONTINUOUS
 62
40
 10
5.9022217E+001
 20
-1.5978925E+001
 11
5.9022217E+001
 21
-2.4178876E+001
  0
LINE
  8
104
  6
CONTINUOUS
 62
40
 10
5.9022217E+001
 20
-2.4178876E+001
 11
6.4022217E+001
 21
-2.4178876E+001
  0
LINE
  8
104
  6
CONTINUOUS
 62
40
 10
5.9022217E+001
 20
-1.5978925E+001
 11
6.4022217E+001
 21
-1.5978925E+001
  0
LINE
  8
99
  6
CONTINUOUS
 62
1
 10
5.9772217E+001
 20
-1.5978925E+001
 11
5.9772217E+001
 21
-2.4178876E+001
  0
LINE
  8
99
  6
CONTINUOUS
 62
1
 10
6.3272217E+001
 20
-1.5978925E+001
 11
6.3272217E+001
 21
-2.4178876E+001
  0
LINE
  8
104
  6
CONTINUOUS
 62
40
 10
9.6522217E+001
 20
-1.5978925E+001
 11
6.4022217E+001
 21
-1.5978925E+001
  0
LINE
  8
104
  6
CONTINUOUS
 62
40
 10
6.4022217E+001
 20
-1.5978925E+001
 11
6.7022217E+001
 21
-1.2978925E+001
  0
LINE
  8
104
  6
CONTINUOUS
 62
40
 10
6.7022217E+001
 20
-1.2978925E+001
 11
9.6522217E+001
 21
-1.2978925E+001
  0
LINE
  8
104
  6
CONTINUOUS
 62
40
 10
9.6522217E+001
 20
-1.2978925E+001
 11
9.6522217E+001
 21
-1.5978925E+001
  0
LINE
  8
104
  6
CONTINUOUS
 62
40
 10
9.6522217E+001
 20
-1.5978925E+001
 11
9.7522217E+001
 21
-1.5978925E+001
  0
LINE
  8
104
  6
CONTINUOUS
 62
40
 10
9.6522217E+001
 20
-1.2978925E+001
 11
9.7522217E+001
 21
-1.2978925E+001
  0
LINE
  8
104
  6
CONTINUOUS
 62
40
 10
5.9022217E+001
 20
-1.5978925E+001
 11
4.3522217E+001
 21
-1.5978925E+001
  0
LINE
  8
104
  6
CONTINUOUS
 62
40
 10
4.3522217E+001
 20
-1.5978925E+001
 11
4.3522217E+001
 21
-3.5978895E+001
  0
LINE
  8
104
  6
CONTINUOUS
 62
40
 10
4.3522217E+001
 20
-3.5978895E+001
 11
4.0522217E+001
 21
-3.5978895E+001
  0
LINE
  8
104
  6
CONTINUOUS
 62
40
 10
4.0522217E+001
 20
-3.5978895E+001
 11
4.0522217E+001
 21
-1.2978925E+001
  0
LINE
  8
104
  6
CONTINUOUS
 62
40
 10
4.0522217E+001
 20
-1.2978925E+001
 11
5.6022217E+001
 21
-1.2978925E+001
  0
LINE
  8
104
  6
CONTINUOUS
 62
40
 10
5.6022217E+001
 20
-1.2978925E+001
 11
5.9022217E+001
 21
-1.5978925E+001
  0
LINE
  8
104
  6
CONTINUOUS
 62
40
 10
6.7387512E+001
 20
-3.8178876E+001
 11
6.6653808E+001
 21
-2.4178876E+001
  0
LINE
  8
104
  6
CONTINUOUS
 62
40
 10
6.6653808E+001
 20
-2.4178876E+001
 11
5.6390625E+001
 21
-2.4178876E+001
  0
LINE
  8
104
  6
CONTINUOUS
 62
40
 10
5.6390625E+001
 20
-2.4178876E+001
 11
5.5656921E+001
 21
-3.8178876E+001
  0
LINE
  8
MED-0
  6
CENTERLINE
 62
150
 10
1.1452222E+002
 20
-2.8378888E+001
 11
1.2052222E+002
 21
-2.8378888E+001
  0
LINE
  8
MED-0
  6
CENTERLINE
 62
150
 10
1.2052222E+002
 20
-2.8378888E+001
 11
1.2052222E+002
 21
-5.978895
  0
LINE
  8
MED-0
  6
CENTERLINE
 62
150
 10
1.2052222E+002
 20
-5.978895
 11
1.1452222E+002
 21
-5.978895
  0
LINE
  8
MED-0
  6
CENTERLINE
 62
150
 10
1.1452222E+002
 20
-5.978895
 11
1.1452222E+002
 21
-2.8378888E+001
  0
LINE
  8
99
  6
CONTINUOUS
 62
1
 10
1.1527222E+002
 20
-5.978895
 11
1.1527222E+002
 21
-2.8378888E+001
  0
LINE
  8
99
  6
CONTINUOUS
 62
1
 10
1.1977222E+002
 20
-2.8378888E+001
 11
1.1977222E+002
 21
-5.978895
  0
LINE
  8
104
  6
CONTINUOUS
 62
40
 10
1.1192221E+002
 20
-3.0978895E+001
 11
1.1452222E+002
 21
-2.8378888E+001
  0
LINE
  8
104
  6
CONTINUOUS
 62
40
 10
1.1452222E+002
 20
-2.8378888E+001
 11
1.2052222E+002
 21
-2.8378888E+001
  0
LINE
  8
104
  6
CONTINUOUS
 62
40
 10
1.2052222E+002
 20
-2.8378888E+001
 11
1.2312222E+002
 21
-3.0978895E+001
  0
LINE
  8
104
  6
CONTINUOUS
 62
40
 10
1.2312222E+002
 20
-3.0978895E+001
 11
1.1192223E+002
 21
-3.0978895E+001
  0
LINE
  8
104
  6
CONTINUOUS
 62
40
 10
1.1452222E+002
 20
-2.8378888E+001
 11
1.1452222E+002
 21
-5.978895
  0
LINE
  8
104
  6
CONTINUOUS
 62
40
 10
1.1452222E+002
 20
-5.978895
 11
1.2052222E+002
 21
-5.978895
  0
LINE
  8
104
  6
CONTINUOUS
 62
40
 10
1.2052222E+002
 20
-5.978895
 11
1.2052222E+002
 21
-2.8378888E+001
  0
LINE
  8
104
  6
CONTINUOUS
 62
40
 10
9.7522217E+001
 20
-1.2978925E+001
 11
9.7522217E+001
 21
-2.0978895E+001
  0
LINE
  8
104
  6
CONTINUOUS
 62
40
 10
9.7522217E+001
 20
-3.0978895E+001
 11
9.7522217E+001
 21
-3.597891E+001
  0
LINE
  8
104
  6
CONTINUOUS
 62
40
 10
9.7522217E+001
 20
-3.597891E+001
 11
6.7272232E+001
 21
-3.597891E+001
  0
LINE
  8
104
  6
CONTINUOUS
 62
40
 10
5.5772217E+001
 20
-3.597891E+001
 11
4.2695953E+001
 21
-3.597891E+001
  0
LINE
  8
106
  6
CENTERLINE
 62
1
 10
6.1522217E+001
 20
-7.890073
 11
6.1522217E+001
 21
-4.5592084E+001
  0
LINE
  8
104
  6
CONTINUOUS
 62
40
 10
4.9022217E+001
 20
-4.1978895E+001
 11
4.9022217E+001
 21
-3.8178876E+001
  0
LINE
  8
104
  6
CONTINUOUS
 62
40
 10
4.9022217E+001
 20
-3.8178876E+001
 11
7.4022217E+001
 21
-3.8178876E+001
  0
LINE
  8
104
  6
CONTINUOUS
 62
40
 10
7.4022217E+001
 20
-3.8178876E+001
 11
7.4022217E+001
 21
-4.1978895E+001
  0
LINE
  8
104
  6
CONTINUOUS
 62
40
 10
7.9022217E+001
 20
-2.5978895E+001
 11
7.7858765E+001
 21
-1.7700544E+001
  0
ARC
  8
104
  6
CONTINUOUS
 62
40
 10
7.5878224E+001
 20
-1.7978901E+001
 40
2.0000062
 50
8.0002939
 51
8.9999688E+001
  0
LINE
  8
104
  6
CONTINUOUS
 62
40
 10
7.5878235E+001
 20
-1.5978895E+001
 11
6.7272217E+001
 21
-1.5978895E+001
  0
LINE
  8
104
  6
CONTINUOUS
 62
40
 10
6.7272217E+001
 20
-1.5978895E+001
 11
6.6748138E+001
 21
-2.5978895E+001
  0
LINE
  8
104
  6
CONTINUOUS
 62
40
 10
6.6748138E+001
 20
-2.5978895E+001
 11
6.7272217E+001
 21
-3.5978895E+001
  0
LINE
  8
104
  6
CONTINUOUS
 62
40
 10
6.7272217E+001
 20
-3.5978895E+001
 11
7.5878235E+001
 21
-3.5978895E+001
  0
ARC
  8
104
  6
CONTINUOUS
 62
40
 10
7.5878221E+001
 20
-3.3978885E+001
 40
2.0000095
 50
2.700004E+002
 51
3.5199965E+002
  0
LINE
  8
104
  6
CONTINUOUS
 62
40
 10
7.7858765E+001
 20
-3.4257245E+001
 11
7.9022217E+001
 21
-2.5978895E+001
  0
LINE
  8
104
  6
CONTINUOUS
 62
40
 10
4.4022217E+001
 20
-2.5978895E+001
 11
4.5185654E+001
 21
-3.4257245E+001
  0
ARC
  8
104
  6
CONTINUOUS
 62
40
 10
4.7166196E+001
 20
-3.3978905E+001
 40
2.0000054
 50
1.8799981E+002
 51
2.7000007E+002
  0
LINE
  8
104
  6
CONTINUOUS
 62
40
 10
4.7166199E+001
 20
-3.597891E+001
 11
5.5772217E+001
 21
-3.597891E+001
  0
LINE
  8
104
  6
CONTINUOUS
 62
40
 10
5.5772217E+001
 20
-3.597891E+001
 11
5.6296295E+001
 21
-2.5978895E+001
  0
LINE
  8
104
  6
CONTINUOUS
 62
40
 10
5.6296295E+001
 20
-2.5978895E+001
 11
5.5772217E+001
 21
-1.5978895E+001
  0
LINE
  8
104
  6
CONTINUOUS
 62
40
 10
5.5772217E+001
 20
-1.5978895E+001
 11
4.7166199E+001
 21
-1.5978895E+001
  0
ARC
  8
104
  6
CONTINUOUS
 62
40
 10
4.7166174E+001
 20
-1.7978878E+001
 40
1.9999827
 50
8.9999297E+001
 51
1.7200029E+002
  0
LINE
  8
104
  6
CONTINUOUS
 62
40
 10
4.5185654E+001
 20
-1.7700544E+001
 11
4.4022217E+001
 21
-2.5978895E+001
  0
LINE
  8
104
  6
CONTINUOUS
 62
40
 10
1.0909421E+002
 20
-2.0978895E+001
 11
7.8319504E+001
 21
-2.0978895E+001
  0
LINE
  8
104
  6
CONTINUOUS
 62
40
 10
1.0909421E+002
 20
-3.0978895E+001
 11
7.8319504E+001
 21
-3.0978895E+001
  0
LINE
  8
104
  6
CONTINUOUS
 62
40
 10
1.1192221E+002
 20
-2.0978895E+001
 11
1.0909421E+002
 21
-2.0978895E+001
  0
ARC
  8
104
  6
CONTINUOUS
 62
40
 10
1.0909423E+002
 20
-2.197892E+001
 40
1.0000246
 50
9.0001257E+001
 51
1.7199774E+002
  0
LINE
  8
104
  6
CONTINUOUS
 62
40
 10
1.0810394E+002
 20
-2.1839704E+001
 11
1.0752222E+002
 21
-2.5978895E+001
  0
LINE
  8
104
  6
CONTINUOUS
 62
40
 10
1.0752222E+002
 20
-2.5978895E+001
 11
1.0810394E+002
 21
-3.0118055E+001
  0
ARC
  8
104
  6
CONTINUOUS
 62
40
 10
1.0909423E+002
 20
-2.9978891E+001
 40
1.0000189
 50
1.8799931E+002
 51
2.6999866E+002
  0
LINE
  8
104
  6
CONTINUOUS
 62
40
 10
1.0909421E+002
 20
-3.097891E+001
 11
1.1192221E+002
 21
-3.097891E+001
  0
LINE
  8
104
  6
CONTINUOUS
 62
40
 10
1.1192221E+002
 20
-3.097891E+001
 11
1.1452222E+002
 21
-2.8378888E+001
  0
LINE
  8
104
  6
CONTINUOUS
 62
40
 10
1.1452222E+002
 20
-2.8378888E+001
 11
1.1452222E+002
 21
-2.3578901E+001
  0
LINE
  8
104
  6
CONTINUOUS
 62
40
 10
1.1452222E+002
 20
-2.3578901E+001
 11
1.1192221E+002
 21
-2.0978895E+001
  0
LINE
  8
104
  6
CONTINUOUS
 62
40
 10
1.2312222E+002
 20
-2.0978895E+001
 11
1.2595023E+002
 21
-2.0978895E+001
  0
ARC
  8
104
  6
CONTINUOUS
 62
40
 10
1.2595021E+002
 20
-2.1978915E+001
 40
1.0000196
 50
8.0020122
 51
8.9998992E+001
  0
LINE
  8
104
  6
CONTINUOUS
 62
40
 10
1.2694049E+002
 20
-2.1839704E+001
 11
1.2752222E+002
 21
-2.5978895E+001
  0
LINE
  8
104
  6
CONTINUOUS
 62
40
 10
1.2752222E+002
 20
-2.5978895E+001
 11
1.2694049E+002
 21
-3.0118055E+001
  0
ARC
  8
104
  6
CONTINUOUS
 62
40
 10
1.2595021E+002
 20
-2.9978896E+001
 40
1.0000139
 50
2.7000109E+002
 51
3.5200093E+002
  0
LINE
  8
104
  6
CONTINUOUS
 62
40
 10
1.2595023E+002
 20
-3.097891E+001
 11
1.2312222E+002
 21
-3.097891E+001
  0
LINE
  8
104
  6
CONTINUOUS
 62
40
 10
1.2312222E+002
 20
-3.097891E+001
 11
1.2052222E+002
 21
-2.8378888E+001
  0
LINE
  8
104
  6
CONTINUOUS
 62
40
 10
1.2052222E+002
 20
-2.8378888E+001
 11
1.2052222E+002
 21
-2.3578901E+001
  0
LINE
  8
104
  6
CONTINUOUS
 62
40
 10
1.2052222E+002
 20
-2.3578901E+001
 11
1.2312222E+002
 21
-2.0978895E+001
  0
LINE
  8
104
  6
CONTINUOUS
 62
40
 10
1.2312222E+002
 20
-2.0978895E+001
 11
1.2052222E+002
 21
-2.3578901E+001
  0
LINE
  8
104
  6
CONTINUOUS
 62
40
 10
1.1452222E+002
 20
-2.3578901E+001
 11
1.1192221E+002
 21
-2.0978895E+001
  0
LINE
  8
104
  6
CONTINUOUS
 62
40
 10
1.1452222E+002
 20
-2.8378888E+001
 11
1.1452222E+002
 21
-2.3578901E+001
  0
LINE
  8
104
  6
CONTINUOUS
 62
40
 10
1.2052222E+002
 20
-2.8378888E+001
 11
1.2052222E+002
 21
-2.3578901E+001
  0
LINE
  8
106
  6
CENTERLINE
 62
1
 10
1.1752222E+002
 20
-3.1999006E+001
 11
1.1752222E+002
 21
-4.217878
  0
LINE
  8
104
  6
CONTINUOUS
 62
40
 10
1.1192221E+002
 20
-2.0978895E+001
 11
1.1452222E+002
 21
-2.0978895E+001
  0
LINE
  8
104
  6
CONTINUOUS
 62
40
 10
1.2312222E+002
 20
-2.0978895E+001
 11
1.2052222E+002
 21
-2.0978895E+001
  0
TEXT
  8
103
  6
CONTINUOUS
 62
40
 10
-2.1210021E+002
 20
1.1821952E+002
 40
5.0
  1
M 1:1
 41
6.3E-001
 72
1
 11
-2.1997521E+002
 21
1.1571952E+002
 73
2
  0
LINE
  8
104
  6
CONTINUOUS
 62
40
 10
6.0022225E+001
 20
9.5822868E+001
 11
6.0022225E+001
 21
9.4822868E+001
  0
LINE
  8
104
  6
CONTINUOUS
 62
40
 10
6.0022225E+001
 20
9.4822868E+001
 11
6.3022225E+001
 21
9.4822868E+001
  0
LINE
  8
104
  6
CONTINUOUS
 62
40
 10
6.3022225E+001
 20
9.4822868E+001
 11
6.3115517E+001
 21
9.5822868E+001
  0
LINE
  8
104
  6
CONTINUOUS
 62
40
 10
6.4022217E+001
 20
8.462286E+001
 11
6.4022217E+001
 21
9.2822841E+001
  0
LINE
  8
104
  6
CONTINUOUS
 62
40
 10
6.4022217E+001
 20
9.2822841E+001
 11
6.7022217E+001
 21
9.5822841E+001
  0
LINE
  8
104
  6
CONTINUOUS
 62
40
 10
6.7022217E+001
 20
9.5822841E+001
 11
5.6022217E+001
 21
9.5822841E+001
  0
LINE
  8
104
  6
CONTINUOUS
 62
40
 10
5.6022217E+001
 20
9.5822841E+001
 11
5.9022217E+001
 21
9.2822841E+001
  0
LINE
  8
104
  6
CONTINUOUS
 62
40
 10
5.9022217E+001
 20
9.2822841E+001
 11
5.9022217E+001
 21
8.462286E+001
  0
LINE
  8
104
  6
CONTINUOUS
 62
40
 10
5.9022217E+001
 20
8.462286E+001
 11
6.4022217E+001
 21
8.462286E+001
  0
LINE
  8
104
  6
CONTINUOUS
 62
40
 10
5.9022225E+001
 20
9.2822868E+001
 11
6.4022225E+001
 21
9.2822868E+001
  0
LINE
  8
99
  6
CONTINUOUS
 62
1
 10
5.9772225E+001
 20
9.2822868E+001
 11
5.9772225E+001
 21
8.4622886E+001
  0
LINE
  8
99
  6
CONTINUOUS
 62
1
 10
6.3272225E+001
 20
9.2822868E+001
 11
6.3272225E+001
 21
8.4622886E+001
  0
LINE
  8
104
  6
CONTINUOUS
 62
40
 10
9.7522217E+001
 20
9.5822841E+001
 11
9.7522201E+001
 21
8.7822872E+001
  0
LINE
  8
104
  6
CONTINUOUS
 62
40
 10
9.7522201E+001
 20
7.7822841E+001
 11
9.7522201E+001
 21
7.2822841E+001
  0
LINE
  8
104
  6
CONTINUOUS
 62
40
 10
9.7522201E+001
 20
7.2822841E+001
 11
6.7272217E+001
 21
7.2822841E+001
  0
LINE
  8
104
  6
CONTINUOUS
 62
40
 10
5.5772217E+001
 20
7.2822841E+001
 11
4.3522217E+001
 21
7.2822841E+001
  0
LINE
  8
104
  6
CONTINUOUS
 62
40
 10
9.6522225E+001
 20
9.2822868E+001
 11
6.4022225E+001
 21
9.2822868E+001
  0
LINE
  8
104
  6
CONTINUOUS
 62
40
 10
6.4022225E+001
 20
9.2822868E+001
 11
6.7022225E+001
 21
9.5822868E+001
  0
LINE
  8
104
  6
CONTINUOUS
 62
40
 10
6.7022225E+001
 20
9.5822868E+001
 11
9.6522225E+001
 21
9.5822868E+001
  0
LINE
  8
104
  6
CONTINUOUS
 62
40
 10
9.6522225E+001
 20
9.5822868E+001
 11
9.6522225E+001
 21
9.2822868E+001
  0
LINE
  8
104
  6
CONTINUOUS
 62
40
 10
9.6522225E+001
 20
9.2822868E+001
 11
9.7522225E+001
 21
9.2822868E+001
  0
LINE
  8
104
  6
CONTINUOUS
 62
40
 10
9.6522225E+001
 20
9.5822868E+001
 11
9.7522225E+001
 21
9.5822868E+001
  0
LINE
  8
104
  6
CONTINUOUS
 62
40
 10
5.9022225E+001
 20
9.2822868E+001
 11
4.3522225E+001
 21
9.2822868E+001
  0
LINE
  8
104
  6
CONTINUOUS
 62
40
 10
4.3522225E+001
 20
9.2822868E+001
 11
4.3522225E+001
 21
7.2822868E+001
  0
LINE
  8
104
  6
CONTINUOUS
 62
40
 10
4.3522225E+001
 20
7.2822868E+001
 11
4.0522225E+001
 21
7.2822868E+001
  0
LINE
  8
104
  6
CONTINUOUS
 62
40
 10
4.0522225E+001
 20
7.2822868E+001
 11
4.0522225E+001
 21
9.5822868E+001
  0
LINE
  8
104
  6
CONTINUOUS
 62
40
 10
4.0522225E+001
 20
9.5822868E+001
 11
5.6022225E+001
 21
9.5822868E+001
  0
LINE
  8
104
  6
CONTINUOUS
 62
40
 10
5.6022225E+001
 20
9.5822868E+001
 11
5.9022225E+001
 21
9.2822868E+001
  0
LINE
  8
104
  6
CONTINUOUS
 62
40
 10
6.738752E+001
 20
7.0622886E+001
 11
6.6653817E+001
 21
8.4622886E+001
  0
LINE
  8
104
  6
CONTINUOUS
 62
40
 10
6.6653817E+001
 20
8.4622886E+001
 11
5.6390633E+001
 21
8.4622886E+001
  0
LINE
  8
104
  6
CONTINUOUS
 62
40
 10
5.6390633E+001
 20
8.4622886E+001
 11
5.565693E+001
 21
7.0622886E+001
  0
LINE
  8
MED-0
  6
CENTERLINE
 62
150
 10
1.0452223E+002
 20
8.0422904E+001
 11
1.1052223E+002
 21
8.0422904E+001
  0
LINE
  8
MED-0
  6
CENTERLINE
 62
150
 10
1.1052223E+002
 20
8.0422904E+001
 11
1.1052223E+002
 21
1.028229E+002
  0
LINE
  8
MED-0
  6
CENTERLINE
 62
150
 10
1.1052223E+002
 20
1.028229E+002
 11
1.0452223E+002
 21
1.028229E+002
  0
LINE
  8
MED-0
  6
CENTERLINE
 62
150
 10
1.0452223E+002
 20
1.028229E+002
 11
1.0452223E+002
 21
8.0422904E+001
  0
LINE
  8
99
  6
CONTINUOUS
 62
1
 10
1.0527223E+002
 20
1.028229E+002
 11
1.0527223E+002
 21
8.0422904E+001
  0
LINE
  8
99
  6
CONTINUOUS
 62
1
 10
1.0977223E+002
 20
8.0422904E+001
 11
1.0977223E+002
 21
1.028229E+002
  0
LINE
  8
104
  6
CONTINUOUS
 62
40
 10
1.0192222E+002
 20
7.7822868E+001
 11
1.0452223E+002
 21
8.0422904E+001
  0
LINE
  8
104
  6
CONTINUOUS
 62
40
 10
1.0452223E+002
 20
8.0422904E+001
 11
1.1052223E+002
 21
8.0422904E+001
  0
LINE
  8
104
  6
CONTINUOUS
 62
40
 10
1.1052223E+002
 20
8.0422904E+001
 11
1.1312223E+002
 21
7.7822868E+001
  0
LINE
  8
104
  6
CONTINUOUS
 62
40
 10
1.1312223E+002
 20
7.7822868E+001
 11
1.0192222E+002
 21
7.7822868E+001
  0
LINE
  8
104
  6
CONTINUOUS
 62
40
 10
1.0452223E+002
 20
8.0422904E+001
 11
1.0452223E+002
 21
1.028229E+002
  0
LINE
  8
104
  6
CONTINUOUS
 62
40
 10
1.0452223E+002
 20
1.028229E+002
 11
1.1052223E+002
 21
1.028229E+002
  0
LINE
  8
104
  6
CONTINUOUS
 62
40
 10
1.1052223E+002
 20
1.028229E+002
 11
1.1052223E+002
 21
8.0422904E+001
  0
LINE
  8
106
  6
CENTERLINE
 62
1
 10
6.1522217E+001
 20
1.0058068E+002
 11
6.1522217E+001
 21
6.2586422E+001
  0
LINE
  8
104
  6
CONTINUOUS
 62
40
 10
4.9022217E+001
 20
6.6822872E+001
 11
4.9022217E+001
 21
7.062286E+001
  0
LINE
  8
104
  6
CONTINUOUS
 62
40
 10
4.9022217E+001
 20
7.062286E+001
 11
7.4022217E+001
 21
7.062286E+001
  0
LINE
  8
104
  6
CONTINUOUS
 62
40
 10
7.4022217E+001
 20
7.062286E+001
 11
7.4022217E+001
 21
6.6822872E+001
  0
LINE
  8
104
  6
CONTINUOUS
 62
40
 10
7.9022217E+001
 20
8.2822841E+001
 11
7.7858765E+001
 21
9.1101223E+001
  0
ARC
  8
104
  6
CONTINUOUS
 62
40
 10
7.5878246E+001
 20
9.0822855E+001
 40
1.9999855
 50
8.0006755
 51
9.0000328E+001
  0
LINE
  8
104
  6
CONTINUOUS
 62
40
 10
7.5878235E+001
 20
9.2822841E+001
 11
6.7272217E+001
 21
9.2822841E+001
  0
LINE
  8
104
  6
CONTINUOUS
 62
40
 10
6.7272217E+001
 20
9.2822841E+001
 11
6.6748138E+001
 21
8.2822841E+001
  0
LINE
  8
104
  6
CONTINUOUS
 62
40
 10
6.6748138E+001
 20
8.2822841E+001
 11
6.7272217E+001
 21
7.2822841E+001
  0
LINE
  8
104
  6
CONTINUOUS
 62
40
 10
6.7272217E+001
 20
7.2822841E+001
 11
7.5878235E+001
 21
7.2822841E+001
  0
ARC
  8
104
  6
CONTINUOUS
 62
40
 10
7.5878267E+001
 20
7.4822815E+001
 40
1.9999737
 50
2.6999908E+002
 51
3.5200055E+002
  0
LINE
  8
104
  6
CONTINUOUS
 62
40
 10
7.785878E+001
 20
7.4544491E+001
 11
7.9022217E+001
 21
8.2822841E+001
  0
LINE
  8
104
  6
CONTINUOUS
 62
40
 10
4.4022225E+001
 20
8.2822868E+001
 11
4.518567E+001
 21
7.4544517E+001
  0
ARC
  8
104
  6
CONTINUOUS
 62
40
 10
4.7166194E+001
 20
7.4822863E+001
 40
1.9999884
 50
1.8800005E+002
 51
2.7000036E+002
  0
LINE
  8
104
  6
CONTINUOUS
 62
40
 10
4.7166207E+001
 20
7.2822875E+001
 11
5.5772225E+001
 21
7.2822875E+001
  0
LINE
  8
104
  6
CONTINUOUS
 62
40
 10
5.5772225E+001
 20
7.2822875E+001
 11
5.6296303E+001
 21
8.2822868E+001
  0
LINE
  8
104
  6
CONTINUOUS
 62
40
 10
5.6296303E+001
 20
8.2822868E+001
 11
5.5772225E+001
 21
9.2822898E+001
  0
LINE
  8
104
  6
CONTINUOUS
 62
40
 10
5.5772225E+001
 20
9.2822898E+001
 11
4.7166207E+001
 21
9.2822898E+001
  0
ARC
  8
104
  6
CONTINUOUS
 62
40
 10
4.7166193E+001
 20
9.0822912E+001
 40
1.9999861
 50
8.9999609E+001
 51
1.7200021E+002
  0
LINE
  8
104
  6
CONTINUOUS
 62
40
 10
4.518567E+001
 20
9.1101249E+001
 11
4.4022225E+001
 21
8.2822868E+001
  0
LINE
  8
104
  6
CONTINUOUS
 62
40
 10
9.9094216E+001
 20
8.7822898E+001
 11
7.8319512E+001
 21
8.7822898E+001
  0
LINE
  8
104
  6
CONTINUOUS
 62
40
 10
9.9094216E+001
 20
7.7822868E+001
 11
7.831952E+001
 21
7.7822868E+001
  0
LINE
  8
104
  6
CONTINUOUS
 62
40
 10
1.0192222E+002
 20
8.7822898E+001
 11
9.9094216E+001
 21
8.7822898E+001
  0
ARC
  8
104
  6
CONTINUOUS
 62
40
 10
9.9094223E+001
 20
8.6822896E+001
 40
1.0000025
 50
9.0000404E+001
 51
1.7200064E+002
  0
LINE
  8
104
  6
CONTINUOUS
 62
40
 10
9.8103951E+001
 20
8.6962058E+001
 11
9.7522225E+001
 21
8.2822898E+001
  0
LINE
  8
104
  6
CONTINUOUS
 62
40
 10
9.7522225E+001
 20
8.2822898E+001
 11
9.8103951E+001
 21
7.8683708E+001
  0
ARC
  8
104
  6
CONTINUOUS
 62
40
 10
9.9094225E+001
 20
7.8822873E+001
 40
1.0000048
 50
1.8799948E+002
 51
2.6999948E+002
  0
LINE
  8
104
  6
CONTINUOUS
 62
40
 10
9.9094216E+001
 20
7.7822868E+001
 11
1.0192222E+002
 21
7.7822868E+001
  0
LINE
  8
104
  6
CONTINUOUS
 62
40
 10
1.0192222E+002
 20
7.7822868E+001
 11
1.0452223E+002
 21
8.0422904E+001
  0
LINE
  8
104
  6
CONTINUOUS
 62
40
 10
1.0452223E+002
 20
8.0422904E+001
 11
1.0452223E+002
 21
8.5222892E+001
  0
LINE
  8
104
  6
CONTINUOUS
 62
40
 10
1.0452223E+002
 20
8.5222892E+001
 11
1.0192222E+002
 21
8.7822898E+001
  0
LINE
  8
104
  6
CONTINUOUS
 62
40
 10
1.1312223E+002
 20
8.7822898E+001
 11
1.1595023E+002
 21
8.7822898E+001
  0
ARC
  8
104
  6
CONTINUOUS
 62
40
 10
1.1595023E+002
 20
8.6822904E+001
 40
9.9999412E-001
 50
7.9989491
 51
9.0000012E+001
  0
LINE
  8
104
  6
CONTINUOUS
 62
40
 10
1.169405E+002
 20
8.6962058E+001
 11
1.1752223E+002
 21
8.2822898E+001
  0
LINE
  8
104
  6
CONTINUOUS
 62
40
 10
1.1752223E+002
 20
8.2822898E+001
 11
1.169405E+002
 21
7.8683708E+001
  0
ARC
  8
104
  6
CONTINUOUS
 62
40
 10
1.1595023E+002
 20
7.8822864E+001
 40
9.9999642E-001
 50
2.700001E+002
 51
3.5200094E+002
  0
LINE
  8
104
  6
CONTINUOUS
 62
40
 10
1.1595023E+002
 20
7.7822868E+001
 11
1.1312223E+002
 21
7.7822868E+001
  0
LINE
  8
104
  6
CONTINUOUS
 62
40
 10
1.1312223E+002
 20
7.7822868E+001
 11
1.1052223E+002
 21
8.0422904E+001
  0
LINE
  8
104
  6
CONTINUOUS
 62
40
 10
1.1052223E+002
 20
8.0422904E+001
 11
1.1052223E+002
 21
8.5222892E+001
  0
LINE
  8
104
  6
CONTINUOUS
 62
40
 10
1.1052223E+002
 20
8.5222892E+001
 11
1.1312223E+002
 21
8.7822898E+001
  0
LINE
  8
104
  6
CONTINUOUS
 62
40
 10
1.1312223E+002
 20
8.7822898E+001
 11
1.1052223E+002
 21
8.5222892E+001
  0
LINE
  8
104
  6
CONTINUOUS
 62
40
 10
1.0452223E+002
 20
8.5222892E+001
 11
1.0192222E+002
 21
8.7822898E+001
  0
LINE
  8
104
  6
CONTINUOUS
 62
40
 10
1.0452223E+002
 20
8.0422904E+001
 11
1.0452223E+002
 21
8.5222892E+001
  0
LINE
  8
104
  6
CONTINUOUS
 62
40
 10
1.1052223E+002
 20
8.0422904E+001
 11
1.1052223E+002
 21
8.5222892E+001
  0
LINE
  8
106
  6
CENTERLINE
 62
1
 10
1.0752223E+002
 20
7.6802757E+001
 11
1.0752223E+002
 21
1.0458392E+002
  0
LINE
  8
104
  6
CONTINUOUS
 62
40
 10
1.0192222E+002
 20
8.7822898E+001
 11
1.0452223E+002
 21
8.7822898E+001
  0
LINE
  8
104
  6
CONTINUOUS
 62
40
 10
1.1312223E+002
 20
8.7822898E+001
 11
1.1052223E+002
 21
8.7822898E+001
  0
LINE
  8
104
  6
CONTINUOUS
 62
40
 10
-1.9938287E+002
 20
4.5487026E+001
 11
-1.7993939E+002
 21
4.480804E+001
  0
ARC
  8
104
  6
CONTINUOUS
 62
40
 10
-1.8986193E+002
 20
3.9401036E+001
 40
1.1300112E+001
 50
3.2741302E+002
 51
3.8858691E+002
  0
LINE
  8
104
  6
CONTINUOUS
 62
40
 10
-1.8034074E+002
 20
3.3315029E+001
 11
-1.9978422E+002
 21
3.3994014E+001
  0
ARC
  8
104
  6
CONTINUOUS
 62
40
 10
-1.8986181E+002
 20
3.9401023E+001
 40
1.1300004E+001
 50
1.474127E+002
 51
2.0858723E+002
  0
LINE
  8
104
  6
CONTINUOUS
 62
40
 10
-1.9932296E+002
 20
4.5109707E+001
 11
-1.8002547E+002
 21
4.4435817E+001
  0
ARC
  8
104
  6
CONTINUOUS
 62
40
 10
-1.8986193E+002
 20
3.9401033E+001
 40
1.1050113E+001
 50
3.2889434E+002
 51
3.871056E+002
  0
LINE
  8
104
  6
CONTINUOUS
 62
40
 10
-1.8040065E+002
 20
3.3692348E+001
 11
-1.9969814E+002
 21
3.4366237E+001
  0
ARC
  8
104
  6
CONTINUOUS
 62
40
 10
-1.8986193E+002
 20
3.940103E+001
 40
1.1049896E+001
 50
1.4889372E+002
 51
2.0710623E+002
  0
CIRCLE
  8
104
  6
CONTINUOUS
 62
40
 10
-1.3917069E+002
 20
8.5400997E+001
 40
6.350006
  0
CIRCLE
  8
104
  6
CONTINUOUS
 62
40
 10
-9.3170708E+001
 20
8.5400997E+001
 40
6.350006
  0
CIRCLE
  8
104
  6
CONTINUOUS
 62
40
 10
-4.7861931E+001
 20
8.5400997E+001
 40
6.350006
  0
CIRCLE
  8
104
  6
CONTINUOUS
 62
40
 10
-1.861939
 20
8.5400997E+001
 40
6.350007
  0
CIRCLE
  8
104
  6
CONTINUOUS
 62
40
 10
-1.861939
 20
8.5400997E+001
 40
3.350007
  0
CIRCLE
  8
104
  6
CONTINUOUS
 62
40
 10
-4.7861931E+001
 20
8.5400997E+001
 40
3.350006
  0
CIRCLE
  8
104
  6
CONTINUOUS
 62
40
 10
-9.3170708E+001
 20
8.5400997E+001
 40
3.350006
  0
CIRCLE
  8
104
  6
CONTINUOUS
 62
40
 10
-1.3917069E+002
 20
8.5400997E+001
 40
3.350006
  0
LINE
  8
106
  6
CENTERLINE
 62
1
 10
-1.3917069E+002
 20
9.402502E+001
 11
-1.3917069E+002
 21
7.7009395E+001
  0
LINE
  8
106
  6
CENTERLINE
 62
1
 10
-9.3170708E+001
 20
9.4411739E+001
 11
-9.3170708E+001
 21
7.7202755E+001
  0
LINE
  8
106
  6
CENTERLINE
 62
1
 10
-4.7861931E+001
 20
9.3831661E+001
 11
-4.7861931E+001
 21
7.6816036E+001
  0
LINE
  8
106
  6
CENTERLINE
 62
1
 10
-1.861939
 20
9.4411739E+001
 11
-1.861939
 21
7.7009395E+001
  0
LINE
  8
106
  6
CENTERLINE
 62
1
 10
-1.6154064E+002
 20
8.5400997E+001
 11
-1.3086193E+002
 21
8.5400997E+001
  0
LINE
  8
106
  6
CENTERLINE
 62
1
 10
-1.0286193E+002
 20
8.5400997E+001
 11
-8.4861931E+001
 21
8.5400997E+001
  0
LINE
  8
106
  6
CENTERLINE
 62
1
 10
-5.6861916E+001
 20
8.5400997E+001
 11
-3.8861931E+001
 21
8.5400997E+001
  0
LINE
  8
106
  6
CENTERLINE
 62
1
 10
-1.0861931E+001
 20
8.5400997E+001
 11
1.3449585E+001
 21
8.5400997E+001
  0
ARC
  8
104
  6
CONTINUOUS
 62
40
 10
-1.2936193E+002
 20
9.0901002E+001
 40
1.4999954
 50
8.9999978E+001
 51
1.8000018E+002
  0
LINE
  8
104
  6
CONTINUOUS
 62
40
 10
-1.2936193E+002
 20
9.2400997E+001
 11
-1.0436193E+002
 21
9.2400997E+001
  0
ARC
  8
104
  6
CONTINUOUS
 62
40
 10
-1.0436194E+002
 20
9.0900979E+001
 40
1.500018
 50
6.861202E-004
 51
8.9999619E+001
  0
LINE
  8
104
  6
CONTINUOUS
 62
40
 10
-1.0286192E+002
 20
9.0900997E+001
 11
-1.0286192E+002
 21
7.9900997E+001
  0
ARC
  8
104
  6
CONTINUOUS
 62
40
 10
-1.0436192E+002
 20
7.9900992E+001
 40
1.4999951
 50
2.6999951E+002
 51
3.6000019E+002
  0
LINE
  8
104
  6
CONTINUOUS
 62
40
 10
-1.0436193E+002
 20
7.8400997E+001
 11
-1.2936193E+002
 21
7.8400997E+001
  0
ARC
  8
104
  6
CONTINUOUS
 62
40
 10
-1.2936193E+002
 20
7.9900985E+001
 40
1.4999884
 50
1.7999956E+002
 51
2.7000002E+002
  0
LINE
  8
104
  6
CONTINUOUS
 62
40
 10
-1.3086192E+002
 20
7.9900997E+001
 11
-1.3086193E+002
 21
9.0900997E+001
  0
ARC
  8
104
  6
CONTINUOUS
 62
40
 10
-8.3361912E+001
 20
9.0901008E+001
 40
1.5000187
 50
9.0000714E+001
 51
1.8000043E+002
  0
LINE
  8
104
  6
CONTINUOUS
 62
40
 10
-8.3361931E+001
 20
9.2401027E+001
 11
-5.8361931E+001
 21
9.2401027E+001
  0
ARC
  8
104
  6
CONTINUOUS
 62
40
 10
-5.8361919E+001
 20
9.0901031E+001
 40
1.499996
 50
3.5999985E+002
 51
4.5000046E+002
  0
LINE
  8
104
  6
CONTINUOUS
 62
40
 10
-5.6861923E+001
 20
9.0901027E+001
 11
-5.6861923E+001
 21
7.9900997E+001
  0
ARC
  8
104
  6
CONTINUOUS
 62
40
 10
-5.8361904E+001
 20
7.9900978E+001
 40
1.4999806
 50
2.6999953E+002
 51
3.6000074E+002
  0
LINE
  8
104
  6
CONTINUOUS
 62
40
 10
-5.8361916E+001
 20
7.8400997E+001
 11
-8.3361931E+001
 21
7.8400997E+001
  0
ARC
  8
104
  6
CONTINUOUS
 62
40
 10
-8.3361943E+001
 20
7.9900993E+001
 40
1.4999958
 50
1.7999984E+002
 51
2.7000047E+002
  0
LINE
  8
104
  6
CONTINUOUS
 62
40
 10
-8.4861939E+001
 20
7.9900997E+001
 11
-8.4861931E+001
 21
9.0900997E+001
  0
ARC
  8
104
  6
CONTINUOUS
 62
40
 10
-3.7361911E+001
 20
9.0901007E+001
 40
1.5000204
 50
9.0000778E+001
 51
1.8000037E+002
  0
LINE
  8
104
  6
CONTINUOUS
 62
40
 10
-3.7361931E+001
 20
9.2401027E+001
 11
-1.2361931E+001
 21
9.2401027E+001
  0
ARC
  8
104
  6
CONTINUOUS
 62
40
 10
-1.2361935E+001
 20
9.0901038E+001
 40
1.4999886
 50
3.5999957E+002
 51
4.4999986E+002
  0
LINE
  8
104
  6
CONTINUOUS
 62
40
 10
-1.0861946E+001
 20
9.0901027E+001
 11
-1.0861946E+001
 21
7.9900997E+001
  0
ARC
  8
104
  6
CONTINUOUS
 62
40
 10
-1.2361927E+001
 20
7.9900978E+001
 40
1.4999807
 50
2.6999984E+002
 51
3.6000074E+002
  0
LINE
  8
104
  6
CONTINUOUS
 62
40
 10
-1.2361931E+001
 20
7.8400997E+001
 11
-3.7361931E+001
 21
7.8400997E+001
  0
ARC
  8
104
  6
CONTINUOUS
 62
40
 10
-3.7361934E+001
 20
7.9900994E+001
 40
1.4999975
 50
1.799999E+002
 51
2.700001E+002
  0
LINE
  8
104
  6
CONTINUOUS
 62
40
 10
-3.8861931E+001
 20
7.9900997E+001
 11
-3.8861931E+001
 21
9.0900997E+001
  0
LINE
  8
106
  6
CENTERLINE
 62
1
 10
-2.1002702E+002
 20
4.010522E+001
 11
-1.6903418E+002
 21
3.8673702E+001
  0
LINE
  8
106
  6
CENTERLINE
 62
1
 10
-1.891707E+002
 20
5.919543E+001
 11
-1.9054499E+002
 21
1.9840801E+001
  0
LINE
  8
106
  6
CENTERLINE
 62
1
 10
-1.8986193E+002
 20
6.1369747E+001
 11
-1.8986193E+002
 21
1.8830715E+001
  0
LINE
  8
106
  6
CENTERLINE
 62
1
 10
-2.1035802E+002
 20
3.9401027E+001
 11
-1.6820568E+002
 21
3.9401027E+001
  0
CIRCLE
  8
104
  6
CONTINUOUS
 62
40
 10
-1.8986193E+002
 20
3.9401027E+001
 40
1.75E+001
  0
LINE
  8
104
  6
CONTINUOUS
 62
40
 10
-1.8986193E+002
 20
5.6900997E+001
 11
-1.6186193E+002
 21
5.6900997E+001
  0
ARC
  8
104
  6
CONTINUOUS
 62
40
 10
-1.6186191E+002
 20
6.1900985E+001
 40
4.9999878
 50
2.6999982E+002
 51
3.6000014E+002
  0
LINE
  8
104
  6
CONTINUOUS
 62
40
 10
-1.5686192E+002
 20
6.1900997E+001
 11
-1.5686192E+002
 21
9.3400997E+001
  0
ARC
  8
104
  6
CONTINUOUS
 62
40
 10
-1.5486192E+002
 20
9.340099E+001
 40
2.0000066
 50
9.0000297E+001
 51
1.7999981E+002
  0
LINE
  8
104
  6
CONTINUOUS
 62
40
 10
-1.5486193E+002
 20
9.5400997E+001
 11
8.138061
 21
9.5400997E+001
  0
ARC
  8
104
  6
CONTINUOUS
 62
40
 10
8.1380465
 20
9.3400997E+001
 40
1.9999995
 50
3.5999999E+002
 51
4.4999958E+002
  0
LINE
  8
104
  6
CONTINUOUS
 62
40
 10
1.0138046E+001
 20
9.3400997E+001
 11
1.0138046E+001
 21
7.7400997E+001
  0
ARC
  8
104
  6
CONTINUOUS
 62
40
 10
8.1380588
 20
7.7400984E+001
 40
1.9999872
 50
2.7000006E+002
 51
3.6000037E+002
  0
LINE
  8
104
  6
CONTINUOUS
 62
40
 10
8.138061
 20
7.5400997E+001
 11
-1.2053475E+002
 21
7.5400997E+001
  0
ARC
  8
104
  6
CONTINUOUS
 62
40
 10
-1.2053474E+002
 20
7.3400992E+001
 40
2.0000053
 50
9.0000265E+001
 51
1.5713562E+002
  0
LINE
  8
104
  6
CONTINUOUS
 62
40
 10
-1.223776E+002
 20
7.4178096E+001
 11
-1.3838858E+002
 21
3.6209255E+001
  0
ARC
  8
104
  6
CONTINUOUS
 62
40
 10
-1.4299576E+002
 20
3.8152069E+001
 40
5.0000625
 50
2.8391318E+002
 51
3.371352E+002
  0
LINE
  8
104
  6
CONTINUOUS
 62
40
 10
-1.4179349E+002
 20
3.3298702E+001
 11
-1.8644972E+002
 21
2.2236919E+001
  0
LINE
  8
98
  6
CONTINUOUS
 62
1
 10
-2.3511836E+002
 20
-1.6358484E+002
 11
1.7488164E+002
 21
-1.6358484E+002
  0
LINE
  8
98
  6
CONTINUOUS
 62
1
 10
1.7488164E+002
 20
-1.6358484E+002
 11
1.7488164E+002
 21
1.2341516E+002
  0
LINE
  8
98
  6
CONTINUOUS
 62
1
 10
1.7488164E+002
 20
1.2341516E+002
 11
-2.3511836E+002
 21
1.2341516E+002
  0
LINE
  8
98
  6
CONTINUOUS
 62
1
 10
-2.3511836E+002
 20
1.2341516E+002
 11
-2.3511836E+002
 21
-1.6358484E+002
  0
INSERT
  2
*XH48
  8
108
 10
8.166439E+001
 20
-1.4546733E+001
  0
INSERT
  2
*XH49
  8
108
 10
4.6019931E+001
 20
-2.0721672E+001
  0
INSERT
  2
*XH50
  8
108
 10
7.240333E+001
 20
-2.550485E+001
  0
INSERT
  2
*XH51
  8
108
 10
5.099505E+001
 20
-2.7114133E+001
  0
INSERT
  2
*XH52
  8
108
 10
1.1065736E+002
 20
-2.5434587E+001
  0
INSERT
  2
*XH53
  8
108
 10
1.2463291E+002
 20
-2.7015387E+001
  0
INSERT
  2
*XH54
  8
108
 10
8.1664401E+001
 20
9.425506E+001
  0
INSERT
  2
*XH55
  8
108
 10
4.601994E+001
 20
8.8080115E+001
  0
INSERT
  2
*XH56
  8
108
 10
7.2403339E+001
 20
8.3296941E+001
  0
INSERT
  2
*XH57
  8
108
 10
5.099506E+001
 20
8.1687647E+001
  0
INSERT
  2
*XH58
  8
108
 10
1.0065736E+002
 20
8.3367191E+001
  0
INSERT
  2
*XH59
  8
108
 10
1.1463291E+002
 20
8.1786396E+001
  0
POINT
  8
Drafting_Hidden_Entities
  6
CONTINUOUS
 62
1
 10
0.0
 20
0.0
  0
ENDBLK
  0
BLOCK
  2
*D4906
  3
*D
 10
0.0
 20
0.0
 70
65
  0
LINE
  8
MED-0
  6
CONTINUOUS
 62
4
 10
6.1522217E+001
 20
-6.890073
 11
6.1522217E+001
 21
8.0153834
  0
LINE
  8
MED-0
  6
CONTINUOUS
 62
4
 10
1.1752222E+002
 20
-3.217878
 11
1.1752222E+002
 21
8.0153834
  0
SOLID
  8
MED-1
  6
CONTINUOUS
 62
0
 10
6.1522217E+001
 20
7.0153834
 11
6.5022217E+001
 21
6.4320458
 12
6.5022217E+001
 22
7.5987211
 13
6.5022217E+001
 23
7.5987211
  0
SOLID
  8
MED-1
  6
CONTINUOUS
 62
0
 10
1.1752222E+002
 20
7.0153834
 11
1.1402222E+002
 21
7.5987211
 12
1.1402222E+002
 22
6.4320458
 13
1.1402222E+002
 23
6.4320458
  0
LINE
  8
MED-0
  6
CONTINUOUS
 62
4
 10
6.1522217E+001
 20
7.0153834
 11
8.9599983E+001
 21
7.0153834
  0
LINE
  8
MED-0
  6
CONTINUOUS
 62
4
 10
8.9599983E+001
 20
7.0153834
 11
1.1752222E+002
 21
7.0153834
  0
TEXT
  8
MED-0
  6
CONTINUOUS
 62
4
 10
8.7266649E+001
 20
8.1808834
 40
3.5
  1
56
 41
6.6666667E-001
  0
ENDBLK
  0
BLOCK
  2
*D4907
  3
*D
 10
0.0
 20
0.0
 70
65
  0
LINE
  8
MED-0
  6
CONTINUOUS
 62
4
 10
6.1522217E+001
 20
1.0158068E+002
 11
6.1522217E+001
 21
1.1560934E+002
  0
LINE
  8
MED-0
  6
CONTINUOUS
 62
4
 10
1.0752222E+002
 20
1.0558389E+002
 11
1.0752222E+002
 21
1.1560934E+002
  0
SOLID
  8
MED-1
  6
CONTINUOUS
 62
0
 10
6.1522217E+001
 20
1.1460934E+002
 11
6.5022217E+001
 21
1.14026E+002
 12
6.5022217E+001
 22
1.1519268E+002
 13
6.5022217E+001
 23
1.1519268E+002
  0
SOLID
  8
MED-1
  6
CONTINUOUS
 62
0
 10
1.0752222E+002
 20
1.1460934E+002
 11
1.0402222E+002
 21
1.1519268E+002
 12
1.0402222E+002
 22
1.14026E+002
 13
1.0402222E+002
 23
1.14026E+002
  0
LINE
  8
MED-0
  6
CONTINUOUS
 62
4
 10
6.1522217E+001
 20
1.1460934E+002
 11
8.4599983E+001
 21
1.1460934E+002
  0
LINE
  8
MED-0
  6
CONTINUOUS
 62
4
 10
8.4599983E+001
 20
1.1460934E+002
 11
1.0752222E+002
 21
1.1460934E+002
  0
TEXT
  8
MED-0
  6
CONTINUOUS
 62
4
 10
8.2266649E+001
 20
1.1577484E+002
 40
3.5
  1
46
 41
6.6666667E-001
  0
ENDBLK
  0
BLOCK
  2
*D5312
  3
*D
 10
0.0
 20
0.0
 70
65
  0
LINE
  8
MED-0
  6
CONTINUOUS
 62
4
 10
4.0558828E+002
 20
3.0702076E+002
 11
4.0558828E+002
 21
3.2192521E+002
  0
LINE
  8
MED-0
  6
CONTINUOUS
 62
4
 10
4.6158828E+002
 20
3.1069295E+002
 11
4.6158828E+002
 21
3.2192521E+002
  0
SOLID
  8
MED-1
  6
CONTINUOUS
 62
0
 10
4.0558828E+002
 20
3.2092521E+002
 11
4.0908828E+002
 21
3.2034187E+002
 12
4.0908828E+002
 22
3.2150855E+002
 13
4.0908828E+002
 23
3.2150855E+002
  0
SOLID
  8
MED-1
  6
CONTINUOUS
 62
0
 10
4.6158828E+002
 20
3.2092521E+002
 11
4.5808828E+002
 21
3.2150855E+002
 12
4.5808828E+002
 22
3.2034187E+002
 13
4.5808828E+002
 23
3.2034187E+002
  0
LINE
  8
MED-0
  6
CONTINUOUS
 62
4
 10
4.0558828E+002
 20
3.2092521E+002
 11
4.3366604E+002
 21
3.2092521E+002
  0
LINE
  8
MED-0
  6
CONTINUOUS
 62
4
 10
4.6158828E+002
 20
3.2092521E+002
 11
4.3366604E+002
 21
3.2092521E+002
  0
TEXT
  8
MED-0
  6
CONTINUOUS
 62
4
 10
4.3133271E+002
 20
3.2209171E+002
 40
3.5
  1
56
 41
6.6666667E-001
  0
ENDBLK
  0
BLOCK
  2
*D5313
  3
*D
 10
0.0
 20
0.0
 70
65
  0
LINE
  8
MED-0
  6
CONTINUOUS
 62
4
 10
4.0558828E+002
 20
3.9182629E+002
 11
4.0558828E+002
 21
4.0585395E+002
  0
LINE
  8
MED-0
  6
CONTINUOUS
 62
4
 10
4.5158828E+002
 20
3.958295E+002
 11
4.5158828E+002
 21
4.0585395E+002
  0
SOLID
  8
MED-1
  6
CONTINUOUS
 62
0
 10
4.0558828E+002
 20
4.0485395E+002
 11
4.0908828E+002
 21
4.0427061E+002
 12
4.0908828E+002
 22
4.0543728E+002
 13
4.0908828E+002
 23
4.0543728E+002
  0
SOLID
  8
MED-1
  6
CONTINUOUS
 62
0
 10
4.5158828E+002
 20
4.0485395E+002
 11
4.4808828E+002
 21
4.0543728E+002
 12
4.4808828E+002
 22
4.0427061E+002
 13
4.4808828E+002
 23
4.0427061E+002
  0
LINE
  8
MED-0
  6
CONTINUOUS
 62
4
 10
4.0558828E+002
 20
4.0485395E+002
 11
4.2866604E+002
 21
4.0485395E+002
  0
LINE
  8
MED-0
  6
CONTINUOUS
 62
4
 10
4.5158828E+002
 20
4.0485395E+002
 11
4.2866604E+002
 21
4.0485395E+002
  0
TEXT
  8
MED-0
  6
CONTINUOUS
 62
4
 10
4.2633271E+002
 20
4.0602045E+002
 40
3.5
  1
46
 41
6.6666667E-001
  0
ENDBLK
  0
ENDSEC
  0
SECTION
  2
ENTITIES
  0
TEXT
  8
103
  6
CONTINUOUS
 62
40
 10
5.8407514E+002
 20
2.0657287E+001
 40
7.0
  1
BTS-Zubehör Türhebel-Anschlag
 41
6.6E-001
 72
1
 11
5.1708514E+002
 21
1.7157287E+001
 73
2
  0
TEXT
  8
103
  6
CONTINUOUS
 62
40
 10
2.5883946E+001
 20
4.0563473E+002
 40
5.0
  1
M 1:1
 41
6.3E-001
 72
1
 11
1.8008946E+001
 21
4.0313473E+002
 73
2
  0
LINE
  8
98
  6
CONTINUOUS
 62
1
 10
5.0
 20
5.0
 11
5.89E+002
 21
5.0
  0
LINE
  8
98
  6
CONTINUOUS
 62
1
 10
5.89E+002
 20
5.0
 11
5.89E+002
 21
4.15E+002
  0
LINE
  8
98
  6
CONTINUOUS
 62
1
 10
5.89E+002
 20
4.15E+002
 11
5.0
 21
4.15E+002
  0
LINE
  8
98
  6
CONTINUOUS
 62
1
 10
5.0
 20
4.15E+002
 11
5.0
 21
5.0
  0
LINE
  8
106
  6
CENTERLINE
 62
1
 10
9.6224337E+001
 20
1.9920607E+002
 11
9.6224337E+001
 21
1.6069689E+002
  0
LINE
  8
105
  6
HIDDEN
 62
1
 10
1.4131569E+002
 20
1.7400313E+002
 11
1.439157E+002
 21
1.7660314E+002
  0
LINE
  8
105
  6
HIDDEN
 62
1
 10
1.439157E+002
 20
1.7660314E+002
 11
1.439157E+002
 21
1.9900313E+002
  0
LINE
  8
105
  6
HIDDEN
 62
1
 10
1.439157E+002
 20
1.9900313E+002
 11
1.499157E+002
 21
1.9900313E+002
  0
LINE
  8
105
  6
HIDDEN
 62
1
 10
1.499157E+002
 20
1.9900313E+002
 11
1.499157E+002
 21
1.7660314E+002
  0
LINE
  8
105
  6
HIDDEN
 62
1
 10
1.499157E+002
 20
1.7660314E+002
 11
1.5251573E+002
 21
1.7400313E+002
  0
LINE
  8
105
  6
HIDDEN
 62
1
 10
1.499157E+002
 20
1.7660314E+002
 11
1.439157E+002
 21
1.7660314E+002
  0
LINE
  8
105
  6
HIDDEN
 62
1
 10
2.7931566E+002
 20
1.7400313E+002
 11
2.819157E+002
 21
1.7660314E+002
  0
LINE
  8
105
  6
HIDDEN
 62
1
 10
2.819157E+002
 20
1.7660314E+002
 11
2.819157E+002
 21
1.9900313E+002
  0
LINE
  8
105
  6
HIDDEN
 62
1
 10
2.819157E+002
 20
1.9900313E+002
 11
2.879157E+002
 21
1.9900313E+002
  0
LINE
  8
105
  6
HIDDEN
 62
1
 10
2.879157E+002
 20
1.9900313E+002
 11
2.879157E+002
 21
1.7660314E+002
  0
LINE
  8
105
  6
HIDDEN
 62
1
 10
2.879157E+002
 20
1.7660314E+002
 11
2.9051573E+002
 21
1.7400313E+002
  0
LINE
  8
105
  6
HIDDEN
 62
1
 10
2.879157E+002
 20
1.7660314E+002
 11
2.819157E+002
 21
1.7660314E+002
  0
LINE
  8
106
  6
CENTERLINE
 62
1
 10
1.929157E+002
 20
2.0118721E+002
 11
1.929157E+002
 21
1.7173931E+002
  0
LINE
  8
106
  6
CENTERLINE
 62
1
 10
2.389157E+002
 20
2.0168007E+002
 11
2.389157E+002
 21
1.7186254E+002
  0
LINE
  8
106
  6
CENTERLINE
 62
1
 10
2.849157E+002
 20
2.0155684E+002
 11
2.849157E+002
 21
1.7186254E+002
  0
LINE
  8
105
  6
HIDDEN
 62
1
 10
2.3331566E+002
 20
1.7400313E+002
 11
2.359157E+002
 21
1.7660314E+002
  0
LINE
  8
105
  6
HIDDEN
 62
1
 10
2.359157E+002
 20
1.7660314E+002
 11
2.359157E+002
 21
1.9900313E+002
  0
LINE
  8
105
  6
HIDDEN
 62
1
 10
2.359157E+002
 20
1.9900313E+002
 11
2.419157E+002
 21
1.9900313E+002
  0
LINE
  8
105
  6
HIDDEN
 62
1
 10
2.419157E+002
 20
1.9900313E+002
 11
2.419157E+002
 21
1.7660314E+002
  0
LINE
  8
105
  6
HIDDEN
 62
1
 10
2.419157E+002
 20
1.7660314E+002
 11
2.4451573E+002
 21
1.7400313E+002
  0
LINE
  8
105
  6
HIDDEN
 62
1
 10
2.419157E+002
 20
1.7660314E+002
 11
2.359157E+002
 21
1.7660314E+002
  0
LINE
  8
105
  6
HIDDEN
 62
1
 10
1.8731566E+002
 20
1.7400313E+002
 11
1.899157E+002
 21
1.7660314E+002
  0
LINE
  8
105
  6
HIDDEN
 62
1
 10
1.899157E+002
 20
1.7660314E+002
 11
1.899157E+002
 21
1.9900313E+002
  0
LINE
  8
105
  6
HIDDEN
 62
1
 10
1.899157E+002
 20
1.9900313E+002
 11
1.959157E+002
 21
1.9900313E+002
  0
LINE
  8
105
  6
HIDDEN
 62
1
 10
1.959157E+002
 20
1.9900313E+002
 11
1.959157E+002
 21
1.7660314E+002
  0
LINE
  8
105
  6
HIDDEN
 62
1
 10
1.959157E+002
 20
1.7660314E+002
 11
1.9851573E+002
 21
1.7400313E+002
  0
LINE
  8
105
  6
HIDDEN
 62
1
 10
1.959157E+002
 20
1.7660314E+002
 11
1.899157E+002
 21
1.7660314E+002
  0
LINE
  8
106
  6
CENTERLINE
 62
1
 10
1.469157E+002
 20
2.0129055E+002
 11
1.469157E+002
 21
1.7176952E+002
  0
LINE
  8
105
  6
HIDDEN
 62
1
 10
1.3247252E+002
 20
1.8400316E+002
 11
1.3148772E+002
 21
1.8400316E+002
  0
ARC
  8
105
  6
HIDDEN
 62
1
 10
1.3148757E+002
 20
1.8300369E+002
 40
9.9947199E-001
 50
8.9991344E+001
 51
1.1471081E+002
  0
ARC
  8
105
  6
HIDDEN
 62
1
 10
1.3148769E+002
 20
1.8300317E+002
 40
9.9999854E-001
 50
1.147048E+002
 51
1.7200108E+002
  0
LINE
  8
105
  6
HIDDEN
 62
1
 10
1.3049742E+002
 20
1.8314232E+002
 11
1.299157E+002
 21
1.7900313E+002
  0
LINE
  8
105
  6
HIDDEN
 62
1
 10
1.299157E+002
 20
1.7900313E+002
 11
1.3049742E+002
 21
1.7486394E+002
  0
ARC
  8
105
  6
HIDDEN
 62
1
 10
1.3148772E+002
 20
1.7500313E+002
 40
1.0000252
 50
1.880005E+002
 51
2.7000021E+002
  0
LINE
  8
105
  6
HIDDEN
 62
1
 10
1.3148772E+002
 20
1.740031E+002
 11
1.3346962E+002
 21
1.740031E+002
  0
LINE
  8
105
  6
HIDDEN
 62
1
 10
1.6334932E+002
 20
1.8400313E+002
 11
2.96213E+002
 21
1.8400313E+002
  0
LINE
  8
105
  6
HIDDEN
 62
1
 10
2.96213E+002
 20
1.8400313E+002
 11
2.969157E+002
 21
1.7900313E+002
  0
LINE
  8
105
  6
HIDDEN
 62
1
 10
2.969157E+002
 20
1.7900313E+002
 11
2.96213E+002
 21
1.7400313E+002
  0
LINE
  8
105
  6
HIDDEN
 62
1
 10
2.96213E+002
 20
1.7400313E+002
 11
1.6334371E+002
 21
1.7400313E+002
  0
ARC
  8
104
  6
CONTINUOUS
 62
40
 10
1.633437E+002
 20
1.7500314E+002
 40
1.0000039
 50
2.7000023E+002
 51
3.5199879E+002
  0
LINE
  8
104
  6
CONTINUOUS
 62
40
 10
1.6433397E+002
 20
1.7486394E+002
 11
1.649157E+002
 21
1.7900307E+002
  0
LINE
  8
104
  6
CONTINUOUS
 62
40
 10
1.649157E+002
 20
1.7900307E+002
 11
1.6433394E+002
 21
1.8314232E+002
  0
ARC
  8
104
  6
CONTINUOUS
 62
40
 10
1.6334366E+002
 20
1.8300315E+002
 40
1.0000166
 50
8.0000723
 51
8.9998895E+001
  0
LINE
  8
104
  6
CONTINUOUS
 62
40
 10
1.6334368E+002
 20
1.8400316E+002
 11
1.3148769E+002
 21
1.8400316E+002
  0
LINE
  8
104
  6
CONTINUOUS
 62
40
 10
1.3148769E+002
 20
1.8400316E+002
 11
1.306184E+002
 21
1.8400316E+002
  0
LINE
  8
104
  6
CONTINUOUS
 62
40
 10
1.6334371E+002
 20
1.7400313E+002
 11
9.9915697E+001
 21
1.7400313E+002
  0
ARC
  8
104
  6
CONTINUOUS
 62
40
 10
9.9915697E+001
 20
1.7100313E+002
 40
3.0
 50
9.0E+001
 51
1.8E+002
  0
LINE
  8
104
  6
CONTINUOUS
 62
40
 10
1.306184E+002
 20
1.8400316E+002
 11
9.9915697E+001
 21
1.8400316E+002
  0
ARC
  8
104
  6
CONTINUOUS
 62
40
 10
9.9913185E+001
 20
1.8703791E+002
 40
3.0347525
 50
2.2863417E+002
 51
2.7004744E+002
  0
ARC
  8
104
  6
CONTINUOUS
 62
40
 10
9.9881144E+001
 20
1.8700157E+002
 40
2.9863027
 50
1.8677549E+002
 51
2.2863474E+002
  0
LINE
  8
104
  6
CONTINUOUS
 62
40
 10
1.1665193E+002
 20
1.7400313E+002
 11
1.1458229E+002
 21
1.7400313E+002
  0
ARC
  8
104
  6
CONTINUOUS
 62
40
 10
1.1458228E+002
 20
1.7300312E+002
 40
1.0000164
 50
8.9999357E+001
 51
1.7199993E+002
  0
LINE
  8
104
  6
CONTINUOUS
 62
40
 10
1.13592E+002
 20
1.7314229E+002
 11
1.1325225E+002
 21
1.7072478E+002
  0
ARC
  8
104
  6
CONTINUOUS
 62
40
 10
1.1127171E+002
 20
1.7100312E+002
 40
2.0000003
 50
2.7000023E+002
 51
3.520003E+002
  0
LINE
  8
104
  6
CONTINUOUS
 62
40
 10
1.1127172E+002
 20
1.6900312E+002
 11
8.2559679E+001
 21
1.6900312E+002
  0
ARC
  8
104
  6
CONTINUOUS
 62
40
 10
8.2559718E+001
 20
1.7100315E+002
 40
2.0000356
 50
1.8800058E+002
 51
2.6999889E+002
  0
LINE
  8
104
  6
CONTINUOUS
 62
40
 10
8.057915E+001
 20
1.7072478E+002
 11
7.9415697E+001
 21
1.7900313E+002
  0
LINE
  8
104
  6
CONTINUOUS
 62
40
 10
7.9415697E+001
 20
1.7900313E+002
 11
8.057915E+001
 21
1.8728145E+002
  0
ARC
  8
104
  6
CONTINUOUS
 62
40
 10
8.2559687E+001
 20
1.8700308E+002
 40
2.0000051
 50
9.0000228E+001
 51
1.719993E+002
  0
LINE
  8
104
  6
CONTINUOUS
 62
40
 10
8.2559679E+001
 20
1.8900309E+002
 11
1.1127172E+002
 21
1.8900309E+002
  0
ARC
  8
104
  6
CONTINUOUS
 62
40
 10
1.1127172E+002
 20
1.8700309E+002
 40
1.9999939
 50
8.0004226
 51
9.0000052E+001
  0
LINE
  8
104
  6
CONTINUOUS
 62
40
 10
1.1325225E+002
 20
1.8728145E+002
 11
1.13592E+002
 21
1.8486397E+002
  0
ARC
  8
104
  6
CONTINUOUS
 62
40
 10
1.145823E+002
 20
1.8500315E+002
 40
1.0000318
 50
1.8799995E+002
 51
2.6999975E+002
  0
LINE
  8
104
  6
CONTINUOUS
 62
40
 10
1.1458229E+002
 20
1.8400312E+002
 11
1.1729393E+002
 21
1.8400312E+002
  0
TEXT
  8
103
  6
CONTINUOUS
 62
40
 10
1.1806187E+002
 20
2.7724118E+002
 40
7.0
  1
Tuerhebel 7411/56
 41
6.6176471E-001
 72
1
 11
7.868687E+001
 21
2.7374118E+002
 73
2
  0
TEXT
  8
103
  6
CONTINUOUS
 62
40
 10
1.1395982E+002
 20
3.8848063E+002
 40
7.0
  1
Tuerhebel 7411/46
 41
6.6176471E-001
 72
1
 11
7.458482E+001
 21
3.8498063E+002
 73
2
  0
DIMENSION
  8
MED-0
  6
CONTINUOUS
 62
4
  2
*D5312
  3
DSTYLE1
 10
4.6158828E+002
 20
3.2092521E+002
 11
4.3366604E+002
 21
3.2384171E+002
 70
128
 13
4.0558828E+002
 23
3.0602076E+002
 14
4.6158828E+002
 24
3.0969295E+002
 40
3.0
 50
0.0
  0
DIMENSION
  8
MED-0
  6
CONTINUOUS
 62
4
  2
*D5313
  3
DSTYLE1
 10
4.5158828E+002
 20
4.0485395E+002
 11
4.2866604E+002
 21
4.0777045E+002
 70
128
 13
4.0558828E+002
 23
3.9082629E+002
 14
4.5158828E+002
 24
3.948295E+002
 40
3.0
 50
0.0
  0
LINE
  8
104
  6
CONTINUOUS
 62
40
 10
1.6422446E+002
 20
2.7067583E+002
 11
1.2922434E+002
 21
2.7067583E+002
  0
LINE
  8
104
  6
CONTINUOUS
 62
40
 10
1.2922434E+002
 20
2.7027581E+002
 11
1.6414012E+002
 21
2.7027581E+002
  0
LINE
  8
106
  6
CENTERLINE
 62
1
 10
1.2790537E+002
 20
2.7047582E+002
 11
1.6546543E+002
 21
2.7047582E+002
  0
LINE
  8
104
  6
CONTINUOUS
 62
40
 10
8.6703396E+001
 20
2.4056182E+002
 11
1.0614688E+002
 21
2.3988283E+002
  0
ARC
  8
104
  6
CONTINUOUS
 62
40
 10
9.6224335E+001
 20
2.3447583E+002
 40
1.1300112E+001
 50
3.2741302E+002
 51
3.8858691E+002
  0
LINE
  8
104
  6
CONTINUOUS
 62
40
 10
1.0574553E+002
 20
2.2838982E+002
 11
8.6302044E+001
 21
2.2906881E+002
  0
ARC
  8
104
  6
CONTINUOUS
 62
40
 10
9.6224461E+001
 20
2.3447581E+002
 40
1.1300004E+001
 50
1.474127E+002
 51
2.0858723E+002
  0
LINE
  8
104
  6
CONTINUOUS
 62
40
 10
8.6763302E+001
 20
2.401845E+002
 11
1.060608E+002
 21
2.3951061E+002
  0
ARC
  8
104
  6
CONTINUOUS
 62
40
 10
9.6224335E+001
 20
2.3447582E+002
 40
1.1050113E+001
 50
3.2889434E+002
 51
3.871056E+002
  0
LINE
  8
104
  6
CONTINUOUS
 62
40
 10
1.0568562E+002
 20
2.2876714E+002
 11
8.6388127E+001
 21
2.2944103E+002
  0
ARC
  8
104
  6
CONTINUOUS
 62
40
 10
9.6224339E+001
 20
2.3447582E+002
 40
1.1049896E+001
 50
1.4889372E+002
 51
2.0710622E+002
  0
CIRCLE
  8
104
  6
CONTINUOUS
 62
40
 10
1.469157E+002
 20
2.9047582E+002
 40
6.350006
  0
CIRCLE
  8
104
  6
CONTINUOUS
 62
40
 10
1.9291568E+002
 20
2.9047582E+002
 40
6.350006
  0
CIRCLE
  8
104
  6
CONTINUOUS
 62
40
 10
2.3822446E+002
 20
2.9047582E+002
 40
6.350006
  0
CIRCLE
  8
104
  6
CONTINUOUS
 62
40
 10
2.8422445E+002
 20
2.9047582E+002
 40
6.350006
  0
CIRCLE
  8
104
  6
CONTINUOUS
 62
40
 10
2.8422445E+002
 20
2.9047582E+002
 40
3.350006
  0
CIRCLE
  8
104
  6
CONTINUOUS
 62
40
 10
2.3822446E+002
 20
2.9047582E+002
 40
3.350006
  0
CIRCLE
  8
104
  6
CONTINUOUS
 62
40
 10
1.9291568E+002
 20
2.9047582E+002
 40
3.350006
  0
CIRCLE
  8
104
  6
CONTINUOUS
 62
40
 10
1.469157E+002
 20
2.9047582E+002
 40
3.350006
  0
LINE
  8
106
  6
CENTERLINE
 62
1
 10
1.469157E+002
 20
2.9909984E+002
 11
1.469157E+002
 21
2.8208422E+002
  0
LINE
  8
106
  6
CENTERLINE
 62
1
 10
1.9291568E+002
 20
2.9948656E+002
 11
1.9291568E+002
 21
2.8227758E+002
  0
LINE
  8
106
  6
CENTERLINE
 62
1
 10
2.3822446E+002
 20
2.9890648E+002
 11
2.3822446E+002
 21
2.8189086E+002
  0
LINE
  8
106
  6
CENTERLINE
 62
1
 10
2.8422445E+002
 20
2.9948656E+002
 11
2.8422445E+002
 21
2.8208422E+002
  0
LINE
  8
106
  6
CENTERLINE
 62
1
 10
1.2454575E+002
 20
2.9047582E+002
 11
1.5522446E+002
 21
2.9047582E+002
  0
LINE
  8
106
  6
CENTERLINE
 62
1
 10
1.8322446E+002
 20
2.9047582E+002
 11
2.0122446E+002
 21
2.9047582E+002
  0
LINE
  8
106
  6
CENTERLINE
 62
1
 10
2.2922447E+002
 20
2.9047582E+002
 11
2.4722446E+002
 21
2.9047582E+002
  0
LINE
  8
106
  6
CENTERLINE
 62
1
 10
2.7522445E+002
 20
2.9047582E+002
 11
2.9953598E+002
 21
2.9047582E+002
  0
ARC
  8
104
  6
CONTINUOUS
 62
40
 10
1.5672445E+002
 20
2.9597581E+002
 40
1.4999896
 50
8.9999603E+001
 51
1.7999979E+002
  0
LINE
  8
104
  6
CONTINUOUS
 62
40
 10
1.5672446E+002
 20
2.974758E+002
 11
1.8172446E+002
 21
2.974758E+002
  0
ARC
  8
104
  6
CONTINUOUS
 62
40
 10
1.8172445E+002
 20
2.9597579E+002
 40
1.5000177
 50
1.285776E-003
 51
8.9999478E+001
  0
LINE
  8
104
  6
CONTINUOUS
 62
40
 10
1.8322446E+002
 20
2.9597582E+002
 11
1.8322446E+002
 21
2.8497582E+002
  0
ARC
  8
104
  6
CONTINUOUS
 62
40
 10
1.8172446E+002
 20
2.8497582E+002
 40
1.5000046
 50
2.7000002E+002
 51
3.5999983E+002
  0
LINE
  8
104
  6
CONTINUOUS
 62
40
 10
1.8172446E+002
 20
2.8347582E+002
 11
1.5672446E+002
 21
2.8347582E+002
  0
ARC
  8
104
  6
CONTINUOUS
 62
40
 10
1.5672446E+002
 20
2.8497581E+002
 40
1.499989
 50
1.7999958E+002
 51
2.7000012E+002
  0
LINE
  8
104
  6
CONTINUOUS
 62
40
 10
1.5522447E+002
 20
2.8497582E+002
 11
1.5522446E+002
 21
2.9597582E+002
  0
ARC
  8
104
  6
CONTINUOUS
 62
40
 10
2.0272446E+002
 20
2.9597581E+002
 40
1.500007
 50
9.0000269E+001
 51
1.7999973E+002
  0
LINE
  8
104
  6
CONTINUOUS
 62
40
 10
2.0272446E+002
 20
2.9747582E+002
 11
2.2772446E+002
 21
2.9747582E+002
  0
ARC
  8
104
  6
CONTINUOUS
 62
40
 10
2.2772446E+002
 20
2.9597582E+002
 40
1.5000031
 50
1.2624566E-003
 51
9.0000189E+001
  0
LINE
  8
104
  6
CONTINUOUS
 62
40
 10
2.2922446E+002
 20
2.9597585E+002
 11
2.2922446E+002
 21
2.8497582E+002
  0
ARC
  8
104
  6
CONTINUOUS
 62
40
 10
2.2772447E+002
 20
2.8497582E+002
 40
1.4999974
 50
2.7000017E+002
 51
3.600001E+002
  0
LINE
  8
104
  6
CONTINUOUS
 62
40
 10
2.2772447E+002
 20
2.8347582E+002
 11
2.0272446E+002
 21
2.8347582E+002
  0
ARC
  8
104
  6
CONTINUOUS
 62
40
 10
2.0272444E+002
 20
2.8497581E+002
 40
1.4999939
 50
1.7999977E+002
 51
2.7000054E+002
  0
LINE
  8
104
  6
CONTINUOUS
 62
40
 10
2.0122445E+002
 20
2.8497582E+002
 11
2.0122446E+002
 21
2.9597582E+002
  0
ARC
  8
104
  6
CONTINUOUS
 62
40
 10
2.4872446E+002
 20
2.9597581E+002
 40
1.5000066
 50
9.0000252E+001
 51
1.7999975E+002
  0
LINE
  8
104
  6
CONTINUOUS
 62
40
 10
2.4872446E+002
 20
2.9747582E+002
 11
2.7372445E+002
 21
2.9747582E+002
  0
ARC
  8
104
  6
CONTINUOUS
 62
40
 10
2.7372445E+002
 20
2.9597583E+002
 40
1.4999929
 50
8.741231E-004
 51
8.9999699E+001
  0
LINE
  8
104
  6
CONTINUOUS
 62
40
 10
2.7522444E+002
 20
2.9597585E+002
 11
2.7522444E+002
 21
2.8497582E+002
  0
ARC
  8
104
  6
CONTINUOUS
 62
40
 10
2.7372445E+002
 20
2.8497581E+002
 40
1.4999948
 50
2.7000037E+002
 51
3.600002E+002
  0
LINE
  8
104
  6
CONTINUOUS
 62
40
 10
2.7372445E+002
 20
2.8347582E+002
 11
2.4872446E+002
 21
2.8347582E+002
  0
ARC
  8
104
  6
CONTINUOUS
 62
40
 10
2.4872445E+002
 20
2.8497581E+002
 40
1.4999935
 50
1.7999975E+002
 51
2.7000025E+002
  0
LINE
  8
104
  6
CONTINUOUS
 62
40
 10
2.4722446E+002
 20
2.8497582E+002
 11
2.4722446E+002
 21
2.9597582E+002
  0
LINE
  8
106
  6
CENTERLINE
 62
1
 10
7.6059247E+001
 20
2.3518001E+002
 11
1.1705209E+002
 21
2.3374849E+002
  0
LINE
  8
106
  6
CENTERLINE
 62
1
 10
9.691557E+001
 20
2.5427025E+002
 11
9.5541279E+001
 21
2.1491559E+002
  0
LINE
  8
106
  6
CENTERLINE
 62
1
 10
9.6224339E+001
 20
2.5644457E+002
 11
9.6224339E+001
 21
2.1390551E+002
  0
LINE
  8
106
  6
CENTERLINE
 62
1
 10
7.5728246E+001
 20
2.3447582E+002
 11
1.1788059E+002
 21
2.3447582E+002
  0
CIRCLE
  8
104
  6
CONTINUOUS
 62
40
 10
9.6224339E+001
 20
2.3447582E+002
 40
1.75E+001
  0
LINE
  8
104
  6
CONTINUOUS
 62
40
 10
9.6224339E+001
 20
2.5197582E+002
 11
1.2422434E+002
 21
2.5197582E+002
  0
ARC
  8
104
  6
CONTINUOUS
 62
40
 10
1.2422435E+002
 20
2.5697581E+002
 40
4.9999937
 50
2.6999984E+002
 51
3.6000007E+002
  0
LINE
  8
104
  6
CONTINUOUS
 62
40
 10
1.2922434E+002
 20
2.5697582E+002
 11
1.2922434E+002
 21
2.9847582E+002
  0
ARC
  8
104
  6
CONTINUOUS
 62
40
 10
1.3122434E+002
 20
2.9847581E+002
 40
1.9999968
 50
8.999663E+001
 51
1.7999963E+002
  0
LINE
  8
104
  6
CONTINUOUS
 62
40
 10
1.3122446E+002
 20
3.004758E+002
 11
2.9422445E+002
 21
3.004758E+002
  0
ARC
  8
104
  6
CONTINUOUS
 62
40
 10
2.9422444E+002
 20
2.984758E+002
 40
1.9999998
 50
4.516383E-004
 51
8.9999577E+001
  0
LINE
  8
104
  6
CONTINUOUS
 62
40
 10
2.9622444E+002
 20
2.9847582E+002
 11
2.9622444E+002
 21
2.8247582E+002
  0
ARC
  8
104
  6
CONTINUOUS
 62
40
 10
2.9422444E+002
 20
2.8247582E+002
 40
1.999997
 50
2.7000034E+002
 51
3.6000009E+002
  0
LINE
  8
104
  6
CONTINUOUS
 62
40
 10
2.9422445E+002
 20
2.8047582E+002
 11
1.6622446E+002
 21
2.8047582E+002
  0
ARC
  8
104
  6
CONTINUOUS
 62
40
 10
1.6622446E+002
 20
2.7847582E+002
 40
1.9999987
 50
8.9999963E+001
 51
1.8000004E+002
  0
LINE
  8
104
  6
CONTINUOUS
 62
40
 10
1.6422446E+002
 20
2.7847582E+002
 11
1.6422446E+002
 21
2.7047582E+002
  0
LINE
  8
104
  6
CONTINUOUS
 62
40
 10
1.6422446E+002
 20
2.7047582E+002
 11
1.4769768E+002
 21
2.3128405E+002
  0
ARC
  8
104
  6
CONTINUOUS
 62
40
 10
1.4309052E+002
 20
2.3322684E+002
 40
5.0000422
 50
2.8391306E+002
 51
3.3713532E+002
  0
LINE
  8
104
  6
CONTINUOUS
 62
40
 10
1.4429277E+002
 20
2.2837349E+002
 11
9.9636547E+001
 21
2.1731171E+002
  0
LINE
  8
104
  6
CONTINUOUS
 62
40
 10
4.0408828E+002
 20
3.009319E+002
 11
4.0408828E+002
 21
2.999319E+002
  0
LINE
  8
104
  6
CONTINUOUS
 62
40
 10
4.0408828E+002
 20
2.999319E+002
 11
4.0708828E+002
 21
2.999319E+002
  0
LINE
  8
104
  6
CONTINUOUS
 62
40
 10
4.0708828E+002
 20
2.999319E+002
 11
4.0718157E+002
 21
3.009319E+002
  0
LINE
  8
104
  6
CONTINUOUS
 62
40
 10
4.0808828E+002
 20
2.8973195E+002
 11
4.0808828E+002
 21
2.979319E+002
  0
LINE
  8
104
  6
CONTINUOUS
 62
40
 10
4.0808828E+002
 20
2.979319E+002
 11
4.1108828E+002
 21
3.009319E+002
  0
LINE
  8
104
  6
CONTINUOUS
 62
40
 10
4.1108828E+002
 20
3.009319E+002
 11
4.0008828E+002
 21
3.009319E+002
  0
LINE
  8
104
  6
CONTINUOUS
 62
40
 10
4.0008828E+002
 20
3.009319E+002
 11
4.0308828E+002
 21
2.979319E+002
  0
LINE
  8
104
  6
CONTINUOUS
 62
40
 10
4.0308828E+002
 20
2.979319E+002
 11
4.0308828E+002
 21
2.8973195E+002
  0
LINE
  8
104
  6
CONTINUOUS
 62
40
 10
4.0308828E+002
 20
2.8973195E+002
 11
4.0808828E+002
 21
2.8973195E+002
  0
LINE
  8
104
  6
CONTINUOUS
 62
40
 10
4.0308828E+002
 20
2.979319E+002
 11
4.0808828E+002
 21
2.979319E+002
  0
LINE
  8
99
  6
CONTINUOUS
 62
1
 10
4.0383828E+002
 20
2.979319E+002
 11
4.0383828E+002
 21
2.8973195E+002
  0
LINE
  8
99
  6
CONTINUOUS
 62
1
 10
4.0733828E+002
 20
2.979319E+002
 11
4.0733828E+002
 21
2.8973195E+002
  0
LINE
  8
104
  6
CONTINUOUS
 62
40
 10
4.4058828E+002
 20
2.979319E+002
 11
4.0808828E+002
 21
2.979319E+002
  0
LINE
  8
104
  6
CONTINUOUS
 62
40
 10
4.0808828E+002
 20
2.979319E+002
 11
4.1108828E+002
 21
3.009319E+002
  0
LINE
  8
104
  6
CONTINUOUS
 62
40
 10
4.1108828E+002
 20
3.009319E+002
 11
4.4058828E+002
 21
3.009319E+002
  0
LINE
  8
104
  6
CONTINUOUS
 62
40
 10
4.4058828E+002
 20
3.009319E+002
 11
4.4058828E+002
 21
2.979319E+002
  0
LINE
  8
104
  6
CONTINUOUS
 62
40
 10
4.4058828E+002
 20
2.979319E+002
 11
4.4158828E+002
 21
2.979319E+002
  0
LINE
  8
104
  6
CONTINUOUS
 62
40
 10
4.4058828E+002
 20
3.009319E+002
 11
4.4158828E+002
 21
3.009319E+002
  0
LINE
  8
104
  6
CONTINUOUS
 62
40
 10
4.0308828E+002
 20
2.979319E+002
 11
3.8758828E+002
 21
2.979319E+002
  0
LINE
  8
104
  6
CONTINUOUS
 62
40
 10
3.8758828E+002
 20
2.979319E+002
 11
3.8758828E+002
 21
2.7793193E+002
  0
LINE
  8
104
  6
CONTINUOUS
 62
40
 10
3.8758828E+002
 20
2.7793193E+002
 11
3.8458828E+002
 21
2.7793193E+002
  0
LINE
  8
104
  6
CONTINUOUS
 62
40
 10
3.8458828E+002
 20
2.7793193E+002
 11
3.8458828E+002
 21
3.009319E+002
  0
LINE
  8
104
  6
CONTINUOUS
 62
40
 10
3.8458828E+002
 20
3.009319E+002
 11
4.0008828E+002
 21
3.009319E+002
  0
LINE
  8
104
  6
CONTINUOUS
 62
40
 10
4.0008828E+002
 20
3.009319E+002
 11
4.0308828E+002
 21
2.979319E+002
  0
LINE
  8
104
  6
CONTINUOUS
 62
40
 10
4.1145357E+002
 20
2.7573195E+002
 11
4.1071987E+002
 21
2.8973195E+002
  0
LINE
  8
104
  6
CONTINUOUS
 62
40
 10
4.1071987E+002
 20
2.8973195E+002
 11
4.0045669E+002
 21
2.8973195E+002
  0
LINE
  8
104
  6
CONTINUOUS
 62
40
 10
4.0045669E+002
 20
2.8973195E+002
 11
3.9972298E+002
 21
2.7573195E+002
  0
LINE
  8
MED-0
  6
CENTERLINE
 62
150
 10
4.5858828E+002
 20
2.8553194E+002
 11
4.6458828E+002
 21
2.8553194E+002
  0
LINE
  8
MED-0
  6
CENTERLINE
 62
150
 10
4.6458828E+002
 20
2.8553194E+002
 11
4.6458828E+002
 21
3.0793193E+002
  0
LINE
  8
MED-0
  6
CENTERLINE
 62
150
 10
4.6458828E+002
 20
3.0793193E+002
 11
4.5858828E+002
 21
3.0793193E+002
  0
LINE
  8
MED-0
  6
CENTERLINE
 62
150
 10
4.5858828E+002
 20
3.0793193E+002
 11
4.5858828E+002
 21
2.8553194E+002
  0
LINE
  8
99
  6
CONTINUOUS
 62
1
 10
4.5933828E+002
 20
3.0793193E+002
 11
4.5933828E+002
 21
2.8553194E+002
  0
LINE
  8
99
  6
CONTINUOUS
 62
1
 10
4.6383828E+002
 20
2.8553194E+002
 11
4.6383828E+002
 21
3.0793193E+002
  0
LINE
  8
104
  6
CONTINUOUS
 62
40
 10
4.5598827E+002
 20
2.8293193E+002
 11
4.5858828E+002
 21
2.8553194E+002
  0
LINE
  8
104
  6
CONTINUOUS
 62
40
 10
4.5858828E+002
 20
2.8553194E+002
 11
4.6458828E+002
 21
2.8553194E+002
  0
LINE
  8
104
  6
CONTINUOUS
 62
40
 10
4.6458828E+002
 20
2.8553194E+002
 11
4.6718829E+002
 21
2.8293193E+002
  0
LINE
  8
104
  6
CONTINUOUS
 62
40
 10
4.6718829E+002
 20
2.8293193E+002
 11
4.5598829E+002
 21
2.8293193E+002
  0
LINE
  8
104
  6
CONTINUOUS
 62
40
 10
4.5858828E+002
 20
2.8553194E+002
 11
4.5858828E+002
 21
3.0793193E+002
  0
LINE
  8
104
  6
CONTINUOUS
 62
40
 10
4.5858828E+002
 20
3.0793193E+002
 11
4.6458828E+002
 21
3.0793193E+002
  0
LINE
  8
104
  6
CONTINUOUS
 62
40
 10
4.6458828E+002
 20
3.0793193E+002
 11
4.6458828E+002
 21
2.8553194E+002
  0
LINE
  8
104
  6
CONTINUOUS
 62
40
 10
4.4158828E+002
 20
3.009319E+002
 11
4.4158828E+002
 21
2.9293193E+002
  0
LINE
  8
104
  6
CONTINUOUS
 62
40
 10
4.4158828E+002
 20
2.8293193E+002
 11
4.4158828E+002
 21
2.7793192E+002
  0
LINE
  8
104
  6
CONTINUOUS
 62
40
 10
4.4158828E+002
 20
2.7793192E+002
 11
4.1133829E+002
 21
2.7793192E+002
  0
LINE
  8
104
  6
CONTINUOUS
 62
40
 10
3.9983828E+002
 20
2.7793192E+002
 11
3.8676202E+002
 21
2.7793192E+002
  0
LINE
  8
106
  6
CENTERLINE
 62
1
 10
4.0558828E+002
 20
3.0602076E+002
 11
4.0558828E+002
 21
2.6831874E+002
  0
LINE
  8
106
  6
CENTERLINE
 62
1
 10
3.9308828E+002
 20
2.7193193E+002
 11
3.9308828E+002
 21
2.7573195E+002
  0
LINE
  8
106
  6
CENTERLINE
 62
1
 10
3.9308828E+002
 20
2.7573195E+002
 11
4.1808828E+002
 21
2.7573195E+002
  0
LINE
  8
106
  6
CENTERLINE
 62
1
 10
4.1808828E+002
 20
2.7573195E+002
 11
4.1808828E+002
 21
2.7193193E+002
  0
LINE
  8
104
  6
CONTINUOUS
 62
40
 10
4.2308828E+002
 20
2.8793193E+002
 11
4.2192483E+002
 21
2.9621029E+002
  0
ARC
  8
104
  6
CONTINUOUS
 62
40
 10
4.1994429E+002
 20
2.9593193E+002
 40
2.0000062
 50
8.0002939
 51
8.9999688E+001
  0
LINE
  8
104
  6
CONTINUOUS
 62
40
 10
4.199443E+002
 20
2.9793193E+002
 11
4.1133828E+002
 21
2.9793193E+002
  0
LINE
  8
104
  6
CONTINUOUS
 62
40
 10
4.1133828E+002
 20
2.9793193E+002
 11
4.108142E+002
 21
2.8793193E+002
  0
LINE
  8
104
  6
CONTINUOUS
 62
40
 10
4.108142E+002
 20
2.8793193E+002
 11
4.1133828E+002
 21
2.7793193E+002
  0
LINE
  8
104
  6
CONTINUOUS
 62
40
 10
4.1133828E+002
 20
2.7793193E+002
 11
4.199443E+002
 21
2.7793193E+002
  0
ARC
  8
104
  6
CONTINUOUS
 62
40
 10
4.1994428E+002
 20
2.7993194E+002
 40
2.0000095
 50
2.700004E+002
 51
3.5199965E+002
  0
LINE
  8
104
  6
CONTINUOUS
 62
40
 10
4.2192483E+002
 20
2.7965358E+002
 11
4.2308828E+002
 21
2.8793193E+002
  0
LINE
  8
104
  6
CONTINUOUS
 62
40
 10
3.8808828E+002
 20
2.8793193E+002
 11
3.8925172E+002
 21
2.7965358E+002
  0
ARC
  8
104
  6
CONTINUOUS
 62
40
 10
3.9123226E+002
 20
2.7993192E+002
 40
2.0000054
 50
1.8799981E+002
 51
2.7000007E+002
  0
LINE
  8
104
  6
CONTINUOUS
 62
40
 10
3.9123226E+002
 20
2.7793192E+002
 11
3.9983828E+002
 21
2.7793192E+002
  0
LINE
  8
104
  6
CONTINUOUS
 62
40
 10
3.9983828E+002
 20
2.7793192E+002
 11
4.0036236E+002
 21
2.8793193E+002
  0
LINE
  8
104
  6
CONTINUOUS
 62
40
 10
4.0036236E+002
 20
2.8793193E+002
 11
3.9983828E+002
 21
2.9793193E+002
  0
LINE
  8
104
  6
CONTINUOUS
 62
40
 10
3.9983828E+002
 20
2.9793193E+002
 11
3.9123226E+002
 21
2.9793193E+002
  0
ARC
  8
104
  6
CONTINUOUS
 62
40
 10
3.9123224E+002
 20
2.9593195E+002
 40
1.9999827
 50
8.9999297E+001
 51
1.7200029E+002
  0
LINE
  8
104
  6
CONTINUOUS
 62
40
 10
3.8925172E+002
 20
2.9621029E+002
 11
3.8808828E+002
 21
2.8793193E+002
  0
LINE
  8
104
  6
CONTINUOUS
 62
40
 10
4.5316027E+002
 20
2.9293193E+002
 11
4.2238557E+002
 21
2.9293193E+002
  0
LINE
  8
104
  6
CONTINUOUS
 62
40
 10
4.5316027E+002
 20
2.8293193E+002
 11
4.2238557E+002
 21
2.8293193E+002
  0
LINE
  8
104
  6
CONTINUOUS
 62
40
 10
4.5598827E+002
 20
2.9293193E+002
 11
4.5316027E+002
 21
2.9293193E+002
  0
ARC
  8
104
  6
CONTINUOUS
 62
40
 10
4.5316029E+002
 20
2.9193191E+002
 40
1.0000246
 50
9.0001257E+001
 51
1.7199774E+002
  0
LINE
  8
104
  6
CONTINUOUS
 62
40
 10
4.5217001E+002
 20
2.9207112E+002
 11
4.5158828E+002
 21
2.8793193E+002
  0
LINE
  8
104
  6
CONTINUOUS
 62
40
 10
4.5158828E+002
 20
2.8793193E+002
 11
4.5217001E+002
 21
2.8379277E+002
  0
ARC
  8
104
  6
CONTINUOUS
 62
40
 10
4.5316029E+002
 20
2.8393194E+002
 40
1.0000189
 50
1.8799931E+002
 51
2.6999866E+002
  0
LINE
  8
104
  6
CONTINUOUS
 62
40
 10
4.5316027E+002
 20
2.8293192E+002
 11
4.5598827E+002
 21
2.8293192E+002
  0
LINE
  8
104
  6
CONTINUOUS
 62
40
 10
4.5598827E+002
 20
2.8293192E+002
 11
4.5858828E+002
 21
2.8553194E+002
  0
LINE
  8
104
  6
CONTINUOUS
 62
40
 10
4.5858828E+002
 20
2.8553194E+002
 11
4.5858828E+002
 21
2.9033193E+002
  0
LINE
  8
104
  6
CONTINUOUS
 62
40
 10
4.5858828E+002
 20
2.9033193E+002
 11
4.5598827E+002
 21
2.9293193E+002
  0
LINE
  8
104
  6
CONTINUOUS
 62
40
 10
4.6718829E+002
 20
2.9293193E+002
 11
4.7001629E+002
 21
2.9293193E+002
  0
ARC
  8
104
  6
CONTINUOUS
 62
40
 10
4.7001627E+002
 20
2.9193191E+002
 40
1.0000196
 50
8.0020122
 51
8.9998992E+001
  0
LINE
  8
104
  6
CONTINUOUS
 62
40
 10
4.7100655E+002
 20
2.9207112E+002
 11
4.7158828E+002
 21
2.8793193E+002
  0
LINE
  8
104
  6
CONTINUOUS
 62
40
 10
4.7158828E+002
 20
2.8793193E+002
 11
4.7100655E+002
 21
2.8379277E+002
  0
ARC
  8
104
  6
CONTINUOUS
 62
40
 10
4.7001627E+002
 20
2.8393193E+002
 40
1.0000139
 50
2.7000109E+002
 51
3.5200093E+002
  0
LINE
  8
104
  6
CONTINUOUS
 62
40
 10
4.7001629E+002
 20
2.8293192E+002
 11
4.6718829E+002
 21
2.8293192E+002
  0
LINE
  8
104
  6
CONTINUOUS
 62
40
 10
4.6718829E+002
 20
2.8293192E+002
 11
4.6458828E+002
 21
2.8553194E+002
  0
LINE
  8
104
  6
CONTINUOUS
 62
40
 10
4.6458828E+002
 20
2.8553194E+002
 11
4.6458828E+002
 21
2.9033193E+002
  0
LINE
  8
104
  6
CONTINUOUS
 62
40
 10
4.6458828E+002
 20
2.9033193E+002
 11
4.6718829E+002
 21
2.9293193E+002
  0
LINE
  8
104
  6
CONTINUOUS
 62
40
 10
4.6718829E+002
 20
2.9293193E+002
 11
4.6458828E+002
 21
2.9033193E+002
  0
LINE
  8
104
  6
CONTINUOUS
 62
40
 10
4.5858828E+002
 20
2.9033193E+002
 11
4.5598827E+002
 21
2.9293193E+002
  0
LINE
  8
104
  6
CONTINUOUS
 62
40
 10
4.5858828E+002
 20
2.8553194E+002
 11
4.5858828E+002
 21
2.9033193E+002
  0
LINE
  8
104
  6
CONTINUOUS
 62
40
 10
4.6458828E+002
 20
2.8553194E+002
 11
4.6458828E+002
 21
2.9033193E+002
  0
LINE
  8
106
  6
CENTERLINE
 62
1
 10
4.6158828E+002
 20
2.8191182E+002
 11
4.6158828E+002
 21
3.0969295E+002
  0
LINE
  8
104
  6
CONTINUOUS
 62
40
 10
4.5598827E+002
 20
2.9293193E+002
 11
4.5858828E+002
 21
2.9293193E+002
  0
LINE
  8
104
  6
CONTINUOUS
 62
40
 10
4.6718829E+002
 20
2.9293193E+002
 11
4.6458828E+002
 21
2.9293193E+002
  0
LINE
  8
104
  6
CONTINUOUS
 62
40
 10
4.0408829E+002
 20
3.8606847E+002
 11
4.0408829E+002
 21
3.8506847E+002
  0
LINE
  8
104
  6
CONTINUOUS
 62
40
 10
4.0408829E+002
 20
3.8506847E+002
 11
4.0708829E+002
 21
3.8506847E+002
  0
LINE
  8
104
  6
CONTINUOUS
 62
40
 10
4.0708829E+002
 20
3.8506847E+002
 11
4.0718158E+002
 21
3.8606847E+002
  0
LINE
  8
104
  6
CONTINUOUS
 62
40
 10
4.0808828E+002
 20
3.7486847E+002
 11
4.0808828E+002
 21
3.8306845E+002
  0
LINE
  8
104
  6
CONTINUOUS
 62
40
 10
4.0808828E+002
 20
3.8306845E+002
 11
4.1108828E+002
 21
3.8606845E+002
  0
LINE
  8
104
  6
CONTINUOUS
 62
40
 10
4.1108828E+002
 20
3.8606845E+002
 11
4.0008828E+002
 21
3.8606845E+002
  0
LINE
  8
104
  6
CONTINUOUS
 62
40
 10
4.0008828E+002
 20
3.8606845E+002
 11
4.0308828E+002
 21
3.8306845E+002
  0
LINE
  8
104
  6
CONTINUOUS
 62
40
 10
4.0308828E+002
 20
3.8306845E+002
 11
4.0308828E+002
 21
3.7486847E+002
  0
LINE
  8
104
  6
CONTINUOUS
 62
40
 10
4.0308828E+002
 20
3.7486847E+002
 11
4.0808828E+002
 21
3.7486847E+002
  0
LINE
  8
104
  6
CONTINUOUS
 62
40
 10
4.0308829E+002
 20
3.8306847E+002
 11
4.0808829E+002
 21
3.8306847E+002
  0
LINE
  8
99
  6
CONTINUOUS
 62
1
 10
4.0383829E+002
 20
3.8306847E+002
 11
4.0383829E+002
 21
3.7486849E+002
  0
LINE
  8
99
  6
CONTINUOUS
 62
1
 10
4.0733829E+002
 20
3.8306847E+002
 11
4.0733829E+002
 21
3.7486849E+002
  0
LINE
  8
104
  6
CONTINUOUS
 62
40
 10
4.4158828E+002
 20
3.8606845E+002
 11
4.4158826E+002
 21
3.7806848E+002
  0
LINE
  8
104
  6
CONTINUOUS
 62
40
 10
4.4158826E+002
 20
3.6806845E+002
 11
4.4158826E+002
 21
3.6306845E+002
  0
LINE
  8
104
  6
CONTINUOUS
 62
40
 10
4.4158826E+002
 20
3.6306845E+002
 11
4.1133828E+002
 21
3.6306845E+002
  0
LINE
  8
104
  6
CONTINUOUS
 62
40
 10
3.9983828E+002
 20
3.6306845E+002
 11
3.8758828E+002
 21
3.6306845E+002
  0
LINE
  8
104
  6
CONTINUOUS
 62
40
 10
4.4058829E+002
 20
3.8306847E+002
 11
4.0808829E+002
 21
3.8306847E+002
  0
LINE
  8
104
  6
CONTINUOUS
 62
40
 10
4.0808829E+002
 20
3.8306847E+002
 11
4.1108829E+002
 21
3.8606847E+002
  0
LINE
  8
104
  6
CONTINUOUS
 62
40
 10
4.1108829E+002
 20
3.8606847E+002
 11
4.4058829E+002
 21
3.8606847E+002
  0
LINE
  8
104
  6
CONTINUOUS
 62
40
 10
4.4058829E+002
 20
3.8606847E+002
 11
4.4058829E+002
 21
3.8306847E+002
  0
LINE
  8
104
  6
CONTINUOUS
 62
40
 10
4.4058829E+002
 20
3.8306847E+002
 11
4.4158829E+002
 21
3.8306847E+002
  0
LINE
  8
104
  6
CONTINUOUS
 62
40
 10
4.4058829E+002
 20
3.8606847E+002
 11
4.4158829E+002
 21
3.8606847E+002
  0
LINE
  8
104
  6
CONTINUOUS
 62
40
 10
4.0308829E+002
 20
3.8306847E+002
 11
3.8758829E+002
 21
3.8306847E+002
  0
LINE
  8
104
  6
CONTINUOUS
 62
40
 10
3.8758829E+002
 20
3.8306847E+002
 11
3.8758829E+002
 21
3.6306847E+002
  0
LINE
  8
104
  6
CONTINUOUS
 62
40
 10
3.8758829E+002
 20
3.6306847E+002
 11
3.8458829E+002
 21
3.6306847E+002
  0
LINE
  8
104
  6
CONTINUOUS
 62
40
 10
3.8458829E+002
 20
3.6306847E+002
 11
3.8458829E+002
 21
3.8606847E+002
  0
LINE
  8
104
  6
CONTINUOUS
 62
40
 10
3.8458829E+002
 20
3.8606847E+002
 11
4.0008829E+002
 21
3.8606847E+002
  0
LINE
  8
104
  6
CONTINUOUS
 62
40
 10
4.0008829E+002
 20
3.8606847E+002
 11
4.0308829E+002
 21
3.8306847E+002
  0
LINE
  8
104
  6
CONTINUOUS
 62
40
 10
4.1145358E+002
 20
3.6086849E+002
 11
4.1071988E+002
 21
3.7486849E+002
  0
LINE
  8
104
  6
CONTINUOUS
 62
40
 10
4.1071988E+002
 20
3.7486849E+002
 11
4.004567E+002
 21
3.7486849E+002
  0
LINE
  8
104
  6
CONTINUOUS
 62
40
 10
4.004567E+002
 20
3.7486849E+002
 11
3.9972299E+002
 21
3.6086849E+002
  0
LINE
  8
MED-0
  6
CENTERLINE
 62
150
 10
4.4858829E+002
 20
3.7066851E+002
 11
4.5458829E+002
 21
3.7066851E+002
  0
LINE
  8
MED-0
  6
CENTERLINE
 62
150
 10
4.5458829E+002
 20
3.7066851E+002
 11
4.5458829E+002
 21
3.930685E+002
  0
LINE
  8
MED-0
  6
CENTERLINE
 62
150
 10
4.5458829E+002
 20
3.930685E+002
 11
4.4858829E+002
 21
3.930685E+002
  0
LINE
  8
MED-0
  6
CENTERLINE
 62
150
 10
4.4858829E+002
 20
3.930685E+002
 11
4.4858829E+002
 21
3.7066851E+002
  0
LINE
  8
99
  6
CONTINUOUS
 62
1
 10
4.4933829E+002
 20
3.930685E+002
 11
4.4933829E+002
 21
3.7066851E+002
  0
LINE
  8
99
  6
CONTINUOUS
 62
1
 10
4.5383829E+002
 20
3.7066851E+002
 11
4.5383829E+002
 21
3.930685E+002
  0
LINE
  8
104
  6
CONTINUOUS
 62
40
 10
4.4598828E+002
 20
3.6806847E+002
 11
4.4858829E+002
 21
3.7066851E+002
  0
LINE
  8
104
  6
CONTINUOUS
 62
40
 10
4.4858829E+002
 20
3.7066851E+002
 11
4.5458829E+002
 21
3.7066851E+002
  0
LINE
  8
104
  6
CONTINUOUS
 62
40
 10
4.5458829E+002
 20
3.7066851E+002
 11
4.5718829E+002
 21
3.6806847E+002
  0
LINE
  8
104
  6
CONTINUOUS
 62
40
 10
4.5718829E+002
 20
3.6806847E+002
 11
4.4598828E+002
 21
3.6806847E+002
  0
LINE
  8
104
  6
CONTINUOUS
 62
40
 10
4.4858829E+002
 20
3.7066851E+002
 11
4.4858829E+002
 21
3.930685E+002
  0
LINE
  8
104
  6
CONTINUOUS
 62
40
 10
4.4858829E+002
 20
3.930685E+002
 11
4.5458829E+002
 21
3.930685E+002
  0
LINE
  8
104
  6
CONTINUOUS
 62
40
 10
4.5458829E+002
 20
3.930685E+002
 11
4.5458829E+002
 21
3.7066851E+002
  0
LINE
  8
106
  6
CENTERLINE
 62
1
 10
4.0558828E+002
 20
3.9082629E+002
 11
4.0558828E+002
 21
3.5283203E+002
  0
LINE
  8
106
  6
CENTERLINE
 62
1
 10
3.9308828E+002
 20
3.5706848E+002
 11
3.9308828E+002
 21
3.6086847E+002
  0
LINE
  8
106
  6
CENTERLINE
 62
1
 10
3.9308828E+002
 20
3.6086847E+002
 11
4.1808828E+002
 21
3.6086847E+002
  0
LINE
  8
106
  6
CENTERLINE
 62
1
 10
4.1808828E+002
 20
3.6086847E+002
 11
4.1808828E+002
 21
3.5706848E+002
  0
LINE
  8
104
  6
CONTINUOUS
 62
40
 10
4.2308828E+002
 20
3.7306845E+002
 11
4.2192483E+002
 21
3.8134683E+002
  0
ARC
  8
104
  6
CONTINUOUS
 62
40
 10
4.1994431E+002
 20
3.8106846E+002
 40
1.9999855
 50
8.0006755
 51
9.0000328E+001
  0
LINE
  8
104
  6
CONTINUOUS
 62
40
 10
4.199443E+002
 20
3.8306845E+002
 11
4.1133828E+002
 21
3.8306845E+002
  0
LINE
  8
104
  6
CONTINUOUS
 62
40
 10
4.1133828E+002
 20
3.8306845E+002
 11
4.108142E+002
 21
3.7306845E+002
  0
LINE
  8
104
  6
CONTINUOUS
 62
40
 10
4.108142E+002
 20
3.7306845E+002
 11
4.1133828E+002
 21
3.6306845E+002
  0
LINE
  8
104
  6
CONTINUOUS
 62
40
 10
4.1133828E+002
 20
3.6306845E+002
 11
4.199443E+002
 21
3.6306845E+002
  0
ARC
  8
104
  6
CONTINUOUS
 62
40
 10
4.1994433E+002
 20
3.6506842E+002
 40
1.9999737
 50
2.6999908E+002
 51
3.5200055E+002
  0
LINE
  8
104
  6
CONTINUOUS
 62
40
 10
4.2192484E+002
 20
3.647901E+002
 11
4.2308828E+002
 21
3.7306845E+002
  0
LINE
  8
104
  6
CONTINUOUS
 62
40
 10
3.8808829E+002
 20
3.7306847E+002
 11
3.8925173E+002
 21
3.6479012E+002
  0
ARC
  8
104
  6
CONTINUOUS
 62
40
 10
3.9123226E+002
 20
3.6506847E+002
 40
1.9999884
 50
1.8800005E+002
 51
2.7000036E+002
  0
LINE
  8
104
  6
CONTINUOUS
 62
40
 10
3.9123227E+002
 20
3.6306848E+002
 11
3.9983829E+002
 21
3.6306848E+002
  0
LINE
  8
104
  6
CONTINUOUS
 62
40
 10
3.9983829E+002
 20
3.6306848E+002
 11
4.0036237E+002
 21
3.7306847E+002
  0
LINE
  8
104
  6
CONTINUOUS
 62
40
 10
4.0036237E+002
 20
3.7306847E+002
 11
3.9983829E+002
 21
3.830685E+002
  0
LINE
  8
104
  6
CONTINUOUS
 62
40
 10
3.9983829E+002
 20
3.830685E+002
 11
3.9123227E+002
 21
3.830685E+002
  0
ARC
  8
104
  6
CONTINUOUS
 62
40
 10
3.9123226E+002
 20
3.8106852E+002
 40
1.9999861
 50
8.9999609E+001
 51
1.7200021E+002
  0
LINE
  8
104
  6
CONTINUOUS
 62
40
 10
3.8925173E+002
 20
3.8134686E+002
 11
3.8808829E+002
 21
3.7306847E+002
  0
LINE
  8
104
  6
CONTINUOUS
 62
40
 10
4.4316028E+002
 20
3.780685E+002
 11
4.2238557E+002
 21
3.780685E+002
  0
LINE
  8
104
  6
CONTINUOUS
 62
40
 10
4.4316028E+002
 20
3.6806847E+002
 11
4.2238558E+002
 21
3.6806847E+002
  0
LINE
  8
104
  6
CONTINUOUS
 62
40
 10
4.4598828E+002
 20
3.780685E+002
 11
4.4316028E+002
 21
3.780685E+002
  0
ARC
  8
104
  6
CONTINUOUS
 62
40
 10
4.4316029E+002
 20
3.770685E+002
 40
1.0000025
 50
9.0000404E+001
 51
1.7200064E+002
  0
LINE
  8
104
  6
CONTINUOUS
 62
40
 10
4.4217001E+002
 20
3.7720766E+002
 11
4.4158829E+002
 21
3.730685E+002
  0
LINE
  8
104
  6
CONTINUOUS
 62
40
 10
4.4158829E+002
 20
3.730685E+002
 11
4.4217001E+002
 21
3.6892931E+002
  0
ARC
  8
104
  6
CONTINUOUS
 62
40
 10
4.4316029E+002
 20
3.6906848E+002
 40
1.0000048
 50
1.8799948E+002
 51
2.6999948E+002
  0
LINE
  8
104
  6
CONTINUOUS
 62
40
 10
4.4316028E+002
 20
3.6806847E+002
 11
4.4598828E+002
 21
3.6806847E+002
  0
LINE
  8
104
  6
CONTINUOUS
 62
40
 10
4.4598828E+002
 20
3.6806847E+002
 11
4.4858829E+002
 21
3.7066851E+002
  0
LINE
  8
104
  6
CONTINUOUS
 62
40
 10
4.4858829E+002
 20
3.7066851E+002
 11
4.4858829E+002
 21
3.754685E+002
  0
LINE
  8
104
  6
CONTINUOUS
 62
40
 10
4.4858829E+002
 20
3.754685E+002
 11
4.4598828E+002
 21
3.780685E+002
  0
LINE
  8
104
  6
CONTINUOUS
 62
40
 10
4.5718829E+002
 20
3.780685E+002
 11
4.600163E+002
 21
3.780685E+002
  0
ARC
  8
104
  6
CONTINUOUS
 62
40
 10
4.600163E+002
 20
3.7706851E+002
 40
9.9999412E-001
 50
7.9989491
 51
9.0000012E+001
  0
LINE
  8
104
  6
CONTINUOUS
 62
40
 10
4.6100656E+002
 20
3.7720766E+002
 11
4.6158829E+002
 21
3.730685E+002
  0
LINE
  8
104
  6
CONTINUOUS
 62
40
 10
4.6158829E+002
 20
3.730685E+002
 11
4.6100656E+002
 21
3.6892931E+002
  0
ARC
  8
104
  6
CONTINUOUS
 62
40
 10
4.6001629E+002
 20
3.6906847E+002
 40
9.9999642E-001
 50
2.700001E+002
 51
3.5200094E+002
  0
LINE
  8
104
  6
CONTINUOUS
 62
40
 10
4.600163E+002
 20
3.6806847E+002
 11
4.5718829E+002
 21
3.6806847E+002
  0
LINE
  8
104
  6
CONTINUOUS
 62
40
 10
4.5718829E+002
 20
3.6806847E+002
 11
4.5458829E+002
 21
3.7066851E+002
  0
LINE
  8
104
  6
CONTINUOUS
 62
40
 10
4.5458829E+002
 20
3.7066851E+002
 11
4.5458829E+002
 21
3.754685E+002
  0
LINE
  8
104
  6
CONTINUOUS
 62
40
 10
4.5458829E+002
 20
3.754685E+002
 11
4.5718829E+002
 21
3.780685E+002
  0
LINE
  8
104
  6
CONTINUOUS
 62
40
 10
4.5718829E+002
 20
3.780685E+002
 11
4.5458829E+002
 21
3.754685E+002
  0
LINE
  8
104
  6
CONTINUOUS
 62
40
 10
4.4858829E+002
 20
3.754685E+002
 11
4.4598828E+002
 21
3.780685E+002
  0
LINE
  8
104
  6
CONTINUOUS
 62
40
 10
4.4858829E+002
 20
3.7066851E+002
 11
4.4858829E+002
 21
3.754685E+002
  0
LINE
  8
104
  6
CONTINUOUS
 62
40
 10
4.5458829E+002
 20
3.7066851E+002
 11
4.5458829E+002
 21
3.754685E+002
  0
LINE
  8
106
  6
CENTERLINE
 62
1
 10
4.5158829E+002
 20
3.6704836E+002
 11
4.5158829E+002
 21
3.9482952E+002
  0
LINE
  8
104
  6
CONTINUOUS
 62
40
 10
4.4598828E+002
 20
3.780685E+002
 11
4.4858829E+002
 21
3.780685E+002
  0
LINE
  8
104
  6
CONTINUOUS
 62
40
 10
4.5718829E+002
 20
3.780685E+002
 11
4.5458829E+002
 21
3.780685E+002
  0
LINE
  8
104
  6
CONTINUOUS
 62
40
 10
8.6703394E+001
 20
3.3573263E+002
 11
1.0614688E+002
 21
3.3505365E+002
  0
ARC
  8
104
  6
CONTINUOUS
 62
40
 10
9.6224333E+001
 20
3.2964664E+002
 40
1.1300112E+001
 50
3.2741302E+002
 51
3.8858691E+002
  0
LINE
  8
104
  6
CONTINUOUS
 62
40
 10
1.0574552E+002
 20
3.2356063E+002
 11
8.6302042E+001
 21
3.2423962E+002
  0
ARC
  8
104
  6
CONTINUOUS
 62
40
 10
9.6224459E+001
 20
3.2964663E+002
 40
1.1300004E+001
 50
1.474127E+002
 51
2.0858723E+002
  0
LINE
  8
104
  6
CONTINUOUS
 62
40
 10
8.67633E+001
 20
3.3535531E+002
 11
1.0606079E+002
 21
3.3468142E+002
  0
ARC
  8
104
  6
CONTINUOUS
 62
40
 10
9.6224333E+001
 20
3.2964664E+002
 40
1.1050113E+001
 50
3.2889434E+002
 51
3.871056E+002
  0
LINE
  8
104
  6
CONTINUOUS
 62
40
 10
1.0568562E+002
 20
3.2393795E+002
 11
8.6388125E+001
 21
3.2461184E+002
  0
ARC
  8
104
  6
CONTINUOUS
 62
40
 10
9.6224337E+001
 20
3.2964664E+002
 40
1.1049896E+001
 50
1.4889372E+002
 51
2.0710623E+002
  0
CIRCLE
  8
104
  6
CONTINUOUS
 62
40
 10
1.4691557E+002
 20
3.756466E+002
 40
6.350006
  0
CIRCLE
  8
104
  6
CONTINUOUS
 62
40
 10
1.9291556E+002
 20
3.756466E+002
 40
6.350006
  0
CIRCLE
  8
104
  6
CONTINUOUS
 62
40
 10
2.3822433E+002
 20
3.756466E+002
 40
6.350006
  0
CIRCLE
  8
104
  6
CONTINUOUS
 62
40
 10
2.8422433E+002
 20
3.756466E+002
 40
6.350007
  0
CIRCLE
  8
104
  6
CONTINUOUS
 62
40
 10
2.8422433E+002
 20
3.756466E+002
 40
3.350007
  0
CIRCLE
  8
104
  6
CONTINUOUS
 62
40
 10
2.3822433E+002
 20
3.756466E+002
 40
3.350006
  0
CIRCLE
  8
104
  6
CONTINUOUS
 62
40
 10
1.9291556E+002
 20
3.756466E+002
 40
3.350006
  0
CIRCLE
  8
104
  6
CONTINUOUS
 62
40
 10
1.4691557E+002
 20
3.756466E+002
 40
3.350006
  0
LINE
  8
106
  6
CENTERLINE
 62
1
 10
1.4691557E+002
 20
3.8427063E+002
 11
1.4691557E+002
 21
3.67255E+002
  0
LINE
  8
106
  6
CENTERLINE
 62
1
 10
1.9291556E+002
 20
3.8465735E+002
 11
1.9291556E+002
 21
3.6744836E+002
  0
LINE
  8
106
  6
CENTERLINE
 62
1
 10
2.3822433E+002
 20
3.8407727E+002
 11
2.3822433E+002
 21
3.6706164E+002
  0
LINE
  8
106
  6
CENTERLINE
 62
1
 10
2.8422433E+002
 20
3.8465735E+002
 11
2.8422433E+002
 21
3.67255E+002
  0
LINE
  8
106
  6
CENTERLINE
 62
1
 10
1.2454563E+002
 20
3.756466E+002
 11
1.5522434E+002
 21
3.756466E+002
  0
LINE
  8
106
  6
CENTERLINE
 62
1
 10
1.8322433E+002
 20
3.756466E+002
 11
2.0122433E+002
 21
3.756466E+002
  0
LINE
  8
106
  6
CENTERLINE
 62
1
 10
2.2922435E+002
 20
3.756466E+002
 11
2.4722433E+002
 21
3.756466E+002
  0
LINE
  8
106
  6
CENTERLINE
 62
1
 10
2.7522433E+002
 20
3.756466E+002
 11
2.9953585E+002
 21
3.756466E+002
  0
ARC
  8
104
  6
CONTINUOUS
 62
40
 10
1.5672433E+002
 20
3.8114661E+002
 40
1.4999954
 50
8.9999978E+001
 51
1.8000018E+002
  0
LINE
  8
104
  6
CONTINUOUS
 62
40
 10
1.5672433E+002
 20
3.826466E+002
 11
1.8172433E+002
 21
3.826466E+002
  0
ARC
  8
104
  6
CONTINUOUS
 62
40
 10
1.8172432E+002
 20
3.8114659E+002
 40
1.500018
 50
6.861202E-004
 51
8.9999619E+001
  0
LINE
  8
104
  6
CONTINUOUS
 62
40
 10
1.8322434E+002
 20
3.811466E+002
 11
1.8322434E+002
 21
3.701466E+002
  0
ARC
  8
104
  6
CONTINUOUS
 62
40
 10
1.8172435E+002
 20
3.701466E+002
 40
1.4999951
 50
2.6999951E+002
 51
3.6000019E+002
  0
LINE
  8
104
  6
CONTINUOUS
 62
40
 10
1.8172433E+002
 20
3.686466E+002
 11
1.5672433E+002
 21
3.686466E+002
  0
ARC
  8
104
  6
CONTINUOUS
 62
40
 10
1.5672433E+002
 20
3.7014659E+002
 40
1.4999884
 50
1.7999956E+002
 51
2.7000002E+002
  0
LINE
  8
104
  6
CONTINUOUS
 62
40
 10
1.5522434E+002
 20
3.701466E+002
 11
1.5522434E+002
 21
3.811466E+002
  0
ARC
  8
104
  6
CONTINUOUS
 62
40
 10
2.0272435E+002
 20
3.8114661E+002
 40
1.5000187
 50
9.0000714E+001
 51
1.8000043E+002
  0
LINE
  8
104
  6
CONTINUOUS
 62
40
 10
2.0272433E+002
 20
3.8264663E+002
 11
2.2772433E+002
 21
3.8264663E+002
  0
ARC
  8
104
  6
CONTINUOUS
 62
40
 10
2.2772435E+002
 20
3.8114664E+002
 40
1.499996
 50
3.5999985E+002
 51
4.5000046E+002
  0
LINE
  8
104
  6
CONTINUOUS
 62
40
 10
2.2922434E+002
 20
3.8114663E+002
 11
2.2922434E+002
 21
3.701466E+002
  0
ARC
  8
104
  6
CONTINUOUS
 62
40
 10
2.2772436E+002
 20
3.7014658E+002
 40
1.4999806
 50
2.6999953E+002
 51
3.6000074E+002
  0
LINE
  8
104
  6
CONTINUOUS
 62
40
 10
2.2772435E+002
 20
3.686466E+002
 11
2.0272433E+002
 21
3.686466E+002
  0
ARC
  8
104
  6
CONTINUOUS
 62
40
 10
2.0272432E+002
 20
3.701466E+002
 40
1.4999958
 50
1.7999984E+002
 51
2.7000047E+002
  0
LINE
  8
104
  6
CONTINUOUS
 62
40
 10
2.0122432E+002
 20
3.701466E+002
 11
2.0122433E+002
 21
3.811466E+002
  0
ARC
  8
104
  6
CONTINUOUS
 62
40
 10
2.4872435E+002
 20
3.8114661E+002
 40
1.5000204
 50
9.0000778E+001
 51
1.8000037E+002
  0
LINE
  8
104
  6
CONTINUOUS
 62
40
 10
2.4872433E+002
 20
3.8264663E+002
 11
2.7372433E+002
 21
3.8264663E+002
  0
ARC
  8
104
  6
CONTINUOUS
 62
40
 10
2.7372433E+002
 20
3.8114664E+002
 40
1.4999886
 50
3.5999957E+002
 51
4.4999986E+002
  0
LINE
  8
104
  6
CONTINUOUS
 62
40
 10
2.7522432E+002
 20
3.8114663E+002
 11
2.7522432E+002
 21
3.701466E+002
  0
ARC
  8
104
  6
CONTINUOUS
 62
40
 10
2.7372434E+002
 20
3.7014658E+002
 40
1.4999807
 50
2.6999984E+002
 51
3.6000074E+002
  0
LINE
  8
104
  6
CONTINUOUS
 62
40
 10
2.7372433E+002
 20
3.686466E+002
 11
2.4872433E+002
 21
3.686466E+002
  0
ARC
  8
104
  6
CONTINUOUS
 62
40
 10
2.4872433E+002
 20
3.701466E+002
 40
1.4999975
 50
1.799999E+002
 51
2.700001E+002
  0
LINE
  8
104
  6
CONTINUOUS
 62
40
 10
2.4722433E+002
 20
3.701466E+002
 11
2.4722433E+002
 21
3.811466E+002
  0
LINE
  8
106
  6
CENTERLINE
 62
1
 10
7.6059244E+001
 20
3.3035083E+002
 11
1.1705209E+002
 21
3.2891931E+002
  0
LINE
  8
106
  6
CENTERLINE
 62
1
 10
9.6915568E+001
 20
3.4944104E+002
 11
9.5541277E+001
 21
3.1008641E+002
  0
LINE
  8
106
  6
CENTERLINE
 62
1
 10
9.6224337E+001
 20
3.5161535E+002
 11
9.6224337E+001
 21
3.0907632E+002
  0
LINE
  8
106
  6
CENTERLINE
 62
1
 10
7.5728243E+001
 20
3.2964663E+002
 11
1.1788059E+002
 21
3.2964663E+002
  0
CIRCLE
  8
104
  6
CONTINUOUS
 62
40
 10
9.6224337E+001
 20
3.2964663E+002
 40
1.75E+001
  0
LINE
  8
104
  6
CONTINUOUS
 62
40
 10
9.6224337E+001
 20
3.471466E+002
 11
1.2422434E+002
 21
3.471466E+002
  0
ARC
  8
104
  6
CONTINUOUS
 62
40
 10
1.2422435E+002
 20
3.5214659E+002
 40
4.9999878
 50
2.6999982E+002
 51
3.6000014E+002
  0
LINE
  8
104
  6
CONTINUOUS
 62
40
 10
1.2922434E+002
 20
3.521466E+002
 11
1.2922434E+002
 21
3.836466E+002
  0
ARC
  8
104
  6
CONTINUOUS
 62
40
 10
1.3122435E+002
 20
3.836466E+002
 40
2.0000066
 50
9.0000297E+001
 51
1.7999981E+002
  0
LINE
  8
104
  6
CONTINUOUS
 62
40
 10
1.3122434E+002
 20
3.856466E+002
 11
2.9422433E+002
 21
3.856466E+002
  0
ARC
  8
104
  6
CONTINUOUS
 62
40
 10
2.9422431E+002
 20
3.836466E+002
 40
1.9999995
 50
3.5999999E+002
 51
4.4999958E+002
  0
LINE
  8
104
  6
CONTINUOUS
 62
40
 10
2.9622431E+002
 20
3.836466E+002
 11
2.9622431E+002
 21
3.676466E+002
  0
ARC
  8
104
  6
CONTINUOUS
 62
40
 10
2.9422432E+002
 20
3.6764659E+002
 40
1.9999872
 50
2.7000006E+002
 51
3.6000037E+002
  0
LINE
  8
104
  6
CONTINUOUS
 62
40
 10
2.9422433E+002
 20
3.656466E+002
 11
1.6555151E+002
 21
3.656466E+002
  0
ARC
  8
104
  6
CONTINUOUS
 62
40
 10
1.6555152E+002
 20
3.636466E+002
 40
2.0000053
 50
9.0000265E+001
 51
1.5713562E+002
  0
LINE
  8
104
  6
CONTINUOUS
 62
40
 10
1.6370866E+002
 20
3.644237E+002
 11
1.4769768E+002
 21
3.2645486E+002
  0
ARC
  8
104
  6
CONTINUOUS
 62
40
 10
1.430905E+002
 20
3.2839767E+002
 40
5.0000625
 50
2.8391318E+002
 51
3.371352E+002
  0
LINE
  8
104
  6
CONTINUOUS
 62
40
 10
1.4429277E+002
 20
3.2354431E+002
 11
9.9636545E+001
 21
3.1248253E+002
  0
INSERT
  2
*XH48
  8
108
 10
4.2573045E+002
 20
2.993641E+002
  0
INSERT
  2
*XH49
  8
108
 10
3.9008599E+002
 20
2.9318916E+002
  0
INSERT
  2
*XH50
  8
108
 10
4.1646939E+002
 20
2.8840598E+002
  0
INSERT
  2
*XH51
  8
108
 10
3.9506111E+002
 20
2.867967E+002
  0
INSERT
  2
*XH52
  8
108
 10
4.5472342E+002
 20
2.8847624E+002
  0
INSERT
  2
*XH53
  8
108
 10
4.6869897E+002
 20
2.8689544E+002
  0
INSERT
  2
*XH54
  8
108
 10
4.2573046E+002
 20
3.8450067E+002
  0
INSERT
  2
*XH55
  8
108
 10
3.90086E+002
 20
3.7832572E+002
  0
INSERT
  2
*XH56
  8
108
 10
4.164694E+002
 20
3.7354255E+002
  0
INSERT
  2
*XH57
  8
108
 10
3.9506112E+002
 20
3.7193325E+002
  0
INSERT
  2
*XH58
  8
108
 10
4.4472342E+002
 20
3.736128E+002
  0
INSERT
  2
*XH59
  8
108
 10
4.5869898E+002
 20
3.72032E+002
  0
TEXT
  8
103
  6
CONTINUOUS
 62
40
 10
1.3337731E+002
 20
7.4241385E+001
 40
7.0
  1
Tuerhebel 7456/1
 41
6.609375E-001
 72
1
 11
9.6364814E+001
 21
7.0741385E+001
 73
2
  0
LINE
  8
106
  6
CENTERLINE
 62
1
 10
2.0080561E+002
 20
1.1969238E+002
 11
2.0080561E+002
 21
7.3692391E+001
  0
LINE
  8
106
  6
CENTERLINE
 62
1
 10
2.5280561E+002
 20
1.1572655E+002
 11
2.5280561E+002
 21
7.8311196E+001
  0
LINE
  8
106
  6
CENTERLINE
 62
1
 10
3.0480561E+002
 20
1.1572655E+002
 11
3.0480561E+002
 21
7.3692391E+001
  0
LINE
  8
106
  6
CENTERLINE
 62
1
 10
1.4553079E+002
 20
9.1192391E+001
 11
1.3265512E+002
 21
9.1192391E+001
  0
LINE
  8
106
  6
CENTERLINE
 62
1
 10
1.3265512E+002
 20
9.1192391E+001
 11
1.6697607E+002
 21
9.1192391E+001
  0
LINE
  8
106
  6
CENTERLINE
 62
1
 10
2.2430561E+002
 20
1.0673536E+002
 11
2.2430561E+002
 21
7.3864266E+001
  0
LINE
  8
106
  6
CENTERLINE
 62
1
 10
2.8130561E+002
 20
7.3864266E+001
 11
2.8130561E+002
 21
1.0828223E+002
  0
LINE
  8
105
  6
HIDDEN
 62
1
 10
2.2105561E+002
 20
8.1192406E+001
 11
2.2105561E+002
 21
9.3192406E+001
  0
LINE
  8
105
  6
HIDDEN
 62
1
 10
2.2105561E+002
 20
9.3192406E+001
 11
2.2755561E+002
 21
9.3192406E+001
  0
LINE
  8
105
  6
HIDDEN
 62
1
 10
2.2755561E+002
 20
9.3192406E+001
 11
2.2755561E+002
 21
8.1192406E+001
  0
LINE
  8
105
  6
HIDDEN
 62
1
 10
2.2105561E+002
 20
9.3192406E+001
 11
2.2210562E+002
 21
9.362542E+001
  0
LINE
  8
105
  6
HIDDEN
 62
1
 10
2.2210562E+002
 20
9.362542E+001
 11
2.2650561E+002
 21
9.362542E+001
  0
LINE
  8
105
  6
HIDDEN
 62
1
 10
2.2650561E+002
 20
9.362542E+001
 11
2.2755561E+002
 21
9.3192406E+001
  0
LINE
  8
105
  6
HIDDEN
 62
1
 10
2.2730561E+002
 20
9.3336739E+001
 11
2.2730561E+002
 21
1.0119241E+002
  0
LINE
  8
105
  6
HIDDEN
 62
1
 10
2.2650561E+002
 20
1.0119241E+002
 11
2.2650561E+002
 21
9.362542E+001
  0
LINE
  8
105
  6
HIDDEN
 62
1
 10
2.2210562E+002
 20
1.0115205E+002
 11
2.2210562E+002
 21
9.362542E+001
  0
LINE
  8
105
  6
HIDDEN
 62
1
 10
2.2130561E+002
 20
1.0119241E+002
 11
2.2130561E+002
 21
9.3336739E+001
  0
LINE
  8
105
  6
HIDDEN
 62
1
 10
1.4830573E+002
 20
1.0419239E+002
 11
1.5030573E+002
 21
1.0419239E+002
  0
LINE
  8
105
  6
HIDDEN
 62
1
 10
1.5030573E+002
 20
1.0419239E+002
 11
1.5030573E+002
 21
9.6192391E+001
  0
LINE
  8
105
  6
HIDDEN
 62
1
 10
1.5030573E+002
 20
9.6192391E+001
 11
1.4830573E+002
 21
9.6192391E+001
  0
LINE
  8
105
  6
HIDDEN
 62
1
 10
1.5030573E+002
 20
9.7692391E+001
 11
1.6330573E+002
 21
9.7692391E+001
  0
LINE
  8
105
  6
HIDDEN
 62
1
 10
1.6330573E+002
 20
9.7692391E+001
 11
1.6474911E+002
 21
1.0019239E+002
  0
LINE
  8
105
  6
HIDDEN
 62
1
 10
1.6474911E+002
 20
1.0019239E+002
 11
1.6330573E+002
 21
1.0269239E+002
  0
LINE
  8
105
  6
HIDDEN
 62
1
 10
1.6330573E+002
 20
1.0269239E+002
 11
1.5030573E+002
 21
1.0269239E+002
  0
LINE
  8
105
  6
HIDDEN
 62
1
 10
1.5030573E+002
 20
1.0319239E+002
 11
1.6030573E+002
 21
1.0319239E+002
  0
LINE
  8
105
  6
HIDDEN
 62
1
 10
1.6030573E+002
 20
1.0319239E+002
 11
1.6030573E+002
 21
9.7192391E+001
  0
LINE
  8
105
  6
HIDDEN
 62
1
 10
1.6030573E+002
 20
9.7192391E+001
 11
1.5030573E+002
 21
9.7192391E+001
  0
LINE
  8
105
  6
HIDDEN
 62
1
 10
1.6330573E+002
 20
9.7692391E+001
 11
1.6330573E+002
 21
1.0269239E+002
  0
LINE
  8
105
  6
HIDDEN
 62
1
 10
1.4830573E+002
 20
9.5192391E+001
 11
1.5030573E+002
 21
9.5192391E+001
  0
LINE
  8
105
  6
HIDDEN
 62
1
 10
1.5030573E+002
 20
9.5192391E+001
 11
1.5030573E+002
 21
8.7192391E+001
  0
LINE
  8
105
  6
HIDDEN
 62
1
 10
1.5030573E+002
 20
8.7192391E+001
 11
1.4830573E+002
 21
8.7192391E+001
  0
LINE
  8
105
  6
HIDDEN
 62
1
 10
1.5030573E+002
 20
8.8692391E+001
 11
1.6330573E+002
 21
8.8692391E+001
  0
LINE
  8
105
  6
HIDDEN
 62
1
 10
1.6330573E+002
 20
8.8692391E+001
 11
1.6474911E+002
 21
9.1192391E+001
  0
LINE
  8
105
  6
HIDDEN
 62
1
 10
1.6474911E+002
 20
9.1192391E+001
 11
1.6330573E+002
 21
9.3692391E+001
  0
LINE
  8
105
  6
HIDDEN
 62
1
 10
1.6330573E+002
 20
9.3692391E+001
 11
1.5030573E+002
 21
9.3692391E+001
  0
LINE
  8
105
  6
HIDDEN
 62
1
 10
1.5030573E+002
 20
9.4192391E+001
 11
1.6030573E+002
 21
9.4192391E+001
  0
LINE
  8
105
  6
HIDDEN
 62
1
 10
1.6030573E+002
 20
9.4192391E+001
 11
1.6030573E+002
 21
8.8192391E+001
  0
LINE
  8
105
  6
HIDDEN
 62
1
 10
1.6030573E+002
 20
8.8192391E+001
 11
1.5030573E+002
 21
8.8192391E+001
  0
LINE
  8
105
  6
HIDDEN
 62
1
 10
1.6330573E+002
 20
8.8692391E+001
 11
1.6330573E+002
 21
9.3692391E+001
  0
LINE
  8
104
  6
CONTINUOUS
 62
40
 10
1.0408483E+002
 20
2.9295494E+001
 11
1.2409039E+002
 21
2.8596886E+001
  0
ARC
  8
104
  6
CONTINUOUS
 62
40
 10
1.1430572E+002
 20
3.5192388E+001
 40
1.1800012E+001
 50
3.2601746E+002
 51
3.8998249E+002
  0
LINE
  8
104
  6
CONTINUOUS
 62
40
 10
1.2452664E+002
 20
4.1089272E+001
 11
1.0452108E+002
 21
4.178788E+001
  0
ARC
  8
104
  6
CONTINUOUS
 62
40
 10
1.1430561E+002
 20
3.5192383E+001
 40
1.1799899E+001
 50
1.4601712E+002
 51
2.0998284E+002
  0
LINE
  8
104
  6
CONTINUOUS
 62
40
 10
1.049611E+002
 20
3.0409355E+001
 11
1.2329373E+002
 21
2.9769158E+001
  0
ARC
  8
104
  6
CONTINUOUS
 62
40
 10
1.1430573E+002
 20
3.5192394E+001
 40
1.0497403E+001
 50
3.2889377E+002
 51
3.8710619E+002
  0
LINE
  8
104
  6
CONTINUOUS
 62
40
 10
1.2365014E+002
 20
3.9975441E+001
 11
1.0531752E+002
 21
4.0615639E+001
  0
ARC
  8
104
  6
CONTINUOUS
 62
40
 10
1.1430573E+002
 20
3.5192389E+001
 40
1.04976E+001
 50
1.4889433E+002
 51
2.0710555E+002
  0
LINE
  8
99
  6
CONTINUOUS
 62
1
 10
2.8987135E+002
 20
1.0030729E+002
 11
2.8987135E+002
 21
8.2192406E+001
  0
LINE
  8
99
  6
CONTINUOUS
 62
1
 10
2.9551972E+002
 20
8.2192406E+001
 11
2.9551972E+002
 21
1.0369239E+002
  0
LINE
  8
99
  6
CONTINUOUS
 62
1
 10
2.3787135E+002
 20
1.0019241E+002
 11
2.3787135E+002
 21
8.2192406E+001
  0
LINE
  8
99
  6
CONTINUOUS
 62
1
 10
2.4346684E+002
 20
8.2192406E+001
 11
2.4346684E+002
 21
1.0206973E+002
  0
LINE
  8
99
  6
CONTINUOUS
 62
1
 10
2.6214591E+002
 20
1.0206973E+002
 11
2.6214591E+002
 21
8.2192406E+001
  0
LINE
  8
99
  6
CONTINUOUS
 62
1
 10
2.6773991E+002
 20
8.2192406E+001
 11
2.6773991E+002
 21
1.0019239E+002
  0
LINE
  8
99
  6
CONTINUOUS
 62
1
 10
1.8937133E+002
 20
1.0022451E+002
 11
1.8937133E+002
 21
8.2167382E+001
  0
LINE
  8
99
  6
CONTINUOUS
 62
1
 10
1.949672E+002
 20
8.6963936E+001
 11
1.9497102E+002
 21
8.2171836E+001
  0
LINE
  8
99
  6
CONTINUOUS
 62
1
 10
1.9497181E+002
 20
7.7192406E+001
 11
1.9496795E+002
 21
7.469239E+001
  0
LINE
  8
99
  6
CONTINUOUS
 62
1
 10
2.1364649E+002
 20
7.4692391E+001
 11
2.1364649E+002
 21
7.7192406E+001
  0
LINE
  8
99
  6
CONTINUOUS
 62
1
 10
2.1364649E+002
 20
8.2186699E+001
 11
2.1364649E+002
 21
1.0369239E+002
  0
LINE
  8
99
  6
CONTINUOUS
 62
1
 10
2.192407E+002
 20
1.0044387E+002
 11
2.1925523E+002
 21
8.2191169E+001
  0
LINE
  8
99
  6
CONTINUOUS
 62
1
 10
1.7626647E+002
 20
7.5692391E+001
 11
1.4830573E+002
 21
7.5692391E+001
  0
LINE
  8
99
  6
CONTINUOUS
 62
1
 10
1.4830573E+002
 20
7.7692391E+001
 11
1.7743923E+002
 21
7.7692391E+001
  0
LINE
  8
104
  6
CONTINUOUS
 62
40
 10
1.935753E+002
 20
1.0469239E+002
 11
1.950774E+002
 21
1.0469239E+002
  0
LINE
  8
104
  6
CONTINUOUS
 62
40
 10
2.0653385E+002
 20
1.0469239E+002
 11
2.1603593E+002
 21
1.0469239E+002
  0
LINE
  8
104
  6
CONTINUOUS
 62
40
 10
2.4382633E+002
 20
1.0469239E+002
 11
2.470774E+002
 21
1.0469239E+002
  0
LINE
  8
104
  6
CONTINUOUS
 62
40
 10
2.5853385E+002
 20
1.0469239E+002
 11
2.6178489E+002
 21
1.0469239E+002
  0
LINE
  8
104
  6
CONTINUOUS
 62
40
 10
2.9357533E+002
 20
1.0469239E+002
 11
2.990774E+002
 21
1.0469239E+002
  0
LINE
  8
104
  6
CONTINUOUS
 62
40
 10
3.1063203E+002
 20
1.0469239E+002
 11
3.1580561E+002
 21
1.0469239E+002
  0
LINE
  8
104
  6
CONTINUOUS
 62
40
 10
3.1580561E+002
 20
8.1192406E+001
 11
2.8880561E+002
 21
8.1192406E+001
  0
LINE
  8
104
  6
CONTINUOUS
 62
40
 10
2.2080561E+002
 20
8.1192406E+001
 11
1.8451974E+002
 21
8.1163521E+001
  0
LINE
  8
104
  6
CONTINUOUS
 62
40
 10
1.9197676E+002
 20
7.7192406E+001
 11
2.1590666E+002
 21
7.7192406E+001
  0
LINE
  8
104
  6
CONTINUOUS
 62
40
 10
2.937046E+002
 20
7.7192406E+001
 11
3.1580561E+002
 21
7.7192406E+001
  0
ARC
  8
104
  6
CONTINUOUS
 62
40
 10
2.0080561E+002
 20
1.0219239E+002
 40
6.25
 50
0.0
 51
1.8E+002
  0
LINE
  8
104
  6
CONTINUOUS
 62
40
 10
1.9455561E+002
 20
1.0219239E+002
 11
1.9455561E+002
 21
9.0192391E+001
  0
ARC
  8
104
  6
CONTINUOUS
 62
40
 10
2.0080561E+002
 20
9.0192391E+001
 40
6.25
 50
1.8E+002
 51
3.6E+002
  0
LINE
  8
104
  6
CONTINUOUS
 62
40
 10
2.0705561E+002
 20
9.0192391E+001
 11
2.0705561E+002
 21
1.0219239E+002
  0
ARC
  8
104
  6
CONTINUOUS
 62
40
 10
2.0080561E+002
 20
1.0219239E+002
 40
3.25
 50
0.0
 51
1.8E+002
  0
LINE
  8
104
  6
CONTINUOUS
 62
40
 10
1.9755561E+002
 20
1.0219239E+002
 11
1.9755561E+002
 21
9.0192391E+001
  0
ARC
  8
104
  6
CONTINUOUS
 62
40
 10
2.0080561E+002
 20
9.0192391E+001
 40
3.25
 50
1.8E+002
 51
3.6E+002
  0
LINE
  8
104
  6
CONTINUOUS
 62
40
 10
2.0405561E+002
 20
9.0192391E+001
 11
2.0405561E+002
 21
1.0219239E+002
  0
ARC
  8
104
  6
CONTINUOUS
 62
40
 10
2.5280561E+002
 20
1.0219239E+002
 40
3.25
 50
0.0
 51
1.8E+002
  0
LINE
  8
104
  6
CONTINUOUS
 62
40
 10
2.4955561E+002
 20
1.0219239E+002
 11
2.4955561E+002
 21
9.0192391E+001
  0
ARC
  8
104
  6
CONTINUOUS
 62
40
 10
2.5280561E+002
 20
9.0192391E+001
 40
3.25
 50
1.8E+002
 51
3.6E+002
  0
LINE
  8
104
  6
CONTINUOUS
 62
40
 10
2.5605561E+002
 20
9.0192391E+001
 11
2.5605561E+002
 21
1.0219239E+002
  0
ARC
  8
104
  6
CONTINUOUS
 62
40
 10
2.5280561E+002
 20
1.0219239E+002
 40
6.25
 50
0.0
 51
1.8E+002
  0
LINE
  8
104
  6
CONTINUOUS
 62
40
 10
2.4655561E+002
 20
1.0219239E+002
 11
2.4655561E+002
 21
9.0192391E+001
  0
ARC
  8
104
  6
CONTINUOUS
 62
40
 10
2.5280561E+002
 20
9.0192391E+001
 40
6.25
 50
1.8E+002
 51
3.6E+002
  0
LINE
  8
104
  6
CONTINUOUS
 62
40
 10
2.5905561E+002
 20
9.0192391E+001
 11
2.5905561E+002
 21
1.0219239E+002
  0
ARC
  8
104
  6
CONTINUOUS
 62
40
 10
3.0480561E+002
 20
1.0219239E+002
 40
6.25
 50
0.0
 51
1.8E+002
  0
LINE
  8
104
  6
CONTINUOUS
 62
40
 10
2.9855561E+002
 20
1.0219239E+002
 11
2.9855561E+002
 21
9.0192391E+001
  0
ARC
  8
104
  6
CONTINUOUS
 62
40
 10
3.0480561E+002
 20
9.0192391E+001
 40
6.25
 50
1.8E+002
 51
3.6E+002
  0
LINE
  8
104
  6
CONTINUOUS
 62
40
 10
3.1105561E+002
 20
9.0192391E+001
 11
3.1105561E+002
 21
1.0219239E+002
  0
ARC
  8
104
  6
CONTINUOUS
 62
40
 10
3.0480561E+002
 20
1.0219239E+002
 40
3.25
 50
0.0
 51
1.8E+002
  0
LINE
  8
104
  6
CONTINUOUS
 62
40
 10
3.0155561E+002
 20
1.0219239E+002
 11
3.0155561E+002
 21
9.0192391E+001
  0
ARC
  8
104
  6
CONTINUOUS
 62
40
 10
3.0480561E+002
 20
9.0192391E+001
 40
3.25
 50
1.8E+002
 51
3.6E+002
  0
LINE
  8
104
  6
CONTINUOUS
 62
40
 10
3.0805561E+002
 20
9.0192391E+001
 11
3.0805561E+002
 21
1.0219239E+002
  0
LINE
  8
106
  6
CENTERLINE
 62
1
 10
1.1499281E+002
 20
5.4867821E+001
 11
1.1360839E+002
 21
1.5223488E+001
  0
LINE
  8
106
  6
CENTERLINE
 62
1
 10
9.1430826E+001
 20
3.5991204E+001
 11
1.3668252E+002
 21
3.4410973E+001
  0
ARC
  8
104
  6
CONTINUOUS
 62
40
 10
1.1730561E+002
 20
3.5192391E+001
 40
1.75E+001
 50
2.7E+002
 51
4.5E+002
  0
LINE
  8
104
  6
CONTINUOUS
 62
40
 10
1.1730561E+002
 20
5.2692391E+001
 11
1.1130561E+002
 21
5.2692391E+001
  0
LINE
  8
106
  6
CENTERLINE
 62
1
 10
1.4652488E+002
 20
1.0019239E+002
 11
1.6887544E+002
 21
1.0019239E+002
  0
ARC
  8
104
  6
CONTINUOUS
 62
40
 10
1.1728287E+002
 20
3.5189491E+001
 40
1.7497115E+001
 50
2.7007448E+002
 51
2.8494244E+002
  0
LINE
  8
104
  6
CONTINUOUS
 62
40
 10
1.1730561E+002
 20
1.7692391E+001
 11
1.1130561E+002
 21
1.7692391E+001
  0
ARC
  8
104
  6
CONTINUOUS
 62
40
 10
1.1130561E+002
 20
3.5192383E+001
 40
1.7499993E+001
 50
1.7999998E+002
 51
2.7E+002
  0
ARC
  8
104
  6
CONTINUOUS
 62
40
 10
1.1130561E+002
 20
3.5192387E+001
 40
1.7499988E+001
 50
8.9999988E+001
 51
1.7999999E+002
  0
LINE
  8
104
  6
CONTINUOUS
 62
40
 10
1.1130561E+002
 20
5.2692375E+001
 11
1.4258297E+002
 21
5.4430016E+001
  0
ARC
  8
104
  6
CONTINUOUS
 62
40
 10
1.4230562E+002
 20
5.9422306E+001
 40
4.9999883
 50
2.731798E+002
 51
3.6000022E+002
  0
LINE
  8
104
  6
CONTINUOUS
 62
40
 10
1.4730561E+002
 20
5.9422325E+001
 11
1.4730561E+002
 21
6.3192391E+001
  0
LINE
  8
104
  6
CONTINUOUS
 62
40
 10
1.4730561E+002
 20
6.3192391E+001
 11
1.4830573E+002
 21
6.3192391E+001
  0
LINE
  8
104
  6
CONTINUOUS
 62
40
 10
1.4830573E+002
 20
6.3192391E+001
 11
1.4830573E+002
 21
6.9062264E+001
  0
LINE
  8
104
  6
CONTINUOUS
 62
40
 10
1.4830573E+002
 20
6.9062264E+001
 11
1.4830573E+002
 21
7.3922921E+001
  0
LINE
  8
104
  6
CONTINUOUS
 62
40
 10
1.4830573E+002
 20
7.3922921E+001
 11
1.4830573E+002
 21
1.0592451E+002
  0
ARC
  8
104
  6
CONTINUOUS
 62
40
 10
1.4930557E+002
 20
1.0419246E+002
 40
1.999917
 50
8.9998829E+001
 51
1.1999599E+002
  0
LINE
  8
104
  6
CONTINUOUS
 62
40
 10
1.4930561E+002
 20
1.0619238E+002
 11
1.4930561E+002
 21
1.0619239E+002
  0
LINE
  8
104
  6
CONTINUOUS
 62
40
 10
1.4930561E+002
 20
1.0619239E+002
 11
1.7355561E+002
 21
1.0619239E+002
  0
ARC
  8
104
  6
CONTINUOUS
 62
40
 10
1.7355561E+002
 20
1.0419238E+002
 40
2.0000107
 50
3.061729E-004
 51
8.9999923E+001
  0
LINE
  8
104
  6
CONTINUOUS
 62
40
 10
1.7555562E+002
 20
1.0419239E+002
 11
1.7555562E+002
 21
1.0319239E+002
  0
ARC
  8
104
  6
CONTINUOUS
 62
40
 10
1.775556E+002
 20
1.0319239E+002
 40
1.9999811
 50
1.8000012E+002
 51
2.7000031E+002
  0
LINE
  8
104
  6
CONTINUOUS
 62
40
 10
1.7755561E+002
 20
1.0119241E+002
 11
1.8880561E+002
 21
1.0119241E+002
  0
ARC
  8
104
  6
CONTINUOUS
 62
40
 10
1.8880561E+002
 20
1.061924E+002
 40
4.9999869
 50
2.7000002E+002
 51
3.6000006E+002
  0
LINE
  8
104
  6
CONTINUOUS
 62
40
 10
1.938056E+002
 20
1.0619241E+002
 11
1.938056E+002
 21
1.0919239E+002
  0
ARC
  8
104
  6
CONTINUOUS
 62
40
 10
1.9580561E+002
 20
1.0919239E+002
 40
2.000015
 50
9.0E+001
 51
1.8E+002
  0
LINE
  8
104
  6
CONTINUOUS
 62
40
 10
1.9580561E+002
 20
1.1119241E+002
 11
2.1380561E+002
 21
1.1119241E+002
  0
ARC
  8
104
  6
CONTINUOUS
 62
40
 10
2.138056E+002
 20
1.0919239E+002
 40
2.0000166
 50
4.65924E-005
 51
8.9999753E+001
  0
LINE
  8
104
  6
CONTINUOUS
 62
40
 10
2.1580562E+002
 20
1.0919239E+002
 11
2.1580562E+002
 21
1.0619239E+002
  0
ARC
  8
104
  6
CONTINUOUS
 62
40
 10
2.2080561E+002
 20
1.0619241E+002
 40
4.9999928
 50
1.8000018E+002
 51
2.7000033E+002
  0
LINE
  8
104
  6
CONTINUOUS
 62
40
 10
2.2080564E+002
 20
1.0119241E+002
 11
2.3891886E+002
 21
1.0119241E+002
  0
ARC
  8
104
  6
CONTINUOUS
 62
40
 10
2.3891889E+002
 20
1.061924E+002
 40
4.9999867
 50
2.6999972E+002
 51
3.2999998E+002
  0
LINE
  8
104
  6
CONTINUOUS
 62
40
 10
2.43249E+002
 20
1.0369241E+002
 11
2.4700178E+002
 21
1.1019239E+002
  0
ARC
  8
104
  6
CONTINUOUS
 62
40
 10
2.4873382E+002
 20
1.0919237E+002
 40
2.0000033
 50
9.0000546E+001
 51
1.4999945E+002
  0
LINE
  8
104
  6
CONTINUOUS
 62
40
 10
2.487338E+002
 20
1.1119238E+002
 11
2.5687742E+002
 21
1.1119238E+002
  0
ARC
  8
104
  6
CONTINUOUS
 62
40
 10
2.5687742E+002
 20
1.0919237E+002
 40
2.0000027
 50
3.0000044E+001
 51
9.0000076E+001
  0
LINE
  8
104
  6
CONTINUOUS
 62
40
 10
2.5860948E+002
 20
1.1019238E+002
 11
2.6236225E+002
 21
1.0369239E+002
  0
ARC
  8
104
  6
CONTINUOUS
 62
40
 10
2.6669238E+002
 20
1.0619238E+002
 40
4.9999997
 50
2.0999989E+002
 51
2.6999973E+002
  0
LINE
  8
104
  6
CONTINUOUS
 62
40
 10
2.6669236E+002
 20
1.0119238E+002
 11
2.8880561E+002
 21
1.0119238E+002
  0
ARC
  8
104
  6
CONTINUOUS
 62
40
 10
2.8880562E+002
 20
1.0619237E+002
 40
4.9999915
 50
2.699999E+002
 51
3.6000019E+002
  0
LINE
  8
104
  6
CONTINUOUS
 62
40
 10
2.9380561E+002
 20
1.0619239E+002
 11
2.9380561E+002
 21
1.0919239E+002
  0
ARC
  8
104
  6
CONTINUOUS
 62
40
 10
2.9580562E+002
 20
1.091924E+002
 40
2.0000029
 50
9.0000083E+001
 51
1.8000035E+002
  0
LINE
  8
104
  6
CONTINUOUS
 62
40
 10
2.9580561E+002
 20
1.1119241E+002
 11
3.1380561E+002
 21
1.1119241E+002
  0
ARC
  8
104
  6
CONTINUOUS
 62
40
 10
3.1380561E+002
 20
1.0919239E+002
 40
2.0000181
 50
8.89602E-005
 51
8.9999911E+001
  0
LINE
  8
104
  6
CONTINUOUS
 62
40
 10
3.1580563E+002
 20
1.0919239E+002
 11
3.1580563E+002
 21
7.3692391E+001
  0
LINE
  8
104
  6
CONTINUOUS
 62
40
 10
3.1580563E+002
 20
7.3692391E+001
 11
2.9380564E+002
 21
7.3692391E+001
  0
LINE
  8
104
  6
CONTINUOUS
 62
40
 10
2.9380564E+002
 20
7.3692391E+001
 11
2.9380564E+002
 21
7.6192391E+001
  0
ARC
  8
104
  6
CONTINUOUS
 62
40
 10
2.8880563E+002
 20
7.6192388E+001
 40
5.0000109
 50
3.35316E-005
 51
9.0000219E+001
  0
LINE
  8
104
  6
CONTINUOUS
 62
40
 10
2.8880561E+002
 20
8.1192399E+001
 11
2.2080561E+002
 21
8.1192399E+001
  0
ARC
  8
104
  6
CONTINUOUS
 62
40
 10
2.2080561E+002
 20
7.6192409E+001
 40
4.9999897
 50
8.9999973E+001
 51
1.8000004E+002
  0
LINE
  8
104
  6
CONTINUOUS
 62
40
 10
2.1580562E+002
 20
7.6192406E+001
 11
2.1580562E+002
 21
7.3692391E+001
  0
LINE
  8
104
  6
CONTINUOUS
 62
40
 10
2.1580562E+002
 20
7.3692391E+001
 11
1.9337394E+002
 21
7.3692391E+001
  0
ARC
  8
104
  6
CONTINUOUS
 62
40
 10
1.8452819E+002
 20
7.2190177E+001
 40
8.9723956
 50
9.6382018
 51
9.4826239E+001
  0
ARC
  8
104
  6
CONTINUOUS
 62
40
 10
1.845031E+002
 20
7.2604611E+001
 40
8.557326
 50
9.4892285E+001
 51
1.1444282E+002
  0
ARC
  8
104
  6
CONTINUOUS
 62
40
 10
1.8473387E+002
 20
7.2108697E+001
 40
9.1042845
 50
1.1447358E+002
 51
1.3323355E+002
  0
ARC
  8
104
  6
CONTINUOUS
 62
40
 10
1.8517661E+002
 20
7.1633629E+001
 40
9.7536663
 50
1.3321683E+002
 51
1.5113448E+002
  0
ARC
  8
104
  6
CONTINUOUS
 62
40
 10
1.8559885E+002
 20
7.1391043E+001
 40
1.0240556E+001
 50
1.5108631E+002
 51
1.6843097E+002
  0
LINE
  8
104
  6
CONTINUOUS
 62
40
 10
1.7556634E+002
 20
7.3444771E+001
 11
1.7555561E+002
 21
6.9062264E+001
  0
LINE
  8
104
  6
CONTINUOUS
 62
40
 10
1.7555561E+002
 20
6.9062264E+001
 11
1.7555561E+002
 21
5.5192391E+001
  0
LINE
  8
104
  6
CONTINUOUS
 62
40
 10
1.7555561E+002
 20
5.5192391E+001
 11
1.6594924E+002
 21
3.2405174E+001
  0
ARC
  8
104
  6
CONTINUOUS
 62
40
 10
1.6042047E+002
 20
3.4735926E+001
 40
5.9999762
 50
2.8486988E+002
 51
3.3714128E+002
  0
LINE
  8
104
  6
CONTINUOUS
 62
40
 10
1.6196021E+002
 20
2.8936882E+001
 11
1.2179447E+002
 21
1.8284035E+001
  0
LINE
  8
105
  6
HIDDEN
 62
1
 10
1.5030573E+002
 20
8.8192391E+001
 11
1.3630573E+002
 21
8.8192391E+001
  0
LINE
  8
104
  6
CONTINUOUS
 62
40
 10
1.4830573E+002
 20
9.7192391E+001
 11
1.3630573E+002
 21
9.7192391E+001
  0
LINE
  8
104
  6
CONTINUOUS
 62
40
 10
1.3630573E+002
 20
9.7192391E+001
 11
1.3630573E+002
 21
8.5192391E+001
  0
LINE
  8
104
  6
CONTINUOUS
 62
40
 10
1.4830573E+002
 20
8.5192391E+001
 11
1.3630573E+002
 21
8.5192391E+001
  0
LINE
  8
105
  6
HIDDEN
 62
1
 10
1.5030573E+002
 20
9.4192391E+001
 11
1.3630573E+002
 21
9.4192391E+001
  0
LINE
  8
105
  6
HIDDEN
 62
1
 10
1.5030573E+002
 20
9.3692391E+001
 11
1.3630573E+002
 21
9.3692391E+001
  0
LINE
  8
105
  6
HIDDEN
 62
1
 10
1.5030573E+002
 20
8.8692391E+001
 11
1.3630573E+002
 21
8.8692391E+001
  0
LINE
  8
105
  6
HIDDEN
 62
1
 10
2.2130561E+002
 20
9.3336739E+001
 11
2.2130561E+002
 21
8.5695489E+001
  0
LINE
  8
105
  6
HIDDEN
 62
1
 10
2.2730561E+002
 20
9.3336739E+001
 11
2.2730561E+002
 21
8.5695489E+001
  0
LINE
  8
105
  6
HIDDEN
 62
1
 10
2.2730561E+002
 20
8.5695489E+001
 11
2.2130561E+002
 21
8.5695489E+001
  0
LINE
  8
105
  6
HIDDEN
 62
1
 10
2.2210562E+002
 20
9.362542E+001
 11
2.2210562E+002
 21
8.5695489E+001
  0
LINE
  8
105
  6
HIDDEN
 62
1
 10
2.2650561E+002
 20
9.362542E+001
 11
2.2650561E+002
 21
8.5695489E+001
  0
LINE
  8
106
  6
CENTERLINE
 62
1
 10
2.2430561E+002
 20
1.2119402E+002
 11
2.2430561E+002
 21
1.0115205E+002
  0
LINE
  8
99
  6
CONTINUOUS
 62
1
 10
2.2210562E+002
 20
1.0115205E+002
 11
2.2210562E+002
 21
1.1369549E+002
  0
LINE
  8
99
  6
CONTINUOUS
 62
1
 10
2.2210562E+002
 20
1.1369549E+002
 11
2.2130561E+002
 21
1.1456152E+002
  0
LINE
  8
99
  6
CONTINUOUS
 62
1
 10
2.2650561E+002
 20
1.0115205E+002
 11
2.2650561E+002
 21
1.1369549E+002
  0
LINE
  8
99
  6
CONTINUOUS
 62
1
 10
2.2650561E+002
 20
1.1369549E+002
 11
2.2730561E+002
 21
1.1456152E+002
  0
LINE
  8
104
  6
CONTINUOUS
 62
40
 10
2.2130561E+002
 20
1.1569549E+002
 11
2.2130561E+002
 21
1.0115205E+002
  0
LINE
  8
104
  6
CONTINUOUS
 62
40
 10
2.2730561E+002
 20
1.0115205E+002
 11
2.2730561E+002
 21
1.1569549E+002
  0
LINE
  8
104
  6
CONTINUOUS
 62
40
 10
2.2130561E+002
 20
1.1369549E+002
 11
2.2730561E+002
 21
1.1369549E+002
  0
LINE
  8
104
  6
CONTINUOUS
 62
40
 10
2.1878062E+002
 20
1.1569549E+002
 11
2.2983064E+002
 21
1.1569549E+002
  0
LINE
  8
104
  6
CONTINUOUS
 62
40
 10
2.2983064E+002
 20
1.1926006E+002
 11
2.2908186E+002
 21
1.1969238E+002
  0
LINE
  8
104
  6
CONTINUOUS
 62
40
 10
2.2908186E+002
 20
1.1969238E+002
 11
2.195294E+002
 21
1.1969238E+002
  0
LINE
  8
104
  6
CONTINUOUS
 62
40
 10
2.195294E+002
 20
1.1969238E+002
 11
2.1878062E+002
 21
1.1926006E+002
  0
LINE
  8
104
  6
CONTINUOUS
 62
40
 10
2.2730403E+002
 20
1.1569549E+002
 11
2.2730403E+002
 21
1.1913354E+002
  0
ARC
  8
104
  6
CONTINUOUS
 62
40
 10
2.1989495E+002
 20
1.1777642E+002
 40
1.8555129
 50
1.0657282E+002
 51
1.2690932E+002
  0
ARC
  8
104
  6
CONTINUOUS
 62
40
 10
2.199271E+002
 20
1.1766214E+002
 40
1.9742207
 50
8.7007559E+001
 51
1.0652127E+002
  0
ARC
  8
104
  6
CONTINUOUS
 62
40
 10
2.1991901E+002
 20
1.1750137E+002
 40
2.1351925
 50
6.849565E+001
 51
8.7015883E+001
  0
ARC
  8
104
  6
CONTINUOUS
 62
40
 10
2.1987128E+002
 20
1.1737471E+002
 40
2.2705362
 50
5.0770465E+001
 51
6.8546619E+001
  0
ARC
  8
104
  6
CONTINUOUS
 62
40
 10
2.2430567E+002
 20
1.1141549E+002
 40
8.280001
 50
6.876952E+001
 51
1.1123107E+002
  0
ARC
  8
104
  6
CONTINUOUS
 62
40
 10
2.2873992E+002
 20
1.1737477E+002
 40
2.2704791
 50
1.114526E+002
 51
1.2922896E+002
  0
ARC
  8
104
  6
CONTINUOUS
 62
40
 10
2.2869221E+002
 20
1.1750138E+002
 40
2.1351864
 50
9.2983375E+001
 51
1.1150355E+002
  0
ARC
  8
104
  6
CONTINUOUS
 62
40
 10
2.2868412E+002
 20
1.176621E+002
 40
1.9742651
 50
7.3478374E+001
 51
9.29917E+001
  0
ARC
  8
104
  6
CONTINUOUS
 62
40
 10
2.2871627E+002
 20
1.1777636E+002
 40
1.8555858
 50
5.309098E+001
 51
7.3426855E+001
  0
LINE
  8
104
  6
CONTINUOUS
 62
40
 10
2.2983064E+002
 20
1.1926006E+002
 11
2.2983064E+002
 21
1.1569549E+002
  0
LINE
  8
104
  6
CONTINUOUS
 62
40
 10
2.1878062E+002
 20
1.1926006E+002
 11
2.1878062E+002
 21
1.1569549E+002
  0
LINE
  8
104
  6
CONTINUOUS
 62
40
 10
2.213072E+002
 20
1.1569549E+002
 11
2.213072E+002
 21
1.1913351E+002
  0
LINE
  8
105
  6
HIDDEN
 62
1
 10
2.7805561E+002
 20
8.1192376E+001
 11
2.7805561E+002
 21
9.3192376E+001
  0
LINE
  8
105
  6
HIDDEN
 62
1
 10
2.7805561E+002
 20
9.3192376E+001
 11
2.8455561E+002
 21
9.3192376E+001
  0
LINE
  8
105
  6
HIDDEN
 62
1
 10
2.8455561E+002
 20
9.3192376E+001
 11
2.8455561E+002
 21
8.1192376E+001
  0
LINE
  8
105
  6
HIDDEN
 62
1
 10
2.7805561E+002
 20
9.3192376E+001
 11
2.791056E+002
 21
9.362539E+001
  0
LINE
  8
105
  6
HIDDEN
 62
1
 10
2.791056E+002
 20
9.362539E+001
 11
2.8350562E+002
 21
9.362539E+001
  0
LINE
  8
105
  6
HIDDEN
 62
1
 10
2.8350562E+002
 20
9.362539E+001
 11
2.8455561E+002
 21
9.3192376E+001
  0
LINE
  8
105
  6
HIDDEN
 62
1
 10
2.8430561E+002
 20
9.3336709E+001
 11
2.8430561E+002
 21
1.0119238E+002
  0
LINE
  8
105
  6
HIDDEN
 62
1
 10
2.8350562E+002
 20
1.0119238E+002
 11
2.8350562E+002
 21
9.362539E+001
  0
LINE
  8
105
  6
HIDDEN
 62
1
 10
2.791056E+002
 20
1.0115202E+002
 11
2.791056E+002
 21
9.362539E+001
  0
LINE
  8
105
  6
HIDDEN
 62
1
 10
2.7830561E+002
 20
1.0119238E+002
 11
2.7830561E+002
 21
9.3336709E+001
  0
LINE
  8
105
  6
HIDDEN
 62
1
 10
2.7830561E+002
 20
9.3336709E+001
 11
2.7830561E+002
 21
8.5695458E+001
  0
LINE
  8
105
  6
HIDDEN
 62
1
 10
2.8430561E+002
 20
9.3336709E+001
 11
2.8430561E+002
 21
8.5695458E+001
  0
LINE
  8
105
  6
HIDDEN
 62
1
 10
2.8430561E+002
 20
8.5695458E+001
 11
2.7830561E+002
 21
8.5695458E+001
  0
LINE
  8
105
  6
HIDDEN
 62
1
 10
2.791056E+002
 20
9.362539E+001
 11
2.791056E+002
 21
8.5695458E+001
  0
LINE
  8
105
  6
HIDDEN
 62
1
 10
2.8350562E+002
 20
9.362539E+001
 11
2.8350562E+002
 21
8.5695458E+001
  0
LINE
  8
106
  6
CENTERLINE
 62
1
 10
2.8130561E+002
 20
1.2119399E+002
 11
2.8130561E+002
 21
1.0115202E+002
  0
LINE
  8
99
  6
CONTINUOUS
 62
1
 10
2.791056E+002
 20
1.0115202E+002
 11
2.791056E+002
 21
1.1369546E+002
  0
LINE
  8
99
  6
CONTINUOUS
 62
1
 10
2.791056E+002
 20
1.1369546E+002
 11
2.7830561E+002
 21
1.1456149E+002
  0
LINE
  8
99
  6
CONTINUOUS
 62
1
 10
2.8350562E+002
 20
1.0115202E+002
 11
2.8350562E+002
 21
1.1369546E+002
  0
LINE
  8
99
  6
CONTINUOUS
 62
1
 10
2.8350562E+002
 20
1.1369546E+002
 11
2.8430561E+002
 21
1.1456149E+002
  0
LINE
  8
104
  6
CONTINUOUS
 62
40
 10
2.7830561E+002
 20
1.1569546E+002
 11
2.7830561E+002
 21
1.0115202E+002
  0
LINE
  8
104
  6
CONTINUOUS
 62
40
 10
2.8430561E+002
 20
1.0115202E+002
 11
2.8430561E+002
 21
1.1569546E+002
  0
LINE
  8
104
  6
CONTINUOUS
 62
40
 10
2.7830561E+002
 20
1.1369546E+002
 11
2.8430561E+002
 21
1.1369546E+002
  0
LINE
  8
104
  6
CONTINUOUS
 62
40
 10
2.7578062E+002
 20
1.1569546E+002
 11
2.8683064E+002
 21
1.1569546E+002
  0
LINE
  8
104
  6
CONTINUOUS
 62
40
 10
2.8683064E+002
 20
1.1926003E+002
 11
2.8608186E+002
 21
1.1969234E+002
  0
LINE
  8
104
  6
CONTINUOUS
 62
40
 10
2.8608186E+002
 20
1.1969234E+002
 11
2.765294E+002
 21
1.1969234E+002
  0
LINE
  8
104
  6
CONTINUOUS
 62
40
 10
2.765294E+002
 20
1.1969234E+002
 11
2.7578062E+002
 21
1.1926003E+002
  0
LINE
  8
104
  6
CONTINUOUS
 62
40
 10
2.8430403E+002
 20
1.1569546E+002
 11
2.8430403E+002
 21
1.1913351E+002
  0
ARC
  8
104
  6
CONTINUOUS
 62
40
 10
2.7689496E+002
 20
1.1777637E+002
 40
1.855533
 50
1.0657288E+002
 51
1.2690927E+002
  0
ARC
  8
104
  6
CONTINUOUS
 62
40
 10
2.7692711E+002
 20
1.1766211E+002
 40
1.9742217
 50
8.7007598E+001
 51
1.0652134E+002
  0
ARC
  8
104
  6
CONTINUOUS
 62
40
 10
2.7691902E+002
 20
1.1750136E+002
 40
2.1351742
 50
6.8495549E+001
 51
8.7015916E+001
  0
ARC
  8
104
  6
CONTINUOUS
 62
40
 10
2.7687129E+002
 20
1.1737471E+002
 40
2.2705068
 50
5.0770176E+001
 51
6.854651E+001
  0
ARC
  8
104
  6
CONTINUOUS
 62
40
 10
2.8130567E+002
 20
1.1141546E+002
 40
8.2800014
 50
6.8769511E+001
 51
1.1123106E+002
  0
ARC
  8
104
  6
CONTINUOUS
 62
40
 10
2.8573992E+002
 20
1.1737474E+002
 40
2.2704741
 50
1.1145261E+002
 51
1.29229E+002
  0
ARC
  8
104
  6
CONTINUOUS
 62
40
 10
2.8569221E+002
 20
1.1750135E+002
 40
2.1351845
 50
9.2983373E+001
 51
1.1150356E+002
  0
ARC
  8
104
  6
CONTINUOUS
 62
40
 10
2.8568412E+002
 20
1.1766207E+002
 40
1.9742666
 50
7.347838E+001
 51
9.2991697E+001
  0
ARC
  8
104
  6
CONTINUOUS
 62
40
 10
2.8571627E+002
 20
1.1777632E+002
 40
1.8555899
 50
5.3091017E+001
 51
7.3426863E+001
  0
LINE
  8
104
  6
CONTINUOUS
 62
40
 10
2.8683064E+002
 20
1.1926003E+002
 11
2.8683064E+002
 21
1.1569546E+002
  0
LINE
  8
104
  6
CONTINUOUS
 62
40
 10
2.7578062E+002
 20
1.1926003E+002
 11
2.7578062E+002
 21
1.1569546E+002
  0
LINE
  8
104
  6
CONTINUOUS
 62
40
 10
2.783072E+002
 20
1.1569546E+002
 11
2.783072E+002
 21
1.1913348E+002
  0
LINE
  8
106
  6
CENTERLINE
 62
1
 10
3.5856121E+002
 20
9.4348292E+001
 11
3.7860321E+002
 21
9.4348292E+001
  0
LINE
  8
106
  6
CENTERLINE
 62
1
 10
3.7860321E+002
 20
9.4348292E+001
 11
3.8154937E+002
 21
9.4348292E+001
  0
LINE
  8
105
  6
HIDDEN
 62
1
 10
3.7860321E+002
 20
9.6848292E+001
 11
3.6605975E+002
 21
9.6848292E+001
  0
LINE
  8
105
  6
HIDDEN
 62
1
 10
3.6605975E+002
 20
9.6848292E+001
 11
3.6519372E+002
 21
9.7348292E+001
  0
LINE
  8
105
  6
HIDDEN
 62
1
 10
3.7860321E+002
 20
9.1848292E+001
 11
3.6605975E+002
 21
9.1848292E+001
  0
LINE
  8
105
  6
HIDDEN
 62
1
 10
3.6605975E+002
 20
9.1848292E+001
 11
3.6519372E+002
 21
9.1348292E+001
  0
LINE
  8
105
  6
HIDDEN
 62
1
 10
3.6405975E+002
 20
9.7348292E+001
 11
3.7860321E+002
 21
9.7348292E+001
  0
LINE
  8
105
  6
HIDDEN
 62
1
 10
3.7860321E+002
 20
9.1348292E+001
 11
3.6405975E+002
 21
9.1348292E+001
  0
LINE
  8
104
  6
CONTINUOUS
 62
40
 10
3.6882533E+002
 20
9.7348292E+001
 11
3.6405975E+002
 21
9.7348292E+001
  0
LINE
  8
104
  6
CONTINUOUS
 62
40
 10
3.6882533E+002
 20
9.1348292E+001
 11
3.6405975E+002
 21
9.1348292E+001
  0
LINE
  8
104
  6
CONTINUOUS
 62
40
 10
3.6605975E+002
 20
9.7348292E+001
 11
3.6605975E+002
 21
9.1348292E+001
  0
LINE
  8
104
  6
CONTINUOUS
 62
40
 10
3.6405975E+002
 20
9.9873286E+001
 11
3.6405975E+002
 21
8.8823267E+001
  0
LINE
  8
104
  6
CONTINUOUS
 62
40
 10
3.6049517E+002
 20
8.8823267E+001
 11
3.6006286E+002
 21
8.9572046E+001
  0
LINE
  8
104
  6
CONTINUOUS
 62
40
 10
3.6006286E+002
 20
8.9572046E+001
 11
3.6006286E+002
 21
9.9124506E+001
  0
LINE
  8
104
  6
CONTINUOUS
 62
40
 10
3.6006286E+002
 20
9.9124506E+001
 11
3.6049517E+002
 21
9.9873286E+001
  0
LINE
  8
104
  6
CONTINUOUS
 62
40
 10
3.6405975E+002
 20
9.1349879E+001
 11
3.606217E+002
 21
9.1349879E+001
  0
ARC
  8
104
  6
CONTINUOUS
 62
40
 10
3.6197882E+002
 20
9.8758958E+001
 40
1.8555125
 50
1.430907E+002
 51
1.634272E+002
  0
ARC
  8
104
  6
CONTINUOUS
 62
40
 10
3.620931E+002
 20
9.8726799E+001
 40
1.974225
 50
1.6347874E+002
 51
1.8299242E+002
  0
ARC
  8
104
  6
CONTINUOUS
 62
40
 10
3.6225387E+002
 20
9.8734893E+001
 40
2.1351987
 50
1.8298409E+002
 51
2.0150428E+002
  0
ARC
  8
104
  6
CONTINUOUS
 62
40
 10
3.6238053E+002
 20
9.8782625E+001
 40
2.2705401
 50
2.0145331E+002
 51
2.1922943E+002
  0
ARC
  8
104
  6
CONTINUOUS
 62
40
 10
3.6833975E+002
 20
9.4348236E+001
 40
8.2800008
 50
1.5876893E+002
 51
2.0123048E+002
  0
ARC
  8
104
  6
CONTINUOUS
 62
40
 10
3.6238048E+002
 20
8.9913971E+001
 40
2.2704963
 50
1.4077109E+002
 51
1.585474E+002
  0
ARC
  8
104
  6
CONTINUOUS
 62
40
 10
3.6225385E+002
 20
8.9961691E+001
 40
2.1351875
 50
1.5849644E+002
 51
1.7701664E+002
  0
ARC
  8
104
  6
CONTINUOUS
 62
40
 10
3.6209312E+002
 20
8.996978E+001
 40
1.9742523
 50
1.7700831E+002
 51
1.9652175E+002
  0
ARC
  8
104
  6
CONTINUOUS
 62
40
 10
3.6197886E+002
 20
8.9937628E+001
 40
1.855567
 50
1.9657328E+002
 51
2.1690932E+002
  0
LINE
  8
104
  6
CONTINUOUS
 62
40
 10
3.6049517E+002
 20
8.8823267E+001
 11
3.6405975E+002
 21
8.8823267E+001
  0
LINE
  8
104
  6
CONTINUOUS
 62
40
 10
3.6049517E+002
 20
9.9873286E+001
 11
3.6405975E+002
 21
9.9873286E+001
  0
LINE
  8
104
  6
CONTINUOUS
 62
40
 10
3.6405975E+002
 20
9.7346705E+001
 11
3.6062173E+002
 21
9.7346705E+001
  0
LINE
  8
105
  6
HIDDEN
 62
1
 10
4.5001174E+002
 20
9.5366839E+001
 11
4.3955989E+002
 21
9.5366839E+001
  0
LINE
  8
105
  6
HIDDEN
 62
1
 10
4.4986999E+002
 20
9.2661997E+001
 11
4.3941814E+002
 21
9.2661997E+001
  0
LINE
  8
105
  6
HIDDEN
 62
1
 10
4.5048245E+002
 20
1.0434829E+002
 11
4.5001174E+002
 21
9.5366839E+001
  0
LINE
  8
105
  6
HIDDEN
 62
1
 10
4.5001174E+002
 20
9.5366839E+001
 11
4.4986999E+002
 21
9.2661997E+001
  0
LINE
  8
105
  6
HIDDEN
 62
1
 10
4.4986999E+002
 20
9.2661997E+001
 11
4.5048244E+002
 21
8.4348292E+001
  0
LINE
  8
105
  6
HIDDEN
 62
1
 10
4.3898244E+002
 20
8.4348292E+001
 11
4.3945521E+002
 21
9.3369234E+001
  0
LINE
  8
105
  6
HIDDEN
 62
1
 10
4.3945521E+002
 20
9.3369234E+001
 11
4.3958471E+002
 21
9.5840304E+001
  0
LINE
  8
105
  6
HIDDEN
 62
1
 10
4.3958471E+002
 20
9.5840304E+001
 11
4.3881286E+002
 21
1.0434829E+002
  0
LINE
  8
106
  6
CENTERLINE
 62
1
 10
3.8873244E+002
 20
9.9177805E+001
 11
3.8873244E+002
 21
8.8348292E+001
  0
LINE
  8
106
  6
CENTERLINE
 62
1
 10
3.7973244E+002
 20
8.873939E+001
 11
3.7973244E+002
 21
9.9957209E+001
  0
CIRCLE
  8
104
  6
CONTINUOUS
 62
40
 10
3.8873244E+002
 20
9.4348292E+001
 40
4.0
  0
CIRCLE
  8
104
  6
CONTINUOUS
 62
40
 10
3.7973244E+002
 20
9.4348292E+001
 40
4.0
  0
LINE
  8
104
  6
CONTINUOUS
 62
40
 10
4.1673245E+002
 20
9.9348292E+001
 11
4.1673245E+002
 21
8.9348292E+001
  0
LINE
  8
106
  6
CENTERLINE
 62
1
 10
4.4473245E+002
 20
1.0742556E+002
 11
4.4473245E+002
 21
7.757065E+001
  0
LINE
  8
106
  6
CENTERLINE
 62
1
 10
3.8346426E+002
 20
9.4348292E+001
 11
3.8154937E+002
 21
9.4348292E+001
  0
LINE
  8
106
  6
CENTERLINE
 62
1
 10
3.8154937E+002
 20
9.4348292E+001
 11
3.927254E+002
 21
9.4348292E+001
  0
LINE
  8
106
  6
CENTERLINE
 62
1
 10
3.927254E+002
 20
9.4348292E+001
 11
3.9497174E+002
 21
9.4348292E+001
  0
LINE
  8
99
  6
CONTINUOUS
 62
1
 10
4.2506286E+002
 20
9.8348292E+001
 11
4.2506286E+002
 21
9.0348292E+001
  0
LINE
  8
104
  6
CONTINUOUS
 62
40
 10
4.0606286E+002
 20
8.9348292E+001
 11
4.0606286E+002
 21
8.6848292E+001
  0
LINE
  8
104
  6
CONTINUOUS
 62
40
 10
4.0606286E+002
 20
8.6848292E+001
 11
4.0406286E+002
 21
8.4848292E+001
  0
LINE
  8
104
  6
CONTINUOUS
 62
40
 10
4.0406286E+002
 20
8.4848292E+001
 11
4.0256286E+002
 21
8.4848292E+001
  0
LINE
  8
104
  6
CONTINUOUS
 62
40
 10
4.0256286E+002
 20
8.4848292E+001
 11
4.0256286E+002
 21
8.7348292E+001
  0
LINE
  8
104
  6
CONTINUOUS
 62
40
 10
4.0256286E+002
 20
8.7348292E+001
 11
3.9856286E+002
 21
8.7348292E+001
  0
LINE
  8
104
  6
CONTINUOUS
 62
40
 10
3.9856286E+002
 20
8.7348292E+001
 11
3.9856286E+002
 21
8.4848292E+001
  0
LINE
  8
104
  6
CONTINUOUS
 62
40
 10
3.9856286E+002
 20
8.4848292E+001
 11
3.7506286E+002
 21
8.4848292E+001
  0
LINE
  8
104
  6
CONTINUOUS
 62
40
 10
3.7506286E+002
 20
8.4848292E+001
 11
3.7506286E+002
 21
8.7348292E+001
  0
LINE
  8
104
  6
CONTINUOUS
 62
40
 10
3.7506286E+002
 20
8.7348292E+001
 11
3.7100793E+002
 21
8.7348292E+001
  0
ARC
  8
104
  6
CONTINUOUS
 62
40
 10
3.7100791E+002
 20
8.9348253E+001
 40
1.9999615
 50
1.8499915E+002
 51
2.700005E+002
  0
LINE
  8
104
  6
CONTINUOUS
 62
40
 10
3.6901556E+002
 20
8.9173975E+001
 11
3.6856286E+002
 21
9.4348292E+001
  0
LINE
  8
104
  6
CONTINUOUS
 62
40
 10
3.6856286E+002
 20
9.4348292E+001
 11
3.6901556E+002
 21
9.9522608E+001
  0
ARC
  8
104
  6
CONTINUOUS
 62
40
 10
3.7100793E+002
 20
9.9348311E+001
 40
1.9999808
 50
9.0000011E+001
 51
1.7500037E+002
  0
LINE
  8
104
  6
CONTINUOUS
 62
40
 10
3.7100793E+002
 20
1.0134829E+002
 11
3.7506286E+002
 21
1.0134829E+002
  0
LINE
  8
104
  6
CONTINUOUS
 62
40
 10
3.7506286E+002
 20
1.0134829E+002
 11
3.7506286E+002
 21
1.0384829E+002
  0
LINE
  8
104
  6
CONTINUOUS
 62
40
 10
3.7506286E+002
 20
1.0384829E+002
 11
3.9856286E+002
 21
1.0384829E+002
  0
LINE
  8
104
  6
CONTINUOUS
 62
40
 10
3.9856286E+002
 20
1.0384829E+002
 11
3.9856286E+002
 21
1.0134829E+002
  0
LINE
  8
104
  6
CONTINUOUS
 62
40
 10
3.9856286E+002
 20
1.0134829E+002
 11
4.0256286E+002
 21
1.0134829E+002
  0
LINE
  8
104
  6
CONTINUOUS
 62
40
 10
4.0256286E+002
 20
1.0134829E+002
 11
4.0256286E+002
 21
1.0384829E+002
  0
LINE
  8
104
  6
CONTINUOUS
 62
40
 10
4.0256286E+002
 20
1.0384829E+002
 11
4.0406286E+002
 21
1.0384829E+002
  0
LINE
  8
104
  6
CONTINUOUS
 62
40
 10
4.0406286E+002
 20
1.0384829E+002
 11
4.0606286E+002
 21
1.0184829E+002
  0
LINE
  8
104
  6
CONTINUOUS
 62
40
 10
4.0606286E+002
 20
1.0184829E+002
 11
4.0606286E+002
 21
9.9348292E+001
  0
LINE
  8
105
  6
HIDDEN
 62
1
 10
4.0606286E+002
 20
8.9348292E+001
 11
4.0606286E+002
 21
9.9348292E+001
  0
LINE
  8
104
  6
CONTINUOUS
 62
40
 10
4.0806286E+002
 20
8.9348292E+001
 11
4.0456286E+002
 21
8.9348292E+001
  0
LINE
  8
104
  6
CONTINUOUS
 62
40
 10
4.0456286E+002
 20
8.9348292E+001
 11
4.0206286E+002
 21
8.8348292E+001
  0
LINE
  8
104
  6
CONTINUOUS
 62
40
 10
4.0206286E+002
 20
8.8348292E+001
 11
3.7742047E+002
 21
8.8348292E+001
  0
ARC
  8
104
  6
CONTINUOUS
 62
40
 10
3.7742044E+002
 20
9.0348277E+001
 40
1.9999855
 50
1.8499978E+002
 51
2.7000073E+002
  0
LINE
  8
104
  6
CONTINUOUS
 62
40
 10
3.7542806E+002
 20
9.0173975E+001
 11
3.7506286E+002
 21
9.4348292E+001
  0
LINE
  8
104
  6
CONTINUOUS
 62
40
 10
3.7506286E+002
 20
9.4348292E+001
 11
3.7542806E+002
 21
9.8522608E+001
  0
ARC
  8
104
  6
CONTINUOUS
 62
40
 10
3.7742046E+002
 20
9.8348296E+001
 40
2.0000031
 50
8.9999756E+001
 51
1.7499999E+002
  0
LINE
  8
104
  6
CONTINUOUS
 62
40
 10
3.7742047E+002
 20
1.003483E+002
 11
3.9856286E+002
 21
1.003483E+002
  0
LINE
  8
104
  6
CONTINUOUS
 62
40
 10
3.9856286E+002
 20
1.003483E+002
 11
4.0206286E+002
 21
1.003483E+002
  0
LINE
  8
104
  6
CONTINUOUS
 62
40
 10
4.0206286E+002
 20
1.003483E+002
 11
4.0456286E+002
 21
9.9348292E+001
  0
LINE
  8
104
  6
CONTINUOUS
 62
40
 10
4.0456286E+002
 20
9.9348292E+001
 11
4.0806286E+002
 21
9.9348292E+001
  0
LINE
  8
104
  6
CONTINUOUS
 62
40
 10
4.0806286E+002
 20
9.9348292E+001
 11
4.2689617E+002
 21
9.9348292E+001
  0
LINE
  8
104
  6
CONTINUOUS
 62
40
 10
4.2689617E+002
 20
9.9348292E+001
 11
4.2733032E+002
 21
9.9348292E+001
  0
LINE
  8
104
  6
CONTINUOUS
 62
40
 10
4.2733032E+002
 20
9.9348292E+001
 11
4.4086212E+002
 21
9.9348292E+001
  0
LINE
  8
104
  6
CONTINUOUS
 62
40
 10
4.4086212E+002
 20
9.9348292E+001
 11
4.4301454E+002
 21
1.0014533E+002
  0
LINE
  8
104
  6
CONTINUOUS
 62
40
 10
4.4301454E+002
 20
1.0014533E+002
 11
4.438217E+002
 21
1.0122153E+002
  0
LINE
  8
104
  6
CONTINUOUS
 62
40
 10
4.0806286E+002
 20
8.9348292E+001
 11
4.2673245E+002
 21
8.9348292E+001
  0
LINE
  8
104
  6
CONTINUOUS
 62
40
 10
4.2673245E+002
 20
8.9348292E+001
 11
4.2732907E+002
 21
8.9348292E+001
  0
LINE
  8
104
  6
CONTINUOUS
 62
40
 10
4.2732907E+002
 20
8.9348292E+001
 11
4.4086212E+002
 21
8.9348292E+001
  0
LINE
  8
104
  6
CONTINUOUS
 62
40
 10
4.4086212E+002
 20
8.9348292E+001
 11
4.4207286E+002
 21
8.8576079E+001
  0
LINE
  8
104
  6
CONTINUOUS
 62
40
 10
4.4207286E+002
 20
8.8576079E+001
 11
4.4301454E+002
 21
8.7499872E+001
  0
ARC
  8
105
  6
HIDDEN
 62
1
 10
3.8092045E+002
 20
9.8348291E+001
 40
2.0000005
 50
8.9999668E+001
 51
1.7499986E+002
  0
LINE
  8
105
  6
HIDDEN
 62
1
 10
3.7892806E+002
 20
9.8522608E+001
 11
3.7856286E+002
 21
9.4348292E+001
  0
LINE
  8
105
  6
HIDDEN
 62
1
 10
3.7856286E+002
 20
9.4348292E+001
 11
3.7892806E+002
 21
9.0173975E+001
  0
ARC
  8
105
  6
HIDDEN
 62
1
 10
3.8092044E+002
 20
9.0348295E+001
 40
1.999984
 50
1.8500029E+002
 51
2.7000081E+002
  0
LINE
  8
104
  6
CONTINUOUS
 62
40
 10
4.3770989E+002
 20
8.4348292E+001
 11
4.5140661E+002
 21
8.4348292E+001
  0
LINE
  8
104
  6
CONTINUOUS
 62
40
 10
4.5140661E+002
 20
1.0434829E+002
 11
4.3770989E+002
 21
1.0434829E+002
  0
LINE
  8
104
  6
CONTINUOUS
 62
40
 10
4.5031289E+002
 20
1.0434829E+002
 11
4.5126184E+002
 21
1.0434829E+002
  0
LINE
  8
104
  6
CONTINUOUS
 62
40
 10
4.5126184E+002
 20
1.0434829E+002
 11
4.5860565E+002
 21
1.0434831E+002
  0
ARC
  8
104
  6
CONTINUOUS
 62
40
 10
4.5860564E+002
 20
1.013483E+002
 40
3.0000108
 50
5.0000308
 51
8.9999853E+001
  0
LINE
  8
104
  6
CONTINUOUS
 62
40
 10
4.6159423E+002
 20
1.0160977E+002
 11
4.6222955E+002
 21
9.4348292E+001
  0
LINE
  8
104
  6
CONTINUOUS
 62
40
 10
4.6222955E+002
 20
9.4348292E+001
 11
4.6159423E+002
 21
8.7086786E+001
  0
ARC
  8
104
  6
CONTINUOUS
 62
40
 10
4.5860567E+002
 20
8.7348272E+001
 40
2.9999771
 50
2.6999947E+002
 51
3.549996E+002
  0
LINE
  8
104
  6
CONTINUOUS
 62
40
 10
4.5860565E+002
 20
8.4348295E+001
 11
4.5126184E+002
 21
8.4348295E+001
  0
LINE
  8
104
  6
CONTINUOUS
 62
40
 10
4.3786389E+002
 20
8.4348292E+001
 11
4.3052008E+002
 21
8.4348292E+001
  0
ARC
  8
104
  6
CONTINUOUS
 62
40
 10
4.3052005E+002
 20
8.7348273E+001
 40
2.999981
 50
1.8500041E+002
 51
2.7000045E+002
  0
LINE
  8
104
  6
CONTINUOUS
 62
40
 10
4.2753149E+002
 20
8.7086786E+001
 11
4.2689617E+002
 21
8.9348292E+001
  0
LINE
  8
104
  6
CONTINUOUS
 62
40
 10
4.2689617E+002
 20
9.9348292E+001
 11
4.2753149E+002
 21
1.0160977E+002
  0
ARC
  8
104
  6
CONTINUOUS
 62
40
 10
4.3052008E+002
 20
1.013483E+002
 40
3.0000054
 50
9.0000053E+001
 51
1.7500006E+002
  0
LINE
  8
104
  6
CONTINUOUS
 62
40
 10
4.3052008E+002
 20
1.0434831E+002
 11
4.3881286E+002
 21
1.0434829E+002
  0
ENDSEC
  0
EOF
