  0
SECTION
  2
HEADER
  9
$ACADVER
  1
AC1009
999
I-DEAS 11 NX Not Encoded
  9
$EXTMIN
 10
0.0
 20
0.0
  9
$EXTMAX
 10
4.2E+002
 20
2.97E+002
  9
$TEXTSIZE
 40
1.25E-001
  9
$LTSCALE
 40
1.0
  9
$CLAYER
  8
2D_SICHTBARE_KANTEN
  9
$CECOLOR
 62
40
  9
$DIMASZ
 40
1.25E-001
  9
$DIMEXO
 40
6.25E-002
  9
$DIMDLI
 40
2.5E-001
  9
$DIMEXE
 40
1.25E-001
  9
$DIMTP
 40
5.0E-003
  9
$DIMTM
 40
-5.0E-003
  9
$DIMTXT
 40
3.0
  9
$DIMLIM
 70
0
  9
$DIMTIH
 70
1
  9
$DIMTOH
 70
1
  9
$DIMSE1
 70
0
  9
$DIMSE2
 70
0
  9
$DIMTAD
 70
0
  9
$DIMASO
 70
1
  9
$DIMALT
 70
0
  9
$DIMALTD
 70
0
  9
$DIMTOFL
 70
1
  9
$DIMTIX
 70
0
  9
$DIMSAH
 70
0
  9
$DIMTFAC
 40
1.0
  9
$DIMGAP
 40
6.25E-002
  9
$LUNITS
 70
2
  9
$LUPREC
 70
3
  9
$FILLETRAD
 40
2.0
  9
$AUNITS
 70
0
  9
$AUPREC
 70
1
  9
$CHAMFERA
 40
1.0E+001
  9
$CHAMFERB
 40
1.0E+001
  9
$ANGBASE
 50
0.0
  9
$ANGDIR
 70
0
  9
$PEXTMIN
 10
0.0
 20
0.0
 30
0.0
  9
$PEXTMAX
 10
4.2E+002
 20
2.97E+002
 30
0.0
  9
$PLIMMIN
 10
0.0
 20
0.0
  9
$PLIMMAX
 10
4.2E+002
 20
2.97E+002
  9
$PDMODE
 70
2
  9
$PDSIZE
 40
-1.0E-002
  9
$SPLINETYPE
 70
6
  9
$TILEMODE
 70
1
  0
ENDSEC
  0
SECTION
  2
TABLES
  0
TABLE
  2
VPORT
 70
2
  0
VPORT
  2
*Active
 70
0
 10
0.0
 20
0.0
 11
4.2E+002
 21
2.97E+002
 12
2.1E+002
 22
1.485E+002
 13
0.0
 23
0.0
 14
1.0
 24
1.0
 15
0.0
 25
0.0
 16
0.0
 26
0.0
 36
1.0
 17
0.0
 27
0.0
 37
0.0
 40
2.97E+002
 41
1.4141414
 42
5.0E+001
 43
0.0
 44
0.0
 50
0.0
 51
0.0
 71
0
 72
100
 73
1
 74
3
 75
0
 76
0
 77
0
 78
0
  0
ENDTAB
  0
TABLE
  2
LTYPE
 70
7
  0
LTYPE
  2
HIDDENNEW0
  3
_ 
 70
64
 72
65
 73
3
 40
4.5
 49
1.5
 49
-1.5
 49
1.5
  0
LTYPE
  2
HIDDENNEW1
  3
_ 
 70
64
 72
65
 73
3
 40
4.5
 49
1.5
 49
-1.5
 49
1.5
  0
LTYPE
  2
HIDDEN
  3
_ 
 70
64
 72
65
 73
3
 40
4.5
 49
1.5
 49
-1.5
 49
1.5
  0
LTYPE
  2
CENTERLINE
  3
_ 
 70
64
 72
65
 73
5
 40
3.0E+001
 49
1.2E+001
 49
-1.5
 49
3.0
 49
-1.5
 49
1.2E+001
  0
LTYPE
  2
PHANTOM
  3
_ 
 70
64
 72
65
 73
7
 40
2.95E+001
 49
9.5
 49
-1.5
 49
3.0
 49
-1.5
 49
3.0
 49
-1.5
 49
9.5
  0
LTYPE
  2
SHORT_DASH
  3
_ 
 70
64
 72
65
 73
3
 40
3.0
 49
7.5E-001
 49
-1.5
 49
7.5E-001
  0
LTYPE
  2
LONG_DASH
  3
_ 
 70
64
 72
65
 73
3
 40
9.0
 49
2.25
 49
-4.5
 49
2.25
  0
ENDTAB
  0
TABLE
  2
LAYER
 70
258
  0
LAYER
  2
MED-1
 70
0
 62
3
  6
HIDDENNEW0
  0
LAYER
  2
2
 70
0
 62
7
  6
CONTINUOUS
  0
LAYER
  2
3
 70
0
 62
7
  6
CONTINUOUS
  0
LAYER
  2
MED-4
 70
0
 62
2
  6
HIDDENNEW0
  0
LAYER
  2
5
 70
0
 62
7
  6
CONTINUOUS
  0
LAYER
  2
MED-6
 70
0
 62
6
  6
HIDDENNEW0
  0
LAYER
  2
7
 70
0
 62
7
  6
CONTINUOUS
  0
LAYER
  2
8
 70
0
 62
7
  6
CONTINUOUS
  0
LAYER
  2
9
 70
0
 62
7
  6
CONTINUOUS
  0
LAYER
  2
10
 70
0
 62
7
  6
CONTINUOUS
  0
LAYER
  2
MED-11
 70
0
 62
70
  6
HIDDENNEW0
  0
LAYER
  2
12
 70
0
 62
7
  6
CONTINUOUS
  0
LAYER
  2
13
 70
0
 62
7
  6
CONTINUOUS
  0
LAYER
  2
14
 70
0
 62
7
  6
CONTINUOUS
  0
LAYER
  2
15
 70
0
 62
7
  6
CONTINUOUS
  0
LAYER
  2
16
 70
0
 62
7
  6
CONTINUOUS
  0
LAYER
  2
17
 70
0
 62
7
  6
CONTINUOUS
  0
LAYER
  2
18
 70
0
 62
7
  6
CONTINUOUS
  0
LAYER
  2
19
 70
0
 62
7
  6
CONTINUOUS
  0
LAYER
  2
20
 70
0
 62
7
  6
CONTINUOUS
  0
LAYER
  2
21
 70
0
 62
7
  6
CONTINUOUS
  0
LAYER
  2
22
 70
0
 62
7
  6
CONTINUOUS
  0
LAYER
  2
23
 70
0
 62
7
  6
CONTINUOUS
  0
LAYER
  2
24
 70
0
 62
7
  6
CONTINUOUS
  0
LAYER
  2
25
 70
0
 62
7
  6
CONTINUOUS
  0
LAYER
  2
26
 70
0
 62
7
  6
CONTINUOUS
  0
LAYER
  2
27
 70
0
 62
7
  6
CONTINUOUS
  0
LAYER
  2
28
 70
0
 62
7
  6
CONTINUOUS
  0
LAYER
  2
29
 70
0
 62
7
  6
CONTINUOUS
  0
LAYER
  2
30
 70
0
 62
7
  6
CONTINUOUS
  0
LAYER
  2
31
 70
0
 62
7
  6
CONTINUOUS
  0
LAYER
  2
32
 70
0
 62
7
  6
CONTINUOUS
  0
LAYER
  2
33
 70
0
 62
7
  6
CONTINUOUS
  0
LAYER
  2
34
 70
0
 62
7
  6
CONTINUOUS
  0
LAYER
  2
35
 70
0
 62
7
  6
CONTINUOUS
  0
LAYER
  2
36
 70
0
 62
7
  6
CONTINUOUS
  0
LAYER
  2
37
 70
0
 62
7
  6
CONTINUOUS
  0
LAYER
  2
38
 70
0
 62
7
  6
CONTINUOUS
  0
LAYER
  2
39
 70
0
 62
7
  6
CONTINUOUS
  0
LAYER
  2
40
 70
0
 62
7
  6
CONTINUOUS
  0
LAYER
  2
41
 70
0
 62
7
  6
CONTINUOUS
  0
LAYER
  2
42
 70
0
 62
7
  6
CONTINUOUS
  0
LAYER
  2
43
 70
0
 62
7
  6
CONTINUOUS
  0
LAYER
  2
44
 70
0
 62
7
  6
CONTINUOUS
  0
LAYER
  2
45
 70
0
 62
7
  6
CONTINUOUS
  0
LAYER
  2
46
 70
0
 62
7
  6
CONTINUOUS
  0
LAYER
  2
47
 70
0
 62
7
  6
CONTINUOUS
  0
LAYER
  2
48
 70
0
 62
7
  6
CONTINUOUS
  0
LAYER
  2
49
 70
0
 62
7
  6
CONTINUOUS
  0
LAYER
  2
50
 70
0
 62
7
  6
CONTINUOUS
  0
LAYER
  2
51
 70
0
 62
7
  6
CONTINUOUS
  0
LAYER
  2
52
 70
0
 62
7
  6
CONTINUOUS
  0
LAYER
  2
53
 70
0
 62
7
  6
CONTINUOUS
  0
LAYER
  2
54
 70
0
 62
7
  6
CONTINUOUS
  0
LAYER
  2
55
 70
0
 62
7
  6
CONTINUOUS
  0
LAYER
  2
56
 70
0
 62
7
  6
CONTINUOUS
  0
LAYER
  2
57
 70
0
 62
7
  6
CONTINUOUS
  0
LAYER
  2
58
 70
0
 62
7
  6
CONTINUOUS
  0
LAYER
  2
59
 70
0
 62
7
  6
CONTINUOUS
  0
LAYER
  2
60
 70
0
 62
7
  6
CONTINUOUS
  0
LAYER
  2
61
 70
0
 62
7
  6
CONTINUOUS
  0
LAYER
  2
62
 70
0
 62
7
  6
CONTINUOUS
  0
LAYER
  2
63
 70
0
 62
7
  6
CONTINUOUS
  0
LAYER
  2
64
 70
0
 62
7
  6
CONTINUOUS
  0
LAYER
  2
65
 70
0
 62
7
  6
CONTINUOUS
  0
LAYER
  2
66
 70
0
 62
7
  6
CONTINUOUS
  0
LAYER
  2
67
 70
0
 62
7
  6
CONTINUOUS
  0
LAYER
  2
68
 70
0
 62
7
  6
CONTINUOUS
  0
LAYER
  2
69
 70
0
 62
7
  6
CONTINUOUS
  0
LAYER
  2
70
 70
0
 62
7
  6
CONTINUOUS
  0
LAYER
  2
71
 70
0
 62
7
  6
CONTINUOUS
  0
LAYER
  2
72
 70
0
 62
7
  6
CONTINUOUS
  0
LAYER
  2
73
 70
0
 62
7
  6
CONTINUOUS
  0
LAYER
  2
74
 70
0
 62
7
  6
CONTINUOUS
  0
LAYER
  2
75
 70
0
 62
7
  6
CONTINUOUS
  0
LAYER
  2
76
 70
0
 62
7
  6
CONTINUOUS
  0
LAYER
  2
77
 70
0
 62
7
  6
CONTINUOUS
  0
LAYER
  2
78
 70
0
 62
7
  6
CONTINUOUS
  0
LAYER
  2
79
 70
0
 62
7
  6
CONTINUOUS
  0
LAYER
  2
80
 70
0
 62
7
  6
CONTINUOUS
  0
LAYER
  2
81
 70
0
 62
7
  6
CONTINUOUS
  0
LAYER
  2
82
 70
0
 62
7
  6
CONTINUOUS
  0
LAYER
  2
83
 70
0
 62
7
  6
CONTINUOUS
  0
LAYER
  2
84
 70
0
 62
7
  6
CONTINUOUS
  0
LAYER
  2
85
 70
0
 62
7
  6
CONTINUOUS
  0
LAYER
  2
86
 70
0
 62
7
  6
CONTINUOUS
  0
LAYER
  2
87
 70
0
 62
7
  6
CONTINUOUS
  0
LAYER
  2
88
 70
0
 62
7
  6
CONTINUOUS
  0
LAYER
  2
89
 70
0
 62
7
  6
CONTINUOUS
  0
LAYER
  2
90
 70
0
 62
7
  6
CONTINUOUS
  0
LAYER
  2
91
 70
0
 62
7
  6
CONTINUOUS
  0
LAYER
  2
92
 70
0
 62
7
  6
CONTINUOUS
  0
LAYER
  2
93
 70
0
 62
7
  6
CONTINUOUS
  0
LAYER
  2
94
 70
0
 62
7
  6
CONTINUOUS
  0
LAYER
  2
95
 70
0
 62
7
  6
CONTINUOUS
  0
LAYER
  2
96
 70
0
 62
7
  6
CONTINUOUS
  0
LAYER
  2
97
 70
0
 62
7
  6
CONTINUOUS
  0
LAYER
  2
98
 70
0
 62
7
  6
CONTINUOUS
  0
LAYER
  2
99
 70
0
 62
7
  6
CONTINUOUS
  0
LAYER
  2
2D_BEMASSUNG
 70
0
 62
1
  6
PHANTOM
  0
LAYER
  2
2D_SCHNITTVERLAUF_ETC
 70
0
 62
40
  6
CONTINUOUS
  0
LAYER
  2
102
 70
0
 62
7
  6
CONTINUOUS
  0
LAYER
  2
2D_TEXT
 70
0
 62
1
  6
CONTINUOUS
  0
LAYER
  2
2D_SICHTBARE_KANTEN
 70
0
 62
1
  6
HIDDENNEW0
  0
LAYER
  2
2D_VERDECKTE_KANTEN
 70
0
 62
1
  6
CONTINUOUS
  0
LAYER
  2
2D_MITTELLINIEN
 70
0
 62
1
  6
PHANTOM
  0
LAYER
  2
2D_REFERENZ-GEOMETRIE
 70
0
 62
1
  6
CONTINUOUS
  0
LAYER
  2
2D_SCHRAFFUR
 70
0
 62
1
  6
CONTINUOUS
  0
LAYER
  2
2D_SYMBOLE
 70
0
 62
1
  6
CONTINUOUS
  0
LAYER
  2
Drafting_Hidden_Entities
 70
1
 62
7
  6
CONTINUOUS
  0
ENDTAB
  0
TABLE
  2
STYLE
 70
1
  0
STYLE
  2
STANDARD
 70
64
 40
0.0
 41
1.0
 50
0.0
 71
0
 42
1.0
  3
monotxt.shx
  4

  0
ENDTAB
  0
TABLE
  2
VIEW
 70
0
  0
ENDTAB
  0
TABLE
  2
DIMSTYLE
 70
2
  0
DIMSTYLE
  2
DSTYLE1
 70
0
  3

  4

  5

  6

  7

 40
1.0
 41
7.0
 42
2.0
 43
3.8E-001
 44
2.0
 45
0.0
 46
0.0
 47
1.0E-001
 48
1.0E-001
 71
0
 72
0
 73
0
 74
0
 75
0
 76
0
 77
1
 78
11
140
7.0
141
9.0E-002
142
0.0
143
1.0
144
1.0
145
0.0
146
1.0
147
2.331
170
0
171
2
172
0
173
0
174
0
175
0
176
0
177
0
178
0
  0
DIMSTYLE
  2
DSTYLE2
 70
0
  3

  4

  5

  6

  7

 40
1.0
 41
8.0
 42
0.0
 43
3.8E-001
 44
3.0
 45
1.0E-003
 46
0.0
 47
1.0E-001
 48
1.0E-001
 71
0
 72
0
 73
0
 74
0
 75
0
 76
0
 77
1
 78
11
140
7.0
141
9.0E-002
142
0.0
143
3.9370079E-002
144
1.0
145
0.0
146
1.0
147
3.0
170
0
171
2
172
0
173
0
174
0
175
0
176
0
177
0
178
0
  0
ENDTAB
  0
ENDSEC
  0
SECTION
  2
BLOCKS
  0
BLOCK
  2
_AH12
  3
_AH
 10
0.0
 20
0.0
 70
64
  0
LINE
  8
0
  6
CONTINUOUS
 62
0
 10
0.0
 20
0.0
 11
1.0
 21
0.0
  0
LINE
  8
0
  6
CONTINUOUS
 62
0
 10
0.0
 20
0.0
 11
-1.0
 21
0.0
  0
ENDBLK
  0
BLOCK
  2
_AH13
  3
_AH
 10
0.0
 20
0.0
 70
64
  0
SOLID
  8
0
  6
CONTINUOUS
 62
0
 10
0.0
 20
0.0
 11
-1.0
 21
1.66667E-001
 12
-1.0
 22
-1.66667E-001
 13
0.0
 23
0.0
  0
ENDBLK
  0
BLOCK
  2
_AH14
  3
_AH
 10
0.0
 20
0.0
 70
64
  0
ENDBLK
  0
BLOCK
  2
_AH15
  3
_AH
 10
0.0
 20
0.0
 70
64
  0
CIRCLE
  8
0
  6
CONTINUOUS
 62
0
 10
0.0
 20
0.0
 40
1.66667E-001
  0
LINE
  8
0
  6
CONTINUOUS
 62
0
 10
0.0
 20
0.0
 11
-1.0
 21
0.0
  0
ENDBLK
  0
BLOCK
  2
_AH16
  3
_AH
 10
0.0
 20
0.0
 70
64
  0
POLYLINE
  8
0
  6
CONTINUOUS
 62
0
 66
1
 40
0.0
 41
0.0
 70
0
  0
VERTEX
  8
0
 42
1.0
 10
8.3335E-002
 20
0.0
 70
0
  0
VERTEX
  8
0
 42
1.0
 10
-8.3335E-002
 20
0.0
 70
0
  0
VERTEX
  8
0
 42
0.0
 10
8.3335E-002
 20
0.0
 70
0
  0
SEQEND
  0
LINE
  8
0
  6
CONTINUOUS
 62
0
 10
0.0
 20
0.0
 11
-1.0
 21
0.0
  0
ENDBLK
  0
BLOCK
  2
_AH17
  3
_AH
 10
0.0
 20
0.0
 70
64
  0
LINE
  8
0
  6
CONTINUOUS
 62
0
 10
-1.66667E-001
 20
-1.66667E-001
 11
1.66667E-001
 21
-1.66667E-001
  0
LINE
  8
0
  6
CONTINUOUS
 62
0
 10
1.66667E-001
 20
-1.66667E-001
 11
1.66667E-001
 21
1.66667E-001
  0
LINE
  8
0
  6
CONTINUOUS
 62
0
 10
1.66667E-001
 20
1.66667E-001
 11
-1.66667E-001
 21
1.66667E-001
  0
LINE
  8
0
  6
CONTINUOUS
 62
0
 10
-1.66667E-001
 20
1.66667E-001
 11
-1.66667E-001
 21
-1.66667E-001
  0
LINE
  8
0
  6
CONTINUOUS
 62
0
 10
0.0
 20
0.0
 11
-1.0
 21
0.0
  0
ENDBLK
  0
BLOCK
  2
_AH18
  3
_AH
 10
0.0
 20
0.0
 70
64
  0
SOLID
  8
0
  6
CONTINUOUS
 62
0
 10
-1.66667E-001
 20
-1.66667E-001
 11
1.66667E-001
 21
-1.66667E-001
 12
-1.66667E-001
 22
1.66667E-001
 13
1.66667E-001
 23
1.66667E-001
  0
LINE
  8
0
  6
CONTINUOUS
 62
0
 10
0.0
 20
0.0
 11
-1.0
 21
0.0
  0
ENDBLK
  0
BLOCK
  2
_AH19
  3
_AH
 10
0.0
 20
0.0
 70
64
  0
LINE
  8
0
  6
CONTINUOUS
 62
0
 10
-5.0E-001
 20
-5.0E-001
 11
5.0E-001
 21
5.0E-001
  0
LINE
  8
0
  6
CONTINUOUS
 62
0
 10
0.0
 20
0.0
 11
-1.0
 21
0.0
  0
ENDBLK
  0
BLOCK
  2
_AH20
  3
_AH
 10
0.0
 20
0.0
 70
64
  0
POLYLINE
  8
0
  6
CONTINUOUS
 62
0
 66
1
 40
5.0E-001
 41
5.0E-001
 70
0
  0
VERTEX
  8
0
 42
4.1421356E-001
 10
-1.66667E-001
 20
-1.66667E-001
 70
0
  0
VERTEX
  8
0
 42
0.0
 10
0.0
 20
0.0
 70
0
  0
SEQEND
  0
POLYLINE
  8
0
  6
CONTINUOUS
 62
0
 66
1
 40
5.0E-001
 41
5.0E-001
 70
0
  0
VERTEX
  8
0
 42
4.1421356E-001
 10
1.66667E-001
 20
1.66667E-001
 70
0
  0
VERTEX
  8
0
 42
0.0
 10
0.0
 20
0.0
 70
0
  0
SEQEND
  0
LINE
  8
0
  6
CONTINUOUS
 62
0
 10
0.0
 20
0.0
 11
-1.0
 21
0.0
  0
ENDBLK
  0
BLOCK
  2
_AH21
  3
_AH
 10
0.0
 20
0.0
 70
64
  0
LINE
  8
0
  6
CONTINUOUS
 62
0
 10
0.0
 20
0.0
 11
-1.0
 21
-1.66667E-001
  0
LINE
  8
0
  6
CONTINUOUS
 62
0
 10
-1.0
 20
-1.66667E-001
 11
-1.0
 21
1.66667E-001
  0
LINE
  8
0
  6
CONTINUOUS
 62
0
 10
-1.0
 20
1.66667E-001
 11
0.0
 21
0.0
  0
ENDBLK
  0
BLOCK
  2
CC
 10
0.0
 20
0.0
 70
0
  0
LINE
  8
2D_SICHTBARE_KANTEN
  6
CONTINUOUS
 62
40
 10
3.9949997E+002
 20
7.0999954E+001
 11
3.9949997E+002
 21
6.8699997E+001
  0
LINE
  8
2D_SICHTBARE_KANTEN
  6
CONTINUOUS
 62
40
 10
3.9949997E+002
 20
6.8699997E+001
 11
4.1649997E+002
 21
6.8699997E+001
  0
LINE
  8
2D_SICHTBARE_KANTEN
  6
CONTINUOUS
 62
40
 10
4.1649997E+002
 20
6.8699997E+001
 11
4.1649997E+002
 21
7.0999954E+001
  0
LINE
  8
2D_SICHTBARE_KANTEN
  6
CONTINUOUS
 62
40
 10
4.1402496E+002
 20
6.8796219E+001
 11
4.1402496E+002
 21
6.8499985E+001
  0
LINE
  8
2D_SICHTBARE_KANTEN
  6
CONTINUOUS
 62
40
 10
4.1402496E+002
 20
6.8499985E+001
 11
4.0197495E+002
 21
6.8499985E+001
  0
LINE
  8
2D_SICHTBARE_KANTEN
  6
CONTINUOUS
 62
40
 10
4.0197495E+002
 20
6.8499985E+001
 11
4.0197495E+002
 21
6.8699997E+001
  0
LINE
  8
2D_SICHTBARE_KANTEN
  6
CONTINUOUS
 62
40
 10
4.0302496E+002
 20
6.8499985E+001
 11
4.0302496E+002
 21
6.7499985E+001
  0
LINE
  8
2D_SICHTBARE_KANTEN
  6
CONTINUOUS
 62
40
 10
4.1297491E+002
 20
6.8499985E+001
 11
4.1297491E+002
 21
6.7499985E+001
  0
LINE
  8
2D_SICHTBARE_KANTEN
  6
CONTINUOUS
 62
40
 10
2.799999E+001
 20
6.7499985E+001
 11
2.799999E+001
 21
6.7999985E+001
  0
ARC
  8
2D_SICHTBARE_KANTEN
  6
CONTINUOUS
 62
40
 10
2.849999E+001
 20
6.7999984E+001
 40
5.0000028E-001
 50
9.0E+001
 51
1.8E+002
  0
LINE
  8
2D_SICHTBARE_KANTEN
  6
CONTINUOUS
 62
40
 10
2.849999E+001
 20
6.8499985E+001
 11
3.749999E+001
 21
6.8499985E+001
  0
ARC
  8
2D_SICHTBARE_KANTEN
  6
CONTINUOUS
 62
40
 10
3.7500001E+001
 20
6.7999996E+001
 40
4.9998907E-001
 50
3.5999875E+002
 51
4.5000125E+002
  0
LINE
  8
2D_SICHTBARE_KANTEN
  6
CONTINUOUS
 62
40
 10
3.799999E+001
 20
6.7999985E+001
 11
3.799999E+001
 21
6.7499985E+001
  0
LINE
  8
2D_SICHTBARE_KANTEN
  6
CONTINUOUS
 62
40
 10
2.2E+001
 20
5.425E+001
 11
2.2E+001
 21
6.2499985E+001
  0
LINE
  8
2D_SICHTBARE_KANTEN
  6
CONTINUOUS
 62
40
 10
2.2E+001
 20
6.2499985E+001
 11
4.4E+001
 21
6.2499985E+001
  0
LINE
  8
2D_SICHTBARE_KANTEN
  6
CONTINUOUS
 62
40
 10
4.4E+001
 20
6.2499985E+001
 11
4.4E+001
 21
5.425E+001
  0
LINE
  8
2D_SICHTBARE_KANTEN
  6
CONTINUOUS
 62
40
 10
4.1899994E+002
 20
6.2499985E+001
 11
4.1899994E+002
 21
6.7499985E+001
  0
LINE
  8
2D_SICHTBARE_KANTEN
  6
CONTINUOUS
 62
40
 10
4.1899994E+002
 20
6.7499985E+001
 11
4.0113388E+002
 21
6.7499985E+001
  0
LINE
  8
2D_SICHTBARE_KANTEN
  6
CONTINUOUS
 62
40
 10
4.0113388E+002
 20
6.7499985E+001
 11
3.8899994E+001
 21
6.7499985E+001
  0
LINE
  8
2D_SICHTBARE_KANTEN
  6
CONTINUOUS
 62
40
 10
3.8899994E+001
 20
6.7499985E+001
 11
2.2E+001
 21
6.7499985E+001
  0
LINE
  8
2D_SICHTBARE_KANTEN
  6
CONTINUOUS
 62
40
 10
2.2E+001
 20
6.7499985E+001
 11
2.2E+001
 21
6.2499985E+001
  0
LINE
  8
2D_SICHTBARE_KANTEN
  6
CONTINUOUS
 62
40
 10
2.2E+001
 20
6.2499985E+001
 11
4.1899994E+002
 21
6.2499985E+001
  0
LINE
  8
2D_SICHTBARE_KANTEN
  6
CONTINUOUS
 62
40
 10
4.0151495E+002
 20
6.2499985E+001
 11
4.0151495E+002
 21
6.1999954E+001
  0
ARC
  8
2D_SICHTBARE_KANTEN
  6
CONTINUOUS
 62
40
 10
4.0201495E+002
 20
6.1999948E+001
 40
4.9999411E-001
 50
1.7999933E+002
 51
2.7000067E+002
  0
LINE
  8
2D_SICHTBARE_KANTEN
  6
CONTINUOUS
 62
40
 10
4.0201495E+002
 20
6.1499954E+001
 11
4.1398492E+002
 21
6.1499954E+001
  0
ARC
  8
2D_SICHTBARE_KANTEN
  6
CONTINUOUS
 62
40
 10
4.1398494E+002
 20
6.1999935E+001
 40
4.9998037E-001
 50
2.6999775E+002
 51
3.6000225E+002
  0
LINE
  8
2D_SICHTBARE_KANTEN
  6
CONTINUOUS
 62
40
 10
4.1448492E+002
 20
6.1999954E+001
 11
4.1448492E+002
 21
6.2499985E+001
  0
LINE
  8
2D_SICHTBARE_KANTEN
  6
CONTINUOUS
 62
40
 10
4.1448492E+002
 20
6.2499985E+001
 11
4.0151495E+002
 21
6.2499985E+001
  0
LINE
  8
2D_SICHTBARE_KANTEN
  6
CONTINUOUS
 62
40
 10
4.14866E+002
 20
6.75E+001
 11
4.1297492E+002
 21
6.75E+001
  0
LINE
  8
2D_SICHTBARE_KANTEN
  6
CONTINUOUS
 62
40
 10
4.0302497E+002
 20
6.75E+001
 11
4.0113389E+002
 21
6.75E+001
  0
LINE
  8
2D_MITTELLINIEN
  6
CENTERLINE
 62
1
 10
3.3E+001
 20
7.0296097E+001
 11
3.3E+001
 21
4.6957826E+001
  0
CIRCLE
  8
2D_SICHTBARE_KANTEN
  6
CONTINUOUS
 62
1
 10
0.0
 20
4.3E+001
 40
5.0
  0
CIRCLE
  8
2D_SICHTBARE_KANTEN
  6
CONTINUOUS
 62
1
 10
1.0799999E+002
 20
3.5E+001
 40
5.0
  0
LINE
  8
2D_MITTELLINIEN
  6
CENTERLINE
 62
1
 10
1.0799998E+002
 20
4.2166641E+001
 11
1.0799998E+002
 21
2.773114E+001
  0
LINE
  8
2D_MITTELLINIEN
  6
CENTERLINE
 62
1
 10
1.1499251E+002
 20
3.5E+001
 11
1.0075749E+002
 21
3.5E+001
  0
LINE
  8
2D_MITTELLINIEN
  6
CENTERLINE
 62
1
 10
5.2E+001
 20
4.2166641E+001
 11
5.2E+001
 21
2.773114E+001
  0
LINE
  8
2D_MITTELLINIEN
  6
CENTERLINE
 62
1
 10
5.8992523E+001
 20
3.5E+001
 11
4.4757507E+001
 21
3.5E+001
  0
CIRCLE
  8
2D_SICHTBARE_KANTEN
  6
CONTINUOUS
 62
1
 10
5.2E+001
 20
3.5E+001
 40
5.0
  0
CIRCLE
  8
2D_SICHTBARE_KANTEN
  6
CONTINUOUS
 62
1
 10
1.5999998E+002
 20
0.0
 40
5.0
  0
LINE
  8
99
  6
CONTINUOUS
 62
1
 10
0.0
 20
-7.5028381
 11
0.0
 21
5.0773895E+001
  0
LINE
  8
2D_MITTELLINIEN
  6
CENTERLINE
 62
1
 10
-6.059021
 20
4.3E+001
 11
7.6042175
 21
4.3E+001
  0
LINE
  8
2D_MITTELLINIEN
  6
CENTERLINE
 62
1
 10
1.66059E+002
 20
0.0
 11
1.5239576E+002
 21
0.0
  0
LINE
  8
2D_MITTELLINIEN
  6
CENTERLINE
 62
1
 10
1.5999997E+002
 20
-7.5028381
 11
1.5999997E+002
 21
5.0489731E+001
  0
LINE
  8
2D_MITTELLINIEN
  6
CENTERLINE
 62
1
 10
1.66059E+002
 20
1.6E+001
 11
1.5239576E+002
 21
1.6E+001
  0
LINE
  8
2D_MITTELLINIEN
  6
CENTERLINE
 62
1
 10
1.66059E+002
 20
2.7E+001
 11
1.5239576E+002
 21
2.7E+001
  0
LINE
  8
2D_MITTELLINIEN
  6
CENTERLINE
 62
1
 10
1.66059E+002
 20
4.3E+001
 11
1.5239576E+002
 21
4.3E+001
  0
LINE
  8
2D_MITTELLINIEN
  6
CENTERLINE
 62
1
 10
-6.059021
 20
0.0
 11
7.6042175
 21
0.0
  0
LINE
  8
2D_MITTELLINIEN
  6
CENTERLINE
 62
1
 10
-6.059021
 20
1.6E+001
 11
7.6042175
 21
1.6E+001
  0
LINE
  8
2D_MITTELLINIEN
  6
CENTERLINE
 62
1
 10
-6.059021
 20
2.7E+001
 11
7.6042175
 21
2.7E+001
  0
CIRCLE
  8
2D_SICHTBARE_KANTEN
  6
CONTINUOUS
 62
1
 10
1.5999998E+002
 20
1.6E+001
 40
5.0
  0
CIRCLE
  8
2D_SICHTBARE_KANTEN
  6
CONTINUOUS
 62
1
 10
1.5999998E+002
 20
2.7E+001
 40
5.0
  0
CIRCLE
  8
2D_SICHTBARE_KANTEN
  6
CONTINUOUS
 62
1
 10
1.5999998E+002
 20
4.3E+001
 40
5.0
  0
CIRCLE
  8
2D_SICHTBARE_KANTEN
  6
CONTINUOUS
 62
1
 10
0.0
 20
0.0
 40
5.0
  0
CIRCLE
  8
2D_SICHTBARE_KANTEN
  6
CONTINUOUS
 62
1
 10
0.0
 20
1.6E+001
 40
5.0
  0
CIRCLE
  8
2D_SICHTBARE_KANTEN
  6
CONTINUOUS
 62
1
 10
0.0
 20
2.7E+001
 40
5.0
  0
LINE
  8
2D_SICHTBARE_KANTEN
  6
CONTINUOUS
 62
40
 10
-4.7E+001
 20
-5.75
 11
-4.75E+001
 21
-5.75
  0
LINE
  8
2D_SICHTBARE_KANTEN
  6
CONTINUOUS
 62
40
 10
-4.75E+001
 20
-5.75
 11
-5.75E+001
 21
-5.75
  0
LINE
  8
2D_SICHTBARE_KANTEN
  6
CONTINUOUS
 62
40
 10
-5.75E+001
 20
-5.75
 11
-5.75E+001
 21
5.425E+001
  0
LINE
  8
2D_SICHTBARE_KANTEN
  6
CONTINUOUS
 62
40
 10
-5.75E+001
 20
5.425E+001
 11
-4.75E+001
 21
5.425E+001
  0
LINE
  8
2D_SICHTBARE_KANTEN
  6
CONTINUOUS
 62
40
 10
-4.75E+001
 20
5.425E+001
 11
-4.7E+001
 21
5.425E+001
  0
LINE
  8
2D_SICHTBARE_KANTEN
  6
CONTINUOUS
 62
40
 10
-4.7E+001
 20
5.425E+001
 11
2.0699997E+002
 21
5.425E+001
  0
LINE
  8
2D_SICHTBARE_KANTEN
  6
CONTINUOUS
 62
40
 10
2.0699997E+002
 20
5.425E+001
 11
2.0749997E+002
 21
5.425E+001
  0
LINE
  8
2D_SICHTBARE_KANTEN
  6
CONTINUOUS
 62
40
 10
2.0749997E+002
 20
5.425E+001
 11
2.1749997E+002
 21
5.425E+001
  0
LINE
  8
2D_SICHTBARE_KANTEN
  6
CONTINUOUS
 62
40
 10
2.1749997E+002
 20
5.425E+001
 11
2.1749997E+002
 21
-5.75
  0
LINE
  8
2D_SICHTBARE_KANTEN
  6
CONTINUOUS
 62
40
 10
2.0749997E+002
 20
-5.75
 11
2.0699997E+002
 21
-5.75
  0
LINE
  8
2D_SICHTBARE_KANTEN
  6
CONTINUOUS
 62
40
 10
2.1749997E+002
 20
-5.75
 11
-4.7E+001
 21
-5.75
  0
LINE
  8
2D_SICHTBARE_KANTEN
  6
CONTINUOUS
 62
40
 10
2.0749997E+002
 20
-5.25
 11
2.0749997E+002
 21
-5.75
  0
LINE
  8
2D_MITTELLINIEN
  6
CENTERLINE
 62
1
 10
0.0
 20
-7.5028381
 11
0.0
 21
2.3522552E+001
  0
LINE
  8
2D_MITTELLINIEN
  6
CENTERLINE
 62
1
 10
0.0
 20
2.3522552E+001
 11
0.0
 21
4.7213318E+001
  0
LINE
  8
2D_MITTELLINIEN
  6
CENTERLINE
 62
1
 10
1.5999998E+002
 20
-7.5028381
 11
1.5999998E+002
 21
2.4482086E+001
  0
LINE
  8
2D_MITTELLINIEN
  6
CENTERLINE
 62
1
 10
1.5999998E+002
 20
2.4482086E+001
 11
1.5999998E+002
 21
4.7755005E+001
  0
LINE
  8
2D_VERDECKTE_KANTEN
  6
HIDDEN
 62
1
 10
1.0999985E+001
 20
8.3499985E+001
 11
1.0999985E+001
 21
7.8499985E+001
  0
ARC
  8
2D_VERDECKTE_KANTEN
  6
HIDDEN
 62
1
 10
7.9999847
 20
7.8499969E+001
 40
3.0
 50
1.8E+002
 51
3.6000029E+002
  0
LINE
  8
2D_VERDECKTE_KANTEN
  6
HIDDEN
 62
1
 10
4.9999847
 20
7.8499969E+001
 11
4.9999847
 21
8.3499985E+001
  0
ARC
  8
2D_VERDECKTE_KANTEN
  6
HIDDEN
 62
1
 10
7.9999847
 20
8.3499985E+001
 40
3.0
 50
0.0
 51
1.8E+002
  0
LINE
  8
2D_MITTELLINIEN
  6
CENTERLINE
 62
1
 10
4.3601175E+002
 20
8.8074231E+001
 11
4.3599799E+002
 21
7.3675157E+001
  0
LINE
  8
2D_MITTELLINIEN
  6
CENTERLINE
 62
1
 10
4.4124997E+002
 20
8.0999985E+001
 11
4.3099997E+002
 21
8.0999985E+001
  0
LINE
  8
2D_MITTELLINIEN
  6
CENTERLINE
 62
1
 10
8.0
 20
7.3835068E+001
 11
7.9999695
 21
8.800174E+001
  0
LINE
  8
2D_VERDECKTE_KANTEN
  6
HIDDEN
 62
1
 10
4.3900498E+002
 20
8.3499985E+001
 11
4.3900498E+002
 21
7.8499985E+001
  0
ARC
  8
2D_VERDECKTE_KANTEN
  6
HIDDEN
 62
1
 10
4.3600498E+002
 20
7.8499969E+001
 40
3.0
 50
1.8E+002
 51
3.6000029E+002
  0
LINE
  8
2D_VERDECKTE_KANTEN
  6
HIDDEN
 62
1
 10
4.3300498E+002
 20
7.8499969E+001
 11
4.3300498E+002
 21
8.3499985E+001
  0
ARC
  8
2D_VERDECKTE_KANTEN
  6
HIDDEN
 62
1
 10
4.3600498E+002
 20
8.3499985E+001
 40
3.0
 50
0.0
 51
1.8E+002
  0
LINE
  8
2D_MITTELLINIEN
  6
CENTERLINE
 62
1
 10
1.3E+001
 20
8.0999985E+001
 11
2.75
 21
8.0999985E+001
  0
LINE
  8
2D_SICHTBARE_KANTEN
  6
CONTINUOUS
 62
40
 10
4.4275378E+002
 20
9.0999954E+001
 11
4.4275378E+002
 21
7.0999954E+001
  0
LINE
  8
2D_SICHTBARE_KANTEN
  6
CONTINUOUS
 62
40
 10
4.4275378E+002
 20
7.0999954E+001
 11
1.2462006
 21
7.0999954E+001
  0
LINE
  8
2D_SICHTBARE_KANTEN
  6
CONTINUOUS
 62
40
 10
1.2462006
 20
7.0999954E+001
 11
1.2462006
 21
9.0999954E+001
  0
LINE
  8
2D_SICHTBARE_KANTEN
  6
CONTINUOUS
 62
40
 10
1.2462006
 20
9.0999954E+001
 11
4.4275378E+002
 21
9.0999954E+001
  0
LINE
  8
2D_SICHTBARE_KANTEN
  6
CONTINUOUS
 62
40
 10
1.3246185E+001
 20
9.0999954E+001
 11
1.3246185E+001
 21
7.0999985E+001
  0
LINE
  8
2D_SICHTBARE_KANTEN
  6
CONTINUOUS
 62
40
 10
4.3075375E+002
 20
9.0999954E+001
 11
4.3075375E+002
 21
7.0999954E+001
  0
LINE
  8
2D_SICHTBARE_KANTEN
  6
CONTINUOUS
 62
40
 10
2.7224998E+001
 20
4.8E+001
 11
2.6899994E+001
 21
4.8E+001
  0
LINE
  8
2D_SICHTBARE_KANTEN
  6
CONTINUOUS
 62
40
 10
2.975E+001
 20
6.25E+001
 11
3.6249992E+001
 21
6.25E+001
  0
LINE
  8
2D_MITTELLINIEN
  6
CENTERLINE
 62
1
 10
4.0799994E+002
 20
6.0457382E+001
 11
4.0799994E+002
 21
7.4200241E+001
  0
LINE
  8
2D_SICHTBARE_KANTEN
  6
CONTINUOUS
 62
40
 10
2.7099998E+001
 20
6.25E+001
 11
3.8899994E+001
 21
6.25E+001
  0
LINE
  8
2D_SICHTBARE_KANTEN
  6
CONTINUOUS
 62
40
 10
4.1399994E+002
 20
6.2499985E+001
 11
4.1297491E+002
 21
6.2499985E+001
  0
LINE
  8
2D_SICHTBARE_KANTEN
  6
CONTINUOUS
 62
40
 10
4.0302496E+002
 20
6.2499985E+001
 11
4.0199994E+002
 21
6.2499985E+001
  0
POINT
  8
Drafting_Hidden_Entities
  6
CONTINUOUS
 62
1
 10
0.0
 20
0.0
  0
ENDBLK
  0
BLOCK
  2
TT
 10
0.0
 20
0.0
 70
0
  0
LINE
  8
2D_SICHTBARE_KANTEN
  6
CONTINUOUS
 62
40
 10
5.4549997E+002
 20
2.2799995E+002
 11
5.4549997E+002
 21
2.257E+002
  0
LINE
  8
2D_SICHTBARE_KANTEN
  6
CONTINUOUS
 62
40
 10
5.4549997E+002
 20
2.257E+002
 11
5.6249997E+002
 21
2.257E+002
  0
DIMENSION
  8
2D_BEMASSUNG
  6
CONTINUOUS
 62
4
  2
*D138
  3
DSTYLE1
 10
1.459996E+002
 20
1.1524899E+002
 11
7.5155548E+001
 21
1.2108199E+002
 70
128
 13
4.0
 23
1.1699E+002
 14
1.459996E+002
 24
1.24684E+002
 40
3.0
 50
0.0
1001
ACAD
1000
DSTYLE
1002
{
1070
173
1070
0
1070
5
1000
_AH13
1002
}
  0
DIMENSION
  8
2D_BEMASSUNG
  6
CONTINUOUS
 62
4
  2
*D142
  3
DSTYLE1
 10
4.5159677E+001
 20
2.1125E+002
 11
3.9326677E+001
 21
1.8405049E+002
 70
128
 13
7.85498E+001
 23
2.15E+002
 14
8.85E+001
 24
2.1125E+002
 40
3.0
 50
9.0E+001
1001
ACAD
1000
DSTYLE
1002
{
1070
173
1070
0
1070
5
1000
_AH13
1002
}
  0
LINE
  8
2D_SICHTBARE_KANTEN
  6
CONTINUOUS
 62
40
 10
5.6249997E+002
 20
2.257E+002
 11
5.6249997E+002
 21
2.2799995E+002
  0
LINE
  8
2D_SICHTBARE_KANTEN
  6
CONTINUOUS
 62
40
 10
5.6002496E+002
 20
2.2579622E+002
 11
5.6002496E+002
 21
2.2549998E+002
  0
LINE
  8
2D_SICHTBARE_KANTEN
  6
CONTINUOUS
 62
40
 10
5.6002496E+002
 20
2.2549998E+002
 11
5.4797495E+002
 21
2.2549998E+002
  0
LINE
  8
2D_SICHTBARE_KANTEN
  6
CONTINUOUS
 62
40
 10
5.4797495E+002
 20
2.2549998E+002
 11
5.4797495E+002
 21
2.257E+002
  0
LINE
  8
2D_SICHTBARE_KANTEN
  6
CONTINUOUS
 62
40
 10
5.4902496E+002
 20
2.2549998E+002
 11
5.4902496E+002
 21
2.2449998E+002
  0
LINE
  8
2D_SICHTBARE_KANTEN
  6
CONTINUOUS
 62
40
 10
5.5897491E+002
 20
2.2549998E+002
 11
5.5897491E+002
 21
2.2449998E+002
  0
DIMENSION
  8
2D_BEMASSUNG
  6
CONTINUOUS
 62
4
  2
*D149
  3
DSTYLE1
 10
4.5157677E+001
 20
2.5799995E+002
 11
3.9324677E+001
 21
2.3872161E+002
 70
128
 13
7.31496E+001
 23
2.15E+002
 14
8.85E+001
 24
2.5799995E+002
 40
3.0
 50
9.0E+001
1001
ACAD
1000
DSTYLE
1002
{
1070
173
1070
0
1070
5
1000
_AH13
1002
}
  0
LINE
  8
2D_SICHTBARE_KANTEN
  6
CONTINUOUS
 62
40
 10
1.7399999E+002
 20
2.2449998E+002
 11
1.7399999E+002
 21
2.2499998E+002
  0
ARC
  8
2D_SICHTBARE_KANTEN
  6
CONTINUOUS
 62
40
 10
1.7449999E+002
 20
2.2499998E+002
 40
5.0000028E-001
 50
9.0E+001
 51
1.8E+002
  0
LINE
  8
2D_SICHTBARE_KANTEN
  6
CONTINUOUS
 62
40
 10
1.7449999E+002
 20
2.2549998E+002
 11
1.8349999E+002
 21
2.2549998E+002
  0
ARC
  8
2D_SICHTBARE_KANTEN
  6
CONTINUOUS
 62
40
 10
1.835E+002
 20
2.25E+002
 40
4.9998907E-001
 50
3.5999875E+002
 51
4.5000125E+002
  0
LINE
  8
2D_SICHTBARE_KANTEN
  6
CONTINUOUS
 62
40
 10
1.8399999E+002
 20
2.2499998E+002
 11
1.8399999E+002
 21
2.2449998E+002
  0
LINE
  8
2D_SICHTBARE_KANTEN
  6
CONTINUOUS
 62
40
 10
1.68E+002
 20
2.1125E+002
 11
1.68E+002
 21
2.1949998E+002
  0
LINE
  8
2D_SICHTBARE_KANTEN
  6
CONTINUOUS
 62
40
 10
1.68E+002
 20
2.1949998E+002
 11
1.9E+002
 21
2.1949998E+002
  0
LINE
  8
2D_SICHTBARE_KANTEN
  6
CONTINUOUS
 62
40
 10
1.9E+002
 20
2.1949998E+002
 11
1.9E+002
 21
2.1125E+002
  0
LINE
  8
2D_SICHTBARE_KANTEN
  6
CONTINUOUS
 62
40
 10
5.6499994E+002
 20
2.1949998E+002
 11
5.6499994E+002
 21
2.2449998E+002
  0
LINE
  8
2D_SICHTBARE_KANTEN
  6
CONTINUOUS
 62
40
 10
5.6499994E+002
 20
2.2449998E+002
 11
5.4713388E+002
 21
2.2449998E+002
  0
LINE
  8
2D_SICHTBARE_KANTEN
  6
CONTINUOUS
 62
40
 10
5.4713388E+002
 20
2.2449998E+002
 11
1.8489999E+002
 21
2.2449998E+002
  0
LINE
  8
2D_SICHTBARE_KANTEN
  6
CONTINUOUS
 62
40
 10
1.8489999E+002
 20
2.2449998E+002
 11
1.68E+002
 21
2.2449998E+002
  0
LINE
  8
2D_SICHTBARE_KANTEN
  6
CONTINUOUS
 62
40
 10
1.68E+002
 20
2.2449998E+002
 11
1.68E+002
 21
2.1949998E+002
  0
LINE
  8
2D_SICHTBARE_KANTEN
  6
CONTINUOUS
 62
40
 10
1.68E+002
 20
2.1949998E+002
 11
5.6499994E+002
 21
2.1949998E+002
  0
LINE
  8
2D_SICHTBARE_KANTEN
  6
CONTINUOUS
 62
40
 10
5.4751495E+002
 20
2.1949998E+002
 11
5.4751495E+002
 21
2.1899995E+002
  0
ARC
  8
2D_SICHTBARE_KANTEN
  6
CONTINUOUS
 62
40
 10
5.4801495E+002
 20
2.1899995E+002
 40
4.9999411E-001
 50
1.7999933E+002
 51
2.7000067E+002
  0
LINE
  8
2D_SICHTBARE_KANTEN
  6
CONTINUOUS
 62
40
 10
5.4801495E+002
 20
2.1849995E+002
 11
5.5998492E+002
 21
2.1849995E+002
  0
ARC
  8
2D_SICHTBARE_KANTEN
  6
CONTINUOUS
 62
40
 10
5.5998494E+002
 20
2.1899993E+002
 40
4.9998037E-001
 50
2.6999775E+002
 51
3.6000225E+002
  0
LINE
  8
2D_SICHTBARE_KANTEN
  6
CONTINUOUS
 62
40
 10
5.6048492E+002
 20
2.1899995E+002
 11
5.6048492E+002
 21
2.1949998E+002
  0
LINE
  8
2D_SICHTBARE_KANTEN
  6
CONTINUOUS
 62
40
 10
5.6048492E+002
 20
2.1949998E+002
 11
5.4751495E+002
 21
2.1949998E+002
  0
LINE
  8
2D_SICHTBARE_KANTEN
  6
CONTINUOUS
 62
40
 10
5.60866E+002
 20
2.245E+002
 11
5.5897492E+002
 21
2.245E+002
  0
LINE
  8
2D_SICHTBARE_KANTEN
  6
CONTINUOUS
 62
40
 10
5.4902497E+002
 20
2.245E+002
 11
5.4713389E+002
 21
2.245E+002
  0
LINE
  8
2D_MITTELLINIEN
  6
CENTERLINE
 62
1
 10
1.79E+002
 20
2.272961E+002
 11
1.79E+002
 21
2.0395783E+002
  0
CIRCLE
  8
2D_SICHTBARE_KANTEN
  6
CONTINUOUS
 62
1
 10
1.46E+002
 20
2.0E+002
 40
5.0
  0
CIRCLE
  8
2D_SICHTBARE_KANTEN
  6
CONTINUOUS
 62
1
 10
2.5399999E+002
 20
1.92E+002
 40
5.0
  0
LINE
  8
2D_MITTELLINIEN
  6
CENTERLINE
 62
1
 10
2.5399998E+002
 20
1.9916664E+002
 11
2.5399998E+002
 21
1.8473114E+002
  0
LINE
  8
2D_MITTELLINIEN
  6
CENTERLINE
 62
1
 10
2.6099251E+002
 20
1.92E+002
 11
2.4675749E+002
 21
1.92E+002
  0
LINE
  8
2D_MITTELLINIEN
  6
CENTERLINE
 62
1
 10
1.98E+002
 20
1.9916664E+002
 11
1.98E+002
 21
1.8473114E+002
  0
LINE
  8
2D_MITTELLINIEN
  6
CENTERLINE
 62
1
 10
2.0499252E+002
 20
1.92E+002
 11
1.9075751E+002
 21
1.92E+002
  0
CIRCLE
  8
2D_SICHTBARE_KANTEN
  6
CONTINUOUS
 62
1
 10
1.98E+002
 20
1.92E+002
 40
5.0
  0
CIRCLE
  8
2D_SICHTBARE_KANTEN
  6
CONTINUOUS
 62
1
 10
3.0599998E+002
 20
1.57E+002
 40
5.0
  0
LINE
  8
99
  6
CONTINUOUS
 62
1
 10
1.46E+002
 20
1.4949716E+002
 11
1.46E+002
 21
2.077739E+002
  0
LINE
  8
2D_MITTELLINIEN
  6
CENTERLINE
 62
1
 10
1.3994098E+002
 20
2.0E+002
 11
1.5360422E+002
 21
2.0E+002
  0
LINE
  8
2D_MITTELLINIEN
  6
CENTERLINE
 62
1
 10
3.12059E+002
 20
1.57E+002
 11
2.9839576E+002
 21
1.57E+002
  0
LINE
  8
2D_MITTELLINIEN
  6
CENTERLINE
 62
1
 10
3.0599997E+002
 20
1.4949716E+002
 11
3.0599997E+002
 21
2.0748973E+002
  0
LINE
  8
2D_MITTELLINIEN
  6
CENTERLINE
 62
1
 10
3.12059E+002
 20
1.73E+002
 11
2.9839576E+002
 21
1.73E+002
  0
LINE
  8
2D_MITTELLINIEN
  6
CENTERLINE
 62
1
 10
3.12059E+002
 20
1.84E+002
 11
2.9839576E+002
 21
1.84E+002
  0
ARC
  8
2D_SICHTBARE_KANTEN
  6
CONTINUOUS
 62
40
 10
4.0
 20
2.7992E+001
 40
1.5001402E+001
 50
2.4000309E+002
 51
2.9999691E+002
  0
ARC
  8
2D_SICHTBARE_KANTEN
  6
CONTINUOUS
 62
40
 10
4.0
 20
8.201E+001
 40
1.499967E+001
 50
5.9999272E+001
 51
1.2000073E+002
  0
LINE
  8
2D_SICHTBARE_KANTEN
  6
CONTINUOUS
 62
40
 10
1.15E+001
 20
1.5E+001
 11
-3.5
 21
1.5E+001
  0
LINE
  8
2D_SICHTBARE_KANTEN
  6
CONTINUOUS
 62
40
 10
-3.5
 20
1.5E+001
 11
-3.5
 21
5.5E+001
  0
LINE
  8
2D_SICHTBARE_KANTEN
  6
CONTINUOUS
 62
40
 10
-3.5
 20
5.5E+001
 11
1.15E+001
 21
5.5E+001
  0
LINE
  8
2D_SICHTBARE_KANTEN
  6
CONTINUOUS
 62
40
 10
1.15E+001
 20
5.5E+001
 11
1.15E+001
 21
1.5E+001
  0
LINE
  8
2D_SICHTBARE_KANTEN
  6
CONTINUOUS
 62
40
 10
1.15E+001
 20
5.5E+001
 11
-3.5
 21
5.5E+001
  0
LINE
  8
2D_SICHTBARE_KANTEN
  6
CONTINUOUS
 62
40
 10
-3.5
 20
5.5E+001
 11
-3.5
 21
9.5E+001
  0
LINE
  8
2D_SICHTBARE_KANTEN
  6
CONTINUOUS
 62
40
 10
-3.5
 20
9.5E+001
 11
1.15E+001
 21
9.5E+001
  0
LINE
  8
2D_SICHTBARE_KANTEN
  6
CONTINUOUS
 62
40
 10
1.15E+001
 20
9.5E+001
 11
1.15E+001
 21
5.5E+001
  0
LINE
  8
2D_MITTELLINIEN
  6
CENTERLINE
 62
1
 10
4.0
 20
5.866
 11
4.0
 21
1.02166E+002
  0
LINE
  8
2D_SICHTBARE_KANTEN
  6
CONTINUOUS
 62
40
 10
0.0
 20
0.0
 11
0.0
 21
1.3534E+001
  0
LINE
  8
2D_SICHTBARE_KANTEN
  6
CONTINUOUS
 62
40
 10
0.0
 20
9.6468E+001
 11
0.0
 21
2.19E+002
  0
LINE
  8
2D_SICHTBARE_KANTEN
  6
CONTINUOUS
 62
40
 10
0.0
 20
2.19E+002
 11
1.679996E+002
 21
2.19E+002
  0
LINE
  8
2D_SICHTBARE_KANTEN
  6
CONTINUOUS
 62
40
 10
5.6499994E+002
 20
2.19E+002
 11
7.099996E+002
 21
2.19E+002
  0
LINE
  8
2D_SICHTBARE_KANTEN
  6
CONTINUOUS
 62
40
 10
4.0
 20
0.0
 11
4.0
 21
1.2992E+001
  0
LINE
  8
2D_SICHTBARE_KANTEN
  6
CONTINUOUS
 62
40
 10
4.0
 20
9.701E+001
 11
4.0
 21
2.15E+002
  0
LINE
  8
2D_SICHTBARE_KANTEN
  6
CONTINUOUS
 62
40
 10
4.0
 20
2.15E+002
 11
1.68E+002
 21
2.15E+002
  0
LINE
  8
2D_SICHTBARE_KANTEN
  6
CONTINUOUS
 62
40
 10
1.9E+002
 20
2.15E+002
 11
7.099996E+002
 21
2.15E+002
  0
LINE
  8
2D_MITTELLINIEN
  6
CENTERLINE
 62
1
 10
7.099996E+002
 20
3.22524E+002
 11
7.099996E+002
 21
-1.5468E+001
  0
LINE
  8
2D_MITTELLINIEN
  6
CENTERLINE
 62
1
 10
3.12059E+002
 20
2.0E+002
 11
2.9839576E+002
 21
2.0E+002
  0
LINE
  8
2D_MITTELLINIEN
  6
CENTERLINE
 62
1
 10
1.3994098E+002
 20
1.57E+002
 11
1.5360422E+002
 21
1.57E+002
  0
LINE
  8
2D_MITTELLINIEN
  6
CENTERLINE
 62
1
 10
1.3994098E+002
 20
1.73E+002
 11
1.5360422E+002
 21
1.73E+002
  0
LINE
  8
2D_MITTELLINIEN
  6
CENTERLINE
 62
1
 10
1.3994098E+002
 20
1.84E+002
 11
1.5360422E+002
 21
1.84E+002
  0
CIRCLE
  8
2D_SICHTBARE_KANTEN
  6
CONTINUOUS
 62
1
 10
3.0599998E+002
 20
1.73E+002
 40
5.0
  0
CIRCLE
  8
2D_SICHTBARE_KANTEN
  6
CONTINUOUS
 62
1
 10
3.0599998E+002
 20
1.84E+002
 40
5.0
  0
CIRCLE
  8
2D_SICHTBARE_KANTEN
  6
CONTINUOUS
 62
1
 10
3.0599998E+002
 20
2.0E+002
 40
5.0
  0
CIRCLE
  8
2D_SICHTBARE_KANTEN
  6
CONTINUOUS
 62
1
 10
1.46E+002
 20
1.57E+002
 40
5.0
  0
CIRCLE
  8
2D_SICHTBARE_KANTEN
  6
CONTINUOUS
 62
1
 10
1.46E+002
 20
1.73E+002
 40
5.0
  0
CIRCLE
  8
2D_SICHTBARE_KANTEN
  6
CONTINUOUS
 62
1
 10
1.46E+002
 20
1.84E+002
 40
5.0
  0
LINE
  8
2D_SICHTBARE_KANTEN
  6
CONTINUOUS
 62
40
 10
9.9E+001
 20
1.5125E+002
 11
9.85E+001
 21
1.5125E+002
  0
LINE
  8
2D_SICHTBARE_KANTEN
  6
CONTINUOUS
 62
40
 10
9.85E+001
 20
1.5125E+002
 11
8.85E+001
 21
1.5125E+002
  0
LINE
  8
2D_SICHTBARE_KANTEN
  6
CONTINUOUS
 62
40
 10
8.85E+001
 20
1.5125E+002
 11
8.85E+001
 21
2.1125E+002
  0
LINE
  8
2D_SICHTBARE_KANTEN
  6
CONTINUOUS
 62
40
 10
8.85E+001
 20
2.1125E+002
 11
9.85E+001
 21
2.1125E+002
  0
LINE
  8
2D_SICHTBARE_KANTEN
  6
CONTINUOUS
 62
40
 10
9.85E+001
 20
2.1125E+002
 11
9.9E+001
 21
2.1125E+002
  0
LINE
  8
2D_SICHTBARE_KANTEN
  6
CONTINUOUS
 62
40
 10
9.9E+001
 20
2.1125E+002
 11
3.5299997E+002
 21
2.1125E+002
  0
LINE
  8
2D_SICHTBARE_KANTEN
  6
CONTINUOUS
 62
40
 10
3.5299997E+002
 20
2.1125E+002
 11
3.5349997E+002
 21
2.1125E+002
  0
LINE
  8
2D_SICHTBARE_KANTEN
  6
CONTINUOUS
 62
40
 10
3.5349997E+002
 20
2.1125E+002
 11
3.6349997E+002
 21
2.1125E+002
  0
LINE
  8
2D_SICHTBARE_KANTEN
  6
CONTINUOUS
 62
40
 10
3.6349997E+002
 20
2.1125E+002
 11
3.6349997E+002
 21
1.5125E+002
  0
LINE
  8
2D_SICHTBARE_KANTEN
  6
CONTINUOUS
 62
40
 10
3.5349997E+002
 20
1.5125E+002
 11
3.5299997E+002
 21
1.5125E+002
  0
LINE
  8
2D_SICHTBARE_KANTEN
  6
CONTINUOUS
 62
40
 10
3.6349997E+002
 20
1.5125E+002
 11
9.9E+001
 21
1.5125E+002
  0
LINE
  8
2D_SICHTBARE_KANTEN
  6
CONTINUOUS
 62
40
 10
3.5349997E+002
 20
1.5175E+002
 11
3.5349997E+002
 21
1.5125E+002
  0
LINE
  8
2D_MITTELLINIEN
  6
CENTERLINE
 62
1
 10
1.46E+002
 20
1.4949716E+002
 11
1.46E+002
 21
1.8052255E+002
  0
LINE
  8
2D_MITTELLINIEN
  6
CENTERLINE
 62
1
 10
1.46E+002
 20
1.8052255E+002
 11
1.46E+002
 21
2.0421332E+002
  0
LINE
  8
2D_MITTELLINIEN
  6
CENTERLINE
 62
1
 10
3.0599998E+002
 20
1.4949716E+002
 11
3.0599998E+002
 21
1.8148209E+002
  0
LINE
  8
2D_MITTELLINIEN
  6
CENTERLINE
 62
1
 10
3.0599998E+002
 20
1.8148209E+002
 11
3.0599998E+002
 21
2.04755E+002
  0
LINE
  8
2D_SICHTBARE_KANTEN
  6
CONTINUOUS
 62
40
 10
1.7575E+002
 20
2.195E+002
 11
1.8224999E+002
 21
2.195E+002
  0
LINE
  8
2D_MITTELLINIEN
  6
CENTERLINE
 62
1
 10
5.5399994E+002
 20
2.1745738E+002
 11
5.5399994E+002
 21
2.3120024E+002
  0
LINE
  8
2D_SICHTBARE_KANTEN
  6
CONTINUOUS
 62
40
 10
1.731E+002
 20
2.195E+002
 11
1.8489999E+002
 21
2.195E+002
  0
LINE
  8
2D_SICHTBARE_KANTEN
  6
CONTINUOUS
 62
40
 10
5.5999994E+002
 20
2.1949998E+002
 11
5.5897491E+002
 21
2.1949998E+002
  0
LINE
  8
2D_SICHTBARE_KANTEN
  6
CONTINUOUS
 62
40
 10
5.4902496E+002
 20
2.1949998E+002
 11
5.4799994E+002
 21
2.1949998E+002
  0
DIMENSION
  8
2D_BEMASSUNG
  6
CONTINUOUS
 62
1
  1
84
  2
*D289
  3
DSTYLE2
 10
8.85E+001
 20
1.3693352E+002
 11
3.6857709E+001
 21
1.4343552E+002
 70
128
 13
4.0
 23
9.701E+001
 14
8.85E+001
 24
1.5125E+002
 40
1.0E+001
 50
0.0
1001
ACAD
1000
DSTYLE
1002
{
1070
173
1070
0
1070
5
1000
_AH13
1002
}
  0
TEXT
  8
2D_TEXT
  6
CONTINUOUS
 62
1
 10
4.6552009E+001
 20
1.4692547E+002
 40
7.0
  1
(80)
 41
8.0E-001
  0
DIMENSION
  8
2D_BEMASSUNG
  6
CONTINUOUS
 62
1
  2
*D291
  3
DSTYLE2
 10
6.9211017E+001
 20
2.4949998E+002
 11
6.2709017E+001
 21
2.4209935E+002
 70
128
 13
1.4875E+002
 23
2.3799998E+002
 14
9.6184681E+001
 24
2.4949998E+002
 40
1.0E+001
 50
9.0E+001
1001
ACAD
1000
DSTYLE
1002
{
1070
173
1070
0
1070
5
1000
_AH13
1002
}
  0
TEXT
  8
2D_TEXT
  6
CONTINUOUS
 62
1
 10
1.9303305E+001
 20
2.8109783E+002
 40
7.0
  1
%%c8 (24V DC)
 41
8.0E-001
  0
LINE
  8
2D_SICHTBARE_KANTEN
  6
CONTINUOUS
 62
1
 10
1.8445287E+001
 20
2.7737975E+002
 11
7.9936577E+001
 21
2.7737975E+002
  0
LINE
  8
2D_SICHTBARE_KANTEN
  6
CONTINUOUS
 62
1
 10
7.9936577E+001
 20
2.7737975E+002
 11
1.0299996E+002
 21
2.4929173E+002
  0
DIMENSION
  8
2D_BEMASSUNG
  6
CONTINUOUS
 62
1
  2
*D295
  3
DSTYLE2
 10
1.46E+002
 20
1.1579241E+002
 11
2.2717766E+002
 21
1.2229441E+002
 70
128
 13
3.0599998E+002
 23
1.4949716E+002
 14
1.46E+002
 24
1.4949716E+002
 40
1.0E+001
 50
0.0
1001
ACAD
1000
DSTYLE
1002
{
1070
173
1070
0
1070
5
1000
_AH13
1002
}
  0
DIMENSION
  8
2D_BEMASSUNG
  6
CONTINUOUS
 62
1
  2
*D296
  3
DSTYLE2
 10
1.4600016E+002
 20
1.3226177E+002
 11
1.7345981E+002
 21
1.3876383E+002
 70
128
 13
1.54E+002
 23
2.3083507E+002
 14
1.46E+002
 24
2.077739E+002
 40
1.0E+001
 50
1.8000012E+002
1001
ACAD
1000
DSTYLE
1002
{
1070
173
1070
0
1070
5
1000
_AH13
1002
}
  0
LINE
  8
2D_MITTELLINIEN
  6
CENTERLINE
 62
1
 10
5.8201175E+002
 20
2.4507423E+002
 11
5.8199799E+002
 21
2.3067516E+002
  0
LINE
  8
2D_MITTELLINIEN
  6
CENTERLINE
 62
1
 10
5.8724997E+002
 20
2.3799998E+002
 11
5.7699997E+002
 21
2.3799998E+002
  0
CIRCLE
  8
2D_SICHTBARE_KANTEN
  6
CONTINUOUS
 62
1
 10
5.8200499E+002
 20
2.3799998E+002
 40
3.0
  0
LINE
  8
2D_SICHTBARE_KANTEN
  6
CONTINUOUS
 62
40
 10
6.065E+002
 20
2.5799995E+002
 11
8.85E+001
 21
2.5799995E+002
  0
LINE
  8
2D_SICHTBARE_KANTEN
  6
CONTINUOUS
 62
40
 10
6.065E+002
 20
2.2799995E+002
 11
8.85E+001
 21
2.2799995E+002
  0
LINE
  8
2D_SICHTBARE_KANTEN
  6
CONTINUOUS
 62
40
 10
6.065E+002
 20
2.2799995E+002
 11
6.065E+002
 21
2.5799995E+002
  0
LINE
  8
2D_SICHTBARE_KANTEN
  6
CONTINUOUS
 62
40
 10
8.85E+001
 20
2.2799995E+002
 11
8.85E+001
 21
2.5799995E+002
  0
LINE
  8
2D_MITTELLINIEN
  6
CENTERLINE
 62
1
 10
1.54E+002
 20
2.3083507E+002
 11
1.5399997E+002
 21
2.4500174E+002
  0
LINE
  8
2D_MITTELLINIEN
  6
CENTERLINE
 62
1
 10
1.59E+002
 20
2.3799998E+002
 11
1.4875E+002
 21
2.3799998E+002
  0
CIRCLE
  8
2D_SICHTBARE_KANTEN
  6
CONTINUOUS
 62
1
 10
1.5399998E+002
 20
2.3799998E+002
 40
3.0
  0
LINE
  8
2D_MITTELLINIEN
  6
CENTERLINE
 62
1
 10
1.0974631E+002
 20
2.4949998E+002
 11
9.6184681E+001
 21
2.4949998E+002
  0
LINE
  8
2D_MITTELLINIEN
  6
CENTERLINE
 62
1
 10
1.0299998E+002
 20
2.4163191E+002
 11
1.0299994E+002
 21
2.5695155E+002
  0
CIRCLE
  8
2D_SICHTBARE_KANTEN
  6
CONTINUOUS
 62
1
 10
1.0299996E+002
 20
2.4949998E+002
 40
4.0
  0
ARC
  8
2D_SICHTBARE_KANTEN
  6
CONTINUOUS
 62
40
 10
4.0
 20
2.7992E+001
 40
1.5001402E+001
 50
2.4000309E+002
 51
2.9999691E+002
  0
ARC
  8
2D_SICHTBARE_KANTEN
  6
CONTINUOUS
 62
40
 10
4.0
 20
8.201E+001
 40
1.499967E+001
 50
5.9999272E+001
 51
1.2000073E+002
  0
LINE
  8
2D_SICHTBARE_KANTEN
  6
CONTINUOUS
 62
40
 10
1.15E+001
 20
1.5E+001
 11
-3.5
 21
1.5E+001
  0
LINE
  8
2D_SICHTBARE_KANTEN
  6
CONTINUOUS
 62
40
 10
-3.5
 20
1.5E+001
 11
-3.5
 21
5.5E+001
  0
LINE
  8
2D_SICHTBARE_KANTEN
  6
CONTINUOUS
 62
40
 10
-3.5
 20
5.5E+001
 11
1.15E+001
 21
5.5E+001
  0
LINE
  8
2D_SICHTBARE_KANTEN
  6
CONTINUOUS
 62
40
 10
1.15E+001
 20
5.5E+001
 11
1.15E+001
 21
1.5E+001
  0
LINE
  8
2D_SICHTBARE_KANTEN
  6
CONTINUOUS
 62
40
 10
1.15E+001
 20
5.5E+001
 11
-3.5
 21
5.5E+001
  0
LINE
  8
2D_SICHTBARE_KANTEN
  6
CONTINUOUS
 62
40
 10
-3.5
 20
5.5E+001
 11
-3.5
 21
9.5E+001
  0
LINE
  8
2D_SICHTBARE_KANTEN
  6
CONTINUOUS
 62
40
 10
-3.5
 20
9.5E+001
 11
1.15E+001
 21
9.5E+001
  0
LINE
  8
2D_SICHTBARE_KANTEN
  6
CONTINUOUS
 62
40
 10
1.15E+001
 20
9.5E+001
 11
1.15E+001
 21
5.5E+001
  0
LINE
  8
2D_MITTELLINIEN
  6
CENTERLINE
 62
1
 10
4.0
 20
5.866
 11
4.0
 21
1.02166E+002
  0
LINE
  8
2D_SICHTBARE_KANTEN
  6
CONTINUOUS
 62
40
 10
-8.5E+001
 20
0.0
 11
-8.5E+001
 21
3.04E+002
  0
LINE
  8
2D_SICHTBARE_KANTEN
  6
CONTINUOUS
 62
40
 10
0.0
 20
2.19E+002
 11
-8.5E+001
 21
3.04E+002
  0
LINE
  8
2D_SICHTBARE_KANTEN
  6
CONTINUOUS
 62
40
 10
-8.5E+001
 20
3.04E+002
 11
7.099996E+002
 21
3.04E+002
  0
DIMENSION
  8
2D_BEMASSUNG
  6
CONTINUOUS
 62
4
  2
*D338
  3
DSTYLE1
 10
1.539996E+002
 20
3.2149254E+002
 11
3.7609171E+002
 21
3.2732554E+002
 70
128
 13
5.820096E+002
 23
2.42842E+002
 14
1.539996E+002
 24
2.4325E+002
 40
3.0
 50
0.0
1001
ACAD
1000
DSTYLE
1002
{
1070
173
1070
0
1070
5
1000
_AH13
1002
}
  0
LINE
  8
2D_MITTELLINIEN
  6
CENTERLINE
 62
1
 10
7.200556E+002
 20
0.0
 11
-8.964062E+001
 21
0.0
  0
DIMENSION
  8
2D_BEMASSUNG
  6
CONTINUOUS
 62
4
  2
*D340
  3
DSTYLE1
 10
1.0299994E+002
 20
3.2265534E+002
 11
5.5876289E+001
 21
3.2848834E+002
 70
128
 13
4.0
 23
9.701E+001
 14
1.0299994E+002
 24
2.5799995E+002
 40
3.0
 50
0.0
1001
ACAD
1000
DSTYLE
1002
{
1070
173
1070
0
1070
5
1000
_AH13
1002
}
  0
POINT
  8
Drafting_Hidden_Entities
  6
CONTINUOUS
 62
1
 10
0.0
 20
0.0
  0
ENDBLK
  0
BLOCK
  2
3
 10
0.0
 20
0.0
 70
0
  0
TEXT
  8
2D_TEXT
  6
CONTINUOUS
 62
40
 10
2.1506884E+002
 20
3.4691481E+001
 40
1.0E+001
  1
p439101.she
 41
6.5454545E-001
 72
1
 11
1.7906884E+002
 21
2.9691481E+001
 73
2
  0
TEXT
  8
2D_TEXT
  6
CONTINUOUS
 62
150
 10
1.3993183E+002
 20
1.2917903E+001
 40
7.0
  1
Maßstab:
 41
6.4687502E-001
 72
1
 11
1.2181933E+002
 21
9.4179026
 73
2
  0
LINE
  8
MED-1
  6
CONTINUOUS
 62
3
 10
0.0
 20
4.0E+001
 11
0.0
 21
7.56132E+001
  0
LINE
  8
MED-1
  6
CONTINUOUS
 62
3
 10
0.0
 20
7.56132E+001
 11
2.26714E+002
 21
7.56132E+001
  0
LINE
  8
MED-1
  6
CONTINUOUS
 62
3
 10
2.26714E+002
 20
7.56132E+001
 11
2.26714E+002
 21
4.0E+001
  0
TEXT
  8
2D_TEXT
  6
CONTINUOUS
 62
150
 10
4.6041464E+001
 20
5.1228346E+001
 40
7.0
  1
Benennung
 41
6.5000002E-001
 72
1
 11
2.5566463E+001
 21
4.7728346E+001
 73
2
  0
TEXT
  8
2D_TEXT
  6
CONTINUOUS
 62
40
 10
2.1063639E+001
 20
5.8891194E+001
 40
1.0E+001
  1
Montage Bandseite
 41
6.6176471E-001
  0
TEXT
  8
2D_TEXT
  6
CONTINUOUS
 62
150
 10
1.7089744E+002
 20
5.2493312E+001
 40
7.0
  1
verstellb. Gleitschiene
 41
6.6521741E-001
 72
1
 11
1.1734744E+002
 21
4.8993312E+001
 73
2
  0
TEXT
  8
2D_TEXT
  6
CONTINUOUS
 62
150
 10
1.3405737E+002
 20
3.2116202E+001
 40
7.0
  1
Zng.Nr.
 41
6.4285716E-001
 72
1
 11
1.1830737E+002
 21
2.8616202E+001
 73
2
  0
TEXT
  8
2D_TEXT
  6
CONTINUOUS
 62
40
 10
9.1858944E+001
 20
3.486946E+001
 40
1.0E+001
  1
M.Schell
 41
6.46875E-001
 72
1
 11
6.5983944E+001
 21
2.986946E+001
 73
2
  0
TEXT
  8
2D_TEXT
  6
CONTINUOUS
 62
40
 10
9.1069393E+001
 20
1.572172E+001
 40
1.0E+001
  1
01.10.97
 41
6.46875E-001
 72
1
 11
6.5194393E+001
 21
1.072172E+001
 73
2
  0
TEXT
  8
2D_TEXT
  6
CONTINUOUS
 62
150
 10
2.2949667E+001
 20
3.2429518E+001
 40
7.0
  1
gez.
 41
6.1875002E-001
 72
1
 11
1.4287167E+001
 21
2.8929518E+001
 73
2
  0
TEXT
  8
2D_TEXT
  6
CONTINUOUS
 62
150
 10
2.5938815E+001
 20
1.3630694E+001
 40
7.0
  1
Datum
 41
6.3000002E-001
 72
1
 11
1.4913814E+001
 21
1.0130694E+001
 73
2
  0
TEXT
  8
2D_TEXT
  6
CONTINUOUS
 62
40
 10
1.6272375E+002
 20
1.5031474E+001
 40
1.0E+001
  1
1:2
 41
6.0E-001
 72
1
 11
1.5372375E+002
 21
1.0031474E+001
 73
2
  0
LINE
  8
MED-1
  6
CONTINUOUS
 62
3
 10
1.79314E+002
 20
2.0E+001
 11
1.79314E+002
 21
0.0
  0
TEXT
  8
2D_TEXT
  6
CONTINUOUS
 62
40
 10
2.1114953E+002
 20
1.5442698E+001
 40
1.0E+001
  1
A 3
 41
6.0E-001
 72
1
 11
2.0214953E+002
 21
1.0442698E+001
 73
2
  0
LINE
  8
MED-1
  6
CONTINUOUS
 62
3
 10
0.0
 20
4.0E+001
 11
2.26714E+002
 21
4.0E+001
  0
LINE
  8
MED-1
  6
CONTINUOUS
 62
3
 10
2.26714E+002
 20
4.0E+001
 11
2.26714E+002
 21
0.0
  0
LINE
  8
MED-1
  6
CONTINUOUS
 62
3
 10
2.26714E+002
 20
0.0
 11
0.0
 21
0.0
  0
LINE
  8
MED-1
  6
CONTINUOUS
 62
3
 10
0.0
 20
0.0
 11
0.0
 21
4.0E+001
  0
LINE
  8
MED-1
  6
CONTINUOUS
 62
3
 10
9.962E+001
 20
4.0E+001
 11
9.962E+001
 21
0.0
  0
LINE
  8
MED-1
  6
CONTINUOUS
 62
3
 10
0.0
 20
2.0E+001
 11
2.26714E+002
 21
2.0E+001
  0
POINT
  8
Drafting_Hidden_Entities
  6
CONTINUOUS
 62
1
 10
0.0
 20
0.0
  0
ENDBLK
  0
BLOCK
  2
1
 10
0.0
 20
0.0
 70
0
  0
LINE
  8
2D_SICHTBARE_KANTEN
  6
CONTINUOUS
 62
40
 10
3.9949997E+002
 20
5.4999954E+001
 11
3.9949997E+002
 21
5.2699997E+001
  0
LINE
  8
2D_SICHTBARE_KANTEN
  6
CONTINUOUS
 62
40
 10
3.9949997E+002
 20
5.2699997E+001
 11
4.1649997E+002
 21
5.2699997E+001
  0
LINE
  8
2D_SICHTBARE_KANTEN
  6
CONTINUOUS
 62
40
 10
4.1649997E+002
 20
5.2699997E+001
 11
4.1649997E+002
 21
5.4999954E+001
  0
LINE
  8
2D_SICHTBARE_KANTEN
  6
CONTINUOUS
 62
40
 10
4.1402496E+002
 20
5.2699997E+001
 11
4.1402496E+002
 21
5.2249985E+001
  0
LINE
  8
2D_SICHTBARE_KANTEN
  6
CONTINUOUS
 62
40
 10
4.1402496E+002
 20
5.2249985E+001
 11
4.0197495E+002
 21
5.2249985E+001
  0
LINE
  8
2D_SICHTBARE_KANTEN
  6
CONTINUOUS
 62
40
 10
4.0197495E+002
 20
5.2249985E+001
 11
4.0197495E+002
 21
5.2699997E+001
  0
LINE
  8
2D_SICHTBARE_KANTEN
  6
CONTINUOUS
 62
40
 10
4.0302496E+002
 20
5.2249985E+001
 11
4.0302496E+002
 21
5.1249985E+001
  0
LINE
  8
2D_SICHTBARE_KANTEN
  6
CONTINUOUS
 62
40
 10
4.1297491E+002
 20
5.2249985E+001
 11
4.1297491E+002
 21
5.1249985E+001
  0
LINE
  8
2D_SICHTBARE_KANTEN
  6
CONTINUOUS
 62
40
 10
2.799999E+001
 20
5.1249985E+001
 11
2.799999E+001
 21
5.1749985E+001
  0
ARC
  8
2D_SICHTBARE_KANTEN
  6
CONTINUOUS
 62
40
 10
2.849999E+001
 20
5.1749984E+001
 40
5.0000028E-001
 50
9.0E+001
 51
1.8E+002
  0
LINE
  8
2D_SICHTBARE_KANTEN
  6
CONTINUOUS
 62
40
 10
2.849999E+001
 20
5.2249985E+001
 11
3.749999E+001
 21
5.2249985E+001
  0
ARC
  8
2D_SICHTBARE_KANTEN
  6
CONTINUOUS
 62
40
 10
3.7500001E+001
 20
5.1749996E+001
 40
4.9998907E-001
 50
3.5999875E+002
 51
4.5000125E+002
  0
LINE
  8
2D_SICHTBARE_KANTEN
  6
CONTINUOUS
 62
40
 10
3.799999E+001
 20
5.1749985E+001
 11
3.799999E+001
 21
5.1249985E+001
  0
LINE
  8
2D_SICHTBARE_KANTEN
  6
CONTINUOUS
 62
40
 10
2.2E+001
 20
4.6249985E+001
 11
4.4E+001
 21
4.6249985E+001
  0
LINE
  8
2D_SICHTBARE_KANTEN
  6
CONTINUOUS
 62
40
 10
4.4E+001
 20
4.6249985E+001
 11
4.4E+001
 21
3.825E+001
  0
LINE
  8
2D_SICHTBARE_KANTEN
  6
CONTINUOUS
 62
40
 10
4.1899994E+002
 20
4.6249985E+001
 11
4.1899994E+002
 21
5.1249985E+001
  0
LINE
  8
2D_SICHTBARE_KANTEN
  6
CONTINUOUS
 62
40
 10
2.2E+001
 20
5.1249985E+001
 11
4.1899994E+002
 21
5.1249985E+001
  0
LINE
  8
2D_SICHTBARE_KANTEN
  6
CONTINUOUS
 62
40
 10
2.2E+001
 20
3.825E+001
 11
2.2E+001
 21
5.1249985E+001
  0
LINE
  8
2D_SICHTBARE_KANTEN
  6
CONTINUOUS
 62
40
 10
2.2E+001
 20
4.6249985E+001
 11
4.1899994E+002
 21
4.6249985E+001
  0
LINE
  8
2D_SICHTBARE_KANTEN
  6
CONTINUOUS
 62
40
 10
4.0151495E+002
 20
4.6249985E+001
 11
4.0151495E+002
 21
4.5749954E+001
  0
ARC
  8
2D_SICHTBARE_KANTEN
  6
CONTINUOUS
 62
40
 10
4.0201495E+002
 20
4.5749948E+001
 40
4.9999411E-001
 50
1.7999933E+002
 51
2.7000067E+002
  0
LINE
  8
2D_SICHTBARE_KANTEN
  6
CONTINUOUS
 62
40
 10
4.0201495E+002
 20
4.5249954E+001
 11
4.1398492E+002
 21
4.5249954E+001
  0
ARC
  8
2D_SICHTBARE_KANTEN
  6
CONTINUOUS
 62
40
 10
4.1398494E+002
 20
4.5749935E+001
 40
4.9998037E-001
 50
2.6999775E+002
 51
3.6000225E+002
  0
LINE
  8
2D_SICHTBARE_KANTEN
  6
CONTINUOUS
 62
40
 10
4.1448492E+002
 20
4.5749954E+001
 11
4.1448492E+002
 21
4.6249985E+001
  0
LINE
  8
2D_MITTELLINIEN
  6
CENTERLINE
 62
1
 10
3.3E+001
 20
5.4296097E+001
 11
3.3E+001
 21
3.0957826E+001
  0
CIRCLE
  8
2D_VERDECKTE_KANTEN
  6
HIDDEN
 62
1
 10
0.0
 20
2.7E+001
 40
5.0
  0
CIRCLE
  8
2D_VERDECKTE_KANTEN
  6
HIDDEN
 62
1
 10
1.0799999E+002
 20
1.9E+001
 40
5.0
  0
LINE
  8
2D_MITTELLINIEN
  6
CENTERLINE
 62
1
 10
1.0799998E+002
 20
2.6166641E+001
 11
1.0799998E+002
 21
1.173114E+001
  0
LINE
  8
2D_MITTELLINIEN
  6
CENTERLINE
 62
1
 10
1.1499251E+002
 20
1.9E+001
 11
1.0075749E+002
 21
1.9E+001
  0
LINE
  8
2D_MITTELLINIEN
  6
CENTERLINE
 62
1
 10
5.2E+001
 20
2.6166641E+001
 11
5.2E+001
 21
1.173114E+001
  0
LINE
  8
2D_MITTELLINIEN
  6
CENTERLINE
 62
1
 10
5.8992523E+001
 20
1.9E+001
 11
4.4757507E+001
 21
1.9E+001
  0
CIRCLE
  8
2D_VERDECKTE_KANTEN
  6
HIDDEN
 62
1
 10
5.2E+001
 20
1.9E+001
 40
5.0
  0
CIRCLE
  8
2D_VERDECKTE_KANTEN
  6
HIDDEN
 62
1
 10
1.5999998E+002
 20
-1.6E+001
 40
5.0
  0
LINE
  8
99
  6
CONTINUOUS
 62
1
 10
0.0
 20
-2.3502838E+001
 11
0.0
 21
3.4773895E+001
  0
LINE
  8
2D_MITTELLINIEN
  6
CENTERLINE
 62
1
 10
-6.059021
 20
2.7E+001
 11
7.6042175
 21
2.7E+001
  0
LINE
  8
2D_MITTELLINIEN
  6
CENTERLINE
 62
1
 10
1.66059E+002
 20
-1.6E+001
 11
1.5239576E+002
 21
-1.6E+001
  0
LINE
  8
2D_MITTELLINIEN
  6
CENTERLINE
 62
1
 10
1.5999997E+002
 20
-2.3502838E+001
 11
1.5999997E+002
 21
3.4489731E+001
  0
LINE
  8
2D_MITTELLINIEN
  6
CENTERLINE
 62
1
 10
1.66059E+002
 20
0.0
 11
1.5239576E+002
 21
0.0
  0
LINE
  8
2D_MITTELLINIEN
  6
CENTERLINE
 62
1
 10
1.66059E+002
 20
1.1E+001
 11
1.5239576E+002
 21
1.1E+001
  0
LINE
  8
2D_MITTELLINIEN
  6
CENTERLINE
 62
1
 10
1.66059E+002
 20
2.7E+001
 11
1.5239576E+002
 21
2.7E+001
  0
LINE
  8
2D_MITTELLINIEN
  6
CENTERLINE
 62
1
 10
-6.059021
 20
-1.6E+001
 11
7.6042175
 21
-1.6E+001
  0
LINE
  8
2D_MITTELLINIEN
  6
CENTERLINE
 62
1
 10
-6.059021
 20
0.0
 11
7.6042175
 21
0.0
  0
LINE
  8
2D_MITTELLINIEN
  6
CENTERLINE
 62
1
 10
-6.059021
 20
1.1E+001
 11
7.6042175
 21
1.1E+001
  0
CIRCLE
  8
2D_VERDECKTE_KANTEN
  6
HIDDEN
 62
1
 10
1.5999998E+002
 20
0.0
 40
5.0
  0
CIRCLE
  8
2D_VERDECKTE_KANTEN
  6
HIDDEN
 62
1
 10
1.5999998E+002
 20
1.1E+001
 40
5.0
  0
CIRCLE
  8
2D_VERDECKTE_KANTEN
  6
HIDDEN
 62
1
 10
1.5999998E+002
 20
2.7E+001
 40
5.0
  0
CIRCLE
  8
2D_VERDECKTE_KANTEN
  6
HIDDEN
 62
1
 10
0.0
 20
-1.6E+001
 40
5.0
  0
CIRCLE
  8
2D_VERDECKTE_KANTEN
  6
HIDDEN
 62
1
 10
0.0
 20
0.0
 40
5.0
  0
CIRCLE
  8
2D_VERDECKTE_KANTEN
  6
HIDDEN
 62
1
 10
0.0
 20
1.1E+001
 40
5.0
  0
LINE
  8
2D_SICHTBARE_KANTEN
  6
CONTINUOUS
 62
40
 10
-5.2E+001
 20
3.825E+001
 11
2.21E+002
 21
3.825E+001
  0
LINE
  8
2D_MITTELLINIEN
  6
CENTERLINE
 62
1
 10
1.5999998E+002
 20
-2.3502838E+001
 11
1.5999998E+002
 21
3.1755005E+001
  0
LINE
  8
2D_VERDECKTE_KANTEN
  6
HIDDEN
 62
1
 10
1.0999985E+001
 20
6.7499985E+001
 11
1.0999985E+001
 21
6.2499985E+001
  0
ARC
  8
2D_VERDECKTE_KANTEN
  6
HIDDEN
 62
1
 10
7.9999847
 20
6.2499969E+001
 40
3.0
 50
1.8E+002
 51
3.6000029E+002
  0
LINE
  8
2D_VERDECKTE_KANTEN
  6
HIDDEN
 62
1
 10
4.9999847
 20
6.2499969E+001
 11
4.9999847
 21
6.7499985E+001
  0
ARC
  8
2D_VERDECKTE_KANTEN
  6
HIDDEN
 62
1
 10
7.9999847
 20
6.7499985E+001
 40
3.0
 50
0.0
 51
1.8E+002
  0
LINE
  8
2D_MITTELLINIEN
  6
CENTERLINE
 62
1
 10
4.3601175E+002
 20
7.2074231E+001
 11
4.3599799E+002
 21
5.7675157E+001
  0
LINE
  8
2D_MITTELLINIEN
  6
CENTERLINE
 62
1
 10
4.4124997E+002
 20
6.4999985E+001
 11
4.3099997E+002
 21
6.4999985E+001
  0
LINE
  8
2D_MITTELLINIEN
  6
CENTERLINE
 62
1
 10
8.0
 20
5.7835068E+001
 11
7.9999695
 21
7.200174E+001
  0
LINE
  8
2D_VERDECKTE_KANTEN
  6
HIDDEN
 62
1
 10
4.3900498E+002
 20
6.7499985E+001
 11
4.3900498E+002
 21
6.2499985E+001
  0
ARC
  8
2D_VERDECKTE_KANTEN
  6
HIDDEN
 62
1
 10
4.3600498E+002
 20
6.2499969E+001
 40
3.0
 50
1.8E+002
 51
3.6000029E+002
  0
LINE
  8
2D_VERDECKTE_KANTEN
  6
HIDDEN
 62
1
 10
4.3300498E+002
 20
6.2499969E+001
 11
4.3300498E+002
 21
6.7499985E+001
  0
ARC
  8
2D_VERDECKTE_KANTEN
  6
HIDDEN
 62
1
 10
4.3600498E+002
 20
6.7499985E+001
 40
3.0
 50
0.0
 51
1.8E+002
  0
LINE
  8
2D_MITTELLINIEN
  6
CENTERLINE
 62
1
 10
1.3E+001
 20
6.4999985E+001
 11
2.75
 21
6.4999985E+001
  0
ARC
  8
2D_SICHTBARE_KANTEN
  6
CONTINUOUS
 62
40
 10
4.417538E+002
 20
7.3999965E+001
 40
9.9998906E-001
 50
3.5999937E+002
 51
4.5000063E+002
  0
LINE
  8
2D_SICHTBARE_KANTEN
  6
CONTINUOUS
 62
40
 10
4.4275378E+002
 20
7.3999954E+001
 11
4.4275378E+002
 21
5.5999954E+001
  0
ARC
  8
2D_SICHTBARE_KANTEN
  6
CONTINUOUS
 62
40
 10
4.4175379E+002
 20
5.5999948E+001
 40
9.999935E-001
 50
2.6999963E+002
 51
3.6000037E+002
  0
LINE
  8
2D_SICHTBARE_KANTEN
  6
CONTINUOUS
 62
40
 10
4.4175378E+002
 20
5.4999954E+001
 11
2.2462006
 21
5.4999954E+001
  0
ARC
  8
2D_SICHTBARE_KANTEN
  6
CONTINUOUS
 62
40
 10
2.2462007
 20
5.5999954E+001
 40
1.0000001
 50
1.8E+002
 51
2.7E+002
  0
LINE
  8
2D_SICHTBARE_KANTEN
  6
CONTINUOUS
 62
40
 10
1.2462006
 20
5.5999954E+001
 11
1.2462006
 21
7.4999954E+001
  0
LINE
  8
2D_SICHTBARE_KANTEN
  6
CONTINUOUS
 62
40
 10
1.2462006
 20
7.4999954E+001
 11
4.4175378E+002
 21
7.4999954E+001
  0
LINE
  8
2D_SICHTBARE_KANTEN
  6
CONTINUOUS
 62
40
 10
1.3246185E+001
 20
7.4999954E+001
 11
1.3246185E+001
 21
5.4999985E+001
  0
LINE
  8
2D_SICHTBARE_KANTEN
  6
CONTINUOUS
 62
40
 10
4.3075375E+002
 20
7.4999954E+001
 11
4.3075375E+002
 21
5.4999954E+001
  0
LINE
  8
2D_SICHTBARE_KANTEN
  6
CONTINUOUS
 62
40
 10
2.975E+001
 20
4.625E+001
 11
3.6249992E+001
 21
4.625E+001
  0
LINE
  8
2D_MITTELLINIEN
  6
CENTERLINE
 62
1
 10
4.0799994E+002
 20
4.4457382E+001
 11
4.0799994E+002
 21
5.8200241E+001
  0
LINE
  8
2D_SICHTBARE_KANTEN
  6
CONTINUOUS
 62
40
 10
2.7099998E+001
 20
4.625E+001
 11
3.8899994E+001
 21
4.625E+001
  0
LINE
  8
2D_SICHTBARE_KANTEN
  6
CONTINUOUS
 62
40
 10
-5.2E+001
 20
-2.675E+001
 11
2.21E+002
 21
-2.675E+001
  0
LINE
  8
2D_SICHTBARE_KANTEN
  6
CONTINUOUS
 62
40
 10
-5.5E+001
 20
3.525E+001
 11
-5.5E+001
 21
-2.375E+001
  0
LINE
  8
2D_SICHTBARE_KANTEN
  6
CONTINUOUS
 62
40
 10
2.24E+002
 20
3.525E+001
 11
2.24E+002
 21
-2.375E+001
  0
LINE
  8
2D_SICHTBARE_KANTEN
  6
CONTINUOUS
 62
40
 10
-4.45E+001
 20
3.825E+001
 11
-4.45E+001
 21
-2.675E+001
  0
LINE
  8
2D_SICHTBARE_KANTEN
  6
CONTINUOUS
 62
40
 10
2.135E+002
 20
3.825E+001
 11
2.135E+002
 21
-2.675E+001
  0
ARC
  8
2D_SICHTBARE_KANTEN
  6
CONTINUOUS
 62
40
 10
2.21E+002
 20
3.525E+001
 40
3.0
 50
0.0
 51
9.0E+001
  0
ARC
  8
2D_SICHTBARE_KANTEN
  6
CONTINUOUS
 62
40
 10
2.21E+002
 20
-2.375E+001
 40
3.0
 50
2.7E+002
 51
3.6E+002
  0
ARC
  8
2D_SICHTBARE_KANTEN
  6
CONTINUOUS
 62
40
 10
-5.2E+001
 20
-2.375E+001
 40
3.0
 50
1.8E+002
 51
2.7E+002
  0
ARC
  8
2D_SICHTBARE_KANTEN
  6
CONTINUOUS
 62
40
 10
-5.2E+001
 20
3.525E+001
 40
3.0
 50
9.0E+001
 51
1.8E+002
  0
POINT
  8
Drafting_Hidden_Entities
  6
CONTINUOUS
 62
1
 10
0.0
 20
0.0
  0
ENDBLK
  0
BLOCK
  2
9
 10
0.0
 20
0.0
 70
0
  0
LINE
  8
2D_MITTELLINIEN
  6
CENTERLINE
 62
1
 10
4.0301175E+002
 20
3.3824231E+001
 11
4.0299799E+002
 21
1.9425157E+001
  0
LINE
  8
2D_MITTELLINIEN
  6
CENTERLINE
 62
1
 10
4.0824997E+002
 20
2.6749985E+001
 11
3.9799997E+002
 21
2.6749985E+001
  0
CIRCLE
  8
2D_SICHTBARE_KANTEN
  6
CONTINUOUS
 62
1
 10
4.0300499E+002
 20
2.6749985E+001
 40
3.0
  0
LINE
  8
2D_SICHTBARE_KANTEN
  6
CONTINUOUS
 62
40
 10
4.275E+002
 20
4.6749954E+001
 11
-9.05E+001
 21
4.6749954E+001
  0
LINE
  8
2D_SICHTBARE_KANTEN
  6
CONTINUOUS
 62
40
 10
4.275E+002
 20
1.6749954E+001
 11
-9.05E+001
 21
1.6749954E+001
  0
LINE
  8
2D_SICHTBARE_KANTEN
  6
CONTINUOUS
 62
40
 10
4.275E+002
 20
1.6749954E+001
 11
4.275E+002
 21
4.6749954E+001
  0
LINE
  8
2D_SICHTBARE_KANTEN
  6
CONTINUOUS
 62
40
 10
-9.05E+001
 20
1.6749954E+001
 11
-9.05E+001
 21
4.6749954E+001
  0
LINE
  8
2D_MITTELLINIEN
  6
CENTERLINE
 62
1
 10
-2.5E+001
 20
1.9585068E+001
 11
-2.5000031E+001
 21
3.375174E+001
  0
LINE
  8
2D_MITTELLINIEN
  6
CENTERLINE
 62
1
 10
-2.0E+001
 20
2.6749985E+001
 11
-3.025E+001
 21
2.6749985E+001
  0
CIRCLE
  8
2D_SICHTBARE_KANTEN
  6
CONTINUOUS
 62
1
 10
-2.5000015E+001
 20
2.6749985E+001
 40
3.0
  0
LINE
  8
2D_MITTELLINIEN
  6
CENTERLINE
 62
1
 10
-6.9253687E+001
 20
3.8249985E+001
 11
-8.2815319E+001
 21
3.8249985E+001
  0
LINE
  8
2D_MITTELLINIEN
  6
CENTERLINE
 62
1
 10
-7.6000023E+001
 20
3.0381914E+001
 11
-7.6000056E+001
 21
4.5701545E+001
  0
CIRCLE
  8
2D_SICHTBARE_KANTEN
  6
CONTINUOUS
 62
1
 10
-7.600004E+001
 20
3.8249985E+001
 40
4.0
  0
POINT
  8
Drafting_Hidden_Entities
  6
CONTINUOUS
 62
1
 10
0.0
 20
0.0
  0
ENDBLK
  0
BLOCK
  2
UU
 10
0.0
 20
0.0
 70
0
  0
LINE
  8
2D_SICHTBARE_KANTEN
  6
CONTINUOUS
 62
40
 10
5.4149997E+002
 20
1.7398395E+002
 11
5.4149997E+002
 21
1.71684E+002
  0
LINE
  8
2D_SICHTBARE_KANTEN
  6
CONTINUOUS
 62
40
 10
5.4149997E+002
 20
1.71684E+002
 11
5.5849997E+002
 21
1.71684E+002
  0
DIMENSION
  8
2D_BEMASSUNG
  6
CONTINUOUS
 62
4
  2
*D499
  3
DSTYLE1
 10
1.419996E+002
 20
6.1234986E+001
 11
7.1155548E+001
 21
6.7065986E+001
 70
128
 13
0.0
 23
6.2974E+001
 14
1.419996E+002
 24
7.0668E+001
 40
3.0
 50
0.0
1001
ACAD
1000
DSTYLE
1002
{
1070
173
1070
0
1070
5
1000
_AH13
1002
}
  0
DIMENSION
  8
2D_BEMASSUNG
  6
CONTINUOUS
 62
4
  2
*D500
  3
DSTYLE1
 10
4.1159677E+001
 20
1.57234E+002
 11
3.5326677E+001
 21
1.3003449E+002
 70
128
 13
7.45498E+001
 23
1.60984E+002
 14
8.45E+001
 24
1.57234E+002
 40
3.0
 50
9.0E+001
1001
ACAD
1000
DSTYLE
1002
{
1070
173
1070
0
1070
5
1000
_AH13
1002
}
  0
LINE
  8
2D_SICHTBARE_KANTEN
  6
CONTINUOUS
 62
40
 10
5.5849997E+002
 20
1.71684E+002
 11
5.5849997E+002
 21
1.7398395E+002
  0
LINE
  8
2D_SICHTBARE_KANTEN
  6
CONTINUOUS
 62
40
 10
5.5602496E+002
 20
1.7178022E+002
 11
5.5602496E+002
 21
1.7148398E+002
  0
LINE
  8
2D_SICHTBARE_KANTEN
  6
CONTINUOUS
 62
40
 10
5.5602496E+002
 20
1.7148398E+002
 11
5.4397495E+002
 21
1.7148398E+002
  0
LINE
  8
2D_SICHTBARE_KANTEN
  6
CONTINUOUS
 62
40
 10
5.4397495E+002
 20
1.7148398E+002
 11
5.4397495E+002
 21
1.71684E+002
  0
LINE
  8
2D_SICHTBARE_KANTEN
  6
CONTINUOUS
 62
40
 10
5.4502496E+002
 20
1.7148398E+002
 11
5.4502496E+002
 21
1.7048398E+002
  0
LINE
  8
2D_SICHTBARE_KANTEN
  6
CONTINUOUS
 62
40
 10
5.5497491E+002
 20
1.7148398E+002
 11
5.5497491E+002
 21
1.7048398E+002
  0
DIMENSION
  8
2D_BEMASSUNG
  6
CONTINUOUS
 62
4
  2
*D507
  3
DSTYLE1
 10
4.1157677E+001
 20
2.0398395E+002
 11
3.5324677E+001
 21
1.8470561E+002
 70
128
 13
6.91496E+001
 23
1.60984E+002
 14
8.45E+001
 24
2.0398395E+002
 40
3.0
 50
9.0E+001
1001
ACAD
1000
DSTYLE
1002
{
1070
173
1070
0
1070
5
1000
_AH13
1002
}
  0
LINE
  8
2D_SICHTBARE_KANTEN
  6
CONTINUOUS
 62
40
 10
1.6999999E+002
 20
1.7048398E+002
 11
1.6999999E+002
 21
1.7098398E+002
  0
ARC
  8
2D_SICHTBARE_KANTEN
  6
CONTINUOUS
 62
40
 10
1.7049999E+002
 20
1.7098398E+002
 40
5.0000028E-001
 50
9.0E+001
 51
1.8E+002
  0
LINE
  8
2D_SICHTBARE_KANTEN
  6
CONTINUOUS
 62
40
 10
1.7049999E+002
 20
1.7148398E+002
 11
1.7949999E+002
 21
1.7148398E+002
  0
ARC
  8
2D_SICHTBARE_KANTEN
  6
CONTINUOUS
 62
40
 10
1.795E+002
 20
1.70984E+002
 40
4.9998907E-001
 50
3.5999875E+002
 51
4.5000125E+002
  0
LINE
  8
2D_SICHTBARE_KANTEN
  6
CONTINUOUS
 62
40
 10
1.7999999E+002
 20
1.7098398E+002
 11
1.7999999E+002
 21
1.7048398E+002
  0
LINE
  8
2D_SICHTBARE_KANTEN
  6
CONTINUOUS
 62
40
 10
1.64E+002
 20
1.57234E+002
 11
1.64E+002
 21
1.6548398E+002
  0
LINE
  8
2D_SICHTBARE_KANTEN
  6
CONTINUOUS
 62
40
 10
1.64E+002
 20
1.6548398E+002
 11
1.86E+002
 21
1.6548398E+002
  0
LINE
  8
2D_SICHTBARE_KANTEN
  6
CONTINUOUS
 62
40
 10
1.86E+002
 20
1.6548398E+002
 11
1.86E+002
 21
1.57234E+002
  0
LINE
  8
2D_SICHTBARE_KANTEN
  6
CONTINUOUS
 62
40
 10
5.6099994E+002
 20
1.6548398E+002
 11
5.6099994E+002
 21
1.7048398E+002
  0
LINE
  8
2D_SICHTBARE_KANTEN
  6
CONTINUOUS
 62
40
 10
5.6099994E+002
 20
1.7048398E+002
 11
5.4313388E+002
 21
1.7048398E+002
  0
LINE
  8
2D_SICHTBARE_KANTEN
  6
CONTINUOUS
 62
40
 10
5.4313388E+002
 20
1.7048398E+002
 11
1.8089999E+002
 21
1.7048398E+002
  0
LINE
  8
2D_SICHTBARE_KANTEN
  6
CONTINUOUS
 62
40
 10
1.8089999E+002
 20
1.7048398E+002
 11
1.64E+002
 21
1.7048398E+002
  0
LINE
  8
2D_SICHTBARE_KANTEN
  6
CONTINUOUS
 62
40
 10
1.64E+002
 20
1.7048398E+002
 11
1.64E+002
 21
1.6548398E+002
  0
LINE
  8
2D_SICHTBARE_KANTEN
  6
CONTINUOUS
 62
40
 10
1.64E+002
 20
1.6548398E+002
 11
5.6099994E+002
 21
1.6548398E+002
  0
LINE
  8
2D_SICHTBARE_KANTEN
  6
CONTINUOUS
 62
40
 10
5.4351495E+002
 20
1.6548398E+002
 11
5.4351495E+002
 21
1.6498395E+002
  0
ARC
  8
2D_SICHTBARE_KANTEN
  6
CONTINUOUS
 62
40
 10
5.4401495E+002
 20
1.6498395E+002
 40
4.9999411E-001
 50
1.7999933E+002
 51
2.7000067E+002
  0
LINE
  8
2D_SICHTBARE_KANTEN
  6
CONTINUOUS
 62
40
 10
5.4401495E+002
 20
1.6448395E+002
 11
5.5598492E+002
 21
1.6448395E+002
  0
ARC
  8
2D_SICHTBARE_KANTEN
  6
CONTINUOUS
 62
40
 10
5.5598494E+002
 20
1.6498393E+002
 40
4.9998037E-001
 50
2.6999775E+002
 51
3.6000225E+002
  0
LINE
  8
2D_SICHTBARE_KANTEN
  6
CONTINUOUS
 62
40
 10
5.5648492E+002
 20
1.6498395E+002
 11
5.5648492E+002
 21
1.6548398E+002
  0
LINE
  8
2D_SICHTBARE_KANTEN
  6
CONTINUOUS
 62
40
 10
5.5648492E+002
 20
1.6548398E+002
 11
5.4351495E+002
 21
1.6548398E+002
  0
LINE
  8
2D_SICHTBARE_KANTEN
  6
CONTINUOUS
 62
40
 10
5.56866E+002
 20
1.70484E+002
 11
5.5497492E+002
 21
1.70484E+002
  0
LINE
  8
2D_SICHTBARE_KANTEN
  6
CONTINUOUS
 62
40
 10
5.4502497E+002
 20
1.70484E+002
 11
5.4313389E+002
 21
1.70484E+002
  0
LINE
  8
2D_MITTELLINIEN
  6
CENTERLINE
 62
1
 10
1.75E+002
 20
1.732801E+002
 11
1.75E+002
 21
1.4994183E+002
  0
CIRCLE
  8
2D_SICHTBARE_KANTEN
  6
CONTINUOUS
 62
1
 10
1.42E+002
 20
1.45984E+002
 40
5.0
  0
CIRCLE
  8
2D_SICHTBARE_KANTEN
  6
CONTINUOUS
 62
1
 10
2.4999999E+002
 20
1.37984E+002
 40
5.0
  0
LINE
  8
2D_MITTELLINIEN
  6
CENTERLINE
 62
1
 10
2.4999998E+002
 20
1.4515064E+002
 11
2.4999998E+002
 21
1.3071514E+002
  0
LINE
  8
2D_MITTELLINIEN
  6
CENTERLINE
 62
1
 10
2.5699251E+002
 20
1.37984E+002
 11
2.4275749E+002
 21
1.37984E+002
  0
LINE
  8
2D_MITTELLINIEN
  6
CENTERLINE
 62
1
 10
1.94E+002
 20
1.4515064E+002
 11
1.94E+002
 21
1.3071514E+002
  0
LINE
  8
2D_MITTELLINIEN
  6
CENTERLINE
 62
1
 10
2.0099252E+002
 20
1.37984E+002
 11
1.8675751E+002
 21
1.37984E+002
  0
CIRCLE
  8
2D_SICHTBARE_KANTEN
  6
CONTINUOUS
 62
1
 10
1.94E+002
 20
1.37984E+002
 40
5.0
  0
CIRCLE
  8
2D_SICHTBARE_KANTEN
  6
CONTINUOUS
 62
1
 10
3.0199998E+002
 20
1.02984E+002
 40
5.0
  0
LINE
  8
99
  6
CONTINUOUS
 62
1
 10
1.42E+002
 20
9.5481162E+001
 11
1.42E+002
 21
1.537579E+002
  0
LINE
  8
2D_MITTELLINIEN
  6
CENTERLINE
 62
1
 10
1.3594098E+002
 20
1.45984E+002
 11
1.4960422E+002
 21
1.45984E+002
  0
LINE
  8
2D_MITTELLINIEN
  6
CENTERLINE
 62
1
 10
3.08059E+002
 20
1.02984E+002
 11
2.9439576E+002
 21
1.02984E+002
  0
LINE
  8
2D_MITTELLINIEN
  6
CENTERLINE
 62
1
 10
3.0199997E+002
 20
9.5481162E+001
 11
3.0199997E+002
 21
1.5347373E+002
  0
LINE
  8
2D_MITTELLINIEN
  6
CENTERLINE
 62
1
 10
3.08059E+002
 20
1.18984E+002
 11
2.9439576E+002
 21
1.18984E+002
  0
LINE
  8
2D_MITTELLINIEN
  6
CENTERLINE
 62
1
 10
3.08059E+002
 20
1.29984E+002
 11
2.9439576E+002
 21
1.29984E+002
  0
ARC
  8
2D_SICHTBARE_KANTEN
  6
CONTINUOUS
 62
40
 10
0.0
 20
-2.6024E+001
 40
1.5001402E+001
 50
2.4000309E+002
 51
2.9999691E+002
  0
ARC
  8
2D_SICHTBARE_KANTEN
  6
CONTINUOUS
 62
40
 10
0.0
 20
2.7994E+001
 40
1.499967E+001
 50
5.9999272E+001
 51
1.2000073E+002
  0
LINE
  8
2D_SICHTBARE_KANTEN
  6
CONTINUOUS
 62
40
 10
7.5
 20
-3.9016E+001
 11
-7.5
 21
-3.9016E+001
  0
LINE
  8
2D_SICHTBARE_KANTEN
  6
CONTINUOUS
 62
40
 10
-7.5
 20
-3.9016E+001
 11
-7.5
 21
9.84E-001
  0
LINE
  8
2D_SICHTBARE_KANTEN
  6
CONTINUOUS
 62
40
 10
-7.5
 20
9.84E-001
 11
7.5
 21
9.84E-001
  0
LINE
  8
2D_SICHTBARE_KANTEN
  6
CONTINUOUS
 62
40
 10
7.5
 20
9.84E-001
 11
7.5
 21
-3.9016E+001
  0
LINE
  8
2D_SICHTBARE_KANTEN
  6
CONTINUOUS
 62
40
 10
7.5
 20
9.84E-001
 11
-7.5
 21
9.84E-001
  0
LINE
  8
2D_SICHTBARE_KANTEN
  6
CONTINUOUS
 62
40
 10
-7.5
 20
9.84E-001
 11
-7.5
 21
4.0984E+001
  0
LINE
  8
2D_SICHTBARE_KANTEN
  6
CONTINUOUS
 62
40
 10
-7.5
 20
4.0984E+001
 11
7.5
 21
4.0984E+001
  0
LINE
  8
2D_SICHTBARE_KANTEN
  6
CONTINUOUS
 62
40
 10
7.5
 20
4.0984E+001
 11
7.5
 21
9.84E-001
  0
LINE
  8
2D_MITTELLINIEN
  6
CENTERLINE
 62
1
 10
0.0
 20
-4.815E+001
 11
0.0
 21
4.815E+001
  0
LINE
  8
2D_SICHTBARE_KANTEN
  6
CONTINUOUS
 62
40
 10
-4.0
 20
-5.4016E+001
 11
-4.0
 21
-4.0482E+001
  0
LINE
  8
2D_SICHTBARE_KANTEN
  6
CONTINUOUS
 62
40
 10
-4.0
 20
4.2452E+001
 11
-4.0
 21
1.64984E+002
  0
LINE
  8
2D_SICHTBARE_KANTEN
  6
CONTINUOUS
 62
40
 10
-4.0
 20
1.64984E+002
 11
1.639996E+002
 21
1.64984E+002
  0
LINE
  8
2D_SICHTBARE_KANTEN
  6
CONTINUOUS
 62
40
 10
5.6099994E+002
 20
1.64984E+002
 11
7.059996E+002
 21
1.64984E+002
  0
LINE
  8
2D_SICHTBARE_KANTEN
  6
CONTINUOUS
 62
40
 10
0.0
 20
-5.4016E+001
 11
0.0
 21
-4.1024E+001
  0
LINE
  8
2D_SICHTBARE_KANTEN
  6
CONTINUOUS
 62
40
 10
0.0
 20
4.2994E+001
 11
0.0
 21
1.60984E+002
  0
LINE
  8
2D_SICHTBARE_KANTEN
  6
CONTINUOUS
 62
40
 10
0.0
 20
1.60984E+002
 11
1.64E+002
 21
1.60984E+002
  0
LINE
  8
2D_SICHTBARE_KANTEN
  6
CONTINUOUS
 62
40
 10
1.86E+002
 20
1.60984E+002
 11
7.059996E+002
 21
1.60984E+002
  0
LINE
  8
2D_MITTELLINIEN
  6
CENTERLINE
 62
1
 10
7.059996E+002
 20
2.68508E+002
 11
7.059996E+002
 21
-6.9484E+001
  0
LINE
  8
2D_SICHTBARE_KANTEN
  6
CONTINUOUS
 62
40
 10
-4.0
 20
1.64984E+002
 11
-8.9E+001
 21
2.49984E+002
  0
LINE
  8
2D_SICHTBARE_KANTEN
  6
CONTINUOUS
 62
40
 10
-8.9E+001
 20
-5.4016E+001
 11
-8.9E+001
 21
2.49984E+002
  0
LINE
  8
2D_SICHTBARE_KANTEN
  6
CONTINUOUS
 62
40
 10
-8.9E+001
 20
2.49984E+002
 11
7.059996E+002
 21
2.49984E+002
  0
LINE
  8
2D_MITTELLINIEN
  6
CENTERLINE
 62
1
 10
3.08059E+002
 20
1.45984E+002
 11
2.9439576E+002
 21
1.45984E+002
  0
LINE
  8
2D_MITTELLINIEN
  6
CENTERLINE
 62
1
 10
1.3594098E+002
 20
1.02984E+002
 11
1.4960422E+002
 21
1.02984E+002
  0
LINE
  8
2D_MITTELLINIEN
  6
CENTERLINE
 62
1
 10
1.3594098E+002
 20
1.18984E+002
 11
1.4960422E+002
 21
1.18984E+002
  0
LINE
  8
2D_MITTELLINIEN
  6
CENTERLINE
 62
1
 10
1.3594098E+002
 20
1.29984E+002
 11
1.4960422E+002
 21
1.29984E+002
  0
CIRCLE
  8
2D_SICHTBARE_KANTEN
  6
CONTINUOUS
 62
1
 10
3.0199998E+002
 20
1.18984E+002
 40
5.0
  0
CIRCLE
  8
2D_SICHTBARE_KANTEN
  6
CONTINUOUS
 62
1
 10
3.0199998E+002
 20
1.29984E+002
 40
5.0
  0
CIRCLE
  8
2D_SICHTBARE_KANTEN
  6
CONTINUOUS
 62
1
 10
3.0199998E+002
 20
1.45984E+002
 40
5.0
  0
CIRCLE
  8
2D_SICHTBARE_KANTEN
  6
CONTINUOUS
 62
1
 10
1.42E+002
 20
1.02984E+002
 40
5.0
  0
CIRCLE
  8
2D_SICHTBARE_KANTEN
  6
CONTINUOUS
 62
1
 10
1.42E+002
 20
1.18984E+002
 40
5.0
  0
CIRCLE
  8
2D_SICHTBARE_KANTEN
  6
CONTINUOUS
 62
1
 10
1.42E+002
 20
1.29984E+002
 40
5.0
  0
LINE
  8
2D_SICHTBARE_KANTEN
  6
CONTINUOUS
 62
40
 10
9.5E+001
 20
9.7234E+001
 11
9.45E+001
 21
9.7234E+001
  0
LINE
  8
2D_SICHTBARE_KANTEN
  6
CONTINUOUS
 62
40
 10
9.45E+001
 20
9.7234E+001
 11
8.45E+001
 21
9.7234E+001
  0
LINE
  8
2D_SICHTBARE_KANTEN
  6
CONTINUOUS
 62
40
 10
8.45E+001
 20
9.7234E+001
 11
8.45E+001
 21
1.57234E+002
  0
LINE
  8
2D_SICHTBARE_KANTEN
  6
CONTINUOUS
 62
40
 10
8.45E+001
 20
1.57234E+002
 11
9.45E+001
 21
1.57234E+002
  0
LINE
  8
2D_SICHTBARE_KANTEN
  6
CONTINUOUS
 62
40
 10
9.45E+001
 20
1.57234E+002
 11
9.5E+001
 21
1.57234E+002
  0
LINE
  8
2D_SICHTBARE_KANTEN
  6
CONTINUOUS
 62
40
 10
9.5E+001
 20
1.57234E+002
 11
3.4899997E+002
 21
1.57234E+002
  0
LINE
  8
2D_SICHTBARE_KANTEN
  6
CONTINUOUS
 62
40
 10
3.4899997E+002
 20
1.57234E+002
 11
3.4949997E+002
 21
1.57234E+002
  0
LINE
  8
2D_SICHTBARE_KANTEN
  6
CONTINUOUS
 62
40
 10
3.4949997E+002
 20
1.57234E+002
 11
3.5949997E+002
 21
1.57234E+002
  0
LINE
  8
2D_SICHTBARE_KANTEN
  6
CONTINUOUS
 62
40
 10
3.5949997E+002
 20
1.57234E+002
 11
3.5949997E+002
 21
9.7234E+001
  0
LINE
  8
2D_SICHTBARE_KANTEN
  6
CONTINUOUS
 62
40
 10
3.4949997E+002
 20
9.7234E+001
 11
3.4899997E+002
 21
9.7234E+001
  0
LINE
  8
2D_SICHTBARE_KANTEN
  6
CONTINUOUS
 62
40
 10
3.5949997E+002
 20
9.7234E+001
 11
9.5E+001
 21
9.7234E+001
  0
LINE
  8
2D_SICHTBARE_KANTEN
  6
CONTINUOUS
 62
40
 10
3.4949997E+002
 20
9.7734E+001
 11
3.4949997E+002
 21
9.7234E+001
  0
LINE
  8
2D_MITTELLINIEN
  6
CENTERLINE
 62
1
 10
1.42E+002
 20
9.5481162E+001
 11
1.42E+002
 21
1.2650655E+002
  0
LINE
  8
2D_MITTELLINIEN
  6
CENTERLINE
 62
1
 10
1.42E+002
 20
1.2650655E+002
 11
1.42E+002
 21
1.5019732E+002
  0
LINE
  8
2D_MITTELLINIEN
  6
CENTERLINE
 62
1
 10
3.0199998E+002
 20
9.5481162E+001
 11
3.0199998E+002
 21
1.2746609E+002
  0
LINE
  8
2D_MITTELLINIEN
  6
CENTERLINE
 62
1
 10
3.0199998E+002
 20
1.2746609E+002
 11
3.0199998E+002
 21
1.50739E+002
  0
LINE
  8
2D_SICHTBARE_KANTEN
  6
CONTINUOUS
 62
40
 10
1.7175E+002
 20
1.65484E+002
 11
1.7824999E+002
 21
1.65484E+002
  0
LINE
  8
2D_MITTELLINIEN
  6
CENTERLINE
 62
1
 10
5.4999994E+002
 20
1.6344138E+002
 11
5.4999994E+002
 21
1.7718424E+002
  0
LINE
  8
2D_SICHTBARE_KANTEN
  6
CONTINUOUS
 62
40
 10
1.691E+002
 20
1.65484E+002
 11
1.8089999E+002
 21
1.65484E+002
  0
LINE
  8
2D_SICHTBARE_KANTEN
  6
CONTINUOUS
 62
40
 10
5.5599994E+002
 20
1.6548398E+002
 11
5.5497491E+002
 21
1.6548398E+002
  0
LINE
  8
2D_SICHTBARE_KANTEN
  6
CONTINUOUS
 62
40
 10
5.4502496E+002
 20
1.6548398E+002
 11
5.4399994E+002
 21
1.6548398E+002
  0
DIMENSION
  8
2D_BEMASSUNG
  6
CONTINUOUS
 62
1
  1
84
  2
*D603
  3
DSTYLE2
 10
8.45E+001
 20
8.2917522E+001
 11
3.2857709E+001
 21
8.9419522E+001
 70
128
 13
0.0
 23
4.2994E+001
 14
8.45E+001
 24
9.7234E+001
 40
1.0E+001
 50
0.0
1001
ACAD
1000
DSTYLE
1002
{
1070
173
1070
0
1070
5
1000
_AH13
1002
}
  0
TEXT
  8
2D_TEXT
  6
CONTINUOUS
 62
1
 10
4.2552009E+001
 20
9.290947E+001
 40
7.0
  1
(80)
 41
8.0E-001
  0
INSERT
  2
9
  8
2D_SYMBOLE
 10
1.75E+002
 20
1.57234E+002
  0
DIMENSION
  8
2D_BEMASSUNG
  6
CONTINUOUS
 62
1
  2
*D606
  3
DSTYLE2
 10
6.5211017E+001
 20
1.9548398E+002
 11
5.8709017E+001
 21
1.8808335E+002
 70
128
 13
1.4475E+002
 23
1.8398398E+002
 14
9.2184681E+001
 24
1.9548398E+002
 40
1.0E+001
 50
9.0E+001
1001
ACAD
1000
DSTYLE
1002
{
1070
173
1070
0
1070
5
1000
_AH13
1002
}
  0
TEXT
  8
2D_TEXT
  6
CONTINUOUS
 62
1
 10
1.5303305E+001
 20
2.2708183E+002
 40
7.0
  1
%%c8 (24V DC)
 41
8.0E-001
  0
LINE
  8
2D_SICHTBARE_KANTEN
  6
CONTINUOUS
 62
1
 10
1.4445287E+001
 20
2.2336375E+002
 11
7.5936577E+001
 21
2.2336375E+002
  0
LINE
  8
2D_SICHTBARE_KANTEN
  6
CONTINUOUS
 62
1
 10
7.5936577E+001
 20
2.2336375E+002
 11
9.899996E+001
 21
1.9527573E+002
  0
DIMENSION
  8
2D_BEMASSUNG
  6
CONTINUOUS
 62
1
  2
*D610
  3
DSTYLE2
 10
1.42E+002
 20
6.1776411E+001
 11
2.2317766E+002
 21
6.8278411E+001
 70
128
 13
3.0199998E+002
 23
9.5481162E+001
 14
1.42E+002
 24
9.5481162E+001
 40
1.0E+001
 50
0.0
1001
ACAD
1000
DSTYLE
1002
{
1070
173
1070
0
1070
5
1000
_AH13
1002
}
  0
DIMENSION
  8
2D_BEMASSUNG
  6
CONTINUOUS
 62
1
  2
*D611
  3
DSTYLE2
 10
1.4200016E+002
 20
7.824577E+001
 11
1.6945981E+002
 21
8.4747829E+001
 70
128
 13
1.5E+002
 23
1.7681907E+002
 14
1.42E+002
 24
1.537579E+002
 40
1.0E+001
 50
1.8000012E+002
1001
ACAD
1000
DSTYLE
1002
{
1070
173
1070
0
1070
5
1000
_AH13
1002
}
  0
INSERT
  2
44
  8
2D_SYMBOLE
 10
0.0
 20
4.0984E+001
  0
LINE
  8
2D_MITTELLINIEN
  6
CENTERLINE
 62
1
 10
7.160556E+002
 20
-5.4016E+001
 11
-9.364062E+001
 21
-5.4016E+001
  0
DIMENSION
  8
2D_BEMASSUNG
  6
CONTINUOUS
 62
4
  2
*D614
  3
DSTYLE1
 10
9.8999941E+001
 20
2.6863934E+002
 11
5.1876289E+001
 21
2.7447234E+002
 70
128
 13
0.0
 23
4.2994E+001
 14
9.8999941E+001
 24
2.0398395E+002
 40
3.0
 50
0.0
1001
ACAD
1000
DSTYLE
1002
{
1070
173
1070
0
1070
5
1000
_AH13
1002
}
  0
DIMENSION
  8
2D_BEMASSUNG
  6
CONTINUOUS
 62
4
  2
*D615
  3
DSTYLE1
 10
1.499996E+002
 20
2.6747654E+002
 11
3.7209171E+002
 21
2.7330954E+002
 70
128
 13
5.780096E+002
 23
1.88826E+002
 14
1.499996E+002
 24
1.89234E+002
 40
3.0
 50
0.0
1001
ACAD
1000
DSTYLE
1002
{
1070
173
1070
0
1070
5
1000
_AH13
1002
}
  0
POINT
  8
Drafting_Hidden_Entities
  6
CONTINUOUS
 62
1
 10
0.0
 20
0.0
  0
ENDBLK
  0
BLOCK
  2
9NEW00
 10
0.0
 20
0.0
 70
0
  0
LINE
  8
2D_MITTELLINIEN
  6
CENTERLINE
 62
1
 10
4.0301175E+002
 20
3.3824231E+001
 11
4.0299799E+002
 21
1.9425157E+001
  0
LINE
  8
2D_MITTELLINIEN
  6
CENTERLINE
 62
1
 10
4.0824997E+002
 20
2.6749985E+001
 11
3.9799997E+002
 21
2.6749985E+001
  0
CIRCLE
  8
2D_SICHTBARE_KANTEN
  6
CONTINUOUS
 62
1
 10
4.0300499E+002
 20
2.6749985E+001
 40
3.0
  0
LINE
  8
2D_SICHTBARE_KANTEN
  6
CONTINUOUS
 62
40
 10
4.275E+002
 20
4.6749954E+001
 11
-9.05E+001
 21
4.6749954E+001
  0
LINE
  8
2D_SICHTBARE_KANTEN
  6
CONTINUOUS
 62
40
 10
4.275E+002
 20
1.6749954E+001
 11
-9.05E+001
 21
1.6749954E+001
  0
LINE
  8
2D_SICHTBARE_KANTEN
  6
CONTINUOUS
 62
40
 10
4.275E+002
 20
1.6749954E+001
 11
4.275E+002
 21
4.6749954E+001
  0
LINE
  8
2D_SICHTBARE_KANTEN
  6
CONTINUOUS
 62
40
 10
-9.05E+001
 20
1.6749954E+001
 11
-9.05E+001
 21
4.6749954E+001
  0
LINE
  8
2D_MITTELLINIEN
  6
CENTERLINE
 62
1
 10
-2.5E+001
 20
1.9585068E+001
 11
-2.5000031E+001
 21
3.375174E+001
  0
LINE
  8
2D_MITTELLINIEN
  6
CENTERLINE
 62
1
 10
-2.0E+001
 20
2.6749985E+001
 11
-3.025E+001
 21
2.6749985E+001
  0
CIRCLE
  8
2D_SICHTBARE_KANTEN
  6
CONTINUOUS
 62
1
 10
-2.5000015E+001
 20
2.6749985E+001
 40
3.0
  0
LINE
  8
2D_MITTELLINIEN
  6
CENTERLINE
 62
1
 10
-6.9253687E+001
 20
3.8249985E+001
 11
-8.2815319E+001
 21
3.8249985E+001
  0
LINE
  8
2D_MITTELLINIEN
  6
CENTERLINE
 62
1
 10
-7.6000023E+001
 20
3.0381914E+001
 11
-7.6000056E+001
 21
4.5701545E+001
  0
CIRCLE
  8
2D_SICHTBARE_KANTEN
  6
CONTINUOUS
 62
1
 10
-7.600004E+001
 20
3.8249985E+001
 40
4.0
  0
POINT
  8
Drafting_Hidden_Entities
  6
CONTINUOUS
 62
1
 10
0.0
 20
0.0
  0
ENDBLK
  0
BLOCK
  2
UUNEW00
 10
0.0
 20
0.0
 70
0
  0
LINE
  8
2D_SICHTBARE_KANTEN
  6
CONTINUOUS
 62
40
 10
5.4149997E+002
 20
1.7398395E+002
 11
5.4149997E+002
 21
1.71684E+002
  0
LINE
  8
2D_SICHTBARE_KANTEN
  6
CONTINUOUS
 62
40
 10
5.4149997E+002
 20
1.71684E+002
 11
5.5849997E+002
 21
1.71684E+002
  0
DIMENSION
  8
2D_BEMASSUNG
  6
CONTINUOUS
 62
4
  2
*D634
  3
DSTYLE1
 10
1.419996E+002
 20
6.1234986E+001
 11
7.1155548E+001
 21
6.7065986E+001
 70
128
 13
0.0
 23
6.2974E+001
 14
1.419996E+002
 24
7.0668E+001
 40
3.0
 50
0.0
1001
ACAD
1000
DSTYLE
1002
{
1070
173
1070
0
1070
5
1000
_AH13
1002
}
  0
DIMENSION
  8
2D_BEMASSUNG
  6
CONTINUOUS
 62
4
  2
*D635
  3
DSTYLE1
 10
4.1159677E+001
 20
1.57234E+002
 11
3.5326677E+001
 21
1.3003449E+002
 70
128
 13
7.45498E+001
 23
1.60984E+002
 14
8.45E+001
 24
1.57234E+002
 40
3.0
 50
9.0E+001
1001
ACAD
1000
DSTYLE
1002
{
1070
173
1070
0
1070
5
1000
_AH13
1002
}
  0
LINE
  8
2D_SICHTBARE_KANTEN
  6
CONTINUOUS
 62
40
 10
5.5849997E+002
 20
1.71684E+002
 11
5.5849997E+002
 21
1.7398395E+002
  0
LINE
  8
2D_SICHTBARE_KANTEN
  6
CONTINUOUS
 62
40
 10
5.5602496E+002
 20
1.7178022E+002
 11
5.5602496E+002
 21
1.7148398E+002
  0
LINE
  8
2D_SICHTBARE_KANTEN
  6
CONTINUOUS
 62
40
 10
5.5602496E+002
 20
1.7148398E+002
 11
5.4397495E+002
 21
1.7148398E+002
  0
LINE
  8
2D_SICHTBARE_KANTEN
  6
CONTINUOUS
 62
40
 10
5.4397495E+002
 20
1.7148398E+002
 11
5.4397495E+002
 21
1.71684E+002
  0
LINE
  8
2D_SICHTBARE_KANTEN
  6
CONTINUOUS
 62
40
 10
5.4502496E+002
 20
1.7148398E+002
 11
5.4502496E+002
 21
1.7048398E+002
  0
LINE
  8
2D_SICHTBARE_KANTEN
  6
CONTINUOUS
 62
40
 10
5.5497491E+002
 20
1.7148398E+002
 11
5.5497491E+002
 21
1.7048398E+002
  0
DIMENSION
  8
2D_BEMASSUNG
  6
CONTINUOUS
 62
4
  2
*D642
  3
DSTYLE1
 10
4.1157677E+001
 20
2.0398395E+002
 11
3.5324677E+001
 21
1.8470561E+002
 70
128
 13
6.91496E+001
 23
1.60984E+002
 14
8.45E+001
 24
2.0398395E+002
 40
3.0
 50
9.0E+001
1001
ACAD
1000
DSTYLE
1002
{
1070
173
1070
0
1070
5
1000
_AH13
1002
}
  0
LINE
  8
2D_SICHTBARE_KANTEN
  6
CONTINUOUS
 62
40
 10
1.6999999E+002
 20
1.7048398E+002
 11
1.6999999E+002
 21
1.7098398E+002
  0
ARC
  8
2D_SICHTBARE_KANTEN
  6
CONTINUOUS
 62
40
 10
1.7049999E+002
 20
1.7098398E+002
 40
5.0000028E-001
 50
9.0E+001
 51
1.8E+002
  0
LINE
  8
2D_SICHTBARE_KANTEN
  6
CONTINUOUS
 62
40
 10
1.7049999E+002
 20
1.7148398E+002
 11
1.7949999E+002
 21
1.7148398E+002
  0
ARC
  8
2D_SICHTBARE_KANTEN
  6
CONTINUOUS
 62
40
 10
1.795E+002
 20
1.70984E+002
 40
4.9998907E-001
 50
3.5999875E+002
 51
4.5000125E+002
  0
LINE
  8
2D_SICHTBARE_KANTEN
  6
CONTINUOUS
 62
40
 10
1.7999999E+002
 20
1.7098398E+002
 11
1.7999999E+002
 21
1.7048398E+002
  0
LINE
  8
2D_SICHTBARE_KANTEN
  6
CONTINUOUS
 62
40
 10
1.64E+002
 20
1.57234E+002
 11
1.64E+002
 21
1.6548398E+002
  0
LINE
  8
2D_SICHTBARE_KANTEN
  6
CONTINUOUS
 62
40
 10
1.64E+002
 20
1.6548398E+002
 11
1.86E+002
 21
1.6548398E+002
  0
LINE
  8
2D_SICHTBARE_KANTEN
  6
CONTINUOUS
 62
40
 10
1.86E+002
 20
1.6548398E+002
 11
1.86E+002
 21
1.57234E+002
  0
LINE
  8
2D_SICHTBARE_KANTEN
  6
CONTINUOUS
 62
40
 10
5.6099994E+002
 20
1.6548398E+002
 11
5.6099994E+002
 21
1.7048398E+002
  0
LINE
  8
2D_SICHTBARE_KANTEN
  6
CONTINUOUS
 62
40
 10
5.6099994E+002
 20
1.7048398E+002
 11
5.4313388E+002
 21
1.7048398E+002
  0
LINE
  8
2D_SICHTBARE_KANTEN
  6
CONTINUOUS
 62
40
 10
5.4313388E+002
 20
1.7048398E+002
 11
1.8089999E+002
 21
1.7048398E+002
  0
LINE
  8
2D_SICHTBARE_KANTEN
  6
CONTINUOUS
 62
40
 10
1.8089999E+002
 20
1.7048398E+002
 11
1.64E+002
 21
1.7048398E+002
  0
LINE
  8
2D_SICHTBARE_KANTEN
  6
CONTINUOUS
 62
40
 10
1.64E+002
 20
1.7048398E+002
 11
1.64E+002
 21
1.6548398E+002
  0
LINE
  8
2D_SICHTBARE_KANTEN
  6
CONTINUOUS
 62
40
 10
1.64E+002
 20
1.6548398E+002
 11
5.6099994E+002
 21
1.6548398E+002
  0
LINE
  8
2D_SICHTBARE_KANTEN
  6
CONTINUOUS
 62
40
 10
5.4351495E+002
 20
1.6548398E+002
 11
5.4351495E+002
 21
1.6498395E+002
  0
ARC
  8
2D_SICHTBARE_KANTEN
  6
CONTINUOUS
 62
40
 10
5.4401495E+002
 20
1.6498395E+002
 40
4.9999411E-001
 50
1.7999933E+002
 51
2.7000067E+002
  0
LINE
  8
2D_SICHTBARE_KANTEN
  6
CONTINUOUS
 62
40
 10
5.4401495E+002
 20
1.6448395E+002
 11
5.5598492E+002
 21
1.6448395E+002
  0
ARC
  8
2D_SICHTBARE_KANTEN
  6
CONTINUOUS
 62
40
 10
5.5598494E+002
 20
1.6498393E+002
 40
4.9998037E-001
 50
2.6999775E+002
 51
3.6000225E+002
  0
LINE
  8
2D_SICHTBARE_KANTEN
  6
CONTINUOUS
 62
40
 10
5.5648492E+002
 20
1.6498395E+002
 11
5.5648492E+002
 21
1.6548398E+002
  0
LINE
  8
2D_SICHTBARE_KANTEN
  6
CONTINUOUS
 62
40
 10
5.5648492E+002
 20
1.6548398E+002
 11
5.4351495E+002
 21
1.6548398E+002
  0
LINE
  8
2D_SICHTBARE_KANTEN
  6
CONTINUOUS
 62
40
 10
5.56866E+002
 20
1.70484E+002
 11
5.5497492E+002
 21
1.70484E+002
  0
LINE
  8
2D_SICHTBARE_KANTEN
  6
CONTINUOUS
 62
40
 10
5.4502497E+002
 20
1.70484E+002
 11
5.4313389E+002
 21
1.70484E+002
  0
LINE
  8
2D_MITTELLINIEN
  6
CENTERLINE
 62
1
 10
1.75E+002
 20
1.732801E+002
 11
1.75E+002
 21
1.4994183E+002
  0
CIRCLE
  8
2D_SICHTBARE_KANTEN
  6
CONTINUOUS
 62
1
 10
1.42E+002
 20
1.45984E+002
 40
5.0
  0
CIRCLE
  8
2D_SICHTBARE_KANTEN
  6
CONTINUOUS
 62
1
 10
2.4999999E+002
 20
1.37984E+002
 40
5.0
  0
LINE
  8
2D_MITTELLINIEN
  6
CENTERLINE
 62
1
 10
2.4999998E+002
 20
1.4515064E+002
 11
2.4999998E+002
 21
1.3071514E+002
  0
LINE
  8
2D_MITTELLINIEN
  6
CENTERLINE
 62
1
 10
2.5699251E+002
 20
1.37984E+002
 11
2.4275749E+002
 21
1.37984E+002
  0
LINE
  8
2D_MITTELLINIEN
  6
CENTERLINE
 62
1
 10
1.94E+002
 20
1.4515064E+002
 11
1.94E+002
 21
1.3071514E+002
  0
LINE
  8
2D_MITTELLINIEN
  6
CENTERLINE
 62
1
 10
2.0099252E+002
 20
1.37984E+002
 11
1.8675751E+002
 21
1.37984E+002
  0
CIRCLE
  8
2D_SICHTBARE_KANTEN
  6
CONTINUOUS
 62
1
 10
1.94E+002
 20
1.37984E+002
 40
5.0
  0
CIRCLE
  8
2D_SICHTBARE_KANTEN
  6
CONTINUOUS
 62
1
 10
3.0199998E+002
 20
1.02984E+002
 40
5.0
  0
LINE
  8
99
  6
CONTINUOUS
 62
1
 10
1.42E+002
 20
9.5481162E+001
 11
1.42E+002
 21
1.537579E+002
  0
LINE
  8
2D_MITTELLINIEN
  6
CENTERLINE
 62
1
 10
1.3594098E+002
 20
1.45984E+002
 11
1.4960422E+002
 21
1.45984E+002
  0
LINE
  8
2D_MITTELLINIEN
  6
CENTERLINE
 62
1
 10
3.08059E+002
 20
1.02984E+002
 11
2.9439576E+002
 21
1.02984E+002
  0
LINE
  8
2D_MITTELLINIEN
  6
CENTERLINE
 62
1
 10
3.0199997E+002
 20
9.5481162E+001
 11
3.0199997E+002
 21
1.5347373E+002
  0
LINE
  8
2D_MITTELLINIEN
  6
CENTERLINE
 62
1
 10
3.08059E+002
 20
1.18984E+002
 11
2.9439576E+002
 21
1.18984E+002
  0
LINE
  8
2D_MITTELLINIEN
  6
CENTERLINE
 62
1
 10
3.08059E+002
 20
1.29984E+002
 11
2.9439576E+002
 21
1.29984E+002
  0
ARC
  8
2D_SICHTBARE_KANTEN
  6
CONTINUOUS
 62
40
 10
0.0
 20
-2.6024E+001
 40
1.5001402E+001
 50
2.4000309E+002
 51
2.9999691E+002
  0
ARC
  8
2D_SICHTBARE_KANTEN
  6
CONTINUOUS
 62
40
 10
0.0
 20
2.7994E+001
 40
1.499967E+001
 50
5.9999272E+001
 51
1.2000073E+002
  0
LINE
  8
2D_SICHTBARE_KANTEN
  6
CONTINUOUS
 62
40
 10
7.5
 20
-3.9016E+001
 11
-7.5
 21
-3.9016E+001
  0
LINE
  8
2D_SICHTBARE_KANTEN
  6
CONTINUOUS
 62
40
 10
-7.5
 20
-3.9016E+001
 11
-7.5
 21
9.84E-001
  0
LINE
  8
2D_SICHTBARE_KANTEN
  6
CONTINUOUS
 62
40
 10
-7.5
 20
9.84E-001
 11
7.5
 21
9.84E-001
  0
LINE
  8
2D_SICHTBARE_KANTEN
  6
CONTINUOUS
 62
40
 10
7.5
 20
9.84E-001
 11
7.5
 21
-3.9016E+001
  0
LINE
  8
2D_SICHTBARE_KANTEN
  6
CONTINUOUS
 62
40
 10
7.5
 20
9.84E-001
 11
-7.5
 21
9.84E-001
  0
LINE
  8
2D_SICHTBARE_KANTEN
  6
CONTINUOUS
 62
40
 10
-7.5
 20
9.84E-001
 11
-7.5
 21
4.0984E+001
  0
LINE
  8
2D_SICHTBARE_KANTEN
  6
CONTINUOUS
 62
40
 10
-7.5
 20
4.0984E+001
 11
7.5
 21
4.0984E+001
  0
LINE
  8
2D_SICHTBARE_KANTEN
  6
CONTINUOUS
 62
40
 10
7.5
 20
4.0984E+001
 11
7.5
 21
9.84E-001
  0
LINE
  8
2D_MITTELLINIEN
  6
CENTERLINE
 62
1
 10
0.0
 20
-4.815E+001
 11
0.0
 21
4.815E+001
  0
LINE
  8
2D_SICHTBARE_KANTEN
  6
CONTINUOUS
 62
40
 10
-4.0
 20
-5.4016E+001
 11
-4.0
 21
-4.0482E+001
  0
LINE
  8
2D_SICHTBARE_KANTEN
  6
CONTINUOUS
 62
40
 10
-4.0
 20
4.2452E+001
 11
-4.0
 21
1.64984E+002
  0
LINE
  8
2D_SICHTBARE_KANTEN
  6
CONTINUOUS
 62
40
 10
-4.0
 20
1.64984E+002
 11
1.639996E+002
 21
1.64984E+002
  0
LINE
  8
2D_SICHTBARE_KANTEN
  6
CONTINUOUS
 62
40
 10
5.6099994E+002
 20
1.64984E+002
 11
7.059996E+002
 21
1.64984E+002
  0
LINE
  8
2D_SICHTBARE_KANTEN
  6
CONTINUOUS
 62
40
 10
0.0
 20
-5.4016E+001
 11
0.0
 21
-4.1024E+001
  0
LINE
  8
2D_SICHTBARE_KANTEN
  6
CONTINUOUS
 62
40
 10
0.0
 20
4.2994E+001
 11
0.0
 21
1.60984E+002
  0
LINE
  8
2D_SICHTBARE_KANTEN
  6
CONTINUOUS
 62
40
 10
0.0
 20
1.60984E+002
 11
1.64E+002
 21
1.60984E+002
  0
LINE
  8
2D_SICHTBARE_KANTEN
  6
CONTINUOUS
 62
40
 10
1.86E+002
 20
1.60984E+002
 11
7.059996E+002
 21
1.60984E+002
  0
LINE
  8
2D_MITTELLINIEN
  6
CENTERLINE
 62
1
 10
7.059996E+002
 20
2.68508E+002
 11
7.059996E+002
 21
-6.9484E+001
  0
LINE
  8
2D_SICHTBARE_KANTEN
  6
CONTINUOUS
 62
40
 10
-4.0
 20
1.64984E+002
 11
-8.9E+001
 21
2.49984E+002
  0
LINE
  8
2D_SICHTBARE_KANTEN
  6
CONTINUOUS
 62
40
 10
-8.9E+001
 20
-5.4016E+001
 11
-8.9E+001
 21
2.49984E+002
  0
LINE
  8
2D_SICHTBARE_KANTEN
  6
CONTINUOUS
 62
40
 10
-8.9E+001
 20
2.49984E+002
 11
7.059996E+002
 21
2.49984E+002
  0
LINE
  8
2D_MITTELLINIEN
  6
CENTERLINE
 62
1
 10
3.08059E+002
 20
1.45984E+002
 11
2.9439576E+002
 21
1.45984E+002
  0
LINE
  8
2D_MITTELLINIEN
  6
CENTERLINE
 62
1
 10
1.3594098E+002
 20
1.02984E+002
 11
1.4960422E+002
 21
1.02984E+002
  0
LINE
  8
2D_MITTELLINIEN
  6
CENTERLINE
 62
1
 10
1.3594098E+002
 20
1.18984E+002
 11
1.4960422E+002
 21
1.18984E+002
  0
LINE
  8
2D_MITTELLINIEN
  6
CENTERLINE
 62
1
 10
1.3594098E+002
 20
1.29984E+002
 11
1.4960422E+002
 21
1.29984E+002
  0
CIRCLE
  8
2D_SICHTBARE_KANTEN
  6
CONTINUOUS
 62
1
 10
3.0199998E+002
 20
1.18984E+002
 40
5.0
  0
CIRCLE
  8
2D_SICHTBARE_KANTEN
  6
CONTINUOUS
 62
1
 10
3.0199998E+002
 20
1.29984E+002
 40
5.0
  0
CIRCLE
  8
2D_SICHTBARE_KANTEN
  6
CONTINUOUS
 62
1
 10
3.0199998E+002
 20
1.45984E+002
 40
5.0
  0
CIRCLE
  8
2D_SICHTBARE_KANTEN
  6
CONTINUOUS
 62
1
 10
1.42E+002
 20
1.02984E+002
 40
5.0
  0
CIRCLE
  8
2D_SICHTBARE_KANTEN
  6
CONTINUOUS
 62
1
 10
1.42E+002
 20
1.18984E+002
 40
5.0
  0
CIRCLE
  8
2D_SICHTBARE_KANTEN
  6
CONTINUOUS
 62
1
 10
1.42E+002
 20
1.29984E+002
 40
5.0
  0
LINE
  8
2D_SICHTBARE_KANTEN
  6
CONTINUOUS
 62
40
 10
9.5E+001
 20
9.7234E+001
 11
9.45E+001
 21
9.7234E+001
  0
LINE
  8
2D_SICHTBARE_KANTEN
  6
CONTINUOUS
 62
40
 10
9.45E+001
 20
9.7234E+001
 11
8.45E+001
 21
9.7234E+001
  0
LINE
  8
2D_SICHTBARE_KANTEN
  6
CONTINUOUS
 62
40
 10
8.45E+001
 20
9.7234E+001
 11
8.45E+001
 21
1.57234E+002
  0
LINE
  8
2D_SICHTBARE_KANTEN
  6
CONTINUOUS
 62
40
 10
8.45E+001
 20
1.57234E+002
 11
9.45E+001
 21
1.57234E+002
  0
LINE
  8
2D_SICHTBARE_KANTEN
  6
CONTINUOUS
 62
40
 10
9.45E+001
 20
1.57234E+002
 11
9.5E+001
 21
1.57234E+002
  0
LINE
  8
2D_SICHTBARE_KANTEN
  6
CONTINUOUS
 62
40
 10
9.5E+001
 20
1.57234E+002
 11
3.4899997E+002
 21
1.57234E+002
  0
LINE
  8
2D_SICHTBARE_KANTEN
  6
CONTINUOUS
 62
40
 10
3.4899997E+002
 20
1.57234E+002
 11
3.4949997E+002
 21
1.57234E+002
  0
LINE
  8
2D_SICHTBARE_KANTEN
  6
CONTINUOUS
 62
40
 10
3.4949997E+002
 20
1.57234E+002
 11
3.5949997E+002
 21
1.57234E+002
  0
LINE
  8
2D_SICHTBARE_KANTEN
  6
CONTINUOUS
 62
40
 10
3.5949997E+002
 20
1.57234E+002
 11
3.5949997E+002
 21
9.7234E+001
  0
LINE
  8
2D_SICHTBARE_KANTEN
  6
CONTINUOUS
 62
40
 10
3.4949997E+002
 20
9.7234E+001
 11
3.4899997E+002
 21
9.7234E+001
  0
LINE
  8
2D_SICHTBARE_KANTEN
  6
CONTINUOUS
 62
40
 10
3.5949997E+002
 20
9.7234E+001
 11
9.5E+001
 21
9.7234E+001
  0
LINE
  8
2D_SICHTBARE_KANTEN
  6
CONTINUOUS
 62
40
 10
3.4949997E+002
 20
9.7734E+001
 11
3.4949997E+002
 21
9.7234E+001
  0
LINE
  8
2D_MITTELLINIEN
  6
CENTERLINE
 62
1
 10
1.42E+002
 20
9.5481162E+001
 11
1.42E+002
 21
1.2650655E+002
  0
LINE
  8
2D_MITTELLINIEN
  6
CENTERLINE
 62
1
 10
1.42E+002
 20
1.2650655E+002
 11
1.42E+002
 21
1.5019732E+002
  0
LINE
  8
2D_MITTELLINIEN
  6
CENTERLINE
 62
1
 10
3.0199998E+002
 20
9.5481162E+001
 11
3.0199998E+002
 21
1.2746609E+002
  0
LINE
  8
2D_MITTELLINIEN
  6
CENTERLINE
 62
1
 10
3.0199998E+002
 20
1.2746609E+002
 11
3.0199998E+002
 21
1.50739E+002
  0
LINE
  8
2D_SICHTBARE_KANTEN
  6
CONTINUOUS
 62
40
 10
1.7175E+002
 20
1.65484E+002
 11
1.7824999E+002
 21
1.65484E+002
  0
LINE
  8
2D_MITTELLINIEN
  6
CENTERLINE
 62
1
 10
5.4999994E+002
 20
1.6344138E+002
 11
5.4999994E+002
 21
1.7718424E+002
  0
LINE
  8
2D_SICHTBARE_KANTEN
  6
CONTINUOUS
 62
40
 10
1.691E+002
 20
1.65484E+002
 11
1.8089999E+002
 21
1.65484E+002
  0
LINE
  8
2D_SICHTBARE_KANTEN
  6
CONTINUOUS
 62
40
 10
5.5599994E+002
 20
1.6548398E+002
 11
5.5497491E+002
 21
1.6548398E+002
  0
LINE
  8
2D_SICHTBARE_KANTEN
  6
CONTINUOUS
 62
40
 10
5.4502496E+002
 20
1.6548398E+002
 11
5.4399994E+002
 21
1.6548398E+002
  0
DIMENSION
  8
2D_BEMASSUNG
  6
CONTINUOUS
 62
1
  1
84
  2
*D767
  3
DSTYLE2
 10
8.45E+001
 20
8.2917522E+001
 11
3.2857709E+001
 21
8.9419522E+001
 70
128
 13
0.0
 23
4.2994E+001
 14
8.45E+001
 24
9.7234E+001
 40
1.0E+001
 50
0.0
1001
ACAD
1000
DSTYLE
1002
{
1070
173
1070
0
1070
5
1000
_AH13
1002
}
  0
TEXT
  8
2D_TEXT
  6
CONTINUOUS
 62
1
 10
4.2552009E+001
 20
9.290947E+001
 40
7.0
  1
(80)
 41
8.0E-001
  0
INSERT
  2
9NEW00
  8
2D_SYMBOLE
 10
1.75E+002
 20
1.57234E+002
  0
DIMENSION
  8
2D_BEMASSUNG
  6
CONTINUOUS
 62
1
  2
*D770
  3
DSTYLE2
 10
6.5211017E+001
 20
1.9548398E+002
 11
5.8709017E+001
 21
1.8808335E+002
 70
128
 13
1.4475E+002
 23
1.8398398E+002
 14
9.2184681E+001
 24
1.9548398E+002
 40
1.0E+001
 50
9.0E+001
1001
ACAD
1000
DSTYLE
1002
{
1070
173
1070
0
1070
5
1000
_AH13
1002
}
  0
TEXT
  8
2D_TEXT
  6
CONTINUOUS
 62
1
 10
1.5303305E+001
 20
2.2708183E+002
 40
7.0
  1
%%c8 (24V DC)
 41
8.0E-001
  0
LINE
  8
2D_SICHTBARE_KANTEN
  6
CONTINUOUS
 62
1
 10
1.4445287E+001
 20
2.2336375E+002
 11
7.5936577E+001
 21
2.2336375E+002
  0
LINE
  8
2D_SICHTBARE_KANTEN
  6
CONTINUOUS
 62
1
 10
7.5936577E+001
 20
2.2336375E+002
 11
9.899996E+001
 21
1.9527573E+002
  0
DIMENSION
  8
2D_BEMASSUNG
  6
CONTINUOUS
 62
1
  2
*D774
  3
DSTYLE2
 10
1.42E+002
 20
6.1776411E+001
 11
2.2317766E+002
 21
6.8278411E+001
 70
128
 13
3.0199998E+002
 23
9.5481162E+001
 14
1.42E+002
 24
9.5481162E+001
 40
1.0E+001
 50
0.0
1001
ACAD
1000
DSTYLE
1002
{
1070
173
1070
0
1070
5
1000
_AH13
1002
}
  0
DIMENSION
  8
2D_BEMASSUNG
  6
CONTINUOUS
 62
1
  2
*D775
  3
DSTYLE2
 10
1.4200016E+002
 20
7.824577E+001
 11
1.6945981E+002
 21
8.4747829E+001
 70
128
 13
1.5E+002
 23
1.7681907E+002
 14
1.42E+002
 24
1.537579E+002
 40
1.0E+001
 50
1.8000012E+002
1001
ACAD
1000
DSTYLE
1002
{
1070
173
1070
0
1070
5
1000
_AH13
1002
}
  0
INSERT
  2
44NEW00
  8
2D_SYMBOLE
 10
0.0
 20
4.0984E+001
  0
LINE
  8
2D_MITTELLINIEN
  6
CENTERLINE
 62
1
 10
7.160556E+002
 20
-5.4016E+001
 11
-9.364062E+001
 21
-5.4016E+001
  0
DIMENSION
  8
2D_BEMASSUNG
  6
CONTINUOUS
 62
4
  2
*D778
  3
DSTYLE1
 10
9.8999941E+001
 20
2.6863934E+002
 11
5.1876289E+001
 21
2.7447234E+002
 70
128
 13
0.0
 23
4.2994E+001
 14
9.8999941E+001
 24
2.0398395E+002
 40
3.0
 50
0.0
1001
ACAD
1000
DSTYLE
1002
{
1070
173
1070
0
1070
5
1000
_AH13
1002
}
  0
DIMENSION
  8
2D_BEMASSUNG
  6
CONTINUOUS
 62
4
  2
*D779
  3
DSTYLE1
 10
1.499996E+002
 20
2.6747654E+002
 11
3.7209171E+002
 21
2.7330954E+002
 70
128
 13
5.780096E+002
 23
1.88826E+002
 14
1.499996E+002
 24
1.89234E+002
 40
3.0
 50
0.0
1001
ACAD
1000
DSTYLE
1002
{
1070
173
1070
0
1070
5
1000
_AH13
1002
}
  0
POINT
  8
Drafting_Hidden_Entities
  6
CONTINUOUS
 62
1
 10
0.0
 20
0.0
  0
ENDBLK
  0
BLOCK
  2
44NEW00
 10
0.0
 20
0.0
 70
0
  0
ARC
  8
2D_SICHTBARE_KANTEN
  6
CONTINUOUS
 62
40
 10
0.0
 20
-6.7008E+001
 40
1.5001402E+001
 50
2.4000309E+002
 51
2.9999691E+002
  0
ARC
  8
2D_SICHTBARE_KANTEN
  6
CONTINUOUS
 62
40
 10
0.0
 20
-1.299E+001
 40
1.499967E+001
 50
5.9999272E+001
 51
1.2000073E+002
  0
LINE
  8
2D_SICHTBARE_KANTEN
  6
CONTINUOUS
 62
40
 10
7.5
 20
-8.0E+001
 11
-7.5
 21
-8.0E+001
  0
LINE
  8
2D_SICHTBARE_KANTEN
  6
CONTINUOUS
 62
40
 10
-7.5
 20
-8.0E+001
 11
-7.5
 21
-4.0E+001
  0
LINE
  8
2D_SICHTBARE_KANTEN
  6
CONTINUOUS
 62
40
 10
-7.5
 20
-4.0E+001
 11
7.5
 21
-4.0E+001
  0
LINE
  8
2D_SICHTBARE_KANTEN
  6
CONTINUOUS
 62
40
 10
7.5
 20
-4.0E+001
 11
7.5
 21
-8.0E+001
  0
LINE
  8
2D_SICHTBARE_KANTEN
  6
CONTINUOUS
 62
40
 10
7.5
 20
-4.0E+001
 11
-7.5
 21
-4.0E+001
  0
LINE
  8
2D_SICHTBARE_KANTEN
  6
CONTINUOUS
 62
40
 10
-7.5
 20
-4.0E+001
 11
-7.5
 21
0.0
  0
LINE
  8
2D_SICHTBARE_KANTEN
  6
CONTINUOUS
 62
40
 10
-7.5
 20
0.0
 11
7.5
 21
0.0
  0
LINE
  8
2D_SICHTBARE_KANTEN
  6
CONTINUOUS
 62
40
 10
7.5
 20
0.0
 11
7.5
 21
-4.0E+001
  0
LINE
  8
2D_MITTELLINIEN
  6
CENTERLINE
 62
1
 10
0.0
 20
-8.9134E+001
 11
0.0
 21
7.166
  0
POINT
  8
Drafting_Hidden_Entities
  6
CONTINUOUS
 62
1
 10
0.0
 20
0.0
  0
ENDBLK
  0
BLOCK
  2
ZZ
 10
0.0
 20
0.0
 70
0
  0
LINE
  8
2D_SICHTBARE_KANTEN
  6
CONTINUOUS
 62
40
 10
5.0950435E+002
 20
2.2799995E+002
 11
5.0950435E+002
 21
2.257E+002
  0
LINE
  8
2D_SICHTBARE_KANTEN
  6
CONTINUOUS
 62
40
 10
5.0950435E+002
 20
2.257E+002
 11
5.2650435E+002
 21
2.257E+002
  0
DIMENSION
  8
2D_BEMASSUNG
  6
CONTINUOUS
 62
4
  2
*D936
  3
DSTYLE1
 10
1.1000398E+002
 20
1.1524899E+002
 11
3.9159931E+001
 21
1.2108199E+002
 70
128
 13
-3.1995617E+001
 23
1.1699E+002
 14
1.1000398E+002
 24
1.24684E+002
 40
3.0
 50
0.0
1001
ACAD
1000
DSTYLE
1002
{
1070
173
1070
0
1070
5
1000
_AH13
1002
}
  0
DIMENSION
  8
2D_BEMASSUNG
  6
CONTINUOUS
 62
4
  2
*D937
  3
DSTYLE1
 10
9.1640604
 20
2.1125E+002
 11
3.3310603
 21
1.8405049E+002
 70
128
 13
4.2554183E+001
 23
2.15E+002
 14
5.2504383E+001
 24
2.1125E+002
 40
3.0
 50
9.0E+001
1001
ACAD
1000
DSTYLE
1002
{
1070
173
1070
0
1070
5
1000
_AH13
1002
}
  0
LINE
  8
2D_SICHTBARE_KANTEN
  6
CONTINUOUS
 62
40
 10
5.2650435E+002
 20
2.257E+002
 11
5.2650435E+002
 21
2.2799995E+002
  0
LINE
  8
2D_SICHTBARE_KANTEN
  6
CONTINUOUS
 62
40
 10
5.2402935E+002
 20
2.2579622E+002
 11
5.2402935E+002
 21
2.2549998E+002
  0
LINE
  8
2D_SICHTBARE_KANTEN
  6
CONTINUOUS
 62
40
 10
5.2402935E+002
 20
2.2549998E+002
 11
5.1197933E+002
 21
2.2549998E+002
  0
LINE
  8
2D_SICHTBARE_KANTEN
  6
CONTINUOUS
 62
40
 10
5.1197933E+002
 20
2.2549998E+002
 11
5.1197933E+002
 21
2.257E+002
  0
LINE
  8
2D_SICHTBARE_KANTEN
  6
CONTINUOUS
 62
40
 10
5.1302935E+002
 20
2.2549998E+002
 11
5.1302935E+002
 21
2.2449998E+002
  0
LINE
  8
2D_SICHTBARE_KANTEN
  6
CONTINUOUS
 62
40
 10
5.229793E+002
 20
2.2549998E+002
 11
5.229793E+002
 21
2.2449998E+002
  0
DIMENSION
  8
2D_BEMASSUNG
  6
CONTINUOUS
 62
4
  2
*D944
  3
DSTYLE1
 10
9.1620604
 20
2.5799995E+002
 11
3.3290603
 21
2.3872161E+002
 70
128
 13
3.7153983E+001
 23
2.15E+002
 14
5.2504383E+001
 24
2.5799995E+002
 40
3.0
 50
9.0E+001
1001
ACAD
1000
DSTYLE
1002
{
1070
173
1070
0
1070
5
1000
_AH13
1002
}
  0
LINE
  8
2D_SICHTBARE_KANTEN
  6
CONTINUOUS
 62
40
 10
1.3800437E+002
 20
2.2449998E+002
 11
1.3800437E+002
 21
2.2499998E+002
  0
ARC
  8
2D_SICHTBARE_KANTEN
  6
CONTINUOUS
 62
40
 10
1.3850437E+002
 20
2.2499998E+002
 40
5.0000028E-001
 50
9.0E+001
 51
1.8E+002
  0
LINE
  8
2D_SICHTBARE_KANTEN
  6
CONTINUOUS
 62
40
 10
1.3850437E+002
 20
2.2549998E+002
 11
1.4750437E+002
 21
2.2549998E+002
  0
ARC
  8
2D_SICHTBARE_KANTEN
  6
CONTINUOUS
 62
40
 10
1.4750438E+002
 20
2.25E+002
 40
4.9998907E-001
 50
3.5999875E+002
 51
4.5000125E+002
  0
LINE
  8
2D_SICHTBARE_KANTEN
  6
CONTINUOUS
 62
40
 10
1.4800437E+002
 20
2.2499998E+002
 11
1.4800437E+002
 21
2.2449998E+002
  0
LINE
  8
2D_SICHTBARE_KANTEN
  6
CONTINUOUS
 62
40
 10
1.3200438E+002
 20
2.1125E+002
 11
1.3200438E+002
 21
2.1949998E+002
  0
LINE
  8
2D_SICHTBARE_KANTEN
  6
CONTINUOUS
 62
40
 10
1.3200438E+002
 20
2.1949998E+002
 11
1.5400438E+002
 21
2.1949998E+002
  0
LINE
  8
2D_SICHTBARE_KANTEN
  6
CONTINUOUS
 62
40
 10
1.5400438E+002
 20
2.1949998E+002
 11
1.5400438E+002
 21
2.1125E+002
  0
LINE
  8
2D_SICHTBARE_KANTEN
  6
CONTINUOUS
 62
40
 10
5.2900432E+002
 20
2.1949998E+002
 11
5.2900432E+002
 21
2.2449998E+002
  0
LINE
  8
2D_SICHTBARE_KANTEN
  6
CONTINUOUS
 62
40
 10
5.2900432E+002
 20
2.2449998E+002
 11
5.1113826E+002
 21
2.2449998E+002
  0
LINE
  8
2D_SICHTBARE_KANTEN
  6
CONTINUOUS
 62
40
 10
5.1113826E+002
 20
2.2449998E+002
 11
1.4890438E+002
 21
2.2449998E+002
  0
LINE
  8
2D_SICHTBARE_KANTEN
  6
CONTINUOUS
 62
40
 10
1.4890438E+002
 20
2.2449998E+002
 11
1.3200438E+002
 21
2.2449998E+002
  0
LINE
  8
2D_SICHTBARE_KANTEN
  6
CONTINUOUS
 62
40
 10
1.3200438E+002
 20
2.2449998E+002
 11
1.3200438E+002
 21
2.1949998E+002
  0
LINE
  8
2D_SICHTBARE_KANTEN
  6
CONTINUOUS
 62
40
 10
1.3200438E+002
 20
2.1949998E+002
 11
5.2900432E+002
 21
2.1949998E+002
  0
LINE
  8
2D_SICHTBARE_KANTEN
  6
CONTINUOUS
 62
40
 10
5.1151934E+002
 20
2.1949998E+002
 11
5.1151934E+002
 21
2.1899995E+002
  0
ARC
  8
2D_SICHTBARE_KANTEN
  6
CONTINUOUS
 62
40
 10
5.1201933E+002
 20
2.1899995E+002
 40
4.9999411E-001
 50
1.7999933E+002
 51
2.7000067E+002
  0
LINE
  8
2D_SICHTBARE_KANTEN
  6
CONTINUOUS
 62
40
 10
5.1201934E+002
 20
2.1849995E+002
 11
5.2398931E+002
 21
2.1849995E+002
  0
ARC
  8
2D_SICHTBARE_KANTEN
  6
CONTINUOUS
 62
40
 10
5.2398933E+002
 20
2.1899993E+002
 40
4.9998037E-001
 50
2.6999775E+002
 51
3.6000225E+002
  0
LINE
  8
2D_SICHTBARE_KANTEN
  6
CONTINUOUS
 62
40
 10
5.2448931E+002
 20
2.1899995E+002
 11
5.2448931E+002
 21
2.1949998E+002
  0
LINE
  8
2D_SICHTBARE_KANTEN
  6
CONTINUOUS
 62
40
 10
5.2448931E+002
 20
2.1949998E+002
 11
5.1151934E+002
 21
2.1949998E+002
  0
LINE
  8
2D_SICHTBARE_KANTEN
  6
CONTINUOUS
 62
40
 10
5.2487039E+002
 20
2.245E+002
 11
5.2297931E+002
 21
2.245E+002
  0
LINE
  8
2D_SICHTBARE_KANTEN
  6
CONTINUOUS
 62
40
 10
5.1302935E+002
 20
2.245E+002
 11
5.1113827E+002
 21
2.245E+002
  0
LINE
  8
2D_MITTELLINIEN
  6
CENTERLINE
 62
1
 10
1.4300438E+002
 20
2.272961E+002
 11
1.4300438E+002
 21
2.0395783E+002
  0
CIRCLE
  8
2D_SICHTBARE_KANTEN
  6
CONTINUOUS
 62
1
 10
1.1000438E+002
 20
2.0E+002
 40
5.0
  0
CIRCLE
  8
2D_SICHTBARE_KANTEN
  6
CONTINUOUS
 62
1
 10
2.1800437E+002
 20
1.92E+002
 40
5.0
  0
LINE
  8
2D_MITTELLINIEN
  6
CENTERLINE
 62
1
 10
2.1800437E+002
 20
1.9916664E+002
 11
2.1800437E+002
 21
1.8473114E+002
  0
LINE
  8
2D_MITTELLINIEN
  6
CENTERLINE
 62
1
 10
2.2499689E+002
 20
1.92E+002
 11
2.1076188E+002
 21
1.92E+002
  0
LINE
  8
2D_MITTELLINIEN
  6
CENTERLINE
 62
1
 10
1.6200438E+002
 20
1.9916664E+002
 11
1.6200438E+002
 21
1.8473114E+002
  0
LINE
  8
2D_MITTELLINIEN
  6
CENTERLINE
 62
1
 10
1.6899691E+002
 20
1.92E+002
 11
1.5476189E+002
 21
1.92E+002
  0
CIRCLE
  8
2D_SICHTBARE_KANTEN
  6
CONTINUOUS
 62
1
 10
1.6200438E+002
 20
1.92E+002
 40
5.0
  0
CIRCLE
  8
2D_SICHTBARE_KANTEN
  6
CONTINUOUS
 62
1
 10
2.7000436E+002
 20
1.57E+002
 40
5.0
  0
LINE
  8
99
  6
CONTINUOUS
 62
1
 10
1.1000438E+002
 20
1.4949716E+002
 11
1.1000438E+002
 21
2.077739E+002
  0
LINE
  8
2D_MITTELLINIEN
  6
CENTERLINE
 62
1
 10
1.0394536E+002
 20
2.0E+002
 11
1.176086E+002
 21
2.0E+002
  0
LINE
  8
2D_MITTELLINIEN
  6
CENTERLINE
 62
1
 10
2.7606338E+002
 20
1.57E+002
 11
2.6240014E+002
 21
1.57E+002
  0
LINE
  8
2D_MITTELLINIEN
  6
CENTERLINE
 62
1
 10
2.7000435E+002
 20
1.4949716E+002
 11
2.7000435E+002
 21
2.0748973E+002
  0
LINE
  8
2D_MITTELLINIEN
  6
CENTERLINE
 62
1
 10
2.7606338E+002
 20
1.73E+002
 11
2.6240014E+002
 21
1.73E+002
  0
LINE
  8
2D_MITTELLINIEN
  6
CENTERLINE
 62
1
 10
2.7606338E+002
 20
1.84E+002
 11
2.6240014E+002
 21
1.84E+002
  0
ARC
  8
2D_SICHTBARE_KANTEN
  6
CONTINUOUS
 62
40
 10
-3.1995617E+001
 20
2.7992E+001
 40
1.5001402E+001
 50
2.4000309E+002
 51
2.9999691E+002
  0
ARC
  8
2D_SICHTBARE_KANTEN
  6
CONTINUOUS
 62
40
 10
-3.1995617E+001
 20
8.201E+001
 40
1.499967E+001
 50
5.9999272E+001
 51
1.2000073E+002
  0
LINE
  8
2D_SICHTBARE_KANTEN
  6
CONTINUOUS
 62
40
 10
-2.4495617E+001
 20
1.5E+001
 11
-3.9495617E+001
 21
1.5E+001
  0
LINE
  8
2D_SICHTBARE_KANTEN
  6
CONTINUOUS
 62
40
 10
-3.9495617E+001
 20
1.5E+001
 11
-3.9495617E+001
 21
5.5E+001
  0
LINE
  8
2D_SICHTBARE_KANTEN
  6
CONTINUOUS
 62
40
 10
-3.9495617E+001
 20
5.5E+001
 11
-2.4495617E+001
 21
5.5E+001
  0
LINE
  8
2D_SICHTBARE_KANTEN
  6
CONTINUOUS
 62
40
 10
-2.4495617E+001
 20
5.5E+001
 11
-2.4495617E+001
 21
1.5E+001
  0
LINE
  8
2D_SICHTBARE_KANTEN
  6
CONTINUOUS
 62
40
 10
-2.4495617E+001
 20
5.5E+001
 11
-3.9495617E+001
 21
5.5E+001
  0
LINE
  8
2D_SICHTBARE_KANTEN
  6
CONTINUOUS
 62
40
 10
-3.9495617E+001
 20
5.5E+001
 11
-3.9495617E+001
 21
9.5E+001
  0
LINE
  8
2D_SICHTBARE_KANTEN
  6
CONTINUOUS
 62
40
 10
-3.9495617E+001
 20
9.5E+001
 11
-2.4495617E+001
 21
9.5E+001
  0
LINE
  8
2D_SICHTBARE_KANTEN
  6
CONTINUOUS
 62
40
 10
-2.4495617E+001
 20
9.5E+001
 11
-2.4495617E+001
 21
5.5E+001
  0
LINE
  8
2D_MITTELLINIEN
  6
CENTERLINE
 62
1
 10
-3.1995617E+001
 20
5.866
 11
-3.1995617E+001
 21
1.02166E+002
  0
LINE
  8
2D_SICHTBARE_KANTEN
  6
CONTINUOUS
 62
40
 10
-3.5995617E+001
 20
0.0
 11
-3.5995617E+001
 21
1.3534E+001
  0
LINE
  8
2D_SICHTBARE_KANTEN
  6
CONTINUOUS
 62
40
 10
-3.5995617E+001
 20
9.6468E+001
 11
-3.5995617E+001
 21
2.19E+002
  0
LINE
  8
2D_SICHTBARE_KANTEN
  6
CONTINUOUS
 62
40
 10
-3.5995617E+001
 20
2.19E+002
 11
1.3200398E+002
 21
2.19E+002
  0
LINE
  8
2D_SICHTBARE_KANTEN
  6
CONTINUOUS
 62
40
 10
5.2900432E+002
 20
2.19E+002
 11
6.7400398E+002
 21
2.19E+002
  0
LINE
  8
2D_SICHTBARE_KANTEN
  6
CONTINUOUS
 62
40
 10
-3.1995617E+001
 20
0.0
 11
-3.1995617E+001
 21
1.2992E+001
  0
LINE
  8
2D_SICHTBARE_KANTEN
  6
CONTINUOUS
 62
40
 10
-3.1995617E+001
 20
9.701E+001
 11
-3.1995617E+001
 21
2.15E+002
  0
LINE
  8
2D_SICHTBARE_KANTEN
  6
CONTINUOUS
 62
40
 10
-3.1995617E+001
 20
2.15E+002
 11
1.3200438E+002
 21
2.15E+002
  0
LINE
  8
2D_SICHTBARE_KANTEN
  6
CONTINUOUS
 62
40
 10
1.5400438E+002
 20
2.15E+002
 11
6.7400398E+002
 21
2.15E+002
  0
LINE
  8
2D_MITTELLINIEN
  6
CENTERLINE
 62
1
 10
6.7400398E+002
 20
3.22524E+002
 11
6.7400398E+002
 21
-1.5468E+001
  0
LINE
  8
2D_MITTELLINIEN
  6
CENTERLINE
 62
1
 10
2.7606338E+002
 20
2.0E+002
 11
2.6240014E+002
 21
2.0E+002
  0
LINE
  8
2D_MITTELLINIEN
  6
CENTERLINE
 62
1
 10
1.0394536E+002
 20
1.57E+002
 11
1.176086E+002
 21
1.57E+002
  0
LINE
  8
2D_MITTELLINIEN
  6
CENTERLINE
 62
1
 10
1.0394536E+002
 20
1.73E+002
 11
1.176086E+002
 21
1.73E+002
  0
LINE
  8
2D_MITTELLINIEN
  6
CENTERLINE
 62
1
 10
1.0394536E+002
 20
1.84E+002
 11
1.176086E+002
 21
1.84E+002
  0
CIRCLE
  8
2D_SICHTBARE_KANTEN
  6
CONTINUOUS
 62
1
 10
2.7000436E+002
 20
1.73E+002
 40
5.0
  0
CIRCLE
  8
2D_SICHTBARE_KANTEN
  6
CONTINUOUS
 62
1
 10
2.7000436E+002
 20
1.84E+002
 40
5.0
  0
CIRCLE
  8
2D_SICHTBARE_KANTEN
  6
CONTINUOUS
 62
1
 10
2.7000436E+002
 20
2.0E+002
 40
5.0
  0
CIRCLE
  8
2D_SICHTBARE_KANTEN
  6
CONTINUOUS
 62
1
 10
1.1000438E+002
 20
1.57E+002
 40
5.0
  0
CIRCLE
  8
2D_SICHTBARE_KANTEN
  6
CONTINUOUS
 62
1
 10
1.1000438E+002
 20
1.73E+002
 40
5.0
  0
CIRCLE
  8
2D_SICHTBARE_KANTEN
  6
CONTINUOUS
 62
1
 10
1.1000438E+002
 20
1.84E+002
 40
5.0
  0
LINE
  8
2D_SICHTBARE_KANTEN
  6
CONTINUOUS
 62
40
 10
6.3004383E+001
 20
1.5125E+002
 11
6.2504383E+001
 21
1.5125E+002
  0
LINE
  8
2D_SICHTBARE_KANTEN
  6
CONTINUOUS
 62
40
 10
6.2504383E+001
 20
1.5125E+002
 11
5.2504383E+001
 21
1.5125E+002
  0
LINE
  8
2D_SICHTBARE_KANTEN
  6
CONTINUOUS
 62
40
 10
5.2504383E+001
 20
1.5125E+002
 11
5.2504383E+001
 21
2.1125E+002
  0
LINE
  8
2D_SICHTBARE_KANTEN
  6
CONTINUOUS
 62
40
 10
5.2504383E+001
 20
2.1125E+002
 11
6.2504383E+001
 21
2.1125E+002
  0
LINE
  8
2D_SICHTBARE_KANTEN
  6
CONTINUOUS
 62
40
 10
6.2504383E+001
 20
2.1125E+002
 11
6.3004383E+001
 21
2.1125E+002
  0
LINE
  8
2D_SICHTBARE_KANTEN
  6
CONTINUOUS
 62
40
 10
6.3004383E+001
 20
2.1125E+002
 11
3.1700435E+002
 21
2.1125E+002
  0
LINE
  8
2D_SICHTBARE_KANTEN
  6
CONTINUOUS
 62
40
 10
3.1700435E+002
 20
2.1125E+002
 11
3.1750435E+002
 21
2.1125E+002
  0
LINE
  8
2D_SICHTBARE_KANTEN
  6
CONTINUOUS
 62
40
 10
3.1750435E+002
 20
2.1125E+002
 11
3.2750435E+002
 21
2.1125E+002
  0
LINE
  8
2D_SICHTBARE_KANTEN
  6
CONTINUOUS
 62
40
 10
3.2750435E+002
 20
2.1125E+002
 11
3.2750435E+002
 21
1.5125E+002
  0
LINE
  8
2D_SICHTBARE_KANTEN
  6
CONTINUOUS
 62
40
 10
3.1750435E+002
 20
1.5125E+002
 11
3.1700435E+002
 21
1.5125E+002
  0
LINE
  8
2D_SICHTBARE_KANTEN
  6
CONTINUOUS
 62
40
 10
3.2750435E+002
 20
1.5125E+002
 11
6.3004383E+001
 21
1.5125E+002
  0
LINE
  8
2D_SICHTBARE_KANTEN
  6
CONTINUOUS
 62
40
 10
3.1750435E+002
 20
1.5175E+002
 11
3.1750435E+002
 21
1.5125E+002
  0
LINE
  8
2D_MITTELLINIEN
  6
CENTERLINE
 62
1
 10
1.1000438E+002
 20
1.4949716E+002
 11
1.1000438E+002
 21
1.8052255E+002
  0
LINE
  8
2D_MITTELLINIEN
  6
CENTERLINE
 62
1
 10
1.1000438E+002
 20
1.8052255E+002
 11
1.1000438E+002
 21
2.0421332E+002
  0
LINE
  8
2D_MITTELLINIEN
  6
CENTERLINE
 62
1
 10
2.7000436E+002
 20
1.4949716E+002
 11
2.7000436E+002
 21
1.8148209E+002
  0
LINE
  8
2D_MITTELLINIEN
  6
CENTERLINE
 62
1
 10
2.7000436E+002
 20
1.8148209E+002
 11
2.7000436E+002
 21
2.04755E+002
  0
LINE
  8
2D_SICHTBARE_KANTEN
  6
CONTINUOUS
 62
40
 10
1.3975438E+002
 20
2.195E+002
 11
1.4625438E+002
 21
2.195E+002
  0
LINE
  8
2D_MITTELLINIEN
  6
CENTERLINE
 62
1
 10
5.1800432E+002
 20
2.1745738E+002
 11
5.1800432E+002
 21
2.3120024E+002
  0
LINE
  8
2D_SICHTBARE_KANTEN
  6
CONTINUOUS
 62
40
 10
1.3710438E+002
 20
2.195E+002
 11
1.4890438E+002
 21
2.195E+002
  0
LINE
  8
2D_SICHTBARE_KANTEN
  6
CONTINUOUS
 62
40
 10
5.2400432E+002
 20
2.1949998E+002
 11
5.229793E+002
 21
2.1949998E+002
  0
LINE
  8
2D_SICHTBARE_KANTEN
  6
CONTINUOUS
 62
40
 10
5.1302935E+002
 20
2.1949998E+002
 11
5.1200432E+002
 21
2.1949998E+002
  0
DIMENSION
  8
2D_BEMASSUNG
  6
CONTINUOUS
 62
1
  1
84
  2
*D1033
  3
DSTYLE2
 10
5.2504383E+001
 20
1.3693352E+002
 11
8.6209233E-001
 21
1.4343552E+002
 70
128
 13
-3.1995617E+001
 23
9.701E+001
 14
5.2504383E+001
 24
1.5125E+002
 40
1.0E+001
 50
0.0
1001
ACAD
1000
DSTYLE
1002
{
1070
173
1070
0
1070
5
1000
_AH13
1002
}
  0
TEXT
  8
2D_TEXT
  6
CONTINUOUS
 62
1
 10
1.0556392E+001
 20
1.4692547E+002
 40
7.0
  1
(80)
 41
8.0E-001
  0
DIMENSION
  8
2D_BEMASSUNG
  6
CONTINUOUS
 62
1
  2
*D1035
  3
DSTYLE2
 10
3.32154E+001
 20
2.4949998E+002
 11
2.67134E+001
 21
2.4209935E+002
 70
128
 13
1.1275438E+002
 23
2.3799998E+002
 14
6.0189064E+001
 24
2.4949998E+002
 40
1.0E+001
 50
9.0E+001
1001
ACAD
1000
DSTYLE
1002
{
1070
173
1070
0
1070
5
1000
_AH13
1002
}
  0
TEXT
  8
2D_TEXT
  6
CONTINUOUS
 62
1
 10
-1.6692312E+001
 20
2.8109783E+002
 40
7.0
  1
%%c8 (24V DC)
 41
8.0E-001
  0
LINE
  8
2D_SICHTBARE_KANTEN
  6
CONTINUOUS
 62
1
 10
-1.755033E+001
 20
2.7737975E+002
 11
4.394096E+001
 21
2.7737975E+002
  0
LINE
  8
2D_SICHTBARE_KANTEN
  6
CONTINUOUS
 62
1
 10
4.394096E+001
 20
2.7737975E+002
 11
6.7004344E+001
 21
2.4929173E+002
  0
DIMENSION
  8
2D_BEMASSUNG
  6
CONTINUOUS
 62
1
  2
*D1039
  3
DSTYLE2
 10
1.1000438E+002
 20
1.1579241E+002
 11
1.9118204E+002
 21
1.2229441E+002
 70
128
 13
2.7000436E+002
 23
1.4949716E+002
 14
1.1000438E+002
 24
1.4949716E+002
 40
1.0E+001
 50
0.0
1001
ACAD
1000
DSTYLE
1002
{
1070
173
1070
0
1070
5
1000
_AH13
1002
}
  0
DIMENSION
  8
2D_BEMASSUNG
  6
CONTINUOUS
 62
1
  2
*D1040
  3
DSTYLE2
 10
1.1000455E+002
 20
1.3226177E+002
 11
1.3746419E+002
 21
1.3876383E+002
 70
128
 13
1.1800438E+002
 23
2.3083507E+002
 14
1.1000438E+002
 24
2.077739E+002
 40
1.0E+001
 50
1.8000012E+002
1001
ACAD
1000
DSTYLE
1002
{
1070
173
1070
0
1070
5
1000
_AH13
1002
}
  0
LINE
  8
2D_MITTELLINIEN
  6
CENTERLINE
 62
1
 10
5.4601614E+002
 20
2.4507423E+002
 11
5.4600237E+002
 21
2.3067516E+002
  0
LINE
  8
2D_MITTELLINIEN
  6
CENTERLINE
 62
1
 10
5.5125435E+002
 20
2.3799998E+002
 11
5.4100435E+002
 21
2.3799998E+002
  0
CIRCLE
  8
2D_SICHTBARE_KANTEN
  6
CONTINUOUS
 62
1
 10
5.4600937E+002
 20
2.3799998E+002
 40
3.0
  0
LINE
  8
2D_SICHTBARE_KANTEN
  6
CONTINUOUS
 62
40
 10
5.7050438E+002
 20
2.5799995E+002
 11
5.2504383E+001
 21
2.5799995E+002
  0
LINE
  8
2D_SICHTBARE_KANTEN
  6
CONTINUOUS
 62
40
 10
5.7050438E+002
 20
2.2799995E+002
 11
5.2504383E+001
 21
2.2799995E+002
  0
LINE
  8
2D_SICHTBARE_KANTEN
  6
CONTINUOUS
 62
40
 10
5.7050438E+002
 20
2.2799995E+002
 11
5.7050438E+002
 21
2.5799995E+002
  0
LINE
  8
2D_SICHTBARE_KANTEN
  6
CONTINUOUS
 62
40
 10
5.2504383E+001
 20
2.2799995E+002
 11
5.2504383E+001
 21
2.5799995E+002
  0
LINE
  8
2D_MITTELLINIEN
  6
CENTERLINE
 62
1
 10
1.1800438E+002
 20
2.3083507E+002
 11
1.1800435E+002
 21
2.4500174E+002
  0
LINE
  8
2D_MITTELLINIEN
  6
CENTERLINE
 62
1
 10
1.2300438E+002
 20
2.3799998E+002
 11
1.1275438E+002
 21
2.3799998E+002
  0
CIRCLE
  8
2D_SICHTBARE_KANTEN
  6
CONTINUOUS
 62
1
 10
1.1800437E+002
 20
2.3799998E+002
 40
3.0
  0
LINE
  8
2D_MITTELLINIEN
  6
CENTERLINE
 62
1
 10
7.3750696E+001
 20
2.4949998E+002
 11
6.0189064E+001
 21
2.4949998E+002
  0
LINE
  8
2D_MITTELLINIEN
  6
CENTERLINE
 62
1
 10
6.700436E+001
 20
2.4163191E+002
 11
6.7004327E+001
 21
2.5695155E+002
  0
CIRCLE
  8
2D_SICHTBARE_KANTEN
  6
CONTINUOUS
 62
1
 10
6.7004343E+001
 20
2.4949998E+002
 40
4.0
  0
ARC
  8
2D_SICHTBARE_KANTEN
  6
CONTINUOUS
 62
40
 10
-3.1995617E+001
 20
2.7992E+001
 40
1.5001402E+001
 50
2.4000309E+002
 51
2.9999691E+002
  0
ARC
  8
2D_SICHTBARE_KANTEN
  6
CONTINUOUS
 62
40
 10
-3.1995617E+001
 20
8.201E+001
 40
1.499967E+001
 50
5.9999272E+001
 51
1.2000073E+002
  0
LINE
  8
2D_SICHTBARE_KANTEN
  6
CONTINUOUS
 62
40
 10
-2.4495617E+001
 20
1.5E+001
 11
-3.9495617E+001
 21
1.5E+001
  0
LINE
  8
2D_SICHTBARE_KANTEN
  6
CONTINUOUS
 62
40
 10
-3.9495617E+001
 20
1.5E+001
 11
-3.9495617E+001
 21
5.5E+001
  0
LINE
  8
2D_SICHTBARE_KANTEN
  6
CONTINUOUS
 62
40
 10
-3.9495617E+001
 20
5.5E+001
 11
-2.4495617E+001
 21
5.5E+001
  0
LINE
  8
2D_SICHTBARE_KANTEN
  6
CONTINUOUS
 62
40
 10
-2.4495617E+001
 20
5.5E+001
 11
-2.4495617E+001
 21
1.5E+001
  0
LINE
  8
2D_SICHTBARE_KANTEN
  6
CONTINUOUS
 62
40
 10
-2.4495617E+001
 20
5.5E+001
 11
-3.9495617E+001
 21
5.5E+001
  0
LINE
  8
2D_SICHTBARE_KANTEN
  6
CONTINUOUS
 62
40
 10
-3.9495617E+001
 20
5.5E+001
 11
-3.9495617E+001
 21
9.5E+001
  0
LINE
  8
2D_SICHTBARE_KANTEN
  6
CONTINUOUS
 62
40
 10
-3.9495617E+001
 20
9.5E+001
 11
-2.4495617E+001
 21
9.5E+001
  0
LINE
  8
2D_SICHTBARE_KANTEN
  6
CONTINUOUS
 62
40
 10
-2.4495617E+001
 20
9.5E+001
 11
-2.4495617E+001
 21
5.5E+001
  0
LINE
  8
2D_MITTELLINIEN
  6
CENTERLINE
 62
1
 10
-3.1995617E+001
 20
5.866
 11
-3.1995617E+001
 21
1.02166E+002
  0
LINE
  8
2D_MITTELLINIEN
  6
CENTERLINE
 62
1
 10
6.8405998E+002
 20
0.0
 11
-1.2563624E+002
 21
0.0
  0
LINE
  8
2D_SICHTBARE_KANTEN
  6
CONTINUOUS
 62
40
 10
-1.2099562E+002
 20
0.0
 11
-1.2099562E+002
 21
3.04E+002
  0
LINE
  8
2D_SICHTBARE_KANTEN
  6
CONTINUOUS
 62
40
 10
-3.5995617E+001
 20
2.19E+002
 11
-1.2099562E+002
 21
3.04E+002
  0
LINE
  8
2D_SICHTBARE_KANTEN
  6
CONTINUOUS
 62
40
 10
-1.2099562E+002
 20
3.04E+002
 11
6.7400398E+002
 21
3.04E+002
  0
DIMENSION
  8
2D_BEMASSUNG
  6
CONTINUOUS
 62
4
  2
*D1069
  3
DSTYLE1
 10
6.7004325E+001
 20
3.2265534E+002
 11
1.9880672E+001
 21
3.2848834E+002
 70
128
 13
-3.1995617E+001
 23
9.701E+001
 14
6.7004325E+001
 24
2.5799995E+002
 40
3.0
 50
0.0
1001
ACAD
1000
DSTYLE
1002
{
1070
173
1070
0
1070
5
1000
_AH13
1002
}
  0
DIMENSION
  8
2D_BEMASSUNG
  6
CONTINUOUS
 62
4
  2
*D1070
  3
DSTYLE1
 10
1.1800398E+002
 20
3.2149254E+002
 11
3.400961E+002
 21
3.2732554E+002
 70
128
 13
5.4601398E+002
 23
2.42842E+002
 14
1.1800398E+002
 24
2.4325E+002
 40
3.0
 50
0.0
1001
ACAD
1000
DSTYLE
1002
{
1070
173
1070
0
1070
5
1000
_AH13
1002
}
  0
POINT
  8
Drafting_Hidden_Entities
  6
CONTINUOUS
 62
1
 10
0.0
 20
0.0
  0
ENDBLK
  0
BLOCK
  2
ZZNEW00
 10
0.0
 20
0.0
 70
0
  0
LINE
  8
2D_SICHTBARE_KANTEN
  6
CONTINUOUS
 62
40
 10
5.0950435E+002
 20
2.2799995E+002
 11
5.0950435E+002
 21
2.257E+002
  0
LINE
  8
2D_SICHTBARE_KANTEN
  6
CONTINUOUS
 62
40
 10
5.0950435E+002
 20
2.257E+002
 11
5.2650435E+002
 21
2.257E+002
  0
DIMENSION
  8
2D_BEMASSUNG
  6
CONTINUOUS
 62
4
  2
*D1075
  3
DSTYLE1
 10
1.1000398E+002
 20
1.1524899E+002
 11
3.9159931E+001
 21
1.2108199E+002
 70
128
 13
-3.1995617E+001
 23
1.1699E+002
 14
1.1000398E+002
 24
1.24684E+002
 40
3.0
 50
0.0
1001
ACAD
1000
DSTYLE
1002
{
1070
173
1070
0
1070
5
1000
_AH13
1002
}
  0
DIMENSION
  8
2D_BEMASSUNG
  6
CONTINUOUS
 62
4
  2
*D1076
  3
DSTYLE1
 10
9.1640604
 20
2.1125E+002
 11
3.3310603
 21
1.8405049E+002
 70
128
 13
4.2554183E+001
 23
2.15E+002
 14
5.2504383E+001
 24
2.1125E+002
 40
3.0
 50
9.0E+001
1001
ACAD
1000
DSTYLE
1002
{
1070
173
1070
0
1070
5
1000
_AH13
1002
}
  0
LINE
  8
2D_SICHTBARE_KANTEN
  6
CONTINUOUS
 62
40
 10
5.2650435E+002
 20
2.257E+002
 11
5.2650435E+002
 21
2.2799995E+002
  0
LINE
  8
2D_SICHTBARE_KANTEN
  6
CONTINUOUS
 62
40
 10
5.2402935E+002
 20
2.2579622E+002
 11
5.2402935E+002
 21
2.2549998E+002
  0
LINE
  8
2D_SICHTBARE_KANTEN
  6
CONTINUOUS
 62
40
 10
5.2402935E+002
 20
2.2549998E+002
 11
5.1197933E+002
 21
2.2549998E+002
  0
LINE
  8
2D_SICHTBARE_KANTEN
  6
CONTINUOUS
 62
40
 10
5.1197933E+002
 20
2.2549998E+002
 11
5.1197933E+002
 21
2.257E+002
  0
LINE
  8
2D_SICHTBARE_KANTEN
  6
CONTINUOUS
 62
40
 10
5.1302935E+002
 20
2.2549998E+002
 11
5.1302935E+002
 21
2.2449998E+002
  0
LINE
  8
2D_SICHTBARE_KANTEN
  6
CONTINUOUS
 62
40
 10
5.229793E+002
 20
2.2549998E+002
 11
5.229793E+002
 21
2.2449998E+002
  0
DIMENSION
  8
2D_BEMASSUNG
  6
CONTINUOUS
 62
4
  2
*D1083
  3
DSTYLE1
 10
9.1620604
 20
2.5799995E+002
 11
3.3290603
 21
2.3872161E+002
 70
128
 13
3.7153983E+001
 23
2.15E+002
 14
5.2504383E+001
 24
2.5799995E+002
 40
3.0
 50
9.0E+001
1001
ACAD
1000
DSTYLE
1002
{
1070
173
1070
0
1070
5
1000
_AH13
1002
}
  0
LINE
  8
2D_SICHTBARE_KANTEN
  6
CONTINUOUS
 62
40
 10
1.3800437E+002
 20
2.2449998E+002
 11
1.3800437E+002
 21
2.2499998E+002
  0
ARC
  8
2D_SICHTBARE_KANTEN
  6
CONTINUOUS
 62
40
 10
1.3850437E+002
 20
2.2499998E+002
 40
5.0000028E-001
 50
9.0E+001
 51
1.8E+002
  0
LINE
  8
2D_SICHTBARE_KANTEN
  6
CONTINUOUS
 62
40
 10
1.3850437E+002
 20
2.2549998E+002
 11
1.4750437E+002
 21
2.2549998E+002
  0
ARC
  8
2D_SICHTBARE_KANTEN
  6
CONTINUOUS
 62
40
 10
1.4750438E+002
 20
2.25E+002
 40
4.9998907E-001
 50
3.5999875E+002
 51
4.5000125E+002
  0
LINE
  8
2D_SICHTBARE_KANTEN
  6
CONTINUOUS
 62
40
 10
1.4800437E+002
 20
2.2499998E+002
 11
1.4800437E+002
 21
2.2449998E+002
  0
LINE
  8
2D_SICHTBARE_KANTEN
  6
CONTINUOUS
 62
40
 10
1.3200438E+002
 20
2.1125E+002
 11
1.3200438E+002
 21
2.1949998E+002
  0
LINE
  8
2D_SICHTBARE_KANTEN
  6
CONTINUOUS
 62
40
 10
1.3200438E+002
 20
2.1949998E+002
 11
1.5400438E+002
 21
2.1949998E+002
  0
LINE
  8
2D_SICHTBARE_KANTEN
  6
CONTINUOUS
 62
40
 10
1.5400438E+002
 20
2.1949998E+002
 11
1.5400438E+002
 21
2.1125E+002
  0
LINE
  8
2D_SICHTBARE_KANTEN
  6
CONTINUOUS
 62
40
 10
5.2900432E+002
 20
2.1949998E+002
 11
5.2900432E+002
 21
2.2449998E+002
  0
LINE
  8
2D_SICHTBARE_KANTEN
  6
CONTINUOUS
 62
40
 10
5.2900432E+002
 20
2.2449998E+002
 11
5.1113826E+002
 21
2.2449998E+002
  0
LINE
  8
2D_SICHTBARE_KANTEN
  6
CONTINUOUS
 62
40
 10
5.1113826E+002
 20
2.2449998E+002
 11
1.4890438E+002
 21
2.2449998E+002
  0
LINE
  8
2D_SICHTBARE_KANTEN
  6
CONTINUOUS
 62
40
 10
1.4890438E+002
 20
2.2449998E+002
 11
1.3200438E+002
 21
2.2449998E+002
  0
LINE
  8
2D_SICHTBARE_KANTEN
  6
CONTINUOUS
 62
40
 10
1.3200438E+002
 20
2.2449998E+002
 11
1.3200438E+002
 21
2.1949998E+002
  0
LINE
  8
2D_SICHTBARE_KANTEN
  6
CONTINUOUS
 62
40
 10
1.3200438E+002
 20
2.1949998E+002
 11
5.2900432E+002
 21
2.1949998E+002
  0
LINE
  8
2D_SICHTBARE_KANTEN
  6
CONTINUOUS
 62
40
 10
5.1151934E+002
 20
2.1949998E+002
 11
5.1151934E+002
 21
2.1899995E+002
  0
ARC
  8
2D_SICHTBARE_KANTEN
  6
CONTINUOUS
 62
40
 10
5.1201933E+002
 20
2.1899995E+002
 40
4.9999411E-001
 50
1.7999933E+002
 51
2.7000067E+002
  0
LINE
  8
2D_SICHTBARE_KANTEN
  6
CONTINUOUS
 62
40
 10
5.1201934E+002
 20
2.1849995E+002
 11
5.2398931E+002
 21
2.1849995E+002
  0
ARC
  8
2D_SICHTBARE_KANTEN
  6
CONTINUOUS
 62
40
 10
5.2398933E+002
 20
2.1899993E+002
 40
4.9998037E-001
 50
2.6999775E+002
 51
3.6000225E+002
  0
LINE
  8
2D_SICHTBARE_KANTEN
  6
CONTINUOUS
 62
40
 10
5.2448931E+002
 20
2.1899995E+002
 11
5.2448931E+002
 21
2.1949998E+002
  0
LINE
  8
2D_SICHTBARE_KANTEN
  6
CONTINUOUS
 62
40
 10
5.2448931E+002
 20
2.1949998E+002
 11
5.1151934E+002
 21
2.1949998E+002
  0
LINE
  8
2D_SICHTBARE_KANTEN
  6
CONTINUOUS
 62
40
 10
5.2487039E+002
 20
2.245E+002
 11
5.2297931E+002
 21
2.245E+002
  0
LINE
  8
2D_SICHTBARE_KANTEN
  6
CONTINUOUS
 62
40
 10
5.1302935E+002
 20
2.245E+002
 11
5.1113827E+002
 21
2.245E+002
  0
LINE
  8
2D_MITTELLINIEN
  6
CENTERLINE
 62
1
 10
1.4300438E+002
 20
2.272961E+002
 11
1.4300438E+002
 21
2.0395783E+002
  0
CIRCLE
  8
2D_SICHTBARE_KANTEN
  6
CONTINUOUS
 62
1
 10
1.1000438E+002
 20
2.0E+002
 40
5.0
  0
CIRCLE
  8
2D_SICHTBARE_KANTEN
  6
CONTINUOUS
 62
1
 10
2.1800437E+002
 20
1.92E+002
 40
5.0
  0
LINE
  8
2D_MITTELLINIEN
  6
CENTERLINE
 62
1
 10
2.1800437E+002
 20
1.9916664E+002
 11
2.1800437E+002
 21
1.8473114E+002
  0
LINE
  8
2D_MITTELLINIEN
  6
CENTERLINE
 62
1
 10
2.2499689E+002
 20
1.92E+002
 11
2.1076188E+002
 21
1.92E+002
  0
LINE
  8
2D_MITTELLINIEN
  6
CENTERLINE
 62
1
 10
1.6200438E+002
 20
1.9916664E+002
 11
1.6200438E+002
 21
1.8473114E+002
  0
LINE
  8
2D_MITTELLINIEN
  6
CENTERLINE
 62
1
 10
1.6899691E+002
 20
1.92E+002
 11
1.5476189E+002
 21
1.92E+002
  0
CIRCLE
  8
2D_SICHTBARE_KANTEN
  6
CONTINUOUS
 62
1
 10
1.6200438E+002
 20
1.92E+002
 40
5.0
  0
CIRCLE
  8
2D_SICHTBARE_KANTEN
  6
CONTINUOUS
 62
1
 10
2.7000436E+002
 20
1.57E+002
 40
5.0
  0
LINE
  8
99
  6
CONTINUOUS
 62
1
 10
1.1000438E+002
 20
1.4949716E+002
 11
1.1000438E+002
 21
2.077739E+002
  0
LINE
  8
2D_MITTELLINIEN
  6
CENTERLINE
 62
1
 10
1.0394536E+002
 20
2.0E+002
 11
1.176086E+002
 21
2.0E+002
  0
LINE
  8
2D_MITTELLINIEN
  6
CENTERLINE
 62
1
 10
2.7606338E+002
 20
1.57E+002
 11
2.6240014E+002
 21
1.57E+002
  0
LINE
  8
2D_MITTELLINIEN
  6
CENTERLINE
 62
1
 10
2.7000435E+002
 20
1.4949716E+002
 11
2.7000435E+002
 21
2.0748973E+002
  0
LINE
  8
2D_MITTELLINIEN
  6
CENTERLINE
 62
1
 10
2.7606338E+002
 20
1.73E+002
 11
2.6240014E+002
 21
1.73E+002
  0
LINE
  8
2D_MITTELLINIEN
  6
CENTERLINE
 62
1
 10
2.7606338E+002
 20
1.84E+002
 11
2.6240014E+002
 21
1.84E+002
  0
ARC
  8
2D_SICHTBARE_KANTEN
  6
CONTINUOUS
 62
40
 10
-3.1995617E+001
 20
2.7992E+001
 40
1.5001402E+001
 50
2.4000309E+002
 51
2.9999691E+002
  0
ARC
  8
2D_SICHTBARE_KANTEN
  6
CONTINUOUS
 62
40
 10
-3.1995617E+001
 20
8.201E+001
 40
1.499967E+001
 50
5.9999272E+001
 51
1.2000073E+002
  0
LINE
  8
2D_SICHTBARE_KANTEN
  6
CONTINUOUS
 62
40
 10
-2.4495617E+001
 20
1.5E+001
 11
-3.9495617E+001
 21
1.5E+001
  0
LINE
  8
2D_SICHTBARE_KANTEN
  6
CONTINUOUS
 62
40
 10
-3.9495617E+001
 20
1.5E+001
 11
-3.9495617E+001
 21
5.5E+001
  0
LINE
  8
2D_SICHTBARE_KANTEN
  6
CONTINUOUS
 62
40
 10
-3.9495617E+001
 20
5.5E+001
 11
-2.4495617E+001
 21
5.5E+001
  0
LINE
  8
2D_SICHTBARE_KANTEN
  6
CONTINUOUS
 62
40
 10
-2.4495617E+001
 20
5.5E+001
 11
-2.4495617E+001
 21
1.5E+001
  0
LINE
  8
2D_SICHTBARE_KANTEN
  6
CONTINUOUS
 62
40
 10
-2.4495617E+001
 20
5.5E+001
 11
-3.9495617E+001
 21
5.5E+001
  0
LINE
  8
2D_SICHTBARE_KANTEN
  6
CONTINUOUS
 62
40
 10
-3.9495617E+001
 20
5.5E+001
 11
-3.9495617E+001
 21
9.5E+001
  0
LINE
  8
2D_SICHTBARE_KANTEN
  6
CONTINUOUS
 62
40
 10
-3.9495617E+001
 20
9.5E+001
 11
-2.4495617E+001
 21
9.5E+001
  0
LINE
  8
2D_SICHTBARE_KANTEN
  6
CONTINUOUS
 62
40
 10
-2.4495617E+001
 20
9.5E+001
 11
-2.4495617E+001
 21
5.5E+001
  0
LINE
  8
2D_MITTELLINIEN
  6
CENTERLINE
 62
1
 10
-3.1995617E+001
 20
5.866
 11
-3.1995617E+001
 21
1.02166E+002
  0
LINE
  8
2D_SICHTBARE_KANTEN
  6
CONTINUOUS
 62
40
 10
-3.5995617E+001
 20
0.0
 11
-3.5995617E+001
 21
1.3534E+001
  0
LINE
  8
2D_SICHTBARE_KANTEN
  6
CONTINUOUS
 62
40
 10
-3.5995617E+001
 20
9.6468E+001
 11
-3.5995617E+001
 21
2.19E+002
  0
LINE
  8
2D_SICHTBARE_KANTEN
  6
CONTINUOUS
 62
40
 10
-3.5995617E+001
 20
2.19E+002
 11
1.3200398E+002
 21
2.19E+002
  0
LINE
  8
2D_SICHTBARE_KANTEN
  6
CONTINUOUS
 62
40
 10
5.2900432E+002
 20
2.19E+002
 11
6.7400398E+002
 21
2.19E+002
  0
LINE
  8
2D_SICHTBARE_KANTEN
  6
CONTINUOUS
 62
40
 10
-3.1995617E+001
 20
0.0
 11
-3.1995617E+001
 21
1.2992E+001
  0
LINE
  8
2D_SICHTBARE_KANTEN
  6
CONTINUOUS
 62
40
 10
-3.1995617E+001
 20
9.701E+001
 11
-3.1995617E+001
 21
2.15E+002
  0
LINE
  8
2D_SICHTBARE_KANTEN
  6
CONTINUOUS
 62
40
 10
-3.1995617E+001
 20
2.15E+002
 11
1.3200438E+002
 21
2.15E+002
  0
LINE
  8
2D_SICHTBARE_KANTEN
  6
CONTINUOUS
 62
40
 10
1.5400438E+002
 20
2.15E+002
 11
6.7400398E+002
 21
2.15E+002
  0
LINE
  8
2D_MITTELLINIEN
  6
CENTERLINE
 62
1
 10
6.7400398E+002
 20
3.22524E+002
 11
6.7400398E+002
 21
-1.5468E+001
  0
LINE
  8
2D_MITTELLINIEN
  6
CENTERLINE
 62
1
 10
2.7606338E+002
 20
2.0E+002
 11
2.6240014E+002
 21
2.0E+002
  0
LINE
  8
2D_MITTELLINIEN
  6
CENTERLINE
 62
1
 10
1.0394536E+002
 20
1.57E+002
 11
1.176086E+002
 21
1.57E+002
  0
LINE
  8
2D_MITTELLINIEN
  6
CENTERLINE
 62
1
 10
1.0394536E+002
 20
1.73E+002
 11
1.176086E+002
 21
1.73E+002
  0
LINE
  8
2D_MITTELLINIEN
  6
CENTERLINE
 62
1
 10
1.0394536E+002
 20
1.84E+002
 11
1.176086E+002
 21
1.84E+002
  0
CIRCLE
  8
2D_SICHTBARE_KANTEN
  6
CONTINUOUS
 62
1
 10
2.7000436E+002
 20
1.73E+002
 40
5.0
  0
CIRCLE
  8
2D_SICHTBARE_KANTEN
  6
CONTINUOUS
 62
1
 10
2.7000436E+002
 20
1.84E+002
 40
5.0
  0
CIRCLE
  8
2D_SICHTBARE_KANTEN
  6
CONTINUOUS
 62
1
 10
2.7000436E+002
 20
2.0E+002
 40
5.0
  0
CIRCLE
  8
2D_SICHTBARE_KANTEN
  6
CONTINUOUS
 62
1
 10
1.1000438E+002
 20
1.57E+002
 40
5.0
  0
CIRCLE
  8
2D_SICHTBARE_KANTEN
  6
CONTINUOUS
 62
1
 10
1.1000438E+002
 20
1.73E+002
 40
5.0
  0
CIRCLE
  8
2D_SICHTBARE_KANTEN
  6
CONTINUOUS
 62
1
 10
1.1000438E+002
 20
1.84E+002
 40
5.0
  0
LINE
  8
2D_SICHTBARE_KANTEN
  6
CONTINUOUS
 62
40
 10
6.3004383E+001
 20
1.5125E+002
 11
6.2504383E+001
 21
1.5125E+002
  0
LINE
  8
2D_SICHTBARE_KANTEN
  6
CONTINUOUS
 62
40
 10
6.2504383E+001
 20
1.5125E+002
 11
5.2504383E+001
 21
1.5125E+002
  0
LINE
  8
2D_SICHTBARE_KANTEN
  6
CONTINUOUS
 62
40
 10
5.2504383E+001
 20
1.5125E+002
 11
5.2504383E+001
 21
2.1125E+002
  0
LINE
  8
2D_SICHTBARE_KANTEN
  6
CONTINUOUS
 62
40
 10
5.2504383E+001
 20
2.1125E+002
 11
6.2504383E+001
 21
2.1125E+002
  0
LINE
  8
2D_SICHTBARE_KANTEN
  6
CONTINUOUS
 62
40
 10
6.2504383E+001
 20
2.1125E+002
 11
6.3004383E+001
 21
2.1125E+002
  0
LINE
  8
2D_SICHTBARE_KANTEN
  6
CONTINUOUS
 62
40
 10
6.3004383E+001
 20
2.1125E+002
 11
3.1700435E+002
 21
2.1125E+002
  0
LINE
  8
2D_SICHTBARE_KANTEN
  6
CONTINUOUS
 62
40
 10
3.1700435E+002
 20
2.1125E+002
 11
3.1750435E+002
 21
2.1125E+002
  0
LINE
  8
2D_SICHTBARE_KANTEN
  6
CONTINUOUS
 62
40
 10
3.1750435E+002
 20
2.1125E+002
 11
3.2750435E+002
 21
2.1125E+002
  0
LINE
  8
2D_SICHTBARE_KANTEN
  6
CONTINUOUS
 62
40
 10
3.2750435E+002
 20
2.1125E+002
 11
3.2750435E+002
 21
1.5125E+002
  0
LINE
  8
2D_SICHTBARE_KANTEN
  6
CONTINUOUS
 62
40
 10
3.1750435E+002
 20
1.5125E+002
 11
3.1700435E+002
 21
1.5125E+002
  0
LINE
  8
2D_SICHTBARE_KANTEN
  6
CONTINUOUS
 62
40
 10
3.2750435E+002
 20
1.5125E+002
 11
6.3004383E+001
 21
1.5125E+002
  0
LINE
  8
2D_SICHTBARE_KANTEN
  6
CONTINUOUS
 62
40
 10
3.1750435E+002
 20
1.5175E+002
 11
3.1750435E+002
 21
1.5125E+002
  0
LINE
  8
2D_MITTELLINIEN
  6
CENTERLINE
 62
1
 10
1.1000438E+002
 20
1.4949716E+002
 11
1.1000438E+002
 21
1.8052255E+002
  0
LINE
  8
2D_MITTELLINIEN
  6
CENTERLINE
 62
1
 10
1.1000438E+002
 20
1.8052255E+002
 11
1.1000438E+002
 21
2.0421332E+002
  0
LINE
  8
2D_MITTELLINIEN
  6
CENTERLINE
 62
1
 10
2.7000436E+002
 20
1.4949716E+002
 11
2.7000436E+002
 21
1.8148209E+002
  0
LINE
  8
2D_MITTELLINIEN
  6
CENTERLINE
 62
1
 10
2.7000436E+002
 20
1.8148209E+002
 11
2.7000436E+002
 21
2.04755E+002
  0
LINE
  8
2D_SICHTBARE_KANTEN
  6
CONTINUOUS
 62
40
 10
1.3975438E+002
 20
2.195E+002
 11
1.4625438E+002
 21
2.195E+002
  0
LINE
  8
2D_MITTELLINIEN
  6
CENTERLINE
 62
1
 10
5.1800432E+002
 20
2.1745738E+002
 11
5.1800432E+002
 21
2.3120024E+002
  0
LINE
  8
2D_SICHTBARE_KANTEN
  6
CONTINUOUS
 62
40
 10
1.3710438E+002
 20
2.195E+002
 11
1.4890438E+002
 21
2.195E+002
  0
LINE
  8
2D_SICHTBARE_KANTEN
  6
CONTINUOUS
 62
40
 10
5.2400432E+002
 20
2.1949998E+002
 11
5.229793E+002
 21
2.1949998E+002
  0
LINE
  8
2D_SICHTBARE_KANTEN
  6
CONTINUOUS
 62
40
 10
5.1302935E+002
 20
2.1949998E+002
 11
5.1200432E+002
 21
2.1949998E+002
  0
DIMENSION
  8
2D_BEMASSUNG
  6
CONTINUOUS
 62
1
  1
84
  2
*D1172
  3
DSTYLE2
 10
5.2504383E+001
 20
1.3693352E+002
 11
8.6209233E-001
 21
1.4343552E+002
 70
128
 13
-3.1995617E+001
 23
9.701E+001
 14
5.2504383E+001
 24
1.5125E+002
 40
1.0E+001
 50
0.0
1001
ACAD
1000
DSTYLE
1002
{
1070
173
1070
0
1070
5
1000
_AH13
1002
}
  0
TEXT
  8
2D_TEXT
  6
CONTINUOUS
 62
1
 10
1.0556392E+001
 20
1.4692547E+002
 40
7.0
  1
(80)
 41
8.0E-001
  0
DIMENSION
  8
2D_BEMASSUNG
  6
CONTINUOUS
 62
1
  2
*D1174
  3
DSTYLE2
 10
3.32154E+001
 20
2.4949998E+002
 11
2.67134E+001
 21
2.4209935E+002
 70
128
 13
1.1275438E+002
 23
2.3799998E+002
 14
6.0189064E+001
 24
2.4949998E+002
 40
1.0E+001
 50
9.0E+001
1001
ACAD
1000
DSTYLE
1002
{
1070
173
1070
0
1070
5
1000
_AH13
1002
}
  0
TEXT
  8
2D_TEXT
  6
CONTINUOUS
 62
1
 10
-1.6692312E+001
 20
2.8109783E+002
 40
7.0
  1
%%c8 (24V DC)
 41
8.0E-001
  0
LINE
  8
2D_SICHTBARE_KANTEN
  6
CONTINUOUS
 62
1
 10
-1.755033E+001
 20
2.7737975E+002
 11
4.394096E+001
 21
2.7737975E+002
  0
LINE
  8
2D_SICHTBARE_KANTEN
  6
CONTINUOUS
 62
1
 10
4.394096E+001
 20
2.7737975E+002
 11
6.7004344E+001
 21
2.4929173E+002
  0
DIMENSION
  8
2D_BEMASSUNG
  6
CONTINUOUS
 62
1
  2
*D1178
  3
DSTYLE2
 10
1.1000438E+002
 20
1.1579241E+002
 11
1.9118204E+002
 21
1.2229441E+002
 70
128
 13
2.7000436E+002
 23
1.4949716E+002
 14
1.1000438E+002
 24
1.4949716E+002
 40
1.0E+001
 50
0.0
1001
ACAD
1000
DSTYLE
1002
{
1070
173
1070
0
1070
5
1000
_AH13
1002
}
  0
DIMENSION
  8
2D_BEMASSUNG
  6
CONTINUOUS
 62
1
  2
*D1179
  3
DSTYLE2
 10
1.1000455E+002
 20
1.3226177E+002
 11
1.3746419E+002
 21
1.3876383E+002
 70
128
 13
1.1800438E+002
 23
2.3083507E+002
 14
1.1000438E+002
 24
2.077739E+002
 40
1.0E+001
 50
1.8000012E+002
1001
ACAD
1000
DSTYLE
1002
{
1070
173
1070
0
1070
5
1000
_AH13
1002
}
  0
LINE
  8
2D_MITTELLINIEN
  6
CENTERLINE
 62
1
 10
5.4601614E+002
 20
2.4507423E+002
 11
5.4600237E+002
 21
2.3067516E+002
  0
LINE
  8
2D_MITTELLINIEN
  6
CENTERLINE
 62
1
 10
5.5125435E+002
 20
2.3799998E+002
 11
5.4100435E+002
 21
2.3799998E+002
  0
CIRCLE
  8
2D_SICHTBARE_KANTEN
  6
CONTINUOUS
 62
1
 10
5.4600937E+002
 20
2.3799998E+002
 40
3.0
  0
LINE
  8
2D_SICHTBARE_KANTEN
  6
CONTINUOUS
 62
40
 10
5.7050438E+002
 20
2.5799995E+002
 11
5.2504383E+001
 21
2.5799995E+002
  0
LINE
  8
2D_SICHTBARE_KANTEN
  6
CONTINUOUS
 62
40
 10
5.7050438E+002
 20
2.2799995E+002
 11
5.2504383E+001
 21
2.2799995E+002
  0
LINE
  8
2D_SICHTBARE_KANTEN
  6
CONTINUOUS
 62
40
 10
5.7050438E+002
 20
2.2799995E+002
 11
5.7050438E+002
 21
2.5799995E+002
  0
LINE
  8
2D_SICHTBARE_KANTEN
  6
CONTINUOUS
 62
40
 10
5.2504383E+001
 20
2.2799995E+002
 11
5.2504383E+001
 21
2.5799995E+002
  0
LINE
  8
2D_MITTELLINIEN
  6
CENTERLINE
 62
1
 10
1.1800438E+002
 20
2.3083507E+002
 11
1.1800435E+002
 21
2.4500174E+002
  0
LINE
  8
2D_MITTELLINIEN
  6
CENTERLINE
 62
1
 10
1.2300438E+002
 20
2.3799998E+002
 11
1.1275438E+002
 21
2.3799998E+002
  0
CIRCLE
  8
2D_SICHTBARE_KANTEN
  6
CONTINUOUS
 62
1
 10
1.1800437E+002
 20
2.3799998E+002
 40
3.0
  0
LINE
  8
2D_MITTELLINIEN
  6
CENTERLINE
 62
1
 10
7.3750696E+001
 20
2.4949998E+002
 11
6.0189064E+001
 21
2.4949998E+002
  0
LINE
  8
2D_MITTELLINIEN
  6
CENTERLINE
 62
1
 10
6.700436E+001
 20
2.4163191E+002
 11
6.7004327E+001
 21
2.5695155E+002
  0
CIRCLE
  8
2D_SICHTBARE_KANTEN
  6
CONTINUOUS
 62
1
 10
6.7004343E+001
 20
2.4949998E+002
 40
4.0
  0
ARC
  8
2D_SICHTBARE_KANTEN
  6
CONTINUOUS
 62
40
 10
-3.1995617E+001
 20
2.7992E+001
 40
1.5001402E+001
 50
2.4000309E+002
 51
2.9999691E+002
  0
ARC
  8
2D_SICHTBARE_KANTEN
  6
CONTINUOUS
 62
40
 10
-3.1995617E+001
 20
8.201E+001
 40
1.499967E+001
 50
5.9999272E+001
 51
1.2000073E+002
  0
LINE
  8
2D_SICHTBARE_KANTEN
  6
CONTINUOUS
 62
40
 10
-2.4495617E+001
 20
1.5E+001
 11
-3.9495617E+001
 21
1.5E+001
  0
LINE
  8
2D_SICHTBARE_KANTEN
  6
CONTINUOUS
 62
40
 10
-3.9495617E+001
 20
1.5E+001
 11
-3.9495617E+001
 21
5.5E+001
  0
LINE
  8
2D_SICHTBARE_KANTEN
  6
CONTINUOUS
 62
40
 10
-3.9495617E+001
 20
5.5E+001
 11
-2.4495617E+001
 21
5.5E+001
  0
LINE
  8
2D_SICHTBARE_KANTEN
  6
CONTINUOUS
 62
40
 10
-2.4495617E+001
 20
5.5E+001
 11
-2.4495617E+001
 21
1.5E+001
  0
LINE
  8
2D_SICHTBARE_KANTEN
  6
CONTINUOUS
 62
40
 10
-2.4495617E+001
 20
5.5E+001
 11
-3.9495617E+001
 21
5.5E+001
  0
LINE
  8
2D_SICHTBARE_KANTEN
  6
CONTINUOUS
 62
40
 10
-3.9495617E+001
 20
5.5E+001
 11
-3.9495617E+001
 21
9.5E+001
  0
LINE
  8
2D_SICHTBARE_KANTEN
  6
CONTINUOUS
 62
40
 10
-3.9495617E+001
 20
9.5E+001
 11
-2.4495617E+001
 21
9.5E+001
  0
LINE
  8
2D_SICHTBARE_KANTEN
  6
CONTINUOUS
 62
40
 10
-2.4495617E+001
 20
9.5E+001
 11
-2.4495617E+001
 21
5.5E+001
  0
LINE
  8
2D_MITTELLINIEN
  6
CENTERLINE
 62
1
 10
-3.1995617E+001
 20
5.866
 11
-3.1995617E+001
 21
1.02166E+002
  0
LINE
  8
2D_MITTELLINIEN
  6
CENTERLINE
 62
1
 10
6.8405998E+002
 20
0.0
 11
-1.2563624E+002
 21
0.0
  0
LINE
  8
2D_SICHTBARE_KANTEN
  6
CONTINUOUS
 62
40
 10
-1.2099562E+002
 20
0.0
 11
-1.2099562E+002
 21
3.04E+002
  0
LINE
  8
2D_SICHTBARE_KANTEN
  6
CONTINUOUS
 62
40
 10
-3.5995617E+001
 20
2.19E+002
 11
-1.2099562E+002
 21
3.04E+002
  0
LINE
  8
2D_SICHTBARE_KANTEN
  6
CONTINUOUS
 62
40
 10
-1.2099562E+002
 20
3.04E+002
 11
6.7400398E+002
 21
3.04E+002
  0
DIMENSION
  8
2D_BEMASSUNG
  6
CONTINUOUS
 62
4
  2
*D1208
  3
DSTYLE1
 10
6.7004325E+001
 20
3.2265534E+002
 11
1.9880672E+001
 21
3.2848834E+002
 70
128
 13
-3.1995617E+001
 23
9.701E+001
 14
6.7004325E+001
 24
2.5799995E+002
 40
3.0
 50
0.0
1001
ACAD
1000
DSTYLE
1002
{
1070
173
1070
0
1070
5
1000
_AH13
1002
}
  0
DIMENSION
  8
2D_BEMASSUNG
  6
CONTINUOUS
 62
4
  2
*D1209
  3
DSTYLE1
 10
1.1800398E+002
 20
3.2149254E+002
 11
3.400961E+002
 21
3.2732554E+002
 70
128
 13
5.4601398E+002
 23
2.42842E+002
 14
1.1800398E+002
 24
2.4325E+002
 40
3.0
 50
0.0
1001
ACAD
1000
DSTYLE
1002
{
1070
173
1070
0
1070
5
1000
_AH13
1002
}
  0
POINT
  8
Drafting_Hidden_Entities
  6
CONTINUOUS
 62
1
 10
0.0
 20
0.0
  0
ENDBLK
  0
BLOCK
  2
UUNEW01
 10
0.0
 20
0.0
 70
0
  0
TEXT
  8
2D_TEXT
  6
CONTINUOUS
 62
1
 10
-1.4380094E+001
 20
1.4994001
 40
1.8000001
  1
"Weitergabe sowie Vervielfältigung dieser Unterlage,
 41
6.7067308E-001
 50
9.0E+001
 11
-1.4380094E+001
 21
5.9940003E-001
 73
2
  0
TEXT
  8
2D_TEXT
  6
CONTINUOUS
 62
1
 10
-1.1380094E+001
 20
1.4994001
 40
1.8000001
  1
Verwertung und Mitteilung ihres Inhalts nicht gestattet,
 41
6.7098214E-001
 50
9.0E+001
 11
-1.1380094E+001
 21
5.9940003E-001
 73
2
  0
TEXT
  8
2D_TEXT
  6
CONTINUOUS
 62
1
 10
-8.3800941
 20
1.4994001
 40
1.8000001
  1
soweit nicht ausdrücklich zugestanden. Zuwiederhandlungen
 41
6.7105263E-001
 50
9.0E+001
 11
-8.3800941
 21
5.9940003E-001
 73
2
  0
TEXT
  8
2D_TEXT
  6
CONTINUOUS
 62
1
 10
-5.3800941
 20
1.4994001
 40
1.8000001
  1
verpflichten zu Schadenersatz. Alle Rechte für den Fall
 41
6.7090909E-001
 50
9.0E+001
 11
-5.3800941
 21
5.9940003E-001
 73
2
  0
TEXT
  8
2D_TEXT
  6
CONTINUOUS
 62
1
 10
-2.3800941
 20
1.4994001
 40
1.8000001
  1
der Patenterteilung oder Gebrauchsmuster-Eintragung vorbehalten."
 41
6.7153846E-001
 50
9.0E+001
 11
-2.3800941
 21
5.9940003E-001
 73
2
  0
POINT
  8
Drafting_Hidden_Entities
  6
CONTINUOUS
 62
1
 10
0.0
 20
0.0
  0
ENDBLK
  0
BLOCK
  2
44
 10
0.0
 20
0.0
 70
0
  0
ARC
  8
2D_SICHTBARE_KANTEN
  6
CONTINUOUS
 62
40
 10
0.0
 20
-6.7008E+001
 40
1.5001402E+001
 50
2.4000309E+002
 51
2.9999691E+002
  0
ARC
  8
2D_SICHTBARE_KANTEN
  6
CONTINUOUS
 62
40
 10
0.0
 20
-1.299E+001
 40
1.499967E+001
 50
5.9999272E+001
 51
1.2000073E+002
  0
LINE
  8
2D_SICHTBARE_KANTEN
  6
CONTINUOUS
 62
40
 10
7.5
 20
-8.0E+001
 11
-7.5
 21
-8.0E+001
  0
LINE
  8
2D_SICHTBARE_KANTEN
  6
CONTINUOUS
 62
40
 10
-7.5
 20
-8.0E+001
 11
-7.5
 21
-4.0E+001
  0
LINE
  8
2D_SICHTBARE_KANTEN
  6
CONTINUOUS
 62
40
 10
-7.5
 20
-4.0E+001
 11
7.5
 21
-4.0E+001
  0
LINE
  8
2D_SICHTBARE_KANTEN
  6
CONTINUOUS
 62
40
 10
7.5
 20
-4.0E+001
 11
7.5
 21
-8.0E+001
  0
LINE
  8
2D_SICHTBARE_KANTEN
  6
CONTINUOUS
 62
40
 10
7.5
 20
-4.0E+001
 11
-7.5
 21
-4.0E+001
  0
LINE
  8
2D_SICHTBARE_KANTEN
  6
CONTINUOUS
 62
40
 10
-7.5
 20
-4.0E+001
 11
-7.5
 21
0.0
  0
LINE
  8
2D_SICHTBARE_KANTEN
  6
CONTINUOUS
 62
40
 10
-7.5
 20
0.0
 11
7.5
 21
0.0
  0
LINE
  8
2D_SICHTBARE_KANTEN
  6
CONTINUOUS
 62
40
 10
7.5
 20
0.0
 11
7.5
 21
-4.0E+001
  0
LINE
  8
2D_MITTELLINIEN
  6
CENTERLINE
 62
1
 10
0.0
 20
-8.9134E+001
 11
0.0
 21
7.166
  0
POINT
  8
Drafting_Hidden_Entities
  6
CONTINUOUS
 62
1
 10
0.0
 20
0.0
  0
ENDBLK
  0
BLOCK
  2
*TX83
  3
*TX
 10
0.0
 20
0.0
 70
65
  0
TEXT
  8
2D_TEXT
  6
CONTINUOUS
 62
40
 10
6.46875
 20
5.0
 40
1.0E+001
  1
  
 41
6.46875E-001
 72
1
 11
0.0
 21
0.0
 73
2
  0
TEXT
  8
2D_TEXT
  6
CONTINUOUS
 62
40
 10
2.5875E+001
 20
-1.0E+001
 40
1.0E+001
  1
12.12.05
 41
6.46875E-001
 72
1
 11
0.0
 21
-1.5E+001
 73
2
  0
ENDBLK
  0
BLOCK
  2
_AH1
 70
0
 10
0.0
 20
0.0
  3
_AH1
  0
LINE
  8
0
  6
CONTINUOUS
 62
0
 10
-1.0
 20
1.66667E-001
 11
0.0
 21
0.0
  0
LINE
  8
0
  6
CONTINUOUS
 62
0
 10
0.0
 20
0.0
 11
-1.0
 21
-1.66667E-001
  0
LINE
  8
0
  6
CONTINUOUS
 62
0
 10
-1.0
 20
1.66667E-001
 11
-1.0
 21
-1.66667E-001
  0
LINE
  8
0
  6
CONTINUOUS
 62
0
 10
0.0
 20
0.0
 11
-1.0
 21
0.0
  0
ENDBLK
  0
BLOCK
  2
_AH2
 70
0
 10
0.0
 20
0.0
  3
_AH2
  0
LINE
  8
0
  6
CONTINUOUS
 62
0
 10
-1.0
 20
1.66667E-001
 11
0.0
 21
0.0
  0
LINE
  8
0
  6
CONTINUOUS
 62
0
 10
0.0
 20
0.0
 11
-1.0
 21
-1.66667E-001
  0
LINE
  8
0
  6
CONTINUOUS
 62
0
 10
0.0
 20
0.0
 11
-1.0
 21
0.0
  0
ENDBLK
  0
BLOCK
  2
*D138
  3
*D
 10
0.0
 20
0.0
 70
65
  0
LINE
  8
2D_BEMASSUNG
  6
CONTINUOUS
 62
4
 10
2.0
 20
5.9495E+001
 11
2.0
 21
5.8624493E+001
  0
LINE
  8
2D_BEMASSUNG
  6
CONTINUOUS
 62
4
 10
7.29998E+001
 20
6.3342E+001
 11
7.29998E+001
 21
5.8624493E+001
  0
LINE
  8
2D_BEMASSUNG
  6
CONTINUOUS
 62
4
 10
2.0
 20
5.7624493E+001
 11
3.7577774E+001
 21
5.7624493E+001
  0
LINE
  8
2D_BEMASSUNG
  6
CONTINUOUS
 62
4
 10
7.29998E+001
 20
5.7624493E+001
 11
3.7577774E+001
 21
5.7624493E+001
  0
INSERT
  2
_AH13
  8
2D_BEMASSUNG
 62
4
 10
4.0
 20
1.1524899E+002
 41
7.0
 42
7.0
 43
7.0
 50
1.8E+002
  0
INSERT
  2
_AH13
  8
2D_BEMASSUNG
 62
4
 10
1.459996E+002
 20
1.1524899E+002
 41
7.0
 42
7.0
 43
7.0
 50
3.6E+002
  0
TEXT
  8
2D_BEMASSUNG
  6
CONTINUOUS
 62
4
 10
3.4077774E+001
 20
5.8790993E+001
 40
3.5
  1
142
 41
6.6666667E-001
  0
ENDBLK
  0
BLOCK
  2
*D142
  3
*D
 10
0.0
 20
0.0
 70
65
  0
LINE
  8
2D_BEMASSUNG
  6
CONTINUOUS
 62
4
 10
3.82749E+001
 20
1.075E+002
 11
2.1579839E+001
 21
1.075E+002
  0
LINE
  8
2D_BEMASSUNG
  6
CONTINUOUS
 62
4
 10
4.325E+001
 20
1.05625E+002
 11
2.1579839E+001
 21
1.05625E+002
  0
LINE
  8
2D_BEMASSUNG
  6
CONTINUOUS
 62
4
 10
2.2579839E+001
 20
1.135E+002
 11
2.2579839E+001
 21
1.075E+002
  0
LINE
  8
2D_BEMASSUNG
  6
CONTINUOUS
 62
4
 10
2.2579839E+001
 20
1.05625E+002
 11
2.2579839E+001
 21
8.9358577E+001
  0
INSERT
  2
_AH13
  8
2D_BEMASSUNG
 62
4
 10
4.5159677E+001
 20
2.15E+002
 41
7.0
 42
7.0
 43
7.0
 50
6.3E+002
  0
INSERT
  2
_AH13
  8
2D_BEMASSUNG
 62
4
 10
4.5159677E+001
 20
2.1125E+002
 41
7.0
 42
7.0
 43
7.0
 50
8.1E+002
  0
TEXT
  8
2D_BEMASSUNG
  6
CONTINUOUS
 62
4
 10
2.1413338E+001
 20
9.0858577E+001
 40
3.5
  1
4
 41
6.6666667E-001
 50
9.0E+001
  0
ENDBLK
  0
BLOCK
  2
*D149
  3
*D
 10
0.0
 20
0.0
 70
65
  0
LINE
  8
2D_BEMASSUNG
  6
CONTINUOUS
 62
4
 10
3.55748E+001
 20
1.075E+002
 11
2.1578839E+001
 21
1.075E+002
  0
LINE
  8
2D_BEMASSUNG
  6
CONTINUOUS
 62
4
 10
4.325E+001
 20
1.2899998E+002
 11
2.1578839E+001
 21
1.2899998E+002
  0
LINE
  8
2D_BEMASSUNG
  6
CONTINUOUS
 62
4
 10
2.2578839E+001
 20
1.075E+002
 11
2.2578839E+001
 21
1.193608E+002
  0
LINE
  8
2D_BEMASSUNG
  6
CONTINUOUS
 62
4
 10
2.2578839E+001
 20
1.2899998E+002
 11
2.2578839E+001
 21
1.193608E+002
  0
INSERT
  2
_AH13
  8
2D_BEMASSUNG
 62
4
 10
4.5157677E+001
 20
2.15E+002
 41
7.0
 42
7.0
 43
7.0
 50
2.7E+002
  0
INSERT
  2
_AH13
  8
2D_BEMASSUNG
 62
4
 10
4.5157677E+001
 20
2.5799995E+002
 41
7.0
 42
7.0
 43
7.0
 50
4.5E+002
  0
TEXT
  8
2D_BEMASSUNG
  6
CONTINUOUS
 62
4
 10
2.1412339E+001
 20
1.1702747E+002
 40
3.5
  1
43
 41
6.6666667E-001
 50
9.0E+001
  0
ENDBLK
  0
BLOCK
  2
*D289
  3
*D
 10
0.0
 20
0.0
 70
65
  0
LINE
  8
2D_BEMASSUNG
  6
CONTINUOUS
 62
1
 10
2.0
 20
4.8505E+001
 11
2.0
 21
6.9966761E+001
  0
LINE
  8
2D_BEMASSUNG
  6
CONTINUOUS
 62
1
 10
4.425E+001
 20
7.5625E+001
 11
4.425E+001
 21
6.6966761E+001
  0
LINE
  8
2D_BEMASSUNG
  6
CONTINUOUS
 62
1
 10
2.0
 20
6.8466761E+001
 11
1.8428855E+001
 21
6.8466761E+001
  0
LINE
  8
2D_BEMASSUNG
  6
CONTINUOUS
 62
1
 10
4.425E+001
 20
6.8466761E+001
 11
1.8428855E+001
 21
6.8466761E+001
  0
INSERT
  2
_AH13
  8
2D_BEMASSUNG
 62
1
 10
4.0
 20
1.3693352E+002
 41
8.0
 42
8.0
 43
8.0
 50
1.8E+002
  0
INSERT
  2
_AH13
  8
2D_BEMASSUNG
 62
1
 10
8.85E+001
 20
1.3693352E+002
 41
8.0
 42
8.0
 43
8.0
 50
3.6E+002
  0
TEXT
  8
2D_BEMASSUNG
  6
CONTINUOUS
 62
1
 10
1.5628854E+001
 20
6.9967761E+001
 40
3.5
  1
84
 41
8.0E-001
  0
ENDBLK
  0
BLOCK
  2
*D291
  3
*D
 10
0.0
 20
0.0
 70
65
  0
LINE
  8
2D_BEMASSUNG
  6
CONTINUOUS
 62
1
 10
7.4375E+001
 20
1.1899999E+002
 11
3.3105508E+001
 21
1.1899999E+002
  0
LINE
  8
2D_BEMASSUNG
  6
CONTINUOUS
 62
1
 10
4.809234E+001
 20
1.2474999E+002
 11
3.3105508E+001
 21
1.2474999E+002
  0
LINE
  8
2D_BEMASSUNG
  6
CONTINUOUS
 62
1
 10
3.4605508E+001
 20
1.1099999E+002
 11
3.4605508E+001
 21
1.1899999E+002
  0
LINE
  8
2D_BEMASSUNG
  6
CONTINUOUS
 62
1
 10
3.4605508E+001
 20
1.3274999E+002
 11
3.4605508E+001
 21
1.1899999E+002
  0
INSERT
  2
_AH13
  8
2D_BEMASSUNG
 62
1
 10
6.9211017E+001
 20
2.3799998E+002
 41
8.0
 42
8.0
 43
8.0
 50
4.5E+002
  0
INSERT
  2
_AH13
  8
2D_BEMASSUNG
 62
1
 10
6.9211017E+001
 20
2.4949998E+002
 41
8.0
 42
8.0
 43
8.0
 50
6.3E+002
  0
TEXT
  8
2D_BEMASSUNG
  6
CONTINUOUS
 62
1
 10
3.3104509E+001
 20
1.1544967E+002
 40
3.5
  1
11,5
 41
8.0E-001
 50
9.0E+001
  0
ENDBLK
  0
BLOCK
  2
*D295
  3
*D
 10
0.0
 20
0.0
 70
65
  0
LINE
  8
2D_BEMASSUNG
  6
CONTINUOUS
 62
1
 10
1.5299999E+002
 20
7.4748581E+001
 11
1.5299999E+002
 21
5.6396206E+001
  0
LINE
  8
2D_BEMASSUNG
  6
CONTINUOUS
 62
1
 10
7.3E+001
 20
7.4748581E+001
 11
7.3E+001
 21
5.6396206E+001
  0
LINE
  8
2D_BEMASSUNG
  6
CONTINUOUS
 62
1
 10
1.5299999E+002
 20
5.7896206E+001
 11
1.1358883E+002
 21
5.7896206E+001
  0
LINE
  8
2D_BEMASSUNG
  6
CONTINUOUS
 62
1
 10
7.3E+001
 20
5.7896206E+001
 11
1.1358883E+002
 21
5.7896206E+001
  0
INSERT
  2
_AH13
  8
2D_BEMASSUNG
 62
1
 10
3.0599998E+002
 20
1.1579241E+002
 41
8.0
 42
8.0
 43
8.0
 50
3.6E+002
  0
INSERT
  2
_AH13
  8
2D_BEMASSUNG
 62
1
 10
1.46E+002
 20
1.1579241E+002
 41
8.0
 42
8.0
 43
8.0
 50
5.4E+002
  0
TEXT
  8
2D_BEMASSUNG
  6
CONTINUOUS
 62
1
 10
1.0938883E+002
 20
5.9397205E+001
 40
3.5
  1
160
 41
8.0E-001
 50
3.6E+002
  0
ENDBLK
  0
BLOCK
  2
*D296
  3
*D
 10
0.0
 20
0.0
 70
65
  0
LINE
  8
2D_BEMASSUNG
  6
CONTINUOUS
 62
1
 10
7.7E+001
 20
1.1541753E+002
 11
7.7000109E+001
 21
6.4630894E+001
  0
LINE
  8
2D_BEMASSUNG
  6
CONTINUOUS
 62
1
 10
7.3E+001
 20
1.0388695E+002
 11
7.3000085E+001
 21
6.4630885E+001
  0
LINE
  8
2D_BEMASSUNG
  6
CONTINUOUS
 62
1
 10
7.7000106E+001
 20
6.6130894E+001
 11
8.962991E+001
 21
6.6130921E+001
  0
LINE
  8
2D_BEMASSUNG
  6
CONTINUOUS
 62
1
 10
6.5000081E+001
 20
6.6130868E+001
 11
7.7000106E+001
 21
6.6130894E+001
  0
INSERT
  2
_AH13
  8
2D_BEMASSUNG
 62
1
 10
1.5400021E+002
 20
1.3226179E+002
 41
8.0
 42
8.0
 43
8.0
 50
5.4000012E+002
  0
INSERT
  2
_AH13
  8
2D_BEMASSUNG
 62
1
 10
1.4600016E+002
 20
1.3226177E+002
 41
8.0
 42
8.0
 43
8.0
 50
7.2000012E+002
  0
TEXT
  8
2D_BEMASSUNG
  6
CONTINUOUS
 62
1
 10
8.5329907E+001
 20
6.7631911E+001
 40
3.5
  1
8
 41
8.0E-001
 50
1.234254E-004
  0
ENDBLK
  0
BLOCK
  2
*D338
  3
*D
 10
0.0
 20
0.0
 70
65
  0
LINE
  8
2D_BEMASSUNG
  6
CONTINUOUS
 62
4
 10
2.910048E+002
 20
1.22421E+002
 11
2.910048E+002
 21
1.6174627E+002
  0
LINE
  8
2D_BEMASSUNG
  6
CONTINUOUS
 62
4
 10
7.69998E+001
 20
1.22625E+002
 11
7.69998E+001
 21
1.6174627E+002
  0
LINE
  8
2D_BEMASSUNG
  6
CONTINUOUS
 62
4
 10
2.910048E+002
 20
1.6074627E+002
 11
1.8804586E+002
 21
1.6074627E+002
  0
LINE
  8
2D_BEMASSUNG
  6
CONTINUOUS
 62
4
 10
7.69998E+001
 20
1.6074627E+002
 11
1.8804586E+002
 21
1.6074627E+002
  0
INSERT
  2
_AH13
  8
2D_BEMASSUNG
 62
4
 10
5.820096E+002
 20
3.2149254E+002
 41
7.0
 42
7.0
 43
7.0
 50
3.6E+002
  0
INSERT
  2
_AH13
  8
2D_BEMASSUNG
 62
4
 10
1.539996E+002
 20
3.2149254E+002
 41
7.0
 42
7.0
 43
7.0
 50
5.4E+002
  0
TEXT
  8
2D_BEMASSUNG
  6
CONTINUOUS
 62
4
 10
1.8454586E+002
 20
1.6191277E+002
 40
3.5
  1
428
 41
6.6666667E-001
 50
3.6E+002
  0
ENDBLK
  0
BLOCK
  2
*D340
  3
*D
 10
0.0
 20
0.0
 70
65
  0
LINE
  8
2D_BEMASSUNG
  6
CONTINUOUS
 62
4
 10
2.0
 20
4.9505E+001
 11
2.0
 21
1.6232767E+002
  0
LINE
  8
2D_BEMASSUNG
  6
CONTINUOUS
 62
4
 10
5.1499971E+001
 20
1.2999998E+002
 11
5.1499971E+001
 21
1.6232767E+002
  0
LINE
  8
2D_BEMASSUNG
  6
CONTINUOUS
 62
4
 10
2.0
 20
1.6132767E+002
 11
2.7938145E+001
 21
1.6132767E+002
  0
LINE
  8
2D_BEMASSUNG
  6
CONTINUOUS
 62
4
 10
5.1499971E+001
 20
1.6132767E+002
 11
2.7938145E+001
 21
1.6132767E+002
  0
INSERT
  2
_AH13
  8
2D_BEMASSUNG
 62
4
 10
4.0
 20
3.2265534E+002
 41
7.0
 42
7.0
 43
7.0
 50
1.8E+002
  0
INSERT
  2
_AH13
  8
2D_BEMASSUNG
 62
4
 10
1.0299994E+002
 20
3.2265534E+002
 41
7.0
 42
7.0
 43
7.0
 50
3.6E+002
  0
TEXT
  8
2D_BEMASSUNG
  6
CONTINUOUS
 62
4
 10
2.5604811E+001
 20
1.6249417E+002
 40
3.5
  1
99
 41
6.6666667E-001
  0
ENDBLK
  0
BLOCK
  2
*D499
  3
*D
 10
0.0
 20
0.0
 70
65
  0
LINE
  8
2D_BEMASSUNG
  6
CONTINUOUS
 62
4
 10
0.0
 20
3.0487E+001
 11
0.0
 21
2.9617493E+001
  0
LINE
  8
2D_BEMASSUNG
  6
CONTINUOUS
 62
4
 10
7.09998E+001
 20
3.4334E+001
 11
7.09998E+001
 21
2.9617493E+001
  0
LINE
  8
2D_BEMASSUNG
  6
CONTINUOUS
 62
4
 10
0.0
 20
3.0617493E+001
 11
3.5577774E+001
 21
3.0617493E+001
  0
LINE
  8
2D_BEMASSUNG
  6
CONTINUOUS
 62
4
 10
3.5577774E+001
 20
3.0617493E+001
 11
7.09998E+001
 21
3.0617493E+001
  0
INSERT
  2
_AH13
  8
2D_BEMASSUNG
 62
4
 10
0.0
 20
6.1234986E+001
 41
7.0
 42
7.0
 43
7.0
 50
1.8E+002
  0
INSERT
  2
_AH13
  8
2D_BEMASSUNG
 62
4
 10
1.419996E+002
 20
6.1234986E+001
 41
7.0
 42
7.0
 43
7.0
 50
3.6E+002
  0
TEXT
  8
2D_BEMASSUNG
  6
CONTINUOUS
 62
4
 10
3.2077774E+001
 20
3.1782993E+001
 40
3.5
  1
142
 41
6.6666667E-001
  0
ENDBLK
  0
BLOCK
  2
*D500
  3
*D
 10
0.0
 20
0.0
 70
65
  0
LINE
  8
2D_BEMASSUNG
  6
CONTINUOUS
 62
4
 10
3.62749E+001
 20
8.0492E+001
 11
1.9579839E+001
 21
8.0492E+001
  0
LINE
  8
2D_BEMASSUNG
  6
CONTINUOUS
 62
4
 10
4.125E+001
 20
7.8617E+001
 11
1.9579839E+001
 21
7.8617E+001
  0
LINE
  8
2D_BEMASSUNG
  6
CONTINUOUS
 62
4
 10
2.0579839E+001
 20
8.6492E+001
 11
2.0579839E+001
 21
8.0492E+001
  0
LINE
  8
2D_BEMASSUNG
  6
CONTINUOUS
 62
4
 10
2.0579839E+001
 20
7.8617E+001
 11
2.0579839E+001
 21
6.2350577E+001
  0
INSERT
  2
_AH13
  8
2D_BEMASSUNG
 62
4
 10
4.1159677E+001
 20
1.60984E+002
 41
7.0
 42
7.0
 43
7.0
 50
6.3E+002
  0
INSERT
  2
_AH13
  8
2D_BEMASSUNG
 62
4
 10
4.1159677E+001
 20
1.57234E+002
 41
7.0
 42
7.0
 43
7.0
 50
8.1E+002
  0
TEXT
  8
2D_BEMASSUNG
  6
CONTINUOUS
 62
4
 10
1.9413338E+001
 20
6.3850577E+001
 40
3.5
  1
4
 41
6.6666667E-001
 50
9.0E+001
  0
ENDBLK
  0
BLOCK
  2
*D507
  3
*D
 10
0.0
 20
0.0
 70
65
  0
LINE
  8
2D_BEMASSUNG
  6
CONTINUOUS
 62
4
 10
3.35748E+001
 20
8.0492E+001
 11
1.9578839E+001
 21
8.0492E+001
  0
LINE
  8
2D_BEMASSUNG
  6
CONTINUOUS
 62
4
 10
4.125E+001
 20
1.0199198E+002
 11
1.9578839E+001
 21
1.0199198E+002
  0
LINE
  8
2D_BEMASSUNG
  6
CONTINUOUS
 62
4
 10
2.0578839E+001
 20
8.0492E+001
 11
2.0578839E+001
 21
9.2352804E+001
  0
LINE
  8
2D_BEMASSUNG
  6
CONTINUOUS
 62
4
 10
2.0578839E+001
 20
1.0199198E+002
 11
2.0578839E+001
 21
9.2352804E+001
  0
INSERT
  2
_AH13
  8
2D_BEMASSUNG
 62
4
 10
4.1157677E+001
 20
1.60984E+002
 41
7.0
 42
7.0
 43
7.0
 50
2.7E+002
  0
INSERT
  2
_AH13
  8
2D_BEMASSUNG
 62
4
 10
4.1157677E+001
 20
2.0398395E+002
 41
7.0
 42
7.0
 43
7.0
 50
4.5E+002
  0
TEXT
  8
2D_BEMASSUNG
  6
CONTINUOUS
 62
4
 10
1.9412339E+001
 20
9.0019471E+001
 40
3.5
  1
43
 41
6.6666667E-001
 50
9.0E+001
  0
ENDBLK
  0
BLOCK
  2
*D603
  3
*D
 10
0.0
 20
0.0
 70
65
  0
LINE
  8
2D_BEMASSUNG
  6
CONTINUOUS
 62
1
 10
0.0
 20
2.1497E+001
 11
0.0
 21
4.2958761E+001
  0
LINE
  8
2D_BEMASSUNG
  6
CONTINUOUS
 62
1
 10
4.225E+001
 20
4.8617E+001
 11
4.225E+001
 21
3.9958761E+001
  0
LINE
  8
2D_BEMASSUNG
  6
CONTINUOUS
 62
1
 10
0.0
 20
4.1458761E+001
 11
1.6428855E+001
 21
4.1458761E+001
  0
LINE
  8
2D_BEMASSUNG
  6
CONTINUOUS
 62
1
 10
4.225E+001
 20
4.1458761E+001
 11
1.6428855E+001
 21
4.1458761E+001
  0
INSERT
  2
_AH13
  8
2D_BEMASSUNG
 62
1
 10
0.0
 20
8.2917522E+001
 41
8.0
 42
8.0
 43
8.0
 50
1.8E+002
  0
INSERT
  2
_AH13
  8
2D_BEMASSUNG
 62
1
 10
8.45E+001
 20
8.2917522E+001
 41
8.0
 42
8.0
 43
8.0
 50
3.6E+002
  0
TEXT
  8
2D_BEMASSUNG
  6
CONTINUOUS
 62
1
 10
1.3628854E+001
 20
4.2959761E+001
 40
3.5
  1
84
 41
8.0E-001
  0
ENDBLK
  0
BLOCK
  2
*D606
  3
*D
 10
0.0
 20
0.0
 70
65
  0
LINE
  8
2D_BEMASSUNG
  6
CONTINUOUS
 62
1
 10
7.2375E+001
 20
9.1991992E+001
 11
3.1105508E+001
 21
9.1991992E+001
  0
LINE
  8
2D_BEMASSUNG
  6
CONTINUOUS
 62
1
 10
4.609234E+001
 20
9.7741992E+001
 11
3.1105508E+001
 21
9.7741992E+001
  0
LINE
  8
2D_BEMASSUNG
  6
CONTINUOUS
 62
1
 10
3.2605508E+001
 20
8.3991992E+001
 11
3.2605508E+001
 21
9.1991992E+001
  0
LINE
  8
2D_BEMASSUNG
  6
CONTINUOUS
 62
1
 10
3.2605508E+001
 20
1.0574199E+002
 11
3.2605508E+001
 21
9.1991992E+001
  0
INSERT
  2
_AH13
  8
2D_BEMASSUNG
 62
1
 10
6.5211017E+001
 20
1.8398398E+002
 41
8.0
 42
8.0
 43
8.0
 50
4.5E+002
  0
INSERT
  2
_AH13
  8
2D_BEMASSUNG
 62
1
 10
6.5211017E+001
 20
1.9548398E+002
 41
8.0
 42
8.0
 43
8.0
 50
6.3E+002
  0
TEXT
  8
2D_BEMASSUNG
  6
CONTINUOUS
 62
1
 10
3.1104509E+001
 20
8.8441673E+001
 40
3.5
  1
11,5
 41
8.0E-001
 50
9.0E+001
  0
ENDBLK
  0
BLOCK
  2
*D610
  3
*D
 10
0.0
 20
0.0
 70
65
  0
LINE
  8
2D_BEMASSUNG
  6
CONTINUOUS
 62
1
 10
1.5099999E+002
 20
4.7740581E+001
 11
1.5099999E+002
 21
2.9388206E+001
  0
LINE
  8
2D_BEMASSUNG
  6
CONTINUOUS
 62
1
 10
7.1E+001
 20
4.7740581E+001
 11
7.1E+001
 21
2.9388206E+001
  0
LINE
  8
2D_BEMASSUNG
  6
CONTINUOUS
 62
1
 10
1.5099999E+002
 20
3.0888206E+001
 11
1.1158883E+002
 21
3.0888206E+001
  0
LINE
  8
2D_BEMASSUNG
  6
CONTINUOUS
 62
1
 10
7.1E+001
 20
3.0888206E+001
 11
1.1158883E+002
 21
3.0888206E+001
  0
INSERT
  2
_AH13
  8
2D_BEMASSUNG
 62
1
 10
3.0199998E+002
 20
6.1776411E+001
 41
8.0
 42
8.0
 43
8.0
 50
3.6E+002
  0
INSERT
  2
_AH13
  8
2D_BEMASSUNG
 62
1
 10
1.42E+002
 20
6.1776411E+001
 41
8.0
 42
8.0
 43
8.0
 50
5.4E+002
  0
TEXT
  8
2D_BEMASSUNG
  6
CONTINUOUS
 62
1
 10
1.0738883E+002
 20
3.2389206E+001
 40
3.5
  1
160
 41
8.0E-001
 50
3.6E+002
  0
ENDBLK
  0
BLOCK
  2
*D611
  3
*D
 10
0.0
 20
0.0
 70
65
  0
LINE
  8
2D_BEMASSUNG
  6
CONTINUOUS
 62
1
 10
7.5E+001
 20
8.8409534E+001
 11
7.5000109E+001
 21
3.7622894E+001
  0
LINE
  8
2D_BEMASSUNG
  6
CONTINUOUS
 62
1
 10
7.1E+001
 20
7.6878948E+001
 11
7.1000085E+001
 21
3.7622885E+001
  0
LINE
  8
2D_BEMASSUNG
  6
CONTINUOUS
 62
1
 10
7.5000106E+001
 20
3.9122894E+001
 11
8.762991E+001
 21
3.9122921E+001
  0
LINE
  8
2D_BEMASSUNG
  6
CONTINUOUS
 62
1
 10
6.3000081E+001
 20
3.9122868E+001
 11
7.5000106E+001
 21
3.9122894E+001
  0
INSERT
  2
_AH13
  8
2D_BEMASSUNG
 62
1
 10
1.5000021E+002
 20
7.8245787E+001
 41
8.0
 42
8.0
 43
8.0
 50
5.4000012E+002
  0
INSERT
  2
_AH13
  8
2D_BEMASSUNG
 62
1
 10
1.4200016E+002
 20
7.824577E+001
 41
8.0
 42
8.0
 43
8.0
 50
7.2000012E+002
  0
TEXT
  8
2D_BEMASSUNG
  6
CONTINUOUS
 62
1
 10
8.3329907E+001
 20
4.0623911E+001
 40
3.5
  1
8
 41
8.0E-001
 50
1.234254E-004
  0
ENDBLK
  0
BLOCK
  2
*D614
  3
*D
 10
0.0
 20
0.0
 70
65
  0
LINE
  8
2D_BEMASSUNG
  6
CONTINUOUS
 62
4
 10
0.0
 20
2.2497E+001
 11
0.0
 21
1.3531967E+002
  0
LINE
  8
2D_BEMASSUNG
  6
CONTINUOUS
 62
4
 10
4.9499971E+001
 20
1.0299198E+002
 11
4.9499971E+001
 21
1.3531967E+002
  0
LINE
  8
2D_BEMASSUNG
  6
CONTINUOUS
 62
4
 10
0.0
 20
1.3431967E+002
 11
2.5938145E+001
 21
1.3431967E+002
  0
LINE
  8
2D_BEMASSUNG
  6
CONTINUOUS
 62
4
 10
4.9499971E+001
 20
1.3431967E+002
 11
2.5938145E+001
 21
1.3431967E+002
  0
INSERT
  2
_AH13
  8
2D_BEMASSUNG
 62
4
 10
0.0
 20
2.6863934E+002
 41
7.0
 42
7.0
 43
7.0
 50
1.8E+002
  0
INSERT
  2
_AH13
  8
2D_BEMASSUNG
 62
4
 10
9.8999941E+001
 20
2.6863934E+002
 41
7.0
 42
7.0
 43
7.0
 50
3.6E+002
  0
TEXT
  8
2D_BEMASSUNG
  6
CONTINUOUS
 62
4
 10
2.3604811E+001
 20
1.3548617E+002
 40
3.5
  1
99
 41
6.6666667E-001
  0
ENDBLK
  0
BLOCK
  2
*D615
  3
*D
 10
0.0
 20
0.0
 70
65
  0
LINE
  8
2D_BEMASSUNG
  6
CONTINUOUS
 62
4
 10
2.890048E+002
 20
9.5413E+001
 11
2.890048E+002
 21
1.3473827E+002
  0
LINE
  8
2D_BEMASSUNG
  6
CONTINUOUS
 62
4
 10
7.49998E+001
 20
9.5617E+001
 11
7.49998E+001
 21
1.3473827E+002
  0
LINE
  8
2D_BEMASSUNG
  6
CONTINUOUS
 62
4
 10
2.890048E+002
 20
1.3373827E+002
 11
1.8604586E+002
 21
1.3373827E+002
  0
LINE
  8
2D_BEMASSUNG
  6
CONTINUOUS
 62
4
 10
7.49998E+001
 20
1.3373827E+002
 11
1.8604586E+002
 21
1.3373827E+002
  0
INSERT
  2
_AH13
  8
2D_BEMASSUNG
 62
4
 10
5.780096E+002
 20
2.6747654E+002
 41
7.0
 42
7.0
 43
7.0
 50
3.6E+002
  0
INSERT
  2
_AH13
  8
2D_BEMASSUNG
 62
4
 10
1.499996E+002
 20
2.6747654E+002
 41
7.0
 42
7.0
 43
7.0
 50
5.4E+002
  0
TEXT
  8
2D_BEMASSUNG
  6
CONTINUOUS
 62
4
 10
1.8254586E+002
 20
1.3490477E+002
 40
3.5
  1
428
 41
6.6666667E-001
 50
3.6E+002
  0
ENDBLK
  0
BLOCK
  2
*D634
  3
*D
 10
0.0
 20
0.0
 70
65
  0
LINE
  8
2D_BEMASSUNG
  6
CONTINUOUS
 62
4
 10
0.0
 20
3.0487E+001
 11
0.0
 21
2.9617493E+001
  0
LINE
  8
2D_BEMASSUNG
  6
CONTINUOUS
 62
4
 10
7.09998E+001
 20
3.4334E+001
 11
7.09998E+001
 21
2.9617493E+001
  0
LINE
  8
2D_BEMASSUNG
  6
CONTINUOUS
 62
4
 10
0.0
 20
3.0617493E+001
 11
3.5577774E+001
 21
3.0617493E+001
  0
LINE
  8
2D_BEMASSUNG
  6
CONTINUOUS
 62
4
 10
3.5577774E+001
 20
3.0617493E+001
 11
7.09998E+001
 21
3.0617493E+001
  0
INSERT
  2
_AH13
  8
2D_BEMASSUNG
 62
4
 10
0.0
 20
6.1234986E+001
 41
7.0
 42
7.0
 43
7.0
 50
1.8E+002
  0
INSERT
  2
_AH13
  8
2D_BEMASSUNG
 62
4
 10
1.419996E+002
 20
6.1234986E+001
 41
7.0
 42
7.0
 43
7.0
 50
3.6E+002
  0
TEXT
  8
2D_BEMASSUNG
  6
CONTINUOUS
 62
4
 10
3.2077774E+001
 20
3.1782993E+001
 40
3.5
  1
142
 41
6.6666667E-001
  0
ENDBLK
  0
BLOCK
  2
*D635
  3
*D
 10
0.0
 20
0.0
 70
65
  0
LINE
  8
2D_BEMASSUNG
  6
CONTINUOUS
 62
4
 10
3.62749E+001
 20
8.0492E+001
 11
1.9579839E+001
 21
8.0492E+001
  0
LINE
  8
2D_BEMASSUNG
  6
CONTINUOUS
 62
4
 10
4.125E+001
 20
7.8617E+001
 11
1.9579839E+001
 21
7.8617E+001
  0
LINE
  8
2D_BEMASSUNG
  6
CONTINUOUS
 62
4
 10
2.0579839E+001
 20
8.6492E+001
 11
2.0579839E+001
 21
8.0492E+001
  0
LINE
  8
2D_BEMASSUNG
  6
CONTINUOUS
 62
4
 10
2.0579839E+001
 20
7.8617E+001
 11
2.0579839E+001
 21
6.2350577E+001
  0
INSERT
  2
_AH13
  8
2D_BEMASSUNG
 62
4
 10
4.1159677E+001
 20
1.60984E+002
 41
7.0
 42
7.0
 43
7.0
 50
6.3E+002
  0
INSERT
  2
_AH13
  8
2D_BEMASSUNG
 62
4
 10
4.1159677E+001
 20
1.57234E+002
 41
7.0
 42
7.0
 43
7.0
 50
8.1E+002
  0
TEXT
  8
2D_BEMASSUNG
  6
CONTINUOUS
 62
4
 10
1.9413338E+001
 20
6.3850577E+001
 40
3.5
  1
4
 41
6.6666667E-001
 50
9.0E+001
  0
ENDBLK
  0
BLOCK
  2
*D642
  3
*D
 10
0.0
 20
0.0
 70
65
  0
LINE
  8
2D_BEMASSUNG
  6
CONTINUOUS
 62
4
 10
3.35748E+001
 20
8.0492E+001
 11
1.9578839E+001
 21
8.0492E+001
  0
LINE
  8
2D_BEMASSUNG
  6
CONTINUOUS
 62
4
 10
4.125E+001
 20
1.0199198E+002
 11
1.9578839E+001
 21
1.0199198E+002
  0
LINE
  8
2D_BEMASSUNG
  6
CONTINUOUS
 62
4
 10
2.0578839E+001
 20
8.0492E+001
 11
2.0578839E+001
 21
9.2352804E+001
  0
LINE
  8
2D_BEMASSUNG
  6
CONTINUOUS
 62
4
 10
2.0578839E+001
 20
1.0199198E+002
 11
2.0578839E+001
 21
9.2352804E+001
  0
INSERT
  2
_AH13
  8
2D_BEMASSUNG
 62
4
 10
4.1157677E+001
 20
1.60984E+002
 41
7.0
 42
7.0
 43
7.0
 50
2.7E+002
  0
INSERT
  2
_AH13
  8
2D_BEMASSUNG
 62
4
 10
4.1157677E+001
 20
2.0398395E+002
 41
7.0
 42
7.0
 43
7.0
 50
4.5E+002
  0
TEXT
  8
2D_BEMASSUNG
  6
CONTINUOUS
 62
4
 10
1.9412339E+001
 20
9.0019471E+001
 40
3.5
  1
43
 41
6.6666667E-001
 50
9.0E+001
  0
ENDBLK
  0
BLOCK
  2
*D767
  3
*D
 10
0.0
 20
0.0
 70
65
  0
LINE
  8
2D_BEMASSUNG
  6
CONTINUOUS
 62
1
 10
0.0
 20
2.1497E+001
 11
0.0
 21
4.2958761E+001
  0
LINE
  8
2D_BEMASSUNG
  6
CONTINUOUS
 62
1
 10
4.225E+001
 20
4.8617E+001
 11
4.225E+001
 21
3.9958761E+001
  0
LINE
  8
2D_BEMASSUNG
  6
CONTINUOUS
 62
1
 10
0.0
 20
4.1458761E+001
 11
1.6428855E+001
 21
4.1458761E+001
  0
LINE
  8
2D_BEMASSUNG
  6
CONTINUOUS
 62
1
 10
4.225E+001
 20
4.1458761E+001
 11
1.6428855E+001
 21
4.1458761E+001
  0
INSERT
  2
_AH13
  8
2D_BEMASSUNG
 62
1
 10
0.0
 20
8.2917522E+001
 41
8.0
 42
8.0
 43
8.0
 50
1.8E+002
  0
INSERT
  2
_AH13
  8
2D_BEMASSUNG
 62
1
 10
8.45E+001
 20
8.2917522E+001
 41
8.0
 42
8.0
 43
8.0
 50
3.6E+002
  0
TEXT
  8
2D_BEMASSUNG
  6
CONTINUOUS
 62
1
 10
1.3628854E+001
 20
4.2959761E+001
 40
3.5
  1
84
 41
8.0E-001
  0
ENDBLK
  0
BLOCK
  2
*D770
  3
*D
 10
0.0
 20
0.0
 70
65
  0
LINE
  8
2D_BEMASSUNG
  6
CONTINUOUS
 62
1
 10
7.2375E+001
 20
9.1991992E+001
 11
3.1105508E+001
 21
9.1991992E+001
  0
LINE
  8
2D_BEMASSUNG
  6
CONTINUOUS
 62
1
 10
4.609234E+001
 20
9.7741992E+001
 11
3.1105508E+001
 21
9.7741992E+001
  0
LINE
  8
2D_BEMASSUNG
  6
CONTINUOUS
 62
1
 10
3.2605508E+001
 20
8.3991992E+001
 11
3.2605508E+001
 21
9.1991992E+001
  0
LINE
  8
2D_BEMASSUNG
  6
CONTINUOUS
 62
1
 10
3.2605508E+001
 20
1.0574199E+002
 11
3.2605508E+001
 21
9.1991992E+001
  0
INSERT
  2
_AH13
  8
2D_BEMASSUNG
 62
1
 10
6.5211017E+001
 20
1.8398398E+002
 41
8.0
 42
8.0
 43
8.0
 50
4.5E+002
  0
INSERT
  2
_AH13
  8
2D_BEMASSUNG
 62
1
 10
6.5211017E+001
 20
1.9548398E+002
 41
8.0
 42
8.0
 43
8.0
 50
6.3E+002
  0
TEXT
  8
2D_BEMASSUNG
  6
CONTINUOUS
 62
1
 10
3.1104509E+001
 20
8.8441673E+001
 40
3.5
  1
11,5
 41
8.0E-001
 50
9.0E+001
  0
ENDBLK
  0
BLOCK
  2
*D774
  3
*D
 10
0.0
 20
0.0
 70
65
  0
LINE
  8
2D_BEMASSUNG
  6
CONTINUOUS
 62
1
 10
1.5099999E+002
 20
4.7740581E+001
 11
1.5099999E+002
 21
2.9388206E+001
  0
LINE
  8
2D_BEMASSUNG
  6
CONTINUOUS
 62
1
 10
7.1E+001
 20
4.7740581E+001
 11
7.1E+001
 21
2.9388206E+001
  0
LINE
  8
2D_BEMASSUNG
  6
CONTINUOUS
 62
1
 10
1.5099999E+002
 20
3.0888206E+001
 11
1.1158883E+002
 21
3.0888206E+001
  0
LINE
  8
2D_BEMASSUNG
  6
CONTINUOUS
 62
1
 10
7.1E+001
 20
3.0888206E+001
 11
1.1158883E+002
 21
3.0888206E+001
  0
INSERT
  2
_AH13
  8
2D_BEMASSUNG
 62
1
 10
3.0199998E+002
 20
6.1776411E+001
 41
8.0
 42
8.0
 43
8.0
 50
3.6E+002
  0
INSERT
  2
_AH13
  8
2D_BEMASSUNG
 62
1
 10
1.42E+002
 20
6.1776411E+001
 41
8.0
 42
8.0
 43
8.0
 50
5.4E+002
  0
TEXT
  8
2D_BEMASSUNG
  6
CONTINUOUS
 62
1
 10
1.0738883E+002
 20
3.2389206E+001
 40
3.5
  1
160
 41
8.0E-001
 50
3.6E+002
  0
ENDBLK
  0
BLOCK
  2
*D775
  3
*D
 10
0.0
 20
0.0
 70
65
  0
LINE
  8
2D_BEMASSUNG
  6
CONTINUOUS
 62
1
 10
7.5E+001
 20
8.8409534E+001
 11
7.5000109E+001
 21
3.7622894E+001
  0
LINE
  8
2D_BEMASSUNG
  6
CONTINUOUS
 62
1
 10
7.1E+001
 20
7.6878948E+001
 11
7.1000085E+001
 21
3.7622885E+001
  0
LINE
  8
2D_BEMASSUNG
  6
CONTINUOUS
 62
1
 10
7.5000106E+001
 20
3.9122894E+001
 11
8.762991E+001
 21
3.9122921E+001
  0
LINE
  8
2D_BEMASSUNG
  6
CONTINUOUS
 62
1
 10
6.3000081E+001
 20
3.9122868E+001
 11
7.5000106E+001
 21
3.9122894E+001
  0
INSERT
  2
_AH13
  8
2D_BEMASSUNG
 62
1
 10
1.5000021E+002
 20
7.8245787E+001
 41
8.0
 42
8.0
 43
8.0
 50
5.4000012E+002
  0
INSERT
  2
_AH13
  8
2D_BEMASSUNG
 62
1
 10
1.4200016E+002
 20
7.824577E+001
 41
8.0
 42
8.0
 43
8.0
 50
7.2000012E+002
  0
TEXT
  8
2D_BEMASSUNG
  6
CONTINUOUS
 62
1
 10
8.3329907E+001
 20
4.0623911E+001
 40
3.5
  1
8
 41
8.0E-001
 50
1.234254E-004
  0
ENDBLK
  0
BLOCK
  2
*D778
  3
*D
 10
0.0
 20
0.0
 70
65
  0
LINE
  8
2D_BEMASSUNG
  6
CONTINUOUS
 62
4
 10
0.0
 20
2.2497E+001
 11
0.0
 21
1.3531967E+002
  0
LINE
  8
2D_BEMASSUNG
  6
CONTINUOUS
 62
4
 10
4.9499971E+001
 20
1.0299198E+002
 11
4.9499971E+001
 21
1.3531967E+002
  0
LINE
  8
2D_BEMASSUNG
  6
CONTINUOUS
 62
4
 10
0.0
 20
1.3431967E+002
 11
2.5938145E+001
 21
1.3431967E+002
  0
LINE
  8
2D_BEMASSUNG
  6
CONTINUOUS
 62
4
 10
4.9499971E+001
 20
1.3431967E+002
 11
2.5938145E+001
 21
1.3431967E+002
  0
INSERT
  2
_AH13
  8
2D_BEMASSUNG
 62
4
 10
0.0
 20
2.6863934E+002
 41
7.0
 42
7.0
 43
7.0
 50
1.8E+002
  0
INSERT
  2
_AH13
  8
2D_BEMASSUNG
 62
4
 10
9.8999941E+001
 20
2.6863934E+002
 41
7.0
 42
7.0
 43
7.0
 50
3.6E+002
  0
TEXT
  8
2D_BEMASSUNG
  6
CONTINUOUS
 62
4
 10
2.3604811E+001
 20
1.3548617E+002
 40
3.5
  1
99
 41
6.6666667E-001
  0
ENDBLK
  0
BLOCK
  2
*D779
  3
*D
 10
0.0
 20
0.0
 70
65
  0
LINE
  8
2D_BEMASSUNG
  6
CONTINUOUS
 62
4
 10
2.890048E+002
 20
9.5413E+001
 11
2.890048E+002
 21
1.3473827E+002
  0
LINE
  8
2D_BEMASSUNG
  6
CONTINUOUS
 62
4
 10
7.49998E+001
 20
9.5617E+001
 11
7.49998E+001
 21
1.3473827E+002
  0
LINE
  8
2D_BEMASSUNG
  6
CONTINUOUS
 62
4
 10
2.890048E+002
 20
1.3373827E+002
 11
1.8604586E+002
 21
1.3373827E+002
  0
LINE
  8
2D_BEMASSUNG
  6
CONTINUOUS
 62
4
 10
7.49998E+001
 20
1.3373827E+002
 11
1.8604586E+002
 21
1.3373827E+002
  0
INSERT
  2
_AH13
  8
2D_BEMASSUNG
 62
4
 10
5.780096E+002
 20
2.6747654E+002
 41
7.0
 42
7.0
 43
7.0
 50
3.6E+002
  0
INSERT
  2
_AH13
  8
2D_BEMASSUNG
 62
4
 10
1.499996E+002
 20
2.6747654E+002
 41
7.0
 42
7.0
 43
7.0
 50
5.4E+002
  0
TEXT
  8
2D_BEMASSUNG
  6
CONTINUOUS
 62
4
 10
1.8254586E+002
 20
1.3490477E+002
 40
3.5
  1
428
 41
6.6666667E-001
 50
3.6E+002
  0
ENDBLK
  0
BLOCK
  2
*D936
  3
*D
 10
0.0
 20
0.0
 70
65
  0
LINE
  8
2D_BEMASSUNG
  6
CONTINUOUS
 62
4
 10
-1.5997808E+001
 20
5.9495E+001
 11
-1.5997808E+001
 21
5.8624493E+001
  0
LINE
  8
2D_BEMASSUNG
  6
CONTINUOUS
 62
4
 10
5.5001992E+001
 20
6.3342E+001
 11
5.5001992E+001
 21
5.8624493E+001
  0
LINE
  8
2D_BEMASSUNG
  6
CONTINUOUS
 62
4
 10
-1.5997808E+001
 20
5.7624493E+001
 11
1.9579966E+001
 21
5.7624493E+001
  0
LINE
  8
2D_BEMASSUNG
  6
CONTINUOUS
 62
4
 10
5.5001992E+001
 20
5.7624493E+001
 11
1.9579966E+001
 21
5.7624493E+001
  0
INSERT
  2
_AH13
  8
2D_BEMASSUNG
 62
4
 10
-3.1995617E+001
 20
1.1524899E+002
 41
7.0
 42
7.0
 43
7.0
 50
1.8E+002
  0
INSERT
  2
_AH13
  8
2D_BEMASSUNG
 62
4
 10
1.1000398E+002
 20
1.1524899E+002
 41
7.0
 42
7.0
 43
7.0
 50
3.6E+002
  0
TEXT
  8
2D_BEMASSUNG
  6
CONTINUOUS
 62
4
 10
1.6079966E+001
 20
5.8790993E+001
 40
3.5
  1
142
 41
6.6666667E-001
  0
ENDBLK
  0
BLOCK
  2
*D937
  3
*D
 10
0.0
 20
0.0
 70
65
  0
LINE
  8
2D_BEMASSUNG
  6
CONTINUOUS
 62
4
 10
2.0277092E+001
 20
1.075E+002
 11
3.5820302
 21
1.075E+002
  0
LINE
  8
2D_BEMASSUNG
  6
CONTINUOUS
 62
4
 10
2.5252192E+001
 20
1.05625E+002
 11
3.5820302
 21
1.05625E+002
  0
LINE
  8
2D_BEMASSUNG
  6
CONTINUOUS
 62
4
 10
4.5820302
 20
1.135E+002
 11
4.5820302
 21
1.075E+002
  0
LINE
  8
2D_BEMASSUNG
  6
CONTINUOUS
 62
4
 10
4.5820302
 20
1.05625E+002
 11
4.5820302
 21
8.9358577E+001
  0
INSERT
  2
_AH13
  8
2D_BEMASSUNG
 62
4
 10
9.1640604
 20
2.15E+002
 41
7.0
 42
7.0
 43
7.0
 50
6.3E+002
  0
INSERT
  2
_AH13
  8
2D_BEMASSUNG
 62
4
 10
9.1640604
 20
2.1125E+002
 41
7.0
 42
7.0
 43
7.0
 50
8.1E+002
  0
TEXT
  8
2D_BEMASSUNG
  6
CONTINUOUS
 62
4
 10
3.4155302
 20
9.0858577E+001
 40
3.5
  1
4
 41
6.6666667E-001
 50
9.0E+001
  0
ENDBLK
  0
BLOCK
  2
*D944
  3
*D
 10
0.0
 20
0.0
 70
65
  0
LINE
  8
2D_BEMASSUNG
  6
CONTINUOUS
 62
4
 10
1.7576992E+001
 20
1.075E+002
 11
3.5810302
 21
1.075E+002
  0
LINE
  8
2D_BEMASSUNG
  6
CONTINUOUS
 62
4
 10
2.5252192E+001
 20
1.2899998E+002
 11
3.5810302
 21
1.2899998E+002
  0
LINE
  8
2D_BEMASSUNG
  6
CONTINUOUS
 62
4
 10
4.5810302
 20
1.075E+002
 11
4.5810302
 21
1.193608E+002
  0
LINE
  8
2D_BEMASSUNG
  6
CONTINUOUS
 62
4
 10
4.5810302
 20
1.2899998E+002
 11
4.5810302
 21
1.193608E+002
  0
INSERT
  2
_AH13
  8
2D_BEMASSUNG
 62
4
 10
9.1620604
 20
2.15E+002
 41
7.0
 42
7.0
 43
7.0
 50
2.7E+002
  0
INSERT
  2
_AH13
  8
2D_BEMASSUNG
 62
4
 10
9.1620604
 20
2.5799995E+002
 41
7.0
 42
7.0
 43
7.0
 50
4.5E+002
  0
TEXT
  8
2D_BEMASSUNG
  6
CONTINUOUS
 62
4
 10
3.4145302
 20
1.1702747E+002
 40
3.5
  1
43
 41
6.6666667E-001
 50
9.0E+001
  0
ENDBLK
  0
BLOCK
  2
*D1033
  3
*D
 10
0.0
 20
0.0
 70
65
  0
LINE
  8
2D_BEMASSUNG
  6
CONTINUOUS
 62
1
 10
-1.5997808E+001
 20
4.8505E+001
 11
-1.5997808E+001
 21
6.9966761E+001
  0
LINE
  8
2D_BEMASSUNG
  6
CONTINUOUS
 62
1
 10
2.6252192E+001
 20
7.5625E+001
 11
2.6252192E+001
 21
6.6966761E+001
  0
LINE
  8
2D_BEMASSUNG
  6
CONTINUOUS
 62
1
 10
-1.5997808E+001
 20
6.8466761E+001
 11
4.3104617E-001
 21
6.8466761E+001
  0
LINE
  8
2D_BEMASSUNG
  6
CONTINUOUS
 62
1
 10
2.6252192E+001
 20
6.8466761E+001
 11
4.3104617E-001
 21
6.8466761E+001
  0
INSERT
  2
_AH13
  8
2D_BEMASSUNG
 62
1
 10
-3.1995617E+001
 20
1.3693352E+002
 41
8.0
 42
8.0
 43
8.0
 50
1.8E+002
  0
INSERT
  2
_AH13
  8
2D_BEMASSUNG
 62
1
 10
5.2504383E+001
 20
1.3693352E+002
 41
8.0
 42
8.0
 43
8.0
 50
3.6E+002
  0
TEXT
  8
2D_BEMASSUNG
  6
CONTINUOUS
 62
1
 10
-2.3689538
 20
6.9967761E+001
 40
3.5
  1
84
 41
8.0E-001
  0
ENDBLK
  0
BLOCK
  2
*D1035
  3
*D
 10
0.0
 20
0.0
 70
65
  0
LINE
  8
2D_BEMASSUNG
  6
CONTINUOUS
 62
1
 10
5.6377192E+001
 20
1.1899999E+002
 11
1.51077E+001
 21
1.1899999E+002
  0
LINE
  8
2D_BEMASSUNG
  6
CONTINUOUS
 62
1
 10
3.0094532E+001
 20
1.2474999E+002
 11
1.51077E+001
 21
1.2474999E+002
  0
LINE
  8
2D_BEMASSUNG
  6
CONTINUOUS
 62
1
 10
1.66077E+001
 20
1.1099999E+002
 11
1.66077E+001
 21
1.1899999E+002
  0
LINE
  8
2D_BEMASSUNG
  6
CONTINUOUS
 62
1
 10
1.66077E+001
 20
1.3274999E+002
 11
1.66077E+001
 21
1.1899999E+002
  0
INSERT
  2
_AH13
  8
2D_BEMASSUNG
 62
1
 10
3.32154E+001
 20
2.3799998E+002
 41
8.0
 42
8.0
 43
8.0
 50
4.5E+002
  0
INSERT
  2
_AH13
  8
2D_BEMASSUNG
 62
1
 10
3.32154E+001
 20
2.4949998E+002
 41
8.0
 42
8.0
 43
8.0
 50
6.3E+002
  0
TEXT
  8
2D_BEMASSUNG
  6
CONTINUOUS
 62
1
 10
1.51067E+001
 20
1.1544967E+002
 40
3.5
  1
11,5
 41
8.0E-001
 50
9.0E+001
  0
ENDBLK
  0
BLOCK
  2
*D1039
  3
*D
 10
0.0
 20
0.0
 70
65
  0
LINE
  8
2D_BEMASSUNG
  6
CONTINUOUS
 62
1
 10
1.3500218E+002
 20
7.4748581E+001
 11
1.3500218E+002
 21
5.6396206E+001
  0
LINE
  8
2D_BEMASSUNG
  6
CONTINUOUS
 62
1
 10
5.5002192E+001
 20
7.4748581E+001
 11
5.5002192E+001
 21
5.6396206E+001
  0
LINE
  8
2D_BEMASSUNG
  6
CONTINUOUS
 62
1
 10
1.3500218E+002
 20
5.7896206E+001
 11
9.559102E+001
 21
5.7896206E+001
  0
LINE
  8
2D_BEMASSUNG
  6
CONTINUOUS
 62
1
 10
5.5002192E+001
 20
5.7896206E+001
 11
9.559102E+001
 21
5.7896206E+001
  0
INSERT
  2
_AH13
  8
2D_BEMASSUNG
 62
1
 10
2.7000436E+002
 20
1.1579241E+002
 41
8.0
 42
8.0
 43
8.0
 50
3.6E+002
  0
INSERT
  2
_AH13
  8
2D_BEMASSUNG
 62
1
 10
1.1000438E+002
 20
1.1579241E+002
 41
8.0
 42
8.0
 43
8.0
 50
5.4E+002
  0
TEXT
  8
2D_BEMASSUNG
  6
CONTINUOUS
 62
1
 10
9.139102E+001
 20
5.9397205E+001
 40
3.5
  1
160
 41
8.0E-001
 50
3.6E+002
  0
ENDBLK
  0
BLOCK
  2
*D1040
  3
*D
 10
0.0
 20
0.0
 70
65
  0
LINE
  8
2D_BEMASSUNG
  6
CONTINUOUS
 62
1
 10
5.9002192E+001
 20
1.1541753E+002
 11
5.9002301E+001
 21
6.4630894E+001
  0
LINE
  8
2D_BEMASSUNG
  6
CONTINUOUS
 62
1
 10
5.5002192E+001
 20
1.0388695E+002
 11
5.5002276E+001
 21
6.4630885E+001
  0
LINE
  8
2D_BEMASSUNG
  6
CONTINUOUS
 62
1
 10
5.9002298E+001
 20
6.6130894E+001
 11
7.1632102E+001
 21
6.6130921E+001
  0
LINE
  8
2D_BEMASSUNG
  6
CONTINUOUS
 62
1
 10
4.7002273E+001
 20
6.6130868E+001
 11
5.9002298E+001
 21
6.6130894E+001
  0
INSERT
  2
_AH13
  8
2D_BEMASSUNG
 62
1
 10
1.180046E+002
 20
1.3226179E+002
 41
8.0
 42
8.0
 43
8.0
 50
5.4000012E+002
  0
INSERT
  2
_AH13
  8
2D_BEMASSUNG
 62
1
 10
1.1000455E+002
 20
1.3226177E+002
 41
8.0
 42
8.0
 43
8.0
 50
7.2000012E+002
  0
TEXT
  8
2D_BEMASSUNG
  6
CONTINUOUS
 62
1
 10
6.7332098E+001
 20
6.7631911E+001
 40
3.5
  1
8
 41
8.0E-001
 50
1.234254E-004
  0
ENDBLK
  0
BLOCK
  2
*D1069
  3
*D
 10
0.0
 20
0.0
 70
65
  0
LINE
  8
2D_BEMASSUNG
  6
CONTINUOUS
 62
4
 10
-1.5997808E+001
 20
4.9505E+001
 11
-1.5997808E+001
 21
1.6232767E+002
  0
LINE
  8
2D_BEMASSUNG
  6
CONTINUOUS
 62
4
 10
3.3502162E+001
 20
1.2999998E+002
 11
3.3502162E+001
 21
1.6232767E+002
  0
LINE
  8
2D_BEMASSUNG
  6
CONTINUOUS
 62
4
 10
-1.5997808E+001
 20
1.6132767E+002
 11
9.9403362
 21
1.6132767E+002
  0
LINE
  8
2D_BEMASSUNG
  6
CONTINUOUS
 62
4
 10
3.3502162E+001
 20
1.6132767E+002
 11
9.9403362
 21
1.6132767E+002
  0
INSERT
  2
_AH13
  8
2D_BEMASSUNG
 62
4
 10
-3.1995617E+001
 20
3.2265534E+002
 41
7.0
 42
7.0
 43
7.0
 50
1.8E+002
  0
INSERT
  2
_AH13
  8
2D_BEMASSUNG
 62
4
 10
6.7004325E+001
 20
3.2265534E+002
 41
7.0
 42
7.0
 43
7.0
 50
3.6E+002
  0
TEXT
  8
2D_BEMASSUNG
  6
CONTINUOUS
 62
4
 10
7.6070028
 20
1.6249417E+002
 40
3.5
  1
99
 41
6.6666667E-001
  0
ENDBLK
  0
BLOCK
  2
*D1070
  3
*D
 10
0.0
 20
0.0
 70
65
  0
LINE
  8
2D_BEMASSUNG
  6
CONTINUOUS
 62
4
 10
2.7300699E+002
 20
1.22421E+002
 11
2.7300699E+002
 21
1.6174627E+002
  0
LINE
  8
2D_BEMASSUNG
  6
CONTINUOUS
 62
4
 10
5.9001992E+001
 20
1.22625E+002
 11
5.9001992E+001
 21
1.6174627E+002
  0
LINE
  8
2D_BEMASSUNG
  6
CONTINUOUS
 62
4
 10
2.7300699E+002
 20
1.6074627E+002
 11
1.7004805E+002
 21
1.6074627E+002
  0
LINE
  8
2D_BEMASSUNG
  6
CONTINUOUS
 62
4
 10
5.9001992E+001
 20
1.6074627E+002
 11
1.7004805E+002
 21
1.6074627E+002
  0
INSERT
  2
_AH13
  8
2D_BEMASSUNG
 62
4
 10
5.4601398E+002
 20
3.2149254E+002
 41
7.0
 42
7.0
 43
7.0
 50
3.6E+002
  0
INSERT
  2
_AH13
  8
2D_BEMASSUNG
 62
4
 10
1.1800398E+002
 20
3.2149254E+002
 41
7.0
 42
7.0
 43
7.0
 50
5.4E+002
  0
TEXT
  8
2D_BEMASSUNG
  6
CONTINUOUS
 62
4
 10
1.6654805E+002
 20
1.6191277E+002
 40
3.5
  1
428
 41
6.6666667E-001
 50
3.6E+002
  0
ENDBLK
  0
BLOCK
  2
*D1075
  3
*D
 10
0.0
 20
0.0
 70
65
  0
LINE
  8
2D_BEMASSUNG
  6
CONTINUOUS
 62
4
 10
-1.5997808E+001
 20
5.9495E+001
 11
-1.5997808E+001
 21
5.8624493E+001
  0
LINE
  8
2D_BEMASSUNG
  6
CONTINUOUS
 62
4
 10
5.5001992E+001
 20
6.3342E+001
 11
5.5001992E+001
 21
5.8624493E+001
  0
LINE
  8
2D_BEMASSUNG
  6
CONTINUOUS
 62
4
 10
-1.5997808E+001
 20
5.7624493E+001
 11
1.9579966E+001
 21
5.7624493E+001
  0
LINE
  8
2D_BEMASSUNG
  6
CONTINUOUS
 62
4
 10
5.5001992E+001
 20
5.7624493E+001
 11
1.9579966E+001
 21
5.7624493E+001
  0
INSERT
  2
_AH13
  8
2D_BEMASSUNG
 62
4
 10
-3.1995617E+001
 20
1.1524899E+002
 41
7.0
 42
7.0
 43
7.0
 50
1.8E+002
  0
INSERT
  2
_AH13
  8
2D_BEMASSUNG
 62
4
 10
1.1000398E+002
 20
1.1524899E+002
 41
7.0
 42
7.0
 43
7.0
 50
3.6E+002
  0
TEXT
  8
2D_BEMASSUNG
  6
CONTINUOUS
 62
4
 10
1.6079966E+001
 20
5.8790993E+001
 40
3.5
  1
142
 41
6.6666667E-001
  0
ENDBLK
  0
BLOCK
  2
*D1076
  3
*D
 10
0.0
 20
0.0
 70
65
  0
LINE
  8
2D_BEMASSUNG
  6
CONTINUOUS
 62
4
 10
2.0277092E+001
 20
1.075E+002
 11
3.5820302
 21
1.075E+002
  0
LINE
  8
2D_BEMASSUNG
  6
CONTINUOUS
 62
4
 10
2.5252192E+001
 20
1.05625E+002
 11
3.5820302
 21
1.05625E+002
  0
LINE
  8
2D_BEMASSUNG
  6
CONTINUOUS
 62
4
 10
4.5820302
 20
1.135E+002
 11
4.5820302
 21
1.075E+002
  0
LINE
  8
2D_BEMASSUNG
  6
CONTINUOUS
 62
4
 10
4.5820302
 20
1.05625E+002
 11
4.5820302
 21
8.9358577E+001
  0
INSERT
  2
_AH13
  8
2D_BEMASSUNG
 62
4
 10
9.1640604
 20
2.15E+002
 41
7.0
 42
7.0
 43
7.0
 50
6.3E+002
  0
INSERT
  2
_AH13
  8
2D_BEMASSUNG
 62
4
 10
9.1640604
 20
2.1125E+002
 41
7.0
 42
7.0
 43
7.0
 50
8.1E+002
  0
TEXT
  8
2D_BEMASSUNG
  6
CONTINUOUS
 62
4
 10
3.4155302
 20
9.0858577E+001
 40
3.5
  1
4
 41
6.6666667E-001
 50
9.0E+001
  0
ENDBLK
  0
BLOCK
  2
*D1083
  3
*D
 10
0.0
 20
0.0
 70
65
  0
LINE
  8
2D_BEMASSUNG
  6
CONTINUOUS
 62
4
 10
1.7576992E+001
 20
1.075E+002
 11
3.5810302
 21
1.075E+002
  0
LINE
  8
2D_BEMASSUNG
  6
CONTINUOUS
 62
4
 10
2.5252192E+001
 20
1.2899998E+002
 11
3.5810302
 21
1.2899998E+002
  0
LINE
  8
2D_BEMASSUNG
  6
CONTINUOUS
 62
4
 10
4.5810302
 20
1.075E+002
 11
4.5810302
 21
1.193608E+002
  0
LINE
  8
2D_BEMASSUNG
  6
CONTINUOUS
 62
4
 10
4.5810302
 20
1.2899998E+002
 11
4.5810302
 21
1.193608E+002
  0
INSERT
  2
_AH13
  8
2D_BEMASSUNG
 62
4
 10
9.1620604
 20
2.15E+002
 41
7.0
 42
7.0
 43
7.0
 50
2.7E+002
  0
INSERT
  2
_AH13
  8
2D_BEMASSUNG
 62
4
 10
9.1620604
 20
2.5799995E+002
 41
7.0
 42
7.0
 43
7.0
 50
4.5E+002
  0
TEXT
  8
2D_BEMASSUNG
  6
CONTINUOUS
 62
4
 10
3.4145302
 20
1.1702747E+002
 40
3.5
  1
43
 41
6.6666667E-001
 50
9.0E+001
  0
ENDBLK
  0
BLOCK
  2
*D1172
  3
*D
 10
0.0
 20
0.0
 70
65
  0
LINE
  8
2D_BEMASSUNG
  6
CONTINUOUS
 62
1
 10
-1.5997808E+001
 20
4.8505E+001
 11
-1.5997808E+001
 21
6.9966761E+001
  0
LINE
  8
2D_BEMASSUNG
  6
CONTINUOUS
 62
1
 10
2.6252192E+001
 20
7.5625E+001
 11
2.6252192E+001
 21
6.6966761E+001
  0
LINE
  8
2D_BEMASSUNG
  6
CONTINUOUS
 62
1
 10
-1.5997808E+001
 20
6.8466761E+001
 11
4.3104617E-001
 21
6.8466761E+001
  0
LINE
  8
2D_BEMASSUNG
  6
CONTINUOUS
 62
1
 10
2.6252192E+001
 20
6.8466761E+001
 11
4.3104617E-001
 21
6.8466761E+001
  0
INSERT
  2
_AH13
  8
2D_BEMASSUNG
 62
1
 10
-3.1995617E+001
 20
1.3693352E+002
 41
8.0
 42
8.0
 43
8.0
 50
1.8E+002
  0
INSERT
  2
_AH13
  8
2D_BEMASSUNG
 62
1
 10
5.2504383E+001
 20
1.3693352E+002
 41
8.0
 42
8.0
 43
8.0
 50
3.6E+002
  0
TEXT
  8
2D_BEMASSUNG
  6
CONTINUOUS
 62
1
 10
-2.3689538
 20
6.9967761E+001
 40
3.5
  1
84
 41
8.0E-001
  0
ENDBLK
  0
BLOCK
  2
*D1174
  3
*D
 10
0.0
 20
0.0
 70
65
  0
LINE
  8
2D_BEMASSUNG
  6
CONTINUOUS
 62
1
 10
5.6377192E+001
 20
1.1899999E+002
 11
1.51077E+001
 21
1.1899999E+002
  0
LINE
  8
2D_BEMASSUNG
  6
CONTINUOUS
 62
1
 10
3.0094532E+001
 20
1.2474999E+002
 11
1.51077E+001
 21
1.2474999E+002
  0
LINE
  8
2D_BEMASSUNG
  6
CONTINUOUS
 62
1
 10
1.66077E+001
 20
1.1099999E+002
 11
1.66077E+001
 21
1.1899999E+002
  0
LINE
  8
2D_BEMASSUNG
  6
CONTINUOUS
 62
1
 10
1.66077E+001
 20
1.3274999E+002
 11
1.66077E+001
 21
1.1899999E+002
  0
INSERT
  2
_AH13
  8
2D_BEMASSUNG
 62
1
 10
3.32154E+001
 20
2.3799998E+002
 41
8.0
 42
8.0
 43
8.0
 50
4.5E+002
  0
INSERT
  2
_AH13
  8
2D_BEMASSUNG
 62
1
 10
3.32154E+001
 20
2.4949998E+002
 41
8.0
 42
8.0
 43
8.0
 50
6.3E+002
  0
TEXT
  8
2D_BEMASSUNG
  6
CONTINUOUS
 62
1
 10
1.51067E+001
 20
1.1544967E+002
 40
3.5
  1
11,5
 41
8.0E-001
 50
9.0E+001
  0
ENDBLK
  0
BLOCK
  2
*D1178
  3
*D
 10
0.0
 20
0.0
 70
65
  0
LINE
  8
2D_BEMASSUNG
  6
CONTINUOUS
 62
1
 10
1.3500218E+002
 20
7.4748581E+001
 11
1.3500218E+002
 21
5.6396206E+001
  0
LINE
  8
2D_BEMASSUNG
  6
CONTINUOUS
 62
1
 10
5.5002192E+001
 20
7.4748581E+001
 11
5.5002192E+001
 21
5.6396206E+001
  0
LINE
  8
2D_BEMASSUNG
  6
CONTINUOUS
 62
1
 10
1.3500218E+002
 20
5.7896206E+001
 11
9.559102E+001
 21
5.7896206E+001
  0
LINE
  8
2D_BEMASSUNG
  6
CONTINUOUS
 62
1
 10
5.5002192E+001
 20
5.7896206E+001
 11
9.559102E+001
 21
5.7896206E+001
  0
INSERT
  2
_AH13
  8
2D_BEMASSUNG
 62
1
 10
2.7000436E+002
 20
1.1579241E+002
 41
8.0
 42
8.0
 43
8.0
 50
3.6E+002
  0
INSERT
  2
_AH13
  8
2D_BEMASSUNG
 62
1
 10
1.1000438E+002
 20
1.1579241E+002
 41
8.0
 42
8.0
 43
8.0
 50
5.4E+002
  0
TEXT
  8
2D_BEMASSUNG
  6
CONTINUOUS
 62
1
 10
9.139102E+001
 20
5.9397205E+001
 40
3.5
  1
160
 41
8.0E-001
 50
3.6E+002
  0
ENDBLK
  0
BLOCK
  2
*D1179
  3
*D
 10
0.0
 20
0.0
 70
65
  0
LINE
  8
2D_BEMASSUNG
  6
CONTINUOUS
 62
1
 10
5.9002192E+001
 20
1.1541753E+002
 11
5.9002301E+001
 21
6.4630894E+001
  0
LINE
  8
2D_BEMASSUNG
  6
CONTINUOUS
 62
1
 10
5.5002192E+001
 20
1.0388695E+002
 11
5.5002276E+001
 21
6.4630885E+001
  0
LINE
  8
2D_BEMASSUNG
  6
CONTINUOUS
 62
1
 10
5.9002298E+001
 20
6.6130894E+001
 11
7.1632102E+001
 21
6.6130921E+001
  0
LINE
  8
2D_BEMASSUNG
  6
CONTINUOUS
 62
1
 10
4.7002273E+001
 20
6.6130868E+001
 11
5.9002298E+001
 21
6.6130894E+001
  0
INSERT
  2
_AH13
  8
2D_BEMASSUNG
 62
1
 10
1.180046E+002
 20
1.3226179E+002
 41
8.0
 42
8.0
 43
8.0
 50
5.4000012E+002
  0
INSERT
  2
_AH13
  8
2D_BEMASSUNG
 62
1
 10
1.1000455E+002
 20
1.3226177E+002
 41
8.0
 42
8.0
 43
8.0
 50
7.2000012E+002
  0
TEXT
  8
2D_BEMASSUNG
  6
CONTINUOUS
 62
1
 10
6.7332098E+001
 20
6.7631911E+001
 40
3.5
  1
8
 41
8.0E-001
 50
1.234254E-004
  0
ENDBLK
  0
BLOCK
  2
*D1208
  3
*D
 10
0.0
 20
0.0
 70
65
  0
LINE
  8
2D_BEMASSUNG
  6
CONTINUOUS
 62
4
 10
-1.5997808E+001
 20
4.9505E+001
 11
-1.5997808E+001
 21
1.6232767E+002
  0
LINE
  8
2D_BEMASSUNG
  6
CONTINUOUS
 62
4
 10
3.3502162E+001
 20
1.2999998E+002
 11
3.3502162E+001
 21
1.6232767E+002
  0
LINE
  8
2D_BEMASSUNG
  6
CONTINUOUS
 62
4
 10
-1.5997808E+001
 20
1.6132767E+002
 11
9.9403362
 21
1.6132767E+002
  0
LINE
  8
2D_BEMASSUNG
  6
CONTINUOUS
 62
4
 10
3.3502162E+001
 20
1.6132767E+002
 11
9.9403362
 21
1.6132767E+002
  0
INSERT
  2
_AH13
  8
2D_BEMASSUNG
 62
4
 10
-3.1995617E+001
 20
3.2265534E+002
 41
7.0
 42
7.0
 43
7.0
 50
1.8E+002
  0
INSERT
  2
_AH13
  8
2D_BEMASSUNG
 62
4
 10
6.7004325E+001
 20
3.2265534E+002
 41
7.0
 42
7.0
 43
7.0
 50
3.6E+002
  0
TEXT
  8
2D_BEMASSUNG
  6
CONTINUOUS
 62
4
 10
7.6070028
 20
1.6249417E+002
 40
3.5
  1
99
 41
6.6666667E-001
  0
ENDBLK
  0
BLOCK
  2
*D1209
  3
*D
 10
0.0
 20
0.0
 70
65
  0
LINE
  8
2D_BEMASSUNG
  6
CONTINUOUS
 62
4
 10
2.7300699E+002
 20
1.22421E+002
 11
2.7300699E+002
 21
1.6174627E+002
  0
LINE
  8
2D_BEMASSUNG
  6
CONTINUOUS
 62
4
 10
5.9001992E+001
 20
1.22625E+002
 11
5.9001992E+001
 21
1.6174627E+002
  0
LINE
  8
2D_BEMASSUNG
  6
CONTINUOUS
 62
4
 10
2.7300699E+002
 20
1.6074627E+002
 11
1.7004805E+002
 21
1.6074627E+002
  0
LINE
  8
2D_BEMASSUNG
  6
CONTINUOUS
 62
4
 10
5.9001992E+001
 20
1.6074627E+002
 11
1.7004805E+002
 21
1.6074627E+002
  0
INSERT
  2
_AH13
  8
2D_BEMASSUNG
 62
4
 10
5.4601398E+002
 20
3.2149254E+002
 41
7.0
 42
7.0
 43
7.0
 50
3.6E+002
  0
INSERT
  2
_AH13
  8
2D_BEMASSUNG
 62
4
 10
1.1800398E+002
 20
3.2149254E+002
 41
7.0
 42
7.0
 43
7.0
 50
5.4E+002
  0
TEXT
  8
2D_BEMASSUNG
  6
CONTINUOUS
 62
4
 10
1.6654805E+002
 20
1.6191277E+002
 40
3.5
  1
428
 41
6.6666667E-001
 50
3.6E+002
  0
ENDBLK
  0
ENDSEC
  0
SECTION
  2
ENTITIES
  0
TEXT
  8
2D_TEXT
  6
CONTINUOUS
 62
40
 10
3.9485742E+002
 20
3.3244141E+001
 40
5.0
  1
p430508.she
 41
6.5454545E-001
 72
1
 11
3.7685742E+002
 21
3.0744141E+001
 73
2
  0
LINE
  8
98
  6
CONTINUOUS
 62
1
 10
0.0
 20
0.0
 11
4.2E+002
 21
0.0
  0
LINE
  8
98
  6
CONTINUOUS
 62
1
 10
4.2E+002
 20
0.0
 11
4.2E+002
 21
2.97E+002
  0
LINE
  8
98
  6
CONTINUOUS
 62
1
 10
4.2E+002
 20
2.97E+002
 11
0.0
 21
2.97E+002
  0
LINE
  8
98
  6
CONTINUOUS
 62
1
 10
0.0
 20
2.97E+002
 11
0.0
 21
0.0
  0
LINE
  8
2D_SICHTBARE_KANTEN
  6
CONTINUOUS
 62
40
 10
5.0
 20
5.0
 11
4.15E+002
 21
5.0
  0
LINE
  8
2D_SICHTBARE_KANTEN
  6
CONTINUOUS
 62
40
 10
4.15E+002
 20
5.0
 11
4.15E+002
 21
2.92E+002
  0
LINE
  8
2D_SICHTBARE_KANTEN
  6
CONTINUOUS
 62
40
 10
4.15E+002
 20
2.92E+002
 11
5.0
 21
2.92E+002
  0
LINE
  8
2D_SICHTBARE_KANTEN
  6
CONTINUOUS
 62
40
 10
5.0
 20
2.92E+002
 11
5.0
 21
5.0
  0
TEXT
  8
2D_TEXT
  6
CONTINUOUS
 62
150
 10
3.5728892E+002
 20
2.2357351E+001
 40
3.5
  1
Maßstab:
 41
6.4687502E-001
 72
1
 11
3.4823267E+002
 21
2.0607351E+001
 73
2
  0
LINE
  8
MED-1
  6
CONTINUOUS
 62
3
 10
2.87323E+002
 20
3.58984E+001
 11
2.87323E+002
 21
5.3705E+001
  0
LINE
  8
MED-1
  6
CONTINUOUS
 62
3
 10
2.87323E+002
 20
5.3705E+001
 11
4.0068E+002
 21
5.3705E+001
  0
LINE
  8
MED-1
  6
CONTINUOUS
 62
3
 10
4.0068E+002
 20
5.3705E+001
 11
4.0068E+002
 21
3.58984E+001
  0
TEXT
  8
2D_TEXT
  6
CONTINUOUS
 62
150
 10
3.1034373E+002
 20
4.1512573E+001
 40
3.5
  1
Benennung
 41
6.5000002E-001
 72
1
 11
3.0010623E+002
 21
3.9762573E+001
 73
2
  0
TEXT
  8
2D_TEXT
  6
CONTINUOUS
 62
40
 10
2.9785482E+002
 20
4.5343997E+001
 40
5.0
  1
Montage Bandseite EMF
 41
6.6176471E-001
  0
TEXT
  8
2D_TEXT
  6
CONTINUOUS
 62
150
 10
3.5435168E+002
 20
3.1956501E+001
 40
3.5
  1
Zng.Nr.
 41
6.4285716E-001
 72
1
 11
3.4647668E+002
 21
3.0206501E+001
 73
2
  0
TEXT
  8
2D_TEXT
  6
CONTINUOUS
 62
40
 10
3.3325247E+002
 20
3.333313E+001
 40
5.0
  1
M.Schell
 41
6.46875E-001
 72
1
 11
3.2031497E+002
 21
3.083313E+001
 73
2
  0
TEXT
  8
2D_TEXT
  6
CONTINUOUS
 62
150
 10
2.9879783E+002
 20
3.2113159E+001
 40
3.5
  1
gez.
 41
6.1875002E-001
 72
1
 11
2.9446658E+002
 21
3.0363159E+001
 73
2
  0
TEXT
  8
2D_TEXT
  6
CONTINUOUS
 62
150
 10
3.0029241E+002
 20
2.2713747E+001
 40
3.5
  1
Datum
 41
6.3000002E-001
 72
1
 11
2.9477991E+002
 21
2.0963747E+001
 73
2
  0
TEXT
  8
2D_TEXT
  6
CONTINUOUS
 62
40
 10
3.6868488E+002
 20
2.3414137E+001
 40
5.0
  1
1:2
 41
6.0E-001
 72
1
 11
3.6418488E+002
 21
2.0914137E+001
 73
2
  0
LINE
  8
MED-1
  6
CONTINUOUS
 62
3
 10
3.7698E+002
 20
2.58984E+001
 11
3.7698E+002
 21
1.58984E+001
  0
TEXT
  8
2D_TEXT
  6
CONTINUOUS
 62
40
 10
3.9289777E+002
 20
2.3619749E+001
 40
5.0
  1
A 3
 41
6.0E-001
 72
1
 11
3.8839777E+002
 21
2.1119749E+001
 73
2
  0
LINE
  8
MED-1
  6
CONTINUOUS
 62
3
 10
2.87323E+002
 20
3.58984E+001
 11
4.0068E+002
 21
3.58984E+001
  0
LINE
  8
MED-1
  6
CONTINUOUS
 62
3
 10
4.0068E+002
 20
3.58984E+001
 11
4.0068E+002
 21
1.58984E+001
  0
LINE
  8
MED-1
  6
CONTINUOUS
 62
3
 10
4.0068E+002
 20
1.58984E+001
 11
2.87323E+002
 21
1.58984E+001
  0
LINE
  8
MED-1
  6
CONTINUOUS
 62
3
 10
2.87323E+002
 20
1.58984E+001
 11
2.87323E+002
 21
3.58984E+001
  0
LINE
  8
MED-1
  6
CONTINUOUS
 62
3
 10
3.37133E+002
 20
3.58984E+001
 11
3.37133E+002
 21
1.58984E+001
  0
LINE
  8
MED-1
  6
CONTINUOUS
 62
3
 10
2.87323E+002
 20
2.58984E+001
 11
4.0068E+002
 21
2.58984E+001
  0
INSERT
  2
TT
  8
2D_SYMBOLE
 10
5.37092E+001
 20
1.21936E+002
 41
5.0E-001
 43
5.0E-001
 42
5.0E-001
  0
TEXT
  8
2D_TEXT
  6
CONTINUOUS
 62
150
 10
3.5728892E+002
 20
2.2357351E+001
 40
3.5
  1
Maßstab:
 41
6.4687502E-001
 72
1
 11
3.4823267E+002
 21
2.0607351E+001
 73
2
  0
LINE
  8
MED-1
  6
CONTINUOUS
 62
3
 10
2.87323E+002
 20
3.58984E+001
 11
2.87323E+002
 21
5.3705E+001
  0
LINE
  8
MED-1
  6
CONTINUOUS
 62
3
 10
2.87323E+002
 20
5.3705E+001
 11
4.0068E+002
 21
5.3705E+001
  0
LINE
  8
MED-1
  6
CONTINUOUS
 62
3
 10
4.0068E+002
 20
5.3705E+001
 11
4.0068E+002
 21
3.58984E+001
  0
TEXT
  8
2D_TEXT
  6
CONTINUOUS
 62
150
 10
3.1034373E+002
 20
4.1512573E+001
 40
3.5
  1
Benennung
 41
6.5000002E-001
 72
1
 11
3.0010623E+002
 21
3.9762573E+001
 73
2
  0
TEXT
  8
2D_TEXT
  6
CONTINUOUS
 62
150
 10
3.5435168E+002
 20
3.1956501E+001
 40
3.5
  1
Zng.Nr.
 41
6.4285716E-001
 72
1
 11
3.4647668E+002
 21
3.0206501E+001
 73
2
  0
TEXT
  8
2D_TEXT
  6
CONTINUOUS
 62
150
 10
2.9879783E+002
 20
3.2113159E+001
 40
3.5
  1
gez.
 41
6.1875002E-001
 72
1
 11
2.9446658E+002
 21
3.0363159E+001
 73
2
  0
TEXT
  8
2D_TEXT
  6
CONTINUOUS
 62
150
 10
3.0029241E+002
 20
2.2713747E+001
 40
3.5
  1
Datum
 41
6.3000002E-001
 72
1
 11
2.9477991E+002
 21
2.0963747E+001
 73
2
  0
LINE
  8
MED-1
  6
CONTINUOUS
 62
3
 10
3.7698E+002
 20
2.58984E+001
 11
3.7698E+002
 21
1.58984E+001
  0
LINE
  8
MED-1
  6
CONTINUOUS
 62
3
 10
2.87323E+002
 20
3.58984E+001
 11
4.0068E+002
 21
3.58984E+001
  0
LINE
  8
MED-1
  6
CONTINUOUS
 62
3
 10
4.0068E+002
 20
3.58984E+001
 11
4.0068E+002
 21
1.58984E+001
  0
LINE
  8
MED-1
  6
CONTINUOUS
 62
3
 10
4.0068E+002
 20
1.58984E+001
 11
2.87323E+002
 21
1.58984E+001
  0
LINE
  8
MED-1
  6
CONTINUOUS
 62
3
 10
2.87323E+002
 20
1.58984E+001
 11
2.87323E+002
 21
3.58984E+001
  0
LINE
  8
MED-1
  6
CONTINUOUS
 62
3
 10
3.37133E+002
 20
3.58984E+001
 11
3.37133E+002
 21
1.58984E+001
  0
LINE
  8
MED-1
  6
CONTINUOUS
 62
3
 10
2.87323E+002
 20
2.58984E+001
 11
4.0068E+002
 21
2.58984E+001
  0
INSERT
  2
*TX83
  8
2D_TEXT
 10
3.199202E+002
 20
2.8191277E+001
 41
5.0E-001
 43
5.0E-001
 42
5.0E-001
  0
INSERT
  2
UUNEW01
  8
2D_SYMBOLE
 10
8.1950865
 20
9.014595
 50
2.7E+002
  0
ENDSEC
  0
EOF
