  0
SECTION
  2
HEADER
  9
$ACADVER
  1
AC1014
999
I-DEAS 11 NX Not Encoded
  9
$EXTMIN
 10
0.0
 20
0.0
  9
$EXTMAX
 10
5.94E+002
 20
4.2E+002
  9
$TEXTSIZE
 40
1.25E-001
  9
$LTSCALE
 40
1.0
  9
$CLAYER
  8
106
  9
$CECOLOR
 62
1
  9
$DIMASZ
 40
1.25E-001
  9
$DIMEXO
 40
6.25E-002
  9
$DIMDLI
 40
2.5E-001
  9
$DIMEXE
 40
1.25E-001
  9
$DIMTP
 40
5.0E-003
  9
$DIMTM
 40
-5.0E-003
  9
$DIMTXT
 40
3.0
  9
$DIMLIM
 70
0
  9
$DIMTIH
 70
1
  9
$DIMTOH
 70
1
  9
$DIMSE1
 70
0
  9
$DIMSE2
 70
0
  9
$DIMTAD
 70
0
  9
$DIMASO
 70
1
  9
$DIMALT
 70
0
  9
$DIMALTD
 70
0
  9
$DIMTOFL
 70
1
  9
$DIMTIX
 70
0
  9
$DIMSAH
 70
0
  9
$DIMTFAC
 40
1.0
  9
$DIMGAP
 40
6.25E-002
  9
$LUNITS
 70
2
  9
$LUPREC
 70
3
  9
$FILLETRAD
 40
2.0
  9
$AUNITS
 70
0
  9
$AUPREC
 70
1
  9
$CHAMFERA
 40
1.0E+001
  9
$CHAMFERB
 40
1.0E+001
  9
$ANGBASE
 50
0.0
  9
$ANGDIR
 70
0
  9
$PEXTMIN
 10
0.0
 20
0.0
 30
0.0
  9
$PEXTMAX
 10
5.94E+002
 20
4.2E+002
 30
0.0
  9
$PLIMMIN
 10
0.0
 20
0.0
  9
$PLIMMAX
 10
5.94E+002
 20
4.2E+002
  9
$PDMODE
 70
2
  9
$PDSIZE
 40
-1.0E-002
  9
$SPLINETYPE
 70
6
  9
$TILEMODE
 70
0
  9
$HANDLING
 70
1
  9
$HANDSEED
  5
f4240
  0
ENDSEC
  0
SECTION
  2
TABLES
  0
TABLE
  2
VPORT
  5
64
100
AcDbSymbolTable
 70
2
  0
VPORT
  5
65
100
AcDbSymbolTableRecord
100
AcDbViewportTableRecord
  2
*Active
 70
0
 10
0.0
 20
0.0
 11
5.94E+002
 21
4.2E+002
 12
2.97E+002
 22
2.1E+002
 13
0.0
 23
0.0
 14
1.0
 24
1.0
 15
0.0
 25
0.0
 16
0.0
 26
0.0
 36
1.0
 17
0.0
 27
0.0
 37
0.0
 40
4.2E+002
 41
1.4142857
 42
5.0E+001
 43
0.0
 44
0.0
 50
0.0
 51
0.0
 71
0
 72
1000
 73
1
 74
3
 75
0
 76
0
 77
0
 78
0
  0
ENDTAB
  0
TABLE
  2
LTYPE
  5
66
100
AcDbSymbolTable
 70
7
  0
LTYPE
  5
67
100
AcDbSymbolTableRecord
100
AcDbLinetypeTableRecord
  2
BYBLOCK
 70
0
  3

 72
65
 73
0
 40
0.0
  0
LTYPE
  5
68
100
AcDbSymbolTableRecord
100
AcDbLinetypeTableRecord
  2
BYLAYER
 70
0
  3

 72
65
 73
0
 40
0.0
  0
LTYPE
  5
69
100
AcDbSymbolTableRecord
100
AcDbLinetypeTableRecord
  2
CONTINUOUS
 70
0
  3

 72
65
 73
0
 40
0.0
  0
LTYPE
  5
6a
100
AcDbSymbolTableRecord
100
AcDbLinetypeTableRecord
  2
HIDDENNEW0
  3
_ 
 70
64
 72
65
 73
3
 40
4.5
 49
1.5
 74
0
 49
-1.5
 74
0
 49
1.5
 74
0
  0
LTYPE
  5
6b
100
AcDbSymbolTableRecord
100
AcDbLinetypeTableRecord
  2
HIDDENNEW1
  3
_ 
 70
64
 72
65
 73
3
 40
4.5
 49
1.5
 74
0
 49
-1.5
 74
0
 49
1.5
 74
0
  0
LTYPE
  5
6c
100
AcDbSymbolTableRecord
100
AcDbLinetypeTableRecord
  2
HIDDEN
  3
_ 
 70
64
 72
65
 73
3
 40
4.5
 49
1.5
 74
0
 49
-1.5
 74
0
 49
1.5
 74
0
  0
LTYPE
  5
6d
100
AcDbSymbolTableRecord
100
AcDbLinetypeTableRecord
  2
CENTERLINE
  3
_ 
 70
64
 72
65
 73
5
 40
3.0E+001
 49
1.2E+001
 74
0
 49
-1.5
 74
0
 49
3.0
 74
0
 49
-1.5
 74
0
 49
1.2E+001
 74
0
  0
LTYPE
  5
6e
100
AcDbSymbolTableRecord
100
AcDbLinetypeTableRecord
  2
PHANTOM
  3
_ 
 70
64
 72
65
 73
7
 40
2.95E+001
 49
9.5
 74
0
 49
-1.5
 74
0
 49
3.0
 74
0
 49
-1.5
 74
0
 49
3.0
 74
0
 49
-1.5
 74
0
 49
9.5
 74
0
  0
LTYPE
  5
6f
100
AcDbSymbolTableRecord
100
AcDbLinetypeTableRecord
  2
SHORT_DASH
  3
_ 
 70
64
 72
65
 73
3
 40
3.0
 49
7.5E-001
 74
0
 49
-1.5
 74
0
 49
7.5E-001
 74
0
  0
LTYPE
  5
70
100
AcDbSymbolTableRecord
100
AcDbLinetypeTableRecord
  2
LONG_DASH
  3
_ 
 70
64
 72
65
 73
3
 40
9.0
 49
2.25
 74
0
 49
-4.5
 74
0
 49
2.25
 74
0
  0
ENDTAB
  0
TABLE
  2
LAYER
  5
71
100
AcDbSymbolTable
 70
258
  0
LAYER
  5
72
100
AcDbSymbolTableRecord
100
AcDbLayerTableRecord
  2
0
 70
0
 62
7
  6
CONTINUOUS
  0
LAYER
  5
73
100
AcDbSymbolTableRecord
100
AcDbLayerTableRecord
  2
1
 70
0
 62
7
  6
CONTINUOUS
  0
LAYER
  5
74
100
AcDbSymbolTableRecord
100
AcDbLayerTableRecord
  2
Drafting_Hidden_Entities
 70
1
 62
7
  6
CONTINUOUS
  0
ENDTAB
  0
TABLE
  2
STYLE
  5
75
100
AcDbSymbolTable
 70
1
  0
STYLE
  5
76
100
AcDbSymbolTableRecord
100
AcDbTextStyleTableRecord
  2
STANDARD
 70
64
 40
0.0
 41
1.0
 50
0.0
 71
0
 42
1.0
  3
monotxt.shx
  4

  0
ENDTAB
  0
TABLE
  2
VIEW
  5
77
100
AcDbSymbolTable
 70
0
  0
ENDTAB
  0
TABLE
  2
UCS
  5
78
100
AcDbSymbolTable
 70
0
  0
ENDTAB
  0
TABLE
  2
APPID
  5
79
100
AcDbSymbolTable
 70
1
  0
APPID
  5
7a
100
AcDbSymbolTableRecord
100
AcDbRegAppTableRecord
  2
ACAD
 70
1
  0
ENDTAB
  0
TABLE
  2
DIMSTYLE
  5
7b
100
AcDbSymbolTable
 70
3
  0
DIMSTYLE
105
7c
100
AcDbSymbolTableRecord
100
AcDbDimStyleTableRecord
  2
DSTYLE1
 70
0
  3

  4

  5

  6

  7

 40
1.0
 41
8.0
 42
0.0
 43
3.8E-001
 44
3.0
 45
1.0E-003
 46
0.0
 47
1.0E-001
 48
1.0E-001
 71
0
 72
0
 73
0
 74
0
 75
0
 76
0
 77
1
 78
11
140
7.0
141
9.0E-002
142
0.0
143
3.9370079E-002
144
1.0
145
0.0
146
1.0
147
3.0
170
0
171
2
172
0
173
0
174
0
175
0
176
0
177
0
178
0
270
2
271
3
272
4
273
2
274
2
275
0
280
0
281
0
282
0
283
1
284
0
285
0
286
0
287
3
288
0
  0
DIMSTYLE
105
7d
100
AcDbSymbolTableRecord
100
AcDbDimStyleTableRecord
  2
DSTYLE2
 70
0
  3

  4

  5

  6

  7

 40
1.0
 41
8.0
 42
0.0
 43
3.8E-001
 44
1.5
 45
1.0E-003
 46
0.0
 47
1.0E-001
 48
1.0E-001
 71
0
 72
0
 73
0
 74
0
 75
0
 76
0
 77
1
 78
11
140
1.0E+001
141
9.0E-002
142
0.0
143
3.9370079E-002
144
1.0
145
0.0
146
1.0
147
1.5
170
0
171
2
172
0
173
0
174
0
175
0
176
0
177
0
178
0
270
2
271
3
272
4
273
2
274
2
275
0
280
0
281
0
282
0
283
1
284
0
285
0
286
0
287
3
288
0
  0
DIMSTYLE
105
7e
100
AcDbSymbolTableRecord
100
AcDbDimStyleTableRecord
  2
DSTYLE3
 70
0
  3

  4

  5

  6

  7

 40
1.0
 41
8.0
 42
0.0
 43
3.8E-001
 44
1.5
 45
0.0
 46
0.0
 47
1.0E-001
 48
1.0E-001
 71
0
 72
0
 73
0
 74
0
 75
0
 76
0
 77
1
 78
11
140
1.0E+001
141
9.0E-002
142
0.0
143
3.9370079E-002
144
1.0
145
0.0
146
1.0
147
1.5
170
0
171
2
172
0
173
0
174
0
175
0
176
0
177
0
178
0
270
2
271
0
272
4
273
2
274
2
275
0
280
0
281
0
282
0
283
1
284
0
285
0
286
0
287
3
288
0
  0
ENDTAB
  0
TABLE
  2
BLOCK_RECORD
  5
7f
100
AcDbSymbolTable
 70
0
  0
BLOCK_RECORD
  5
80
100
AcDbSymbolTableRecord
100
AcDbBlockTableRecord
  2
*MODEL_SPACE
  0
BLOCK_RECORD
  5
81
100
AcDbSymbolTableRecord
100
AcDbBlockTableRecord
  2
*PAPER_SPACE
  0
BLOCK_RECORD
  5
82
100
AcDbSymbolTableRecord
100
AcDbBlockTableRecord
  2
*D270
  0
BLOCK_RECORD
  5
83
100
AcDbSymbolTableRecord
100
AcDbBlockTableRecord
  2
*D614
  0
BLOCK_RECORD
  5
84
100
AcDbSymbolTableRecord
100
AcDbBlockTableRecord
  2
*D615
  0
BLOCK_RECORD
  5
85
100
AcDbSymbolTableRecord
100
AcDbBlockTableRecord
  2
*D616
  0
BLOCK_RECORD
  5
86
100
AcDbSymbolTableRecord
100
AcDbBlockTableRecord
  2
*D617
  0
BLOCK_RECORD
  5
87
100
AcDbSymbolTableRecord
100
AcDbBlockTableRecord
  2
*D618
  0
BLOCK_RECORD
  5
88
100
AcDbSymbolTableRecord
100
AcDbBlockTableRecord
  2
*D619
  0
BLOCK_RECORD
  5
89
100
AcDbSymbolTableRecord
100
AcDbBlockTableRecord
  2
*D620
  0
BLOCK_RECORD
  5
8a
100
AcDbSymbolTableRecord
100
AcDbBlockTableRecord
  2
*D622
  0
BLOCK_RECORD
  5
8b
100
AcDbSymbolTableRecord
100
AcDbBlockTableRecord
  2
*D624
  0
BLOCK_RECORD
  5
8c
100
AcDbSymbolTableRecord
100
AcDbBlockTableRecord
  2
*D625
  0
BLOCK_RECORD
  5
8d
100
AcDbSymbolTableRecord
100
AcDbBlockTableRecord
  2
*D626
  0
BLOCK_RECORD
  5
8e
100
AcDbSymbolTableRecord
100
AcDbBlockTableRecord
  2
*D1290
  0
BLOCK_RECORD
  5
8f
100
AcDbSymbolTableRecord
100
AcDbBlockTableRecord
  2
*D1291
  0
BLOCK_RECORD
  5
90
100
AcDbSymbolTableRecord
100
AcDbBlockTableRecord
  2
*D1473
  0
BLOCK_RECORD
  5
91
100
AcDbSymbolTableRecord
100
AcDbBlockTableRecord
  2
*D1474
  0
BLOCK_RECORD
  5
92
100
AcDbSymbolTableRecord
100
AcDbBlockTableRecord
  2
*D1479
  0
BLOCK_RECORD
  5
93
100
AcDbSymbolTableRecord
100
AcDbBlockTableRecord
  2
*D1480
  0
BLOCK_RECORD
  5
94
100
AcDbSymbolTableRecord
100
AcDbBlockTableRecord
  2
*D1481
  0
BLOCK_RECORD
  5
95
100
AcDbSymbolTableRecord
100
AcDbBlockTableRecord
  2
*D1482
  0
BLOCK_RECORD
  5
96
100
AcDbSymbolTableRecord
100
AcDbBlockTableRecord
  2
*D1483
  0
BLOCK_RECORD
  5
97
100
AcDbSymbolTableRecord
100
AcDbBlockTableRecord
  2
*D1485
  0
BLOCK_RECORD
  5
98
100
AcDbSymbolTableRecord
100
AcDbBlockTableRecord
  2
*D1760
  0
BLOCK_RECORD
  5
99
100
AcDbSymbolTableRecord
100
AcDbBlockTableRecord
  2
*D1761
  0
BLOCK_RECORD
  5
9a
100
AcDbSymbolTableRecord
100
AcDbBlockTableRecord
  2
*D1862
  0
BLOCK_RECORD
  5
9b
100
AcDbSymbolTableRecord
100
AcDbBlockTableRecord
  2
*D1863
  0
BLOCK_RECORD
  5
9c
100
AcDbSymbolTableRecord
100
AcDbBlockTableRecord
  2
*D1867
  0
BLOCK_RECORD
  5
9d
100
AcDbSymbolTableRecord
100
AcDbBlockTableRecord
  2
*D1868
  0
BLOCK_RECORD
  5
9e
100
AcDbSymbolTableRecord
100
AcDbBlockTableRecord
  2
*D1870
  0
BLOCK_RECORD
  5
9f
100
AcDbSymbolTableRecord
100
AcDbBlockTableRecord
  2
_AH1
  0
BLOCK_RECORD
  5
a0
100
AcDbSymbolTableRecord
100
AcDbBlockTableRecord
  2
_AH2
  0
BLOCK_RECORD
  5
a1
100
AcDbSymbolTableRecord
100
AcDbBlockTableRecord
  2
_AH12
  3
_AH
  0
BLOCK_RECORD
  5
a2
100
AcDbSymbolTableRecord
100
AcDbBlockTableRecord
  2
_AH13
  3
_AH
  0
BLOCK_RECORD
  5
a3
100
AcDbSymbolTableRecord
100
AcDbBlockTableRecord
  2
_AH14
  3
_AH
  0
BLOCK_RECORD
  5
a4
100
AcDbSymbolTableRecord
100
AcDbBlockTableRecord
  2
_AH15
  3
_AH
  0
BLOCK_RECORD
  5
a5
100
AcDbSymbolTableRecord
100
AcDbBlockTableRecord
  2
_AH16
  3
_AH
  0
BLOCK_RECORD
  5
a6
100
AcDbSymbolTableRecord
100
AcDbBlockTableRecord
  2
_AH17
  3
_AH
  0
BLOCK_RECORD
  5
a7
100
AcDbSymbolTableRecord
100
AcDbBlockTableRecord
  2
_AH18
  3
_AH
  0
BLOCK_RECORD
  5
a8
100
AcDbSymbolTableRecord
100
AcDbBlockTableRecord
  2
_AH19
  3
_AH
  0
BLOCK_RECORD
  5
a9
100
AcDbSymbolTableRecord
100
AcDbBlockTableRecord
  2
_AH20
  3
_AH
  0
BLOCK_RECORD
  5
aa
100
AcDbSymbolTableRecord
100
AcDbBlockTableRecord
  2
_AH21
  3
_AH
  0
BLOCK_RECORD
  5
ab
100
AcDbSymbolTableRecord
100
AcDbBlockTableRecord
  2
_NEW00
  0
BLOCK_RECORD
  5
ac
100
AcDbSymbolTableRecord
100
AcDbBlockTableRecord
  2
GGBN
  0
BLOCK_RECORD
  5
ad
100
AcDbSymbolTableRecord
100
AcDbBlockTableRecord
  2
IIKM
  0
BLOCK_RECORD
  5
ae
100
AcDbSymbolTableRecord
100
AcDbBlockTableRecord
  2
NNM
  0
BLOCK_RECORD
  5
af
100
AcDbSymbolTableRecord
100
AcDbBlockTableRecord
  2
JJNMK
  0
BLOCK_RECORD
  5
b0
100
AcDbSymbolTableRecord
100
AcDbBlockTableRecord
  2
UUI
  0
BLOCK_RECORD
  5
b1
100
AcDbSymbolTableRecord
100
AcDbBlockTableRecord
  2
JJNMKNEW00
  0
BLOCK_RECORD
  5
b2
100
AcDbSymbolTableRecord
100
AcDbBlockTableRecord
  2
HHJK
  0
BLOCK_RECORD
  5
b3
100
AcDbSymbolTableRecord
100
AcDbBlockTableRecord
  2
HHN
  0
BLOCK_RECORD
  5
b4
100
AcDbSymbolTableRecord
100
AcDbBlockTableRecord
  2
IIUO
  0
BLOCK_RECORD
  5
b5
100
AcDbSymbolTableRecord
100
AcDbBlockTableRecord
  2
BBNM
  0
BLOCK_RECORD
  5
b6
100
AcDbSymbolTableRecord
100
AcDbBlockTableRecord
  2
HH
  0
BLOCK_RECORD
  5
b7
100
AcDbSymbolTableRecord
100
AcDbBlockTableRecord
  2
UUIR
  0
BLOCK_RECORD
  5
b8
100
AcDbSymbolTableRecord
100
AcDbBlockTableRecord
  2
*TX88
  3
*TX
  0
BLOCK_RECORD
  5
b9
100
AcDbSymbolTableRecord
100
AcDbBlockTableRecord
  2
*TX89
  3
*TX
  0
ENDTAB
  0
ENDSEC
  0
SECTION
  2
BLOCKS
  0
BLOCK
  5
ba
100
AcDbEntity
100
AcDbBlockBegin
  2
*MODEL_SPACE
 70
0
 10
0.0
 20
0.0
 30
0.0
  3
*MODEL_SPACE
  1

  0
ENDBLK
  5
bb
100
AcDbEntity
100
AcDbBlockEnd
  0
BLOCK
  5
bc
100
AcDbEntity
100
AcDbBlockBegin
  2
*PAPER_SPACE
 70
0
 10
0.0
 20
0.0
 30
0.0
  3
*PAPER_SPACE
  1

  0
ENDBLK
  5
bd
100
AcDbEntity
100
AcDbBlockEnd
  0
BLOCK
  5
be
100
AcDbEntity
100
AcDbBlockBegin
  2
_AH12
  3
_AH
 10
0.0
 20
0.0
 70
64
  0
LINE
  5
bf
100
AcDbEntity
  8
0
100
AcDbLine
  6
CONTINUOUS
 62
0
 10
0.0
 20
0.0
 11
1.0
 21
0.0
  0
LINE
  5
c0
100
AcDbEntity
  8
0
100
AcDbLine
  6
CONTINUOUS
 62
0
 10
0.0
 20
0.0
 11
-1.0
 21
0.0
  0
ENDBLK
  5
c1
100
AcDbEntity
100
AcDbBlockEnd
  0
BLOCK
  5
c2
100
AcDbEntity
100
AcDbBlockBegin
  2
_AH13
  3
_AH
 10
0.0
 20
0.0
 70
64
  0
SOLID
  5
c3
100
AcDbEntity
  8
0
100
AcDbTrace
  6
CONTINUOUS
 62
0
 10
0.0
 20
0.0
 11
1.0
 21
-1.66667E-001
 12
1.0
 22
1.66667E-001
 13
0.0
 23
0.0
  0
ENDBLK
  5
c4
100
AcDbEntity
100
AcDbBlockEnd
  0
BLOCK
  5
c5
100
AcDbEntity
100
AcDbBlockBegin
  2
_AH14
  3
_AH
 10
0.0
 20
0.0
 70
64
  0
ENDBLK
  5
c6
100
AcDbEntity
100
AcDbBlockEnd
  0
BLOCK
  5
c7
100
AcDbEntity
100
AcDbBlockBegin
  2
_AH15
  3
_AH
 10
0.0
 20
0.0
 70
64
  0
CIRCLE
  5
c8
100
AcDbEntity
  8
0
100
AcDbCircle
  6
CONTINUOUS
 62
0
 10
0.0
 20
0.0
 40
1.66667E-001
  0
LINE
  5
c9
100
AcDbEntity
  8
0
100
AcDbLine
  6
CONTINUOUS
 62
0
 10
0.0
 20
0.0
 11
-1.0
 21
0.0
  0
ENDBLK
  5
ca
100
AcDbEntity
100
AcDbBlockEnd
  0
BLOCK
  5
cb
100
AcDbEntity
100
AcDbBlockBegin
  2
_AH16
  3
_AH
 10
0.0
 20
0.0
 70
64
  0
POLYLINE
  5
cc
100
AcDbEntity
  8
0
100
AcDb2dPolyline
  6
CONTINUOUS
 62
0
 66
1
 40
0.0
 41
0.0
 70
0
  0
VERTEX
  5
cd
100
AcDbEntity
  8
0
100
AcDbVertex
100
AcDb2dVertex
 42
1.0
 10
8.3335E-002
 20
0.0
 70
0
  0
VERTEX
  5
ce
100
AcDbEntity
  8
0
100
AcDbVertex
100
AcDb2dVertex
 42
1.0
 10
-8.3335E-002
 20
0.0
 70
0
  0
VERTEX
  5
cf
100
AcDbEntity
  8
0
100
AcDbVertex
100
AcDb2dVertex
 42
0.0
 10
8.3335E-002
 20
0.0
 70
0
  0
SEQEND
  5
d0
100
AcDbEntity
  0
LINE
  5
d1
100
AcDbEntity
  8
0
100
AcDbLine
  6
CONTINUOUS
 62
0
 10
0.0
 20
0.0
 11
-1.0
 21
0.0
  0
ENDBLK
  5
d2
100
AcDbEntity
100
AcDbBlockEnd
  0
BLOCK
  5
d3
100
AcDbEntity
100
AcDbBlockBegin
  2
_AH17
  3
_AH
 10
0.0
 20
0.0
 70
64
  0
LINE
  5
d4
100
AcDbEntity
  8
0
100
AcDbLine
  6
CONTINUOUS
 62
0
 10
-1.66667E-001
 20
-1.66667E-001
 11
1.66667E-001
 21
-1.66667E-001
  0
LINE
  5
d5
100
AcDbEntity
  8
0
100
AcDbLine
  6
CONTINUOUS
 62
0
 10
1.66667E-001
 20
-1.66667E-001
 11
1.66667E-001
 21
1.66667E-001
  0
LINE
  5
d6
100
AcDbEntity
  8
0
100
AcDbLine
  6
CONTINUOUS
 62
0
 10
1.66667E-001
 20
1.66667E-001
 11
-1.66667E-001
 21
1.66667E-001
  0
LINE
  5
d7
100
AcDbEntity
  8
0
100
AcDbLine
  6
CONTINUOUS
 62
0
 10
-1.66667E-001
 20
1.66667E-001
 11
-1.66667E-001
 21
-1.66667E-001
  0
LINE
  5
d8
100
AcDbEntity
  8
0
100
AcDbLine
  6
CONTINUOUS
 62
0
 10
0.0
 20
0.0
 11
-1.0
 21
0.0
  0
ENDBLK
  5
d9
100
AcDbEntity
100
AcDbBlockEnd
  0
BLOCK
  5
da
100
AcDbEntity
100
AcDbBlockBegin
  2
_AH18
  3
_AH
 10
0.0
 20
0.0
 70
64
  0
SOLID
  5
db
100
AcDbEntity
  8
0
100
AcDbTrace
  6
CONTINUOUS
 62
0
 10
-1.66667E-001
 20
-1.66667E-001
 11
1.66667E-001
 21
-1.66667E-001
 12
-1.66667E-001
 22
1.66667E-001
 13
1.66667E-001
 23
1.66667E-001
  0
LINE
  5
dc
100
AcDbEntity
  8
0
100
AcDbLine
  6
CONTINUOUS
 62
0
 10
0.0
 20
0.0
 11
-1.0
 21
0.0
  0
ENDBLK
  5
dd
100
AcDbEntity
100
AcDbBlockEnd
  0
BLOCK
  5
de
100
AcDbEntity
100
AcDbBlockBegin
  2
_AH19
  3
_AH
 10
0.0
 20
0.0
 70
64
  0
LINE
  5
df
100
AcDbEntity
  8
0
100
AcDbLine
  6
CONTINUOUS
 62
0
 10
-5.0E-001
 20
-5.0E-001
 11
5.0E-001
 21
5.0E-001
  0
LINE
  5
e0
100
AcDbEntity
  8
0
100
AcDbLine
  6
CONTINUOUS
 62
0
 10
0.0
 20
0.0
 11
-1.0
 21
0.0
  0
ENDBLK
  5
e1
100
AcDbEntity
100
AcDbBlockEnd
  0
BLOCK
  5
e2
100
AcDbEntity
100
AcDbBlockBegin
  2
_AH20
  3
_AH
 10
0.0
 20
0.0
 70
64
  0
POLYLINE
  5
e3
100
AcDbEntity
  8
0
100
AcDb2dPolyline
  6
CONTINUOUS
 62
0
 66
1
 40
5.0E-001
 41
5.0E-001
 70
0
  0
VERTEX
  5
e4
100
AcDbEntity
  8
0
100
AcDbVertex
100
AcDb2dVertex
 42
4.1421356E-001
 10
-1.66667E-001
 20
-1.66667E-001
 70
0
  0
VERTEX
  5
e5
100
AcDbEntity
  8
0
100
AcDbVertex
100
AcDb2dVertex
 42
0.0
 10
0.0
 20
0.0
 70
0
  0
SEQEND
  5
e6
100
AcDbEntity
  0
POLYLINE
  5
e7
100
AcDbEntity
  8
0
100
AcDb2dPolyline
  6
CONTINUOUS
 62
0
 66
1
 40
5.0E-001
 41
5.0E-001
 70
0
  0
VERTEX
  5
e8
100
AcDbEntity
  8
0
100
AcDbVertex
100
AcDb2dVertex
 42
4.1421356E-001
 10
1.66667E-001
 20
1.66667E-001
 70
0
  0
VERTEX
  5
e9
100
AcDbEntity
  8
0
100
AcDbVertex
100
AcDb2dVertex
 42
0.0
 10
0.0
 20
0.0
 70
0
  0
SEQEND
  5
ea
100
AcDbEntity
  0
LINE
  5
eb
100
AcDbEntity
  8
0
100
AcDbLine
  6
CONTINUOUS
 62
0
 10
0.0
 20
0.0
 11
-1.0
 21
0.0
  0
ENDBLK
  5
ec
100
AcDbEntity
100
AcDbBlockEnd
  0
BLOCK
  5
ed
100
AcDbEntity
100
AcDbBlockBegin
  2
_AH21
  3
_AH
 10
0.0
 20
0.0
 70
64
  0
LINE
  5
ee
100
AcDbEntity
  8
0
100
AcDbLine
  6
CONTINUOUS
 62
0
 10
0.0
 20
0.0
 11
-1.0
 21
-1.66667E-001
  0
LINE
  5
ef
100
AcDbEntity
  8
0
100
AcDbLine
  6
CONTINUOUS
 62
0
 10
-1.0
 20
-1.66667E-001
 11
-1.0
 21
1.66667E-001
  0
LINE
  5
f0
100
AcDbEntity
  8
0
100
AcDbLine
  6
CONTINUOUS
 62
0
 10
-1.0
 20
1.66667E-001
 11
0.0
 21
0.0
  0
ENDBLK
  5
f1
100
AcDbEntity
100
AcDbBlockEnd
  0
BLOCK
  5
f2
100
AcDbEntity
100
AcDbBlockBegin
  2
_NEW00
 10
0.0
 20
0.0
 70
0
  0
TEXT
  5
f3
100
AcDbEntity
  8
103
100
AcDbText
  6
CONTINUOUS
 62
40
 10
1.4306884E+002
 20
2.4691481E+001
 40
1.0E+001
  1
p450404.she
 41
6.5454545E-001
 72
1
 11
1.7906884E+002
 21
2.9691481E+001
100
AcDbText
 73
2
  0
TEXT
  5
f4
100
AcDbEntity
  8
103
100
AcDbText
  6
CONTINUOUS
 62
150
 10
1.0370683E+002
 20
5.9179026
 40
7.0
  1
Maßstab:
 41
6.4687502E-001
 72
1
 11
1.2181933E+002
 21
9.4179026
100
AcDbText
 73
2
  0
LINE
  5
f5
100
AcDbEntity
  8
1
100
AcDbLine
  6
CONTINUOUS
 62
3
 10
0.0
 20
4.0E+001
 11
0.0
 21
7.56132E+001
  0
LINE
  5
f6
100
AcDbEntity
  8
1
100
AcDbLine
  6
CONTINUOUS
 62
3
 10
0.0
 20
7.56132E+001
 11
2.26714E+002
 21
7.56132E+001
  0
LINE
  5
f7
100
AcDbEntity
  8
1
100
AcDbLine
  6
CONTINUOUS
 62
3
 10
2.26714E+002
 20
7.56132E+001
 11
2.26714E+002
 21
4.0E+001
  0
TEXT
  5
f8
100
AcDbEntity
  8
103
100
AcDbText
  6
CONTINUOUS
 62
40
 10
5.4736656E+001
 20
5.9168662E+001
 40
1.0E+001
  1
Sturzmontage BG
 41
6.6176471E-001
100
AcDbText
  0
TEXT
  5
f9
100
AcDbEntity
  8
103
100
AcDbText
  6
CONTINUOUS
 62
150
 10
1.0255737E+002
 20
2.5116202E+001
 40
7.0
  1
Zng.Nr.
 41
6.4285716E-001
 72
1
 11
1.1830737E+002
 21
2.8616202E+001
100
AcDbText
 73
2
  0
TEXT
  5
fa
100
AcDbEntity
  8
103
100
AcDbText
  6
CONTINUOUS
 62
40
 10
4.0108944E+001
 20
2.486946E+001
 40
1.0E+001
  1
M.Schell
 41
6.46875E-001
 72
1
 11
6.5983944E+001
 21
2.986946E+001
100
AcDbText
 73
2
  0
TEXT
  5
fb
100
AcDbEntity
  8
103
100
AcDbText
  6
CONTINUOUS
 62
150
 10
5.6246662
 20
2.5429518E+001
 40
7.0
  1
gez.
 41
6.1875002E-001
 72
1
 11
1.4287167E+001
 21
2.8929518E+001
100
AcDbText
 73
2
  0
TEXT
  5
fc
100
AcDbEntity
  8
103
100
AcDbText
  6
CONTINUOUS
 62
150
 10
3.8888141
 20
6.630694
 40
7.0
  1
Datum
 41
6.3000002E-001
 72
1
 11
1.4913814E+001
 21
1.0130694E+001
100
AcDbText
 73
2
  0
TEXT
  5
fd
100
AcDbEntity
  8
103
100
AcDbText
  6
CONTINUOUS
 62
40
 10
1.4472375E+002
 20
5.0314738
 40
1.0E+001
  1
1:2
 41
6.0E-001
 72
1
 11
1.5372375E+002
 21
1.0031474E+001
100
AcDbText
 73
2
  0
LINE
  5
fe
100
AcDbEntity
  8
1
100
AcDbLine
  6
CONTINUOUS
 62
3
 10
1.79314E+002
 20
2.0E+001
 11
1.79314E+002
 21
0.0
  0
TEXT
  5
ff
100
AcDbEntity
  8
103
100
AcDbText
  6
CONTINUOUS
 62
40
 10
1.9314953E+002
 20
5.4426981
 40
1.0E+001
  1
A 3
 41
6.0E-001
 72
1
 11
2.0214953E+002
 21
1.0442698E+001
100
AcDbText
 73
2
  0
LINE
  5
100
100
AcDbEntity
  8
1
100
AcDbLine
  6
CONTINUOUS
 62
3
 10
0.0
 20
4.0E+001
 11
2.26714E+002
 21
4.0E+001
  0
LINE
  5
101
100
AcDbEntity
  8
1
100
AcDbLine
  6
CONTINUOUS
 62
3
 10
2.26714E+002
 20
4.0E+001
 11
2.26714E+002
 21
0.0
  0
LINE
  5
102
100
AcDbEntity
  8
1
100
AcDbLine
  6
CONTINUOUS
 62
3
 10
2.26714E+002
 20
0.0
 11
0.0
 21
0.0
  0
LINE
  5
103
100
AcDbEntity
  8
1
100
AcDbLine
  6
CONTINUOUS
 62
3
 10
0.0
 20
0.0
 11
0.0
 21
4.0E+001
  0
LINE
  5
104
100
AcDbEntity
  8
1
100
AcDbLine
  6
CONTINUOUS
 62
3
 10
9.962E+001
 20
4.0E+001
 11
9.962E+001
 21
0.0
  0
LINE
  5
105
100
AcDbEntity
  8
1
100
AcDbLine
  6
CONTINUOUS
 62
3
 10
0.0
 20
2.0E+001
 11
2.26714E+002
 21
2.0E+001
  0
TEXT
  5
106
100
AcDbEntity
  8
103
100
AcDbText
  6
CONTINUOUS
 62
150
 10
1.0370683E+002
 20
5.9179026
 40
7.0
  1
Maßstab:
 41
6.4687502E-001
 72
1
 11
1.2181933E+002
 21
9.4179026
100
AcDbText
 73
2
  0
LINE
  5
107
100
AcDbEntity
  8
1
100
AcDbLine
  6
CONTINUOUS
 62
3
 10
0.0
 20
4.0E+001
 11
0.0
 21
7.56132E+001
  0
LINE
  5
108
100
AcDbEntity
  8
1
100
AcDbLine
  6
CONTINUOUS
 62
3
 10
0.0
 20
7.56132E+001
 11
2.26714E+002
 21
7.56132E+001
  0
LINE
  5
109
100
AcDbEntity
  8
1
100
AcDbLine
  6
CONTINUOUS
 62
3
 10
2.26714E+002
 20
7.56132E+001
 11
2.26714E+002
 21
4.0E+001
  0
TEXT
  5
10a
100
AcDbEntity
  8
103
100
AcDbText
  6
CONTINUOUS
 62
150
 10
5.0914628
 20
4.4228346E+001
 40
7.0
  1
Benennung
 41
6.5000002E-001
 72
1
 11
2.5566463E+001
 21
4.7728346E+001
100
AcDbText
 73
2
  0
TEXT
  5
10b
100
AcDbEntity
  8
103
100
AcDbText
  6
CONTINUOUS
 62
150
 10
1.0255737E+002
 20
2.5116202E+001
 40
7.0
  1
Zng.Nr.
 41
6.4285716E-001
 72
1
 11
1.1830737E+002
 21
2.8616202E+001
100
AcDbText
 73
2
  0
TEXT
  5
10c
100
AcDbEntity
  8
103
100
AcDbText
  6
CONTINUOUS
 62
150
 10
5.6246662
 20
2.5429518E+001
 40
7.0
  1
gez.
 41
6.1875002E-001
 72
1
 11
1.4287167E+001
 21
2.8929518E+001
100
AcDbText
 73
2
  0
TEXT
  5
10d
100
AcDbEntity
  8
103
100
AcDbText
  6
CONTINUOUS
 62
150
 10
3.8888141
 20
6.630694
 40
7.0
  1
Datum
 41
6.3000002E-001
 72
1
 11
1.4913814E+001
 21
1.0130694E+001
100
AcDbText
 73
2
  0
LINE
  5
10e
100
AcDbEntity
  8
1
100
AcDbLine
  6
CONTINUOUS
 62
3
 10
1.79314E+002
 20
2.0E+001
 11
1.79314E+002
 21
0.0
  0
LINE
  5
10f
100
AcDbEntity
  8
1
100
AcDbLine
  6
CONTINUOUS
 62
3
 10
0.0
 20
4.0E+001
 11
2.26714E+002
 21
4.0E+001
  0
LINE
  5
110
100
AcDbEntity
  8
1
100
AcDbLine
  6
CONTINUOUS
 62
3
 10
2.26714E+002
 20
4.0E+001
 11
2.26714E+002
 21
0.0
  0
LINE
  5
111
100
AcDbEntity
  8
1
100
AcDbLine
  6
CONTINUOUS
 62
3
 10
2.26714E+002
 20
0.0
 11
0.0
 21
0.0
  0
LINE
  5
112
100
AcDbEntity
  8
1
100
AcDbLine
  6
CONTINUOUS
 62
3
 10
0.0
 20
0.0
 11
0.0
 21
4.0E+001
  0
LINE
  5
113
100
AcDbEntity
  8
1
100
AcDbLine
  6
CONTINUOUS
 62
3
 10
9.962E+001
 20
4.0E+001
 11
9.962E+001
 21
0.0
  0
LINE
  5
114
100
AcDbEntity
  8
1
100
AcDbLine
  6
CONTINUOUS
 62
3
 10
0.0
 20
2.0E+001
 11
2.26714E+002
 21
2.0E+001
  0
INSERT
  5
115
100
AcDbEntity
100
AcDbBlockReference
  2
*TX88
  8
103
 10
6.5194393E+001
 20
2.4585753E+001
  0
POINT
  5
116
100
AcDbEntity
  8
Drafting_Hidden_Entities
100
AcDbPoint
  6
CONTINUOUS
 62
1
 10
0.0
 20
0.0
  0
ENDBLK
  5
117
100
AcDbEntity
100
AcDbBlockEnd
  0
BLOCK
  5
118
100
AcDbEntity
100
AcDbBlockBegin
  2
GGBN
 10
0.0
 20
0.0
 70
0
  0
ARC
  5
119
100
AcDbEntity
  8
104
100
AcDbCircle
  6
CONTINUOUS
 62
40
 10
4.7435303
 20
1.2936743E+001
 40
5.079744E+001
100
AcDbArc
 50
2.8463554E+001
 51
9.3299101E+001
  0
ARC
  5
11a
100
AcDbEntity
  8
104
100
AcDbCircle
  6
CONTINUOUS
 62
40
 10
4.8519835E+001
 20
3.6673236E+001
 40
1.0
100
AcDbArc
 50
7.5E-001
 51
2.8264922E+001
  0
SPLINE
  5
11b
100
AcDbEntity
  8
104
100
AcDbSpline
  6
CONTINUOUS
 62
40
210
0.0
220
0.0
230
0.0
 70
0
 71
3
 72
16
 73
12
 74
0
 42
1.0E-007
 43
1.0E-007
 44
0.0
 40
0.0
 40
0.0
 40
0.0
 40
0.0
 40
2.5E-001
 40
2.5E-001
 40
5.0E-001
 40
5.0E-001
 40
6.25E-001
 40
6.25E-001
 40
7.5E-001
 40
7.5E-001
 40
1.0
 40
1.0
 40
1.0
 40
1.0
 10
0.0
 20
0.0
 30
0.0
 10
6.4992205E-002
 20
4.9647551
 30
0.0
 10
1.2986477E-001
 20
9.920371
 30
0.0
 10
2.5880032E-001
 20
1.9769759E+001
 30
0.0
 10
3.2292473E-001
 20
2.4668223E+001
 30
0.0
 10
4.1860338E-001
 20
3.1977116E+001
 30
0.0
 10
4.5042314E-001
 20
3.4407828E+001
 30
0.0
 10
5.1370106E-001
 20
3.9241629E+001
 30
0.0
 10
5.4518242E-001
 20
4.164649E+001
 30
0.0
 10
6.3916008E-001
 20
4.8825445E+001
 30
0.0
 10
7.0119028E-001
 20
5.3563932E+001
 30
0.0
 10
7.6261019E-001
 20
5.82558E+001
 30
0.0
  0
SPLINE
  5
11c
100
AcDbEntity
  8
104
100
AcDbSpline
  6
CONTINUOUS
 62
40
210
0.0
220
0.0
230
0.0
 70
0
 71
3
 72
12
 73
8
 74
0
 42
1.0E-007
 43
1.0E-007
 44
0.0
 40
0.0
 40
0.0
 40
0.0
 40
0.0
 40
2.5E-001
 40
2.5E-001
 40
5.0E-001
 40
5.0E-001
 40
1.0
 40
1.0
 40
1.0
 40
1.0
 10
9.9948458E-001
 20
0.0
 30
0.0
 10
8.674306E-001
 20
0.0
 30
0.0
 10
7.3784786E-001
 20
0.0
 30
0.0
 10
4.9580612E-001
 20
0.0
 30
0.0
 10
3.8495768E-001
 20
0.0
 30
0.0
 10
1.0844568E-001
 20
0.0
 30
0.0
 10
0.0
 20
0.0
 30
0.0
 10
0.0
 20
0.0
 30
0.0
  0
SPLINE
  5
11d
100
AcDbEntity
  8
104
100
AcDbSpline
  6
CONTINUOUS
 62
40
210
1.2678418E-002
220
1.2678418E-002
230
1.2678418E-002
 70
0
 71
3
 72
10
 73
6
 74
0
 42
1.0E-007
 43
1.0E-007
 44
0.0
 40
1.2678418E-002
 40
1.2678418E-002
 40
1.2678418E-002
 40
1.2678418E-002
 40
7.3081469E-001
 40
7.3081469E-001
 40
9.8050387E-001
 40
9.8050387E-001
 40
9.8050387E-001
 40
9.8050387E-001
 10
4.9407536E+001
 20
0.0
 30
0.0
 10
3.8204825E+001
 20
0.0
 30
0.0
 10
2.6071943E+001
 20
0.0
 30
0.0
 10
9.5331615
 20
0.0
 30
0.0
 10
5.2663231
 20
0.0
 30
0.0
 10
9.9948458E-001
 20
0.0
 30
0.0
  0
SPLINE
  5
11e
100
AcDbEntity
  8
104
100
AcDbSpline
  6
CONTINUOUS
 62
40
210
0.0
220
0.0
230
0.0
 70
0
 71
3
 72
8
 73
4
 74
0
 42
1.0E-007
 43
1.0E-007
 44
0.0
 40
0.0
 40
0.0
 40
0.0
 40
0.0
 40
1.0
 40
1.0
 40
1.0
 40
1.0
 10
4.9396507E+001
 20
3.7132841E+001
 30
0.0
 10
4.9475075E+001
 20
3.6989873E+001
 30
0.0
 10
4.9517902E+001
 20
3.6827439E+001
 30
0.0
 10
4.9520038E+001
 20
3.6664319E+001
 30
0.0
  0
SPLINE
  5
11f
100
AcDbEntity
  8
104
100
AcDbSpline
  6
CONTINUOUS
 62
40
210
0.0
220
0.0
230
0.0
 70
0
 71
3
 72
24
 73
20
 74
0
 42
1.0E-007
 43
1.0E-007
 44
0.0
 40
0.0
 40
0.0
 40
0.0
 40
0.0
 40
6.25E-002
 40
6.25E-002
 40
1.25E-001
 40
1.25E-001
 40
1.875E-001
 40
1.875E-001
 40
2.5E-001
 40
2.5E-001
 40
3.125E-001
 40
3.125E-001
 40
3.75E-001
 40
3.75E-001
 40
5.0E-001
 40
5.0E-001
 40
7.5E-001
 40
7.5E-001
 40
1.0
 40
1.0
 40
1.0
 40
1.0
 10
4.9520038E+001
 20
3.6664317E+001
 30
0.0
 10
4.9520046E+001
 20
3.6663689E+001
 30
0.0
 10
4.9520355E+001
 20
3.6640064E+001
 30
0.0
 10
4.9521538E+001
 20
3.6549684E+001
 30
0.0
 10
4.952241E+001
 20
3.6483128E+001
 30
0.0
 10
4.9524554E+001
 20
3.6319316E+001
 30
0.0
 10
4.9525849E+001
 20
3.6220424E+001
 30
0.0
 10
4.9528713E+001
 20
3.600162E+001
 30
0.0
 10
4.9530278E+001
 20
3.5882036E+001
 30
0.0
 10
4.9533617E+001
 20
3.5626965E+001
 30
0.0
 10
4.9535399E+001
 20
3.5490859E+001
 30
0.0
 10
4.9539058E+001
 20
3.5211382E+001
 30
0.0
 10
4.9540943E+001
 20
3.5067369E+001
 30
0.0
 10
4.9546723E+001
 20
3.462583E+001
 30
0.0
 10
4.9550748E+001
 20
3.4318394E+001
 30
0.0
 10
4.9563154E+001
 20
3.33707E+001
 30
0.0
 10
4.9571637E+001
 20
3.2722656E+001
 30
0.0
 10
4.9588876E+001
 20
3.140578E+001
 30
0.0
 10
4.9597663E+001
 20
3.0734539E+001
 30
0.0
 10
4.9606461E+001
 20
3.0062442E+001
 30
0.0
  0
SPLINE
  5
120
100
AcDbEntity
  8
104
100
AcDbSpline
  6
CONTINUOUS
 62
40
210
0.0
220
0.0
230
0.0
 70
0
 71
3
 72
8
 73
4
 74
0
 42
1.0E-007
 43
1.0E-007
 44
0.0
 40
0.0
 40
0.0
 40
0.0
 40
0.0
 40
1.0
 40
1.0
 40
1.0
 40
1.0
 10
4.9606461E+001
 20
3.0062442E+001
 30
0.0
 10
4.9737623E+001
 20
2.0042997E+001
 30
0.0
 10
4.9868807E+001
 20
1.0021836E+001
 30
0.0
 10
5.0E+001
 20
0.0
 30
0.0
  0
SPLINE
  5
121
100
AcDbEntity
  8
104
100
AcDbSpline
  6
CONTINUOUS
 62
40
210
0.0
220
0.0
230
0.0
 70
0
 71
3
 72
10
 73
6
 74
0
 42
1.0E-007
 43
1.0E-007
 44
0.0
 40
0.0
 40
0.0
 40
0.0
 40
0.0
 40
5.0E-001
 40
5.0E-001
 40
1.0
 40
1.0
 40
1.0
 40
1.0
 10
5.0E+001
 20
0.0
 30
0.0
 10
5.0E+001
 20
0.0
 30
0.0
 10
4.9943297E+001
 20
0.0
 30
0.0
 10
4.9735435E+001
 20
0.0
 30
0.0
 10
4.958424E+001
 20
0.0
 30
0.0
 10
4.9407536E+001
 20
0.0
 30
0.0
  0
SPLINE
  5
122
100
AcDbEntity
  8
104
100
AcDbSpline
  6
CONTINUOUS
 62
40
210
0.0
220
0.0
230
0.0
 70
0
 71
3
 72
18
 73
14
 74
0
 42
1.0E-007
 43
1.0E-007
 44
0.0
 40
0.0
 40
0.0
 40
0.0
 40
0.0
 40
2.5E-001
 40
2.5E-001
 40
3.75E-001
 40
3.75E-001
 40
5.0E-001
 40
5.0E-001
 40
6.25E-001
 40
6.25E-001
 40
7.5E-001
 40
7.5E-001
 40
1.0
 40
1.0
 40
1.0
 40
1.0
 10
7.6261019E-001
 20
5.82558E+001
 30
0.0
 10
7.6997507E-001
 20
5.8818403E+001
 30
0.0
 10
7.7693629E-001
 20
5.9350171E+001
 30
0.0
 10
7.8623889E-001
 20
6.0060796E+001
 30
0.0
 10
7.8916453E-001
 20
6.0284286E+001
 30
0.0
 10
7.9466021E-001
 20
6.0704101E+001
 30
0.0
 10
7.9723355E-001
 20
6.0900678E+001
 30
0.0
 10
8.0185216E-001
 20
6.1253494E+001
 30
0.0
 10
8.0392178E-001
 20
6.1411592E+001
 30
0.0
 10
8.0758397E-001
 20
6.1691347E+001
 30
0.0
 10
8.0918661E-001
 20
6.1813772E+001
 30
0.0
 10
8.1314739E-001
 20
6.2116337E+001
 30
0.0
 10
8.1469022E-001
 20
6.2234194E+001
 30
0.0
 10
8.1511632E-001
 20
6.2266743E+001
 30
0.0
  0
SPLINE
  5
123
100
AcDbEntity
  8
104
100
AcDbSpline
  6
CONTINUOUS
 62
40
210
0.0
220
0.0
230
0.0
 70
0
 71
3
 72
10
 73
6
 74
0
 42
1.0E-007
 43
1.0E-007
 44
0.0
 40
0.0
 40
0.0
 40
0.0
 40
0.0
 40
2.6972006E-001
 40
6.3485988E-001
 40
1.0
 40
1.0
 40
1.0
 40
1.0
 10
4.9519777E+001
 20
3.6684208E+001
 30
0.0
 10
4.951977E+001
 20
3.6684759E+001
 30
0.0
 10
4.9519753E+001
 20
3.6686057E+001
 30
0.0
 10
4.9519852E+001
 20
3.6678507E+001
 30
0.0
 10
4.9519976E+001
 20
3.6669048E+001
 30
0.0
 10
4.9520038E+001
 20
3.6664318E+001
 30
0.0
  0
ARC
  5
124
100
AcDbEntity
  8
104
100
AcDbCircle
  6
CONTINUOUS
 62
40
 10
1.8202191
 20
6.265E+001
 40
1.0
100
AcDbArc
 50
9.0E+001
 51
1.7925E+002
  0
SPLINE
  5
125
100
AcDbEntity
  8
104
100
AcDbSpline
  6
CONTINUOUS
 62
40
210
0.0
220
0.0
230
0.0
 70
0
 71
3
 72
8
 73
4
 74
0
 42
1.0E-007
 43
1.0E-007
 44
0.0
 40
0.0
 40
0.0
 40
0.0
 40
0.0
 40
1.0
 40
1.0
 40
1.0
 40
1.0
 10
8.1511632E-001
 20
6.2266743E+001
 30
0.0
 10
8.1857863E-001
 20
6.2531229E+001
 30
0.0
 10
8.2030482E-001
 20
6.2663093E+001
 30
0.0
 10
8.2030478E-001
 20
6.266309E+001
 30
0.0
  0
POLYLINE
  5
126
100
AcDbEntity
  8
104
100
AcDb2dPolyline
  6
CONTINUOUS
 62
40
 66
1
 40
0.0
 41
0.0
 70
2
  0
VERTEX
  5
127
100
AcDbEntity
  8
104
100
AcDbVertex
100
AcDb2dVertex
 42
0.0
 10
4.939647E+001
 20
3.7132915E+001
 70
0
  0
VERTEX
  5
128
100
AcDbEntity
  8
104
100
AcDbVertex
100
AcDb2dVertex
 42
0.0
 10
4.9395837E+001
 20
3.7134013E+001
 70
1
  0
VERTEX
  5
129
100
AcDbEntity
  8
104
100
AcDbVertex
100
AcDb2dVertex
 42
0.0
 10
4.9395204E+001
 20
3.7135111E+001
 70
0
  0
VERTEX
  5
12a
100
AcDbEntity
  8
104
100
AcDbVertex
100
AcDb2dVertex
 42
0.0
 10
4.9394571E+001
 20
3.7136209E+001
 70
1
  0
VERTEX
  5
12b
100
AcDbEntity
  8
104
100
AcDbVertex
100
AcDb2dVertex
 42
0.0
 10
4.9393938E+001
 20
3.7137307E+001
 70
0
  0
VERTEX
  5
12c
100
AcDbEntity
  8
104
100
AcDbVertex
100
AcDb2dVertex
 42
0.0
 10
4.9393305E+001
 20
3.7138405E+001
 70
1
  0
VERTEX
  5
12d
100
AcDbEntity
  8
104
100
AcDbVertex
100
AcDb2dVertex
 42
0.0
 10
4.9392672E+001
 20
3.7139503E+001
 70
0
  0
VERTEX
  5
12e
100
AcDbEntity
  8
104
100
AcDbVertex
100
AcDb2dVertex
 42
0.0
 10
4.939204E+001
 20
3.7140601E+001
 70
1
  0
VERTEX
  5
12f
100
AcDbEntity
  8
104
100
AcDbVertex
100
AcDb2dVertex
 42
0.0
 10
4.9391406E+001
 20
3.7141699E+001
 70
0
  0
VERTEX
  5
130
100
AcDbEntity
  8
104
100
AcDbVertex
100
AcDb2dVertex
 42
0.0
 10
4.9390772E+001
 20
3.71428E+001
 70
1
  0
VERTEX
  5
131
100
AcDbEntity
  8
104
100
AcDbVertex
100
AcDb2dVertex
 42
0.0
 10
4.9390141E+001
 20
3.7143895E+001
 70
0
  0
VERTEX
  5
132
100
AcDbEntity
  8
104
100
AcDbVertex
100
AcDb2dVertex
 42
0.0
 10
4.9389513E+001
 20
3.7144985E+001
 70
1
  0
VERTEX
  5
133
100
AcDbEntity
  8
104
100
AcDbVertex
100
AcDb2dVertex
 42
0.0
 10
4.9388875E+001
 20
3.7146091E+001
 70
0
  0
VERTEX
  5
134
100
AcDbEntity
  8
104
100
AcDbVertex
100
AcDb2dVertex
 42
0.0
 10
4.9388222E+001
 20
3.7147224E+001
 70
1
  0
VERTEX
  5
135
100
AcDbEntity
  8
104
100
AcDbVertex
100
AcDb2dVertex
 42
0.0
 10
4.9387609E+001
 20
3.7148288E+001
 70
0
  0
VERTEX
  5
136
100
AcDbEntity
  8
104
100
AcDbVertex
100
AcDb2dVertex
 42
0.0
 10
4.9387055E+001
 20
3.7149249E+001
 70
1
  0
VERTEX
  5
137
100
AcDbEntity
  8
104
100
AcDbVertex
100
AcDb2dVertex
 42
0.0
 10
4.9386343E+001
 20
3.7150484E+001
 70
0
  0
VERTEX
  5
138
100
AcDbEntity
  8
104
100
AcDbVertex
100
AcDb2dVertex
 42
0.0
 10
4.9385247E+001
 20
3.7152385E+001
 70
1
  0
VERTEX
  5
139
100
AcDbEntity
  8
104
100
AcDbVertex
100
AcDb2dVertex
 42
0.0
 10
4.9383811E+001
 20
3.7154876E+001
 70
0
  0
SEQEND
  5
13a
100
AcDbEntity
  0
SPLINE
  5
13b
100
AcDbEntity
  8
104
100
AcDbSpline
  6
CONTINUOUS
 62
40
210
0.0
220
0.0
230
0.0
 70
0
 71
3
 72
9
 73
5
 74
0
 42
1.0E-007
 43
1.0E-007
 44
0.0
 40
0.0
 40
0.0
 40
0.0
 40
0.0
 40
7.2984183E-001
 40
1.0
 40
1.0
 40
1.0
 40
1.0
 10
4.9396507E+001
 20
3.7132841E+001
 30
0.0
 10
4.9398047E+001
 20
3.7139271E+001
 30
0.0
 10
4.9400157E+001
 20
3.7148081E+001
 30
0.0
 10
4.9399828E+001
 20
3.7146693E+001
 30
0.0
 10
4.9399739E+001
 20
3.7146319E+001
 30
0.0
  0
SPLINE
  5
13c
100
AcDbEntity
  8
104
100
AcDbSpline
  6
CONTINUOUS
 62
40
210
0.0
220
0.0
230
0.0
 70
0
 71
3
 72
8
 73
4
 74
0
 42
1.0E-007
 43
1.0E-007
 44
0.0
 40
0.0
 40
0.0
 40
0.0
 40
0.0
 40
1.0
 40
1.0
 40
1.0
 40
1.0
 10
4.939962E+001
 20
3.7145809E+001
 30
0.0
 10
4.9399083E+001
 20
3.7143522E+001
 30
0.0
 10
4.9398056E+001
 20
3.7139146E+001
 30
0.0
 10
4.9396507E+001
 20
3.7132841E+001
 30
0.0
  0
POINT
  5
13d
100
AcDbEntity
  8
Drafting_Hidden_Entities
100
AcDbPoint
  6
CONTINUOUS
 62
1
 10
0.0
 20
0.0
  0
ENDBLK
  5
13e
100
AcDbEntity
100
AcDbBlockEnd
  0
BLOCK
  5
13f
100
AcDbEntity
100
AcDbBlockBegin
  2
IIKM
 10
0.0
 20
0.0
 70
0
  0
ARC
  5
140
100
AcDbEntity
  8
104
100
AcDbCircle
  6
CONTINUOUS
 62
40
 10
-2.7042749E+001
 20
-2.8883326E+001
 40
2.9941956
100
AcDbArc
 50
1.4845786E+002
 51
1.6898686E+002
  0
ARC
  5
141
100
AcDbEntity
  8
1
100
AcDbCircle
  6
CONTINUOUS
 62
7
 10
-2.7044408E+001
 20
2.8883107E+001
 40
2.9926466
100
AcDbArc
 50
1.9160051E+002
 51
2.1156422E+002
  0
SPLINE
  5
142
100
AcDbEntity
  8
104
100
AcDbSpline
  6
CONTINUOUS
 62
1
210
0.0
220
0.0
230
0.0
 70
0
 71
3
 72
10
 73
6
 74
0
 42
1.0E-007
 43
1.0E-007
 44
0.0
 40
0.0
 40
0.0
 40
0.0
 40
0.0
 40
5.0E-001
 40
5.0E-001
 40
1.0
 40
1.0
 40
1.0
 40
1.0
 10
-1.8596868
 20
1.3852545E+001
 30
0.0
 10
-1.6516394
 20
1.385243E+001
 30
0.0
 10
-1.4446157
 20
1.3847819E+001
 30
0.0
 10
-1.1480893
 20
1.3832177E+001
 30
0.0
 10
-1.0603653
 20
1.382124E+001
 30
0.0
 10
-1.0576459
 20
1.3810237E+001
 30
0.0
  0
SPLINE
  5
143
100
AcDbEntity
  8
104
100
AcDbSpline
  6
CONTINUOUS
 62
1
210
0.0
220
0.0
230
0.0
 70
0
 71
3
 72
10
 73
6
 74
0
 42
1.0E-007
 43
1.0E-007
 44
0.0
 40
0.0
 40
0.0
 40
0.0
 40
0.0
 40
5.0E-001
 40
5.0E-001
 40
1.0
 40
1.0
 40
1.0
 40
1.0
 10
-1.8596869
 20
-1.3852357E+001
 30
0.0
 10
-1.6516395
 20
-1.3852242E+001
 30
0.0
 10
-1.4446158
 20
-1.3847632E+001
 30
0.0
 10
-1.1480894
 20
-1.383199E+001
 30
0.0
 10
-1.0603655
 20
-1.3821053E+001
 30
0.0
 10
-1.057646
 20
-1.381005E+001
 30
0.0
  0
ELLIPSE
  5
144
100
AcDbEntity
  8
104
100
AcDbEllipse
  6
CONTINUOUS
 10
-6.152637E-001
 20
-2.3745298E+001
 11
0.0
 21
3.2
 40
1.3090717E-002
 41
1.5707963
 42
1.9767234
 62
40
  0
SPLINE
  5
145
100
AcDbEntity
  8
104
100
AcDbSpline
  6
CONTINUOUS
 62
40
210
0.0
220
0.0
230
0.0
 70
0
 71
3
 72
8
 73
4
 74
0
 42
1.0E-007
 43
1.0E-007
 44
0.0
 40
0.0
 40
0.0
 40
0.0
 40
0.0
 40
1.856676E-004
 40
1.856676E-004
 40
1.856676E-004
 40
1.856676E-004
 10
-6.5616954E-001
 20
-2.4991539E+001
 30
0.0
 10
-6.5536302E-001
 20
-2.4997359E+001
 30
0.0
 10
-6.5455646E-001
 20
-2.5003141E+001
 30
0.0
 10
-6.5374985E-001
 20
-2.5008884E+001
 30
0.0
  0
SPLINE
  5
146
100
AcDbEntity
  8
104
100
AcDbSpline
  6
CONTINUOUS
 62
40
210
0.0
220
0.0
230
0.0
 70
0
 71
3
 72
8
 73
4
 74
0
 42
1.0E-007
 43
1.0E-007
 44
0.0
 40
0.0
 40
0.0
 40
0.0
 40
0.0
 40
1.857147E-004
 40
1.857147E-004
 40
1.857147E-004
 40
1.857147E-004
 10
-6.5374985E-001
 20
2.5008884E+001
 30
0.0
 10
-6.5455667E-001
 20
2.5003139E+001
 30
0.0
 10
-6.5536343E-001
 20
2.4997356E+001
 30
0.0
 10
-6.5617015E-001
 20
2.4991534E+001
 30
0.0
  0
ELLIPSE
  5
147
100
AcDbEntity
  8
104
100
AcDbEllipse
  6
CONTINUOUS
 10
-6.152637E-001
 20
2.3745298E+001
 11
0.0
 21
3.2
 40
1.3090717E-002
 41
1.1648692
 42
1.5707963
 62
40
  0
LINE
  5
148
100
AcDbEntity
  8
104
100
AcDbLine
  6
CONTINUOUS
 62
40
 10
-6.5715459E-001
 20
2.2177804E+001
 11
-6.5715459E-001
 21
2.3745298E+001
  0
ELLIPSE
  5
149
100
AcDbEntity
  8
104
100
AcDbEllipse
  6
CONTINUOUS
 10
-6.6108121E-001
 20
2.2177804E+001
 11
0.0
 21
3.0E-001
 40
1.3090717E-002
 41
3.1593493
 42
4.712389
 62
40
  0
ELLIPSE
  5
14a
100
AcDbEntity
  8
104
100
AcDbEllipse
  6
CONTINUOUS
 10
-6.2835442E-001
 20
-1.186E+002
 11
0.0
 21
1.405E+002
 40
1.3090717E-002
 41
1.7756615E-002
 42
1.7456117E-001
 62
40
  0
ELLIPSE
  5
14b
100
AcDbEntity
  8
104
100
AcDbEllipse
  6
CONTINUOUS
 10
-9.2959891E-001
 20
1.1886377E+001
 11
0.0
 21
8.0
 40
1.3090717E-002
 41
1.7456117E-001
 42
1.4049485
 62
40
  0
ELLIPSE
  5
14c
100
AcDbEntity
  8
104
100
AcDbEllipse
  6
CONTINUOUS
 10
0.0
 20
0.0
 11
0.0
 21
8.0E+001
 40
1.3090717E-002
 41
1.4049485
 42
1.7366441
 62
40
  0
ELLIPSE
  5
14d
100
AcDbEntity
  8
104
100
AcDbEllipse
  6
CONTINUOUS
 10
-9.2959891E-001
 20
-1.1886377E+001
 11
0.0
 21
8.0
 40
1.3090717E-002
 41
1.7366441
 42
2.9670315
 62
40
  0
ELLIPSE
  5
14e
100
AcDbEntity
  8
104
100
AcDbEllipse
  6
CONTINUOUS
 10
-6.2835442E-001
 20
1.186E+002
 11
0.0
 21
1.405E+002
 40
1.3090717E-002
 41
2.9670315
 42
3.123836
 62
40
  0
ELLIPSE
  5
14f
100
AcDbEntity
  8
104
100
AcDbEllipse
  6
CONTINUOUS
 10
-6.6108121E-001
 20
-2.2177804E+001
 11
0.0
 21
3.0E-001
 40
1.3090717E-002
 41
4.712389
 42
6.2654287
 62
40
  0
LINE
  5
150
100
AcDbEntity
  8
104
100
AcDbLine
  6
CONTINUOUS
 62
40
 10
-6.5715459E-001
 20
-2.3745298E+001
 11
-6.5715459E-001
 21
-2.2177804E+001
  0
SPLINE
  5
151
100
AcDbEntity
  8
104
100
AcDbSpline
  6
CONTINUOUS
 62
1
210
0.0
220
0.0
230
0.0
 70
0
 71
3
 72
26
 73
22
 74
0
 42
1.0E-007
 43
1.0E-007
 44
0.0
 40
0.0
 40
0.0
 40
0.0
 40
0.0
 40
3.2961661E-002
 40
7.5693937E-002
 40
1.2714425E-001
 40
1.860571E-001
 40
2.5101537E-001
 40
3.2049042E-001
 40
3.9290089E-001
 40
4.8546773E-001
 40
5.601711E-001
 40
6.2044003E-001
 40
6.6894948E-001
 40
7.1611506E-001
 40
7.6116233E-001
 40
8.0421181E-001
 40
8.4547593E-001
 40
8.8525798E-001
 40
9.2394731E-001
 40
9.6201296E-001
 40
1.0
 40
1.0
 40
1.0
 40
1.0
 10
-1.8596869
 20
1.3852357E+001
 30
0.0
 10
-2.545101
 20
1.3864164E+001
 30
0.0
 10
-4.119102
 20
1.3891277E+001
 30
0.0
 10
-6.762888
 20
1.3934382E+001
 30
0.0
 10
-9.9459959
 20
1.3983513E+001
 30
0.0
 10
-1.3590475E+001
 20
1.4035373E+001
 30
0.0
 10
-1.7608059E+001
 20
1.4086428E+001
 30
0.0
 10
-2.1903109E+001
 20
1.4132739E+001
 30
0.0
 10
-2.6765545E+001
 20
1.4172776E+001
 30
0.0
 10
-3.1725558E+001
 20
1.4197391E+001
 30
0.0
 10
-3.6414881E+001
 20
1.4202559E+001
 30
0.0
 10
-4.0175674E+001
 20
1.4192321E+001
 30
0.0
 10
-4.3351012E+001
 20
1.4172988E+001
 30
0.0
 10
-4.6193566E+001
 20
1.4148251E+001
 30
0.0
 10
-4.8897176E+001
 20
1.4115941E+001
 30
0.0
 10
-5.1448404E+001
 20
1.4075251E+001
 30
0.0
 10
-5.3855846E+001
 20
1.4025428E+001
 30
0.0
 10
-5.6134729E+001
 20
1.3965977E+001
 30
0.0
 10
-5.8306931E+001
 20
1.3896447E+001
 30
0.0
 10
-6.0404534E+001
 20
1.3817535E+001
 30
0.0
 10
-6.1769483E+001
 20
1.3757672E+001
 30
0.0
 10
-6.2451253E+001
 20
1.3727772E+001
 30
0.0
  0
SPLINE
  5
152
100
AcDbEntity
  8
104
100
AcDbSpline
  6
CONTINUOUS
 62
1
210
0.0
220
0.0
230
0.0
 70
0
 71
3
 72
31
 73
27
 74
0
 42
1.0E-007
 43
1.0E-007
 44
0.0
 40
0.0
 40
0.0
 40
0.0
 40
0.0
 40
2.0285792E-002
 40
4.0515586E-002
 40
6.0780335E-002
 40
8.1164585E-002
 40
1.0174677E-001
 40
1.2259922E-001
 40
1.4378801E-001
 40
1.6537268E-001
 40
1.8740594E-001
 40
2.0993338E-001
 40
2.3299326E-001
 40
2.5661641E-001
 40
2.8082617E-001
 40
3.056385E-001
 40
3.3106204E-001
 40
3.795692E-001
 40
4.398366E-001
 40
5.1453945E-001
 40
6.0710721E-001
 40
7.077476E-001
 40
8.0139302E-001
 40
8.8379016E-001
 40
9.5106663E-001
 40
1.0
 40
1.0
 40
1.0
 40
1.0
 10
-6.2451253E+001
 20
-1.3727772E+001
 30
0.0
 10
-6.2087606E+001
 20
-1.3743907E+001
 30
0.0
 10
-6.1361318E+001
 20
-1.3776134E+001
 30
0.0
 10
-6.0262947E+001
 20
-1.3821578E+001
 30
0.0
 10
-5.9153588E+001
 20
-1.3864526E+001
 30
0.0
 10
-5.8026574E+001
 20
-1.3904718E+001
 30
0.0
 10
-5.6876544E+001
 20
-1.3942153E+001
 30
0.0
 10
-5.5698686E+001
 20
-1.3976799E+001
 30
0.0
 10
-5.4488897E+001
 20
-1.4008669E+001
 30
0.0
 10
-5.3243698E+001
 20
-1.4037797E+001
 30
0.0
 10
-5.1960219E+001
 20
-1.4064241E+001
 30
0.0
 10
-5.0636158E+001
 20
-1.4088077E+001
 30
0.0
 10
-4.9269758E+001
 20
-1.4109401E+001
 30
0.0
 10
-4.7859777E+001
 20
-1.4128324E+001
 30
0.0
 10
-4.6405462E+001
 20
-1.4144972E+001
 30
0.0
 10
-4.4906516E+001
 20
-1.4159475E+001
 30
0.0
 10
-4.2908381E+001
 20
-1.417569E+001
 30
0.0
 10
-4.0175741E+001
 20
-1.4192316E+001
 30
0.0
 10
-3.6415016E+001
 20
-1.4202562E+001
 30
0.0
 10
-3.1725644E+001
 20
-1.4197383E+001
 30
0.0
 10
-2.618139E+001
 20
-1.4169919E+001
 30
0.0
 10
-2.022976E+001
 20
-1.4117383E+001
 30
0.0
 10
-1.4481548E+001
 20
-1.4048269E+001
 30
0.0
 10
-9.423416
 20
-1.3976188E+001
 30
0.0
 10
-5.2937684
 20
-1.3911174E+001
 30
0.0
 10
-2.8772375
 20
-1.3869785E+001
 30
0.0
 10
-1.8596901
 20
-1.3852357E+001
 30
0.0
  0
SPLINE
  5
153
100
AcDbEntity
  8
104
100
AcDbSpline
  6
CONTINUOUS
 62
1
210
0.0
220
0.0
230
0.0
 70
0
 71
3
 72
10
 73
6
 74
0
 42
1.0E-007
 43
1.0E-007
 44
0.0
 40
0.0
 40
0.0
 40
0.0
 40
0.0
 40
5.0E-001
 40
5.0E-001
 40
1.0
 40
1.0
 40
1.0
 40
1.0
 10
-1.7896475
 20
2.1118578E+001
 30
0.0
 10
-1.5805176
 20
2.1118135E+001
 30
0.0
 10
-1.3725597
 20
2.1034785E+001
 30
0.0
 10
-1.0761073
 20
2.0749212E+001
 30
0.0
 10
-9.8942833E-001
 20
2.0548737E+001
 30
0.0
 10
-9.8870476E-001
 20
2.0347028E+001
 30
0.0
  0
SPLINE
  5
154
100
AcDbEntity
  8
104
100
AcDbSpline
  6
CONTINUOUS
 62
1
210
0.0
220
0.0
230
0.0
 70
0
 71
3
 72
10
 73
6
 74
0
 42
1.0E-007
 43
1.0E-007
 44
0.0
 40
0.0
 40
0.0
 40
0.0
 40
0.0
 40
5.0E-001
 40
5.0E-001
 40
1.0
 40
1.0
 40
1.0
 40
1.0
 10
-1.7896505
 20
-2.1118514E+001
 30
0.0
 10
-1.5805206
 20
-2.1118072E+001
 30
0.0
 10
-1.3725627
 20
-2.1034721E+001
 30
0.0
 10
-1.0761104
 20
-2.0749148E+001
 30
0.0
 10
-9.8943134E-001
 20
-2.0548674E+001
 30
0.0
 10
-9.8870777E-001
 20
-2.0346965E+001
 30
0.0
  0
SPLINE
  5
155
100
AcDbEntity
  8
104
100
AcDbSpline
  6
CONTINUOUS
 62
1
210
0.0
220
0.0
230
0.0
 70
0
 71
3
 72
18
 73
14
 74
0
 42
1.0E-007
 43
1.0E-007
 44
0.0
 40
0.0
 40
0.0
 40
0.0
 40
0.0
 40
5.0E-001
 40
5.0E-001
 40
7.5E-001
 40
7.5E-001
 40
8.75E-001
 40
8.75E-001
 40
9.375E-001
 40
9.375E-001
 40
9.6875E-001
 40
9.6875E-001
 40
1.0
 40
1.0
 40
1.0
 40
1.0
 10
-5.9701701E+001
 20
1.6364956E+001
 30
0.0
 10
-6.0243069E+001
 20
1.5992425E+001
 30
0.0
 10
-6.0766836E+001
 20
1.5610197E+001
 30
0.0
 10
-6.1513519E+001
 20
1.5000871E+001
 30
0.0
 10
-6.1756831E+001
 20
1.4793071E+001
 30
0.0
 10
-6.2094228E+001
 20
1.4447046E+001
 30
0.0
 10
-6.2203131E+001
 20
1.4325415E+001
 30
0.0
 10
-6.2338237E+001
 20
1.4122323E+001
 30
0.0
 10
-6.2379124E+001
 20
1.4049668E+001
 30
0.0
 10
-6.2422904E+001
 20
1.3933463E+001
 30
0.0
 10
-6.2434483E+001
 20
1.3893681E+001
 30
0.0
 10
-6.2449504E+001
 20
1.3811281E+001
 30
0.0
 10
-6.2452647E+001
 20
1.3768363E+001
 30
0.0
 10
-6.2451105E+001
 20
1.3727829E+001
 30
0.0
  0
SPLINE
  5
156
100
AcDbEntity
  8
104
100
AcDbSpline
  6
CONTINUOUS
 62
1
210
0.0
220
0.0
230
0.0
 70
0
 71
3
 72
16
 73
12
 74
0
 42
1.0E-007
 43
1.0E-007
 44
0.0
 40
0.0
 40
0.0
 40
0.0
 40
0.0
 40
1.25E-001
 40
1.25E-001
 40
2.5E-001
 40
2.5E-001
 40
5.0E-001
 40
5.0E-001
 40
7.5E-001
 40
7.5E-001
 40
1.0
 40
1.0
 40
1.0
 40
1.0
 10
-5.1843654E+001
 20
1.910213E+001
 30
0.0
 10
-5.2185603E+001
 20
1.903762E+001
 30
0.0
 10
-5.252924E+001
 20
1.8968901E+001
 30
0.0
 10
-5.3211256E+001
 20
1.8823481E+001
 30
0.0
 10
-5.3551023E+001
 20
1.8746522E+001
 30
0.0
 10
-5.4566039E+001
 20
1.8500848E+001
 30
0.0
 10
-5.5237102E+001
 20
1.8317598E+001
 30
0.0
 10
-5.6563002E+001
 20
1.7894026E+001
 30
0.0
 10
-5.7219412E+001
 20
1.7653897E+001
 30
0.0
 10
-5.8501268E+001
 20
1.7086353E+001
 30
0.0
 10
-5.9121715E+001
 20
1.676406E+001
 30
0.0
 10
-5.9701701E+001
 20
1.6364956E+001
 30
0.0
  0
SPLINE
  5
157
100
AcDbEntity
  8
104
100
AcDbSpline
  6
CONTINUOUS
 62
1
210
0.0
220
0.0
230
0.0
 70
0
 71
3
 72
31
 73
27
 74
0
 42
1.0E-007
 43
1.0E-007
 44
0.0
 40
0.0
 40
0.0
 40
0.0
 40
0.0
 40
1.5588529E-002
 40
3.1696953E-002
 40
4.8354723E-002
 40
6.5592417E-002
 40
8.3441753E-002
 40
1.0193559E-001
 40
1.2110795E-001
 40
1.40994E-001
 40
1.6163007E-001
 40
1.8305367E-001
 40
2.0530346E-001
 40
2.2841928E-001
 40
2.5244218E-001
 40
2.7741436E-001
 40
3.3321105E-001
 40
3.9237253E-001
 40
4.5503274E-001
 40
5.2131167E-001
 40
5.9131547E-001
 40
6.6513684E-001
 40
7.4285532E-001
 40
8.2453772E-001
 40
9.1023845E-001
 40
1.0
 40
1.0
 40
1.0
 40
1.0
 10
-5.1840256E+001
 20
1.9101764E+001
 30
0.0
 10
-5.1589581E+001
 20
1.9130376E+001
 30
0.0
 10
-5.1079869E+001
 20
1.9188553E+001
 30
0.0
 10
-5.029871E+001
 20
1.9273055E+001
 30
0.0
 10
-4.9488339E+001
 20
1.9357227E+001
 30
0.0
 10
-4.8646923E+001
 20
1.9440672E+001
 30
0.0
 10
-4.7772934E+001
 20
1.9523396E+001
 30
0.0
 10
-4.6864697E+001
 20
1.960529E+001
 30
0.0
 10
-4.5920515E+001
 20
1.9686272E+001
 30
0.0
 10
-4.4938635E+001
 20
1.976625E+001
 30
0.0
 10
-4.3917253E+001
 20
1.984513E+001
 30
0.0
 10
-4.2854514E+001
 20
1.9922813E+001
 30
0.0
 10
-4.1748514E+001
 20
1.9999199E+001
 30
0.0
 10
-4.059729E+001
 20
2.0074183E+001
 30
0.0
 10
-3.9398829E+001
 20
2.0147656E+001
 30
0.0
 10
-3.7654492E+001
 20
2.02481E+001
 30
0.0
 10
-3.5319979E+001
 20
2.0369135E+001
 30
0.0
 10
-3.2349828E+001
 20
2.0502309E+001
 30
0.0
 10
-2.9198787E+001
 20
2.0623531E+001
 30
0.0
 10
-2.5861719E+001
 20
2.0732591E+001
 30
0.0
 10
-2.2334097E+001
 20
2.0829301E+001
 30
0.0
 10
-1.8612006E+001
 20
2.0913461E+001
 30
0.0
 10
-1.4692114E+001
 20
2.0984965E+001
 30
0.0
 10
-1.0571673E+001
 20
2.104336E+001
 30
0.0
 10
-6.2484258
 20
2.1089632E+001
 30
0.0
 10
-3.2986676
 20
2.1108781E+001
 30
0.0
 10
-1.7896545
 20
2.1118578E+001
 30
0.0
  0
SPLINE
  5
158
100
AcDbEntity
  8
104
100
AcDbSpline
  6
CONTINUOUS
 62
1
210
0.0
220
0.0
230
0.0
 70
0
 71
3
 72
16
 73
12
 74
0
 42
1.0E-007
 43
1.0E-007
 44
0.0
 40
0.0
 40
0.0
 40
0.0
 40
0.0
 40
2.5E-001
 40
2.5E-001
 40
5.0E-001
 40
5.0E-001
 40
7.5E-001
 40
7.5E-001
 40
8.75E-001
 40
8.75E-001
 40
1.0
 40
1.0
 40
1.0
 40
1.0
 10
-5.9701701E+001
 20
-1.6364956E+001
 30
0.0
 10
-5.9121254E+001
 20
-1.6764376E+001
 30
0.0
 10
-5.8503172E+001
 20
-1.7085182E+001
 30
0.0
 10
-5.7229704E+001
 20
-1.7649666E+001
 30
0.0
 10
-5.6571096E+001
 20
-1.7891244E+001
 30
0.0
 10
-5.5241311E+001
 20
-1.8316448E+001
 30
0.0
 10
-5.4568857E+001
 20
-1.8500128E+001
 30
0.0
 10
-5.355236E+001
 20
-1.8746217E+001
 30
0.0
 10
-5.3212202E+001
 20
-1.8823274E+001
 30
0.0
 10
-5.2529583E+001
 20
-1.8968834E+001
 30
0.0
 10
-5.2185714E+001
 20
-1.9037599E+001
 30
0.0
 10
-5.1843654E+001
 20
-1.910213E+001
 30
0.0
  0
SPLINE
  5
159
100
AcDbEntity
  8
104
100
AcDbSpline
  6
CONTINUOUS
 62
1
210
0.0
220
0.0
230
0.0
 70
0
 71
3
 72
16
 73
12
 74
0
 42
1.0E-007
 43
1.0E-007
 44
0.0
 40
0.0
 40
0.0
 40
0.0
 40
0.0
 40
6.25E-002
 40
6.25E-002
 40
1.25E-001
 40
1.25E-001
 40
2.5E-001
 40
2.5E-001
 40
5.0E-001
 40
5.0E-001
 40
1.0
 40
1.0
 40
1.0
 40
1.0
 10
-6.2451105E+001
 20
-1.3727829E+001
 30
0.0
 10
-6.2454224E+001
 20
-1.3809834E+001
 30
0.0
 10
-6.243778E+001
 20
-1.3893771E+001
 30
0.0
 10
-6.2379332E+001
 20
-1.4049321E+001
 30
0.0
 10
-6.2338296E+001
 20
-1.4122207E+001
 30
0.0
 10
-6.2203472E+001
 20
-1.4324955E+001
 30
0.0
 10
-6.2096969E+001
 20
-1.4443965E+001
 30
0.0
 10
-6.1762342E+001
 20
-1.4787945E+001
 30
0.0
 10
-6.1517528E+001
 20
-1.4997489E+001
 30
0.0
 10
-6.0768193E+001
 20
-1.5609309E+001
 30
0.0
 10
-6.0241877E+001
 20
-1.5993246E+001
 30
0.0
 10
-5.9701701E+001
 20
-1.6364956E+001
 30
0.0
  0
SPLINE
  5
15a
100
AcDbEntity
  8
104
100
AcDbSpline
  6
CONTINUOUS
 62
1
210
0.0
220
0.0
230
0.0
 70
0
 71
3
 72
35
 73
31
 74
0
 42
1.0E-007
 43
1.0E-007
 44
0.0
 40
0.0
 40
0.0
 40
0.0
 40
0.0
 40
4.5390125E-002
 40
8.9760735E-002
 40
1.3311605E-001
 40
1.7546099E-001
 40
2.1680125E-001
 40
2.5714323E-001
 40
2.964941E-001
 40
3.3486183E-001
 40
3.7225514E-001
 40
4.0868357E-001
 40
4.4415745E-001
 40
4.7868796E-001
 40
5.1228708E-001
 40
5.4496767E-001
 40
5.767434E-001
 40
6.0762884E-001
 40
6.3763941E-001
 40
6.6679142E-001
 40
6.9510205E-001
 40
7.2258936E-001
 40
7.6566464E-001
 40
8.0592951E-001
 40
8.4360306E-001
 40
8.7889333E-001
 40
9.1199738E-001
 40
9.4310138E-001
 40
9.723807E-001
 40
1.0
 40
1.0
 40
1.0
 40
1.0
 10
-1.7896475
 20
-2.1118578E+001
 30
0.0
 10
-2.5527035
 20
-2.1113955E+001
 30
0.0
 10
-4.0616763
 20
-2.1104813E+001
 30
0.0
 10
-6.2996201
 20
-2.1086675E+001
 30
0.0
 10
-8.4863971
 20
-2.1065479E+001
 30
0.0
 10
-1.0622212E+001
 20
-2.1040935E+001
 30
0.0
 10
-1.2707285E+001
 20
-2.1013144E+001
 30
0.0
 10
-1.4741878E+001
 20
-2.0982105E+001
 30
0.0
 10
-1.672628E+001
 20
-2.0947844E+001
 30
0.0
 10
-1.8660819E+001
 20
-2.091038E+001
 30
0.0
 10
-2.0545856E+001
 20
-2.0869736E+001
 30
0.0
 10
-2.2381787E+001
 20
-2.0825932E+001
 30
0.0
 10
-2.4169046E+001
 20
-2.0778993E+001
 30
0.0
 10
-2.5908101E+001
 20
-2.072894E+001
 30
0.0
 10
-2.7599461E+001
 20
-2.0675797E+001
 30
0.0
 10
-2.924367E+001
 20
-2.0619588E+001
 30
0.0
 10
-3.0841312E+001
 20
-2.056034E+001
 30
0.0
 10
-3.239301E+001
 20
-2.0498077E+001
 30
0.0
 10
-3.3899427E+001
 20
-2.0432826E+001
 30
0.0
 10
-3.5361267E+001
 20
-2.0364615E+001
 30
0.0
 10
-3.6779276E+001
 20
-2.0293474E+001
 30
0.0
 10
-3.8427496E+001
 20
-2.0204714E+001
 30
0.0
 10
-4.0271413E+001
 20
-2.0096162E+001
 30
0.0
 10
-4.2278871E+001
 20
-1.9964633E+001
 30
0.0
 10
-4.4150709E+001
 20
-1.9828953E+001
 30
0.0
 10
-4.5897153E+001
 20
-1.9689641E+001
 30
0.0
 10
-4.7528046E+001
 20
-1.95473E+001
 30
0.0
 10
-4.9052407E+001
 20
-1.9402106E+001
 30
0.0
 10
-5.0479978E+001
 20
-1.9255565E+001
 30
0.0
 10
-5.1395737E+001
 20
-1.9152024E+001
 30
0.0
 10
-5.1840258E+001
 20
-1.9101764E+001
 30
0.0
  0
SPLINE
  5
15b
100
AcDbEntity
  8
104
100
AcDbSpline
  6
CONTINUOUS
 62
40
210
0.0
220
0.0
230
0.0
 70
0
 71
3
 72
10
 73
6
 74
0
 42
1.0E-007
 43
1.0E-007
 44
0.0
 40
0.0
 40
0.0
 40
0.0
 40
0.0
 40
5.0E-001
 40
5.0E-001
 40
1.0
 40
1.0
 40
1.0
 40
1.0
 10
-1.4514314
 20
2.5824281E+001
 30
0.0
 10
-5.7142908
 20
2.5822125E+001
 30
0.0
 10
-9.9769499
 20
2.5802719E+001
 30
0.0
 10
-1.8501683E+001
 20
2.5713508E+001
 30
0.0
 10
-2.2763758E+001
 20
2.5643888E+001
 30
0.0
 10
-2.7025392E+001
 20
2.5536229E+001
 30
0.0
  0
SPLINE
  5
15c
100
AcDbEntity
  8
104
100
AcDbSpline
  6
CONTINUOUS
 62
40
210
0.0
220
0.0
230
0.0
 70
0
 71
3
 72
10
 73
6
 74
0
 42
1.0E-007
 43
1.0E-007
 44
0.0
 40
0.0
 40
0.0
 40
0.0
 40
0.0
 40
5.0E-001
 40
5.0E-001
 40
1.0
 40
1.0
 40
1.0
 40
1.0
 10
-1.4514314
 20
-2.5824281E+001
 30
0.0
 10
-5.7141679
 20
-2.5822126E+001
 30
0.0
 10
-9.9767681
 20
-2.580272E+001
 30
0.0
 10
-1.8501571E+001
 20
-2.571351E+001
 30
0.0
 10
-2.2763941E+001
 20
-2.5643883E+001
 30
0.0
 10
-2.7025392E+001
 20
-2.5536229E+001
 30
0.0
  0
SPLINE
  5
15d
100
AcDbEntity
  8
104
100
AcDbSpline
  6
CONTINUOUS
 62
1
210
0.0
220
0.0
230
0.0
 70
0
 71
3
 72
12
 73
8
 74
0
 42
1.0E-007
 43
1.0E-007
 44
0.0
 40
0.0
 40
0.0
 40
0.0
 40
0.0
 40
2.5E-001
 40
2.5E-001
 40
5.0E-001
 40
5.0E-001
 40
1.0
 40
1.0
 40
1.0
 40
1.0
 10
-5.2430636E+001
 20
2.1426478E+001
 30
0.0
 10
-5.1019747E+001
 20
2.1737377E+001
 30
0.0
 10
-4.9602653E+001
 20
2.2001795E+001
 30
0.0
 10
-4.6759785E+001
 20
2.2465708E+001
 30
0.0
 10
-4.5333998E+001
 20
2.26651E+001
 30
0.0
 10
-4.1047292E+001
 20
2.319349E+001
 30
0.0
 10
-3.8177256E+001
 20
2.3454392E+001
 30
0.0
 10
-3.5300407E+001
 20
2.3664503E+001
 30
0.0
  0
SPLINE
  5
15e
100
AcDbEntity
  8
104
100
AcDbSpline
  6
CONTINUOUS
 62
1
210
0.0
220
0.0
230
0.0
 70
0
 71
3
 72
16
 73
12
 74
0
 42
1.0E-007
 43
1.0E-007
 44
0.0
 40
0.0
 40
0.0
 40
0.0
 40
0.0
 40
2.5E-001
 40
2.5E-001
 40
3.75E-001
 40
3.75E-001
 40
5.0E-001
 40
5.0E-001
 40
7.5E-001
 40
7.5E-001
 40
1.0
 40
1.0
 40
1.0
 40
1.0
 10
-6.1001467E+001
 20
1.7655786E+001
 30
0.0
 10
-6.0412854E+001
 20
1.8191269E+001
 30
0.0
 10
-5.9764057E+001
 20
1.8641597E+001
 30
0.0
 10
-5.8734719E+001
 20
1.9237813E+001
 30
0.0
 10
-5.8382318E+001
 20
1.9422456E+001
 30
0.0
 10
-5.7670932E+001
 20
1.9764473E+001
 30
0.0
 10
-5.7310651E+001
 20
1.9922581E+001
 30
0.0
 10
-5.6218473E+001
 20
2.0365078E+001
 30
0.0
 10
-5.5475296E+001
 20
2.0617788E+001
 30
0.0
 10
-5.3967777E+001
 20
2.1063853E+001
 30
0.0
 10
-5.3203307E+001
 20
2.1256849E+001
 30
0.0
 10
-5.2430881E+001
 20
2.1427561E+001
 30
0.0
  0
SPLINE
  5
15f
100
AcDbEntity
  8
104
100
AcDbSpline
  6
CONTINUOUS
 62
1
210
0.0
220
0.0
230
0.0
 70
0
 71
3
 72
12
 73
8
 74
0
 42
1.0E-007
 43
1.0E-007
 44
0.0
 40
0.0
 40
0.0
 40
0.0
 40
0.0
 40
5.0E-001
 40
5.0E-001
 40
7.5E-001
 40
7.5E-001
 40
1.0
 40
1.0
 40
1.0
 40
1.0
 10
-6.2859603E+001
 20
-1.3696225E+001
 30
0.0
 10
-6.2786138E+001
 20
-9.1432436
 30
0.0
 10
-6.2747126E+001
 20
-4.579414
 30
0.0
 10
-6.2747086E+001
 20
2.2825655
 30
0.0
 10
-6.2756711E+001
 20
4.5720611
 30
0.0
 10
-6.2794603E+001
 20
9.1396
 30
0.0
 10
-6.282287E+001
 20
1.1419734E+001
 30
0.0
 10
-6.2859603E+001
 20
1.3696225E+001
 30
0.0
  0
SPLINE
  5
160
100
AcDbEntity
  8
104
100
AcDbSpline
  6
CONTINUOUS
 62
1
210
0.0
220
0.0
230
0.0
 70
0
 71
3
 72
8
 73
4
 74
0
 42
1.0E-007
 43
1.0E-007
 44
0.0
 40
0.0
 40
0.0
 40
0.0
 40
0.0
 40
1.0
 40
1.0
 40
1.0
 40
1.0
 10
-6.2859405E+001
 20
1.3696236E+001
 30
0.0
 10
-6.2718469E+001
 20
1.3705761E+001
 30
0.0
 10
-6.2581845E+001
 20
1.3716332E+001
 30
0.0
 10
-6.2451105E+001
 20
1.3727829E+001
 30
0.0
  0
SPLINE
  5
161
100
AcDbEntity
  8
104
100
AcDbSpline
  6
CONTINUOUS
 62
1
210
0.0
220
0.0
230
0.0
 70
0
 71
3
 72
8
 73
4
 74
0
 42
1.0E-007
 43
1.0E-007
 44
0.0
 40
0.0
 40
0.0
 40
0.0
 40
0.0
 40
1.0
 40
1.0
 40
1.0
 40
1.0
 10
-6.2859603E+001
 20
-1.3696241E+001
 30
0.0
 10
-6.2718691E+001
 20
-1.3705738E+001
 30
0.0
 10
-6.2582091E+001
 20
-1.3716282E+001
 30
0.0
 10
-6.2451373E+001
 20
-1.372775E+001
 30
0.0
  0
SPLINE
  5
162
100
AcDbEntity
  8
104
100
AcDbSpline
  6
CONTINUOUS
 62
1
210
0.0
220
0.0
230
0.0
 70
0
 71
3
 72
30
 73
26
 74
0
 42
1.0E-007
 43
1.0E-007
 44
0.0
 40
0.0
 40
0.0
 40
0.0
 40
0.0
 40
3.125E-002
 40
3.125E-002
 40
6.25E-002
 40
6.25E-002
 40
1.25E-001
 40
1.25E-001
 40
2.5E-001
 40
2.5E-001
 40
3.75E-001
 40
3.75E-001
 40
5.0E-001
 40
5.0E-001
 40
6.25E-001
 40
6.25E-001
 40
7.5E-001
 40
7.5E-001
 40
8.75E-001
 40
8.75E-001
 40
9.375E-001
 40
9.375E-001
 40
9.6875E-001
 40
9.6875E-001
 40
1.0
 40
1.0
 40
1.0
 40
1.0
 10
-3.5300719E+001
 20
2.3665554E+001
 30
0.0
 10
-3.5210713E+001
 20
2.3676188E+001
 30
0.0
 10
-3.5118216E+001
 20
2.3688339E+001
 30
0.0
 10
-3.4937952E+001
 20
2.3714403E+001
 30
0.0
 10
-3.4848554E+001
 20
2.372851E+001
 30
0.0
 10
-3.4582483E+001
 20
2.3773925E+001
 30
0.0
 10
-3.4407928E+001
 20
2.3808316E+001
 30
0.0
 10
-3.3892352E+001
 20
2.3923167E+001
 30
0.0
 10
-3.3556374E+001
 20
2.4016505E+001
 30
0.0
 10
-3.2935415E+001
 20
2.4222653E+001
 30
0.0
 10
-3.2646656E+001
 20
2.4336021E+001
 30
0.0
 10
-3.2108983E+001
 20
2.4581074E+001
 30
0.0
 10
-3.1866042E+001
 20
2.4710171E+001
 30
0.0
 10
-3.1431352E+001
 20
2.497655E+001
 30
0.0
 10
-3.1237422E+001
 20
2.51154E+001
 30
0.0
 10
-3.0903743E+001
 20
2.5396273E+001
 30
0.0
 10
-3.0764344E+001
 20
2.5537573E+001
 30
0.0
 10
-3.0537201E+001
 20
2.5821605E+001
 30
0.0
 10
-3.0449241E+001
 20
2.5965233E+001
 30
0.0
 10
-3.035915E+001
 20
2.6177267E+001
 30
0.0
 10
-3.0335986E+001
 20
2.6247447E+001
 30
0.0
 10
-3.0311546E+001
 20
2.6351983E+001
 30
0.0
 10
-3.0305119E+001
 20
2.6386705E+001
 30
0.0
 10
-3.0295739E+001
 20
2.6455907E+001
 30
0.0
 10
-3.0292769E+001
 20
2.6490839E+001
 30
0.0
 10
-3.0291595E+001
 20
2.6524743E+001
 30
0.0
  0
SPLINE
  5
163
100
AcDbEntity
  8
104
100
AcDbSpline
  6
CONTINUOUS
 62
1
210
0.0
220
0.0
230
0.0
 70
0
 71
3
 72
14
 73
10
 74
0
 42
1.0E-007
 43
1.0E-007
 44
0.0
 40
0.0
 40
0.0
 40
0.0
 40
0.0
 40
2.5E-001
 40
2.5E-001
 40
5.0E-001
 40
5.0E-001
 40
7.5E-001
 40
7.5E-001
 40
1.0
 40
1.0
 40
1.0
 40
1.0
 10
-6.1001467E+001
 20
-1.7655786E+001
 30
0.0
 10
-6.1209864E+001
 20
-1.7352373E+001
 30
0.0
 10
-6.1411634E+001
 20
-1.7044587E+001
 30
0.0
 10
-6.1799766E+001
 20
-1.6419147E+001
 30
0.0
 10
-6.1986415E+001
 20
-1.6101657E+001
 30
0.0
 10
-6.2336076E+001
 20
-1.5452137E+001
 30
0.0
 10
-6.250131E+001
 20
-1.5119522E+001
 30
0.0
 10
-6.2766148E+001
 20
-1.4431129E+001
 30
0.0
 10
-6.2865428E+001
 20
-1.4067148E+001
 30
0.0
 10
-6.2859405E+001
 20
-1.3696236E+001
 30
0.0
  0
ELLIPSE
  5
164
100
AcDbEntity
  8
104
100
AcDbEllipse
  6
CONTINUOUS
 10
-6.2871495E+001
 20
0.0
 11
0.0
 21
1.4E+002
 40
1.3464844E-002
 41
4.1799448
 42
4.5859395
 62
1
  0
ELLIPSE
  5
165
100
AcDbEntity
  8
104
100
AcDbEllipse
  6
CONTINUOUS
 10
-6.2871495E+001
 20
0.0
 11
0.0
 21
1.4E+002
 40
1.3464844E-002
 41
4.8388384
 42
5.2448332
 62
1
  0
SPLINE
  5
166
100
AcDbEntity
  8
104
100
AcDbSpline
  6
CONTINUOUS
 62
1
210
0.0
220
0.0
230
0.0
 70
0
 71
3
 72
14
 73
10
 74
0
 42
1.0E-007
 43
1.0E-007
 44
0.0
 40
0.0
 40
0.0
 40
0.0
 40
0.0
 40
1.25E-001
 40
1.25E-001
 40
2.5E-001
 40
2.5E-001
 40
5.0E-001
 40
5.0E-001
 40
1.0
 40
1.0
 40
1.0
 40
1.0
 10
-6.2859405E+001
 20
1.3696236E+001
 30
0.0
 10
-6.2862418E+001
 20
1.3881773E+001
 30
0.0
 10
-6.283971E+001
 20
1.4066345E+001
 30
0.0
 10
-6.2757375E+001
 20
1.4428966E+001
 30
0.0
 10
-6.2699279E+001
 20
1.4605291E+001
 30
0.0
 10
-6.2498694E+001
 20
1.5125614E+001
 30
0.0
 10
-6.2334445E+001
 20
1.5455305E+001
 30
0.0
 10
-6.181131E+001
 20
1.6426652E+001
 30
0.0
 10
-6.1418486E+001
 20
1.7048631E+001
 30
0.0
 10
-6.1001467E+001
 20
1.7655786E+001
 30
0.0
  0
SPLINE
  5
167
100
AcDbEntity
  8
104
100
AcDbSpline
  6
CONTINUOUS
 62
1
210
0.0
220
0.0
230
0.0
 70
0
 71
3
 72
53
 73
49
 74
0
 42
1.0E-007
 43
1.0E-007
 44
0.0
 40
0.0
 40
0.0
 40
0.0
 40
0.0
 40
2.1379773E-002
 40
4.2775513E-002
 40
6.4187223E-002
 40
8.5614901E-002
 40
1.0705855E-001
 40
1.2851816E-001
 40
1.4999375E-001
 40
1.714853E-001
 40
1.9299283E-001
 40
2.1451632E-001
 40
2.3605579E-001
 40
2.5761123E-001
 40
2.7918263E-001
 40
3.0077001E-001
 40
3.2237336E-001
 40
3.4399268E-001
 40
3.6562797E-001
 40
3.8727923E-001
 40
4.0894647E-001
 40
4.3062968E-001
 40
4.5232886E-001
 40
4.7404401E-001
 40
4.9577513E-001
 40
5.1752223E-001
 40
5.392853E-001
 40
5.6106435E-001
 40
5.8285937E-001
 40
6.0467036E-001
 40
6.2649733E-001
 40
6.4834027E-001
 40
6.7019918E-001
 40
6.9207407E-001
 40
7.1396494E-001
 40
7.3587178E-001
 40
7.577946E-001
 40
7.7973339E-001
 40
8.0168815E-001
 40
8.236589E-001
 40
8.4564562E-001
 40
8.6764831E-001
 40
8.8966698E-001
 40
9.1170163E-001
 40
9.3375226E-001
 40
9.5581886E-001
 40
9.7790144E-001
 40
1.0
 40
1.0
 40
1.0
 40
1.0
 10
-3.5300405E+001
 20
2.3665308E+001
 30
0.0
 10
-3.5299565E+001
 20
2.4021736E+001
 30
0.0
 10
-3.5297884E+001
 20
2.4734859E+001
 30
0.0
 10
-3.5295221E+001
 20
2.5803073E+001
 30
0.0
 10
-3.5292454E+001
 20
2.6870632E+001
 30
0.0
 10
-3.5289573E+001
 20
2.7937338E+001
 30
0.0
 10
-3.5286579E+001
 20
2.9003157E+001
 30
0.0
 10
-3.5283472E+001
 20
3.0068013E+001
 30
0.0
 10
-3.5280253E+001
 20
3.1131838E+001
 30
0.0
 10
-3.5276922E+001
 20
3.2194565E+001
 30
0.0
 10
-3.5273478E+001
 20
3.3256123E+001
 30
0.0
 10
-3.5269921E+001
 20
3.4316445E+001
 30
0.0
 10
-3.5266252E+001
 20
3.5375461E+001
 30
0.0
 10
-3.526247E+001
 20
3.6433101E+001
 30
0.0
 10
-3.5258576E+001
 20
3.7489296E+001
 30
0.0
 10
-3.5254569E+001
 20
3.8543977E+001
 30
0.0
 10
-3.5250449E+001
 20
3.9597074E+001
 30
0.0
 10
-3.5246218E+001
 20
4.0648517E+001
 30
0.0
 10
-3.5241873E+001
 20
4.1698235E+001
 30
0.0
 10
-3.5237416E+001
 20
4.2746159E+001
 30
0.0
 10
-3.5232846E+001
 20
4.3792218E+001
 30
0.0
 10
-3.5228164E+001
 20
4.4836341E+001
 30
0.0
 10
-3.522337E+001
 20
4.5878459E+001
 30
0.0
 10
-3.5218462E+001
 20
4.69185E+001
 30
0.0
 10
-3.5213443E+001
 20
4.7956394E+001
 30
0.0
 10
-3.520831E+001
 20
4.899207E+001
 30
0.0
 10
-3.5203065E+001
 20
5.0025456E+001
 30
0.0
 10
-3.5197708E+001
 20
5.1056481E+001
 30
0.0
 10
-3.5192238E+001
 20
5.2085075E+001
 30
0.0
 10
-3.5186655E+001
 20
5.3111166E+001
 30
0.0
 10
-3.518096E+001
 20
5.4134682E+001
 30
0.0
 10
-3.5175153E+001
 20
5.5155553E+001
 30
0.0
 10
-3.5169233E+001
 20
5.6173705E+001
 30
0.0
 10
-3.51632E+001
 20
5.7189069E+001
 30
0.0
 10
-3.5157055E+001
 20
5.8201572E+001
 30
0.0
 10
-3.5150797E+001
 20
5.9211143E+001
 30
0.0
 10
-3.5144426E+001
 20
6.0217709E+001
 30
0.0
 10
-3.5137943E+001
 20
6.1221199E+001
 30
0.0
 10
-3.5131348E+001
 20
6.2221541E+001
 30
0.0
 10
-3.512464E+001
 20
6.3218663E+001
 30
0.0
 10
-3.5117819E+001
 20
6.4212493E+001
 30
0.0
 10
-3.5110886E+001
 20
6.5202959E+001
 30
0.0
 10
-3.5103841E+001
 20
6.618999E+001
 30
0.0
 10
-3.5096682E+001
 20
6.7173508E+001
 30
0.0
 10
-3.5089412E+001
 20
6.8153468E+001
 30
0.0
 10
-3.5082027E+001
 20
6.9129689E+001
 30
0.0
 10
-3.5074537E+001
 20
7.0102514E+001
 30
0.0
 10
-3.5069452E+001
 20
7.0747484E+001
 30
0.0
 10
-3.5066908E+001
 20
7.1070086E+001
 30
0.0
  0
SPLINE
  5
168
100
AcDbEntity
  8
104
100
AcDbSpline
  6
CONTINUOUS
 62
1
210
0.0
220
0.0
230
0.0
 70
0
 71
3
 72
53
 73
49
 74
0
 42
1.0E-007
 43
1.0E-007
 44
0.0
 40
0.0
 40
0.0
 40
0.0
 40
0.0
 40
2.2098465E-002
 40
4.4180956E-002
 40
6.6247475E-002
 40
8.829802E-002
 40
1.1033259E-001
 40
1.3235119E-001
 40
1.5435382E-001
 40
1.7634047E-001
 40
1.9831116E-001
 40
2.2026587E-001
 40
2.4220461E-001
 40
2.6412738E-001
 40
2.8603417E-001
 40
3.07925E-001
 40
3.2979985E-001
 40
3.5165874E-001
 40
3.7350165E-001
 40
3.953286E-001
 40
4.1713957E-001
 40
4.3893458E-001
 40
4.6071361E-001
 40
4.8247668E-001
 40
5.0422377E-001
 40
5.259549E-001
 40
5.4767006E-001
 40
5.6936925E-001
 40
5.9105247E-001
 40
6.1271972E-001
 40
6.3437101E-001
 40
6.5600633E-001
 40
6.7762568E-001
 40
6.9922906E-001
 40
7.2081648E-001
 40
7.4238793E-001
 40
7.6394341E-001
 40
7.8548293E-001
 40
8.0700648E-001
 40
8.2851407E-001
 40
8.5000569E-001
 40
8.7148134E-001
 40
8.9294103E-001
 40
9.1438475E-001
 40
9.3581251E-001
 40
9.572243E-001
 40
9.7862013E-001
 40
1.0
 40
1.0
 40
1.0
 40
1.0
 10
-3.5066908E+001
 20
-7.1070086E+001
 30
0.0
 10
-3.5069452E+001
 20
-7.0747486E+001
 30
0.0
 10
-3.5074537E+001
 20
-7.0102518E+001
 30
0.0
 10
-3.5082027E+001
 20
-6.9129697E+001
 30
0.0
 10
-3.5089412E+001
 20
-6.815348E+001
 30
0.0
 10
-3.5096682E+001
 20
-6.7173523E+001
 30
0.0
 10
-3.5103841E+001
 20
-6.6190009E+001
 30
0.0
 10
-3.5110886E+001
 20
-6.5202981E+001
 30
0.0
 10
-3.5117819E+001
 20
-6.4212518E+001
 30
0.0
 10
-3.512464E+001
 20
-6.3218691E+001
 30
0.0
 10
-3.5131348E+001
 20
-6.2221572E+001
 30
0.0
 10
-3.5137943E+001
 20
-6.1221233E+001
 30
0.0
 10
-3.5144426E+001
 20
-6.0217745E+001
 30
0.0
 10
-3.5150796E+001
 20
-5.9211182E+001
 30
0.0
 10
-3.5157054E+001
 20
-5.8201613E+001
 30
0.0
 10
-3.5163199E+001
 20
-5.7189112E+001
 30
0.0
 10
-3.5169232E+001
 20
-5.617375E+001
 30
0.0
 10
-3.5175152E+001
 20
-5.5155599E+001
 30
0.0
 10
-3.518096E+001
 20
-5.413473E+001
 30
0.0
 10
-3.5186655E+001
 20
-5.3111215E+001
 30
0.0
 10
-3.5192238E+001
 20
-5.2085125E+001
 30
0.0
 10
-3.5197707E+001
 20
-5.1056532E+001
 30
0.0
 10
-3.5203065E+001
 20
-5.0025507E+001
 30
0.0
 10
-3.520831E+001
 20
-4.8992121E+001
 30
0.0
 10
-3.5213442E+001
 20
-4.7956446E+001
 30
0.0
 10
-3.5218462E+001
 20
-4.6918552E+001
 30
0.0
 10
-3.5223369E+001
 20
-4.5878511E+001
 30
0.0
 10
-3.5228164E+001
 20
-4.4836393E+001
 30
0.0
 10
-3.5232846E+001
 20
-4.3792269E+001
 30
0.0
 10
-3.5237415E+001
 20
-4.2746209E+001
 30
0.0
 10
-3.5241872E+001
 20
-4.1698284E+001
 30
0.0
 10
-3.5246217E+001
 20
-4.0648565E+001
 30
0.0
 10
-3.5250449E+001
 20
-3.9597121E+001
 30
0.0
 10
-3.5254568E+001
 20
-3.8544022E+001
 30
0.0
 10
-3.5258575E+001
 20
-3.748934E+001
 30
0.0
 10
-3.5262469E+001
 20
-3.6433142E+001
 30
0.0
 10
-3.5266251E+001
 20
-3.53755E+001
 30
0.0
 10
-3.526992E+001
 20
-3.4316482E+001
 30
0.0
 10
-3.5273477E+001
 20
-3.3256157E+001
 30
0.0
 10
-3.5276921E+001
 20
-3.2194596E+001
 30
0.0
 10
-3.5280253E+001
 20
-3.1131866E+001
 30
0.0
 10
-3.5283472E+001
 20
-3.0068037E+001
 30
0.0
 10
-3.5286578E+001
 20
-2.9003178E+001
 30
0.0
 10
-3.5289572E+001
 20
-2.7937355E+001
 30
0.0
 10
-3.5292454E+001
 20
-2.6870645E+001
 30
0.0
 10
-3.5295221E+001
 20
-2.5803082E+001
 30
0.0
 10
-3.5297883E+001
 20
-2.4734864E+001
 30
0.0
 10
-3.5299564E+001
 20
-2.4021738E+001
 30
0.0
 10
-3.5300404E+001
 20
-2.3665308E+001
 30
0.0
  0
LINE
  5
169
100
AcDbEntity
  8
104
100
AcDbLine
  6
CONTINUOUS
 62
40
 10
-6.6657154E+001
 20
7.0500195E+001
 11
-6.6657154E+001
 21
-7.0500195E+001
  0
SPLINE
  5
16a
100
AcDbEntity
  8
104
100
AcDbSpline
  6
CONTINUOUS
 62
40
210
0.0
220
0.0
230
0.0
 70
0
 71
3
 72
10
 73
6
 74
0
 42
1.0E-007
 43
1.0E-007
 44
0.0
 40
0.0
 40
0.0
 40
0.0
 40
0.0
 40
5.0E-001
 40
5.0E-001
 40
1.0
 40
1.0
 40
1.0
 40
1.0
 10
-2.8520725E+001
 20
2.5894491E+001
 30
0.0
 10
-2.8291057E+001
 20
2.5770378E+001
 30
0.0
 10
-2.8050442E+001
 20
2.5678556E+001
 30
0.0
 10
-2.7547943E+001
 20
2.5557657E+001
 30
0.0
 10
-2.7286372E+001
 20
2.5529636E+001
 30
0.0
 10
-2.7025392E+001
 20
2.5536229E+001
 30
0.0
  0
SPLINE
  5
16b
100
AcDbEntity
  8
104
100
AcDbSpline
  6
CONTINUOUS
 62
40
210
0.0
220
0.0
230
0.0
 70
0
 71
3
 72
8
 73
4
 74
0
 42
1.0E-007
 43
1.0E-007
 44
0.0
 40
0.0
 40
0.0
 40
0.0
 40
0.0
 40
1.0
 40
1.0
 40
1.0
 40
1.0
 10
-2.9593092E+001
 20
2.7313451E+001
 30
0.0
 10
-2.9544279E+001
 20
2.7170619E+001
 30
0.0
 10
-2.9488095E+001
 20
2.7022629E+001
 30
0.0
 10
-2.9422427E+001
 20
2.6869534E+001
 30
0.0
  0
SPLINE
  5
16c
100
AcDbEntity
  8
104
100
AcDbSpline
  6
CONTINUOUS
 62
40
210
0.0
220
0.0
230
0.0
 70
0
 71
3
 72
14
 73
10
 74
0
 42
1.0E-007
 43
1.0E-007
 44
0.0
 40
0.0
 40
0.0
 40
0.0
 40
0.0
 40
2.5E-001
 40
2.5E-001
 40
5.0E-001
 40
5.0E-001
 40
7.5E-001
 40
7.5E-001
 40
1.0
 40
1.0
 40
1.0
 40
1.0
 10
-2.8692476E+001
 20
2.6056364E+001
 30
0.0
 10
-2.8803974E+001
 20
2.6135562E+001
 30
0.0
 10
-2.8903855E+001
 20
2.6219501E+001
 30
0.0
 10
-2.9075706E+001
 20
2.6383684E+001
 30
0.0
 10
-2.9146949E+001
 20
2.6462824E+001
 30
0.0
 10
-2.9265508E+001
 20
2.6609266E+001
 30
0.0
 10
-2.9312274E+001
 20
2.6676021E+001
 30
0.0
 10
-2.938288E+001
 20
2.6788188E+001
 30
0.0
 10
-2.9407456E+001
 20
2.6834629E+001
 30
0.0
 10
-2.9422427E+001
 20
2.6869534E+001
 30
0.0
  0
SPLINE
  5
16d
100
AcDbEntity
  8
104
100
AcDbSpline
  6
CONTINUOUS
 62
40
210
0.0
220
0.0
230
0.0
 70
0
 71
3
 72
10
 73
6
 74
0
 42
1.0E-007
 43
1.0E-007
 44
0.0
 40
0.0
 40
0.0
 40
0.0
 40
0.0
 40
5.0E-001
 40
5.0E-001
 40
1.0
 40
1.0
 40
1.0
 40
1.0
 10
-2.8511636E+001
 20
2.5919371E+001
 30
0.0
 10
-2.8509637E+001
 20
2.5925169E+001
 30
0.0
 10
-2.8533892E+001
 20
2.5944357E+001
 30
0.0
 10
-2.860342E+001
 20
2.5994173E+001
 30
0.0
 10
-2.8646514E+001
 20
2.6023717E+001
 30
0.0
 10
-2.8692476E+001
 20
2.6056364E+001
 30
0.0
  0
SPLINE
  5
16e
100
AcDbEntity
  8
104
100
AcDbSpline
  6
CONTINUOUS
 62
40
210
1.832108E-004
220
1.832108E-004
230
1.832108E-004
 70
0
 71
3
 72
8
 73
4
 74
0
 42
1.0E-007
 43
1.0E-007
 44
0.0
 40
1.832108E-004
 40
1.832108E-004
 40
1.832108E-004
 40
1.832108E-004
 40
4.688193E-004
 40
4.688193E-004
 40
4.688193E-004
 40
4.688193E-004
 10
-2.8511636E+001
 20
2.5919371E+001
 30
0.0
 10
-2.8514495E+001
 20
2.5911077E+001
 30
0.0
 10
-2.8517525E+001
 20
2.5902784E+001
 30
0.0
 10
-2.8520725E+001
 20
2.5894491E+001
 30
0.0
  0
SPLINE
  5
16f
100
AcDbEntity
  8
104
100
AcDbSpline
  6
CONTINUOUS
 62
40
210
0.0
220
0.0
230
0.0
 70
0
 71
3
 72
8
 73
4
 74
0
 42
1.0E-007
 43
1.0E-007
 44
0.0
 40
0.0
 40
0.0
 40
0.0
 40
0.0
 40
1.0
 40
1.0
 40
1.0
 40
1.0
 10
-2.9422427E+001
 20
-2.6869534E+001
 30
0.0
 10
-2.9488069E+001
 20
-2.7022568E+001
 30
0.0
 10
-2.954426E+001
 20
-2.7170565E+001
 30
0.0
 10
-2.9593092E+001
 20
-2.7313451E+001
 30
0.0
  0
SPLINE
  5
170
100
AcDbEntity
  8
104
100
AcDbSpline
  6
CONTINUOUS
 62
40
210
0.0
220
0.0
230
0.0
 70
0
 71
3
 72
10
 73
6
 74
0
 42
1.0E-007
 43
1.0E-007
 44
0.0
 40
0.0
 40
0.0
 40
0.0
 40
0.0
 40
5.0E-001
 40
5.0E-001
 40
1.0
 40
1.0
 40
1.0
 40
1.0
 10
-2.8520725E+001
 20
-2.5894491E+001
 30
0.0
 10
-2.8291057E+001
 20
-2.5770378E+001
 30
0.0
 10
-2.8050442E+001
 20
-2.5678556E+001
 30
0.0
 10
-2.7547943E+001
 20
-2.5557657E+001
 30
0.0
 10
-2.7286372E+001
 20
-2.5529636E+001
 30
0.0
 10
-2.7025392E+001
 20
-2.5536229E+001
 30
0.0
  0
SPLINE
  5
171
100
AcDbEntity
  8
104
100
AcDbSpline
  6
CONTINUOUS
 62
40
210
1.832108E-004
220
1.832108E-004
230
1.832108E-004
 70
0
 71
3
 72
8
 73
4
 74
0
 42
1.0E-007
 43
1.0E-007
 44
0.0
 40
1.832108E-004
 40
1.832108E-004
 40
1.832108E-004
 40
1.832108E-004
 40
4.688193E-004
 40
4.688193E-004
 40
4.688193E-004
 40
4.688193E-004
 10
-2.8511636E+001
 20
-2.5919371E+001
 30
0.0
 10
-2.8514495E+001
 20
-2.5911077E+001
 30
0.0
 10
-2.8517525E+001
 20
-2.5902784E+001
 30
0.0
 10
-2.8520725E+001
 20
-2.5894491E+001
 30
0.0
  0
SPLINE
  5
172
100
AcDbEntity
  8
104
100
AcDbSpline
  6
CONTINUOUS
 62
40
210
0.0
220
0.0
230
0.0
 70
0
 71
3
 72
10
 73
6
 74
0
 42
1.0E-007
 43
1.0E-007
 44
0.0
 40
0.0
 40
0.0
 40
0.0
 40
0.0
 40
5.0E-001
 40
5.0E-001
 40
1.0
 40
1.0
 40
1.0
 40
1.0
 10
-2.8692476E+001
 20
-2.6056364E+001
 30
0.0
 10
-2.8646553E+001
 20
-2.6023745E+001
 30
0.0
 10
-2.8603295E+001
 20
-2.5994083E+001
 30
0.0
 10
-2.8534054E+001
 20
-2.5944474E+001
 30
0.0
 10
-2.8509641E+001
 20
-2.5925159E+001
 30
0.0
 10
-2.8511636E+001
 20
-2.5919371E+001
 30
0.0
  0
SPLINE
  5
173
100
AcDbEntity
  8
104
100
AcDbSpline
  6
CONTINUOUS
 62
40
210
0.0
220
0.0
230
0.0
 70
0
 71
3
 72
14
 73
10
 74
0
 42
1.0E-007
 43
1.0E-007
 44
0.0
 40
0.0
 40
0.0
 40
0.0
 40
0.0
 40
2.5E-001
 40
2.5E-001
 40
5.0E-001
 40
5.0E-001
 40
7.5E-001
 40
7.5E-001
 40
1.0
 40
1.0
 40
1.0
 40
1.0
 10
-2.9422427E+001
 20
-2.6869534E+001
 30
0.0
 10
-2.9407435E+001
 20
-2.6834581E+001
 30
0.0
 10
-2.9383041E+001
 20
-2.6788469E+001
 30
0.0
 10
-2.9312456E+001
 20
-2.6676286E+001
 30
0.0
 10
-2.9265453E+001
 20
-2.6609207E+001
 30
0.0
 10
-2.9147147E+001
 20
-2.6463061E+001
 30
0.0
 10
-2.907605E+001
 20
-2.6384055E+001
 30
0.0
 10
-2.8904483E+001
 20
-2.6220058E+001
 30
0.0
 10
-2.8804105E+001
 20
-2.6135655E+001
 30
0.0
 10
-2.8692476E+001
 20
-2.6056364E+001
 30
0.0
  0
LINE
  5
174
100
AcDbEntity
  8
104
100
AcDbLine
  6
CONTINUOUS
 62
40
 10
-2.9677431E+001
 20
-3.0174654E+001
 11
-2.9657154E+001
 21
-3.0200001E+001
  0
LINE
  5
175
100
AcDbEntity
  8
104
100
AcDbLine
  6
CONTINUOUS
 62
40
 10
-2.9657154E+001
 20
-7.0500195E+001
 11
-2.9657154E+001
 21
-3.0200001E+001
  0
ELLIPSE
  5
176
100
AcDbEntity
  8
104
100
AcDbEllipse
  6
CONTINUOUS
 10
-2.964319E+001
 20
1.1030395E+002
 11
0.0
 21
1.405E+002
 40
1.3963541E-002
 41
2.9749826
 42
3.1241394
 62
40
  0
LINE
  5
177
100
AcDbEntity
  8
104
100
AcDbLine
  6
CONTINUOUS
 62
40
 10
-2.9657154E+001
 20
3.0200001E+001
 11
-2.9657154E+001
 21
7.0500195E+001
  0
LINE
  5
178
100
AcDbEntity
  8
1
100
AcDbLine
  6
CONTINUOUS
 62
7
 10
-2.9657154E+001
 20
3.0200001E+001
 11
-2.9677431E+001
 21
3.0174654E+001
  0
ELLIPSE
  5
179
100
AcDbEntity
  8
104
100
AcDbEllipse
  6
CONTINUOUS
 10
-2.964319E+001
 20
-1.1030395E+002
 11
0.0
 21
1.405E+002
 40
1.3963541E-002
 41
1.7453293E-002
 42
1.6654367E-001
 62
40
  0
LINE
  5
17a
100
AcDbEntity
  8
104
100
AcDbLine
  6
CONTINUOUS
 62
40
 10
-3.4007154E+001
 20
7.2499998E+001
 11
-6.2307154E+001
 21
7.2499998E+001
  0
LINE
  5
17b
100
AcDbEntity
  8
104
100
AcDbLine
  6
CONTINUOUS
 62
40
 10
-3.4007154E+001
 20
-7.2499998E+001
 11
-6.2307154E+001
 21
-7.2499998E+001
  0
LINE
  5
17c
100
AcDbEntity
  8
104
100
AcDbLine
  6
CONTINUOUS
 62
40
 10
-8.2157154E+001
 20
1.3E+001
 11
-8.2157154E+001
 21
-1.3E+001
  0
LINE
  5
17d
100
AcDbEntity
  8
104
100
AcDbLine
  6
CONTINUOUS
 62
40
 10
-6.6657154E+001
 20
1.3E+001
 11
-7.1083154E+001
 21
1.3E+001
  0
LINE
  5
17e
100
AcDbEntity
  8
104
100
AcDbLine
  6
CONTINUOUS
 62
40
 10
-6.6657154E+001
 20
-1.3E+001
 11
-7.1083154E+001
 21
-1.3E+001
  0
LINE
  5
17f
100
AcDbEntity
  8
104
100
AcDbLine
  6
CONTINUOUS
 62
40
 10
-6.6657154E+001
 20
-7.0
 11
-7.1083154E+001
 21
-7.0
  0
LINE
  5
180
100
AcDbEntity
  8
104
100
AcDbLine
  6
CONTINUOUS
 62
40
 10
-6.6657154E+001
 20
7.0
 11
-7.1083154E+001
 21
7.0
  0
LINE
  5
181
100
AcDbEntity
  8
104
100
AcDbLine
  6
CONTINUOUS
 62
40
 10
-7.2657154E+001
 20
7.0
 11
-7.2657154E+001
 21
-7.0
  0
LINE
  5
182
100
AcDbEntity
  8
104
100
AcDbLine
  6
CONTINUOUS
 62
40
 10
-7.2657154E+001
 20
0.0
 11
-8.2157154E+001
 21
0.0
  0
LINE
  5
183
100
AcDbEntity
  8
104
100
AcDbLine
  6
CONTINUOUS
 62
40
 10
-3.1656959E+001
 20
7.2499998E+001
 11
-3.4007154E+001
 21
7.2499998E+001
  0
LINE
  5
184
100
AcDbEntity
  8
104
100
AcDbLine
  6
CONTINUOUS
 62
40
 10
-6.2307154E+001
 20
7.2499998E+001
 11
-6.4657349E+001
 21
7.2499998E+001
  0
LINE
  5
185
100
AcDbEntity
  8
104
100
AcDbLine
  6
CONTINUOUS
 62
40
 10
-6.2307154E+001
 20
7.2499998E+001
 11
-6.1582424E+001
 21
7.2210208E+001
  0
ELLIPSE
  5
186
100
AcDbEntity
  8
104
100
AcDbEllipse
  6
CONTINUOUS
 10
-5.7185104E+001
 20
7.2212351E+001
 11
4.4
 21
0.0
 40
1.3963541E-002
 41
3.1764992
 42
4.712389
 62
40
  0
LINE
  5
187
100
AcDbEntity
  8
104
100
AcDbLine
  6
CONTINUOUS
 62
40
 10
-5.7185104E+001
 20
7.2150908E+001
 11
-3.9129204E+001
 21
7.2150908E+001
  0
ELLIPSE
  5
188
100
AcDbEntity
  8
104
100
AcDbEllipse
  6
CONTINUOUS
 10
-3.9129204E+001
 20
7.2212351E+001
 11
4.4
 21
0.0
 40
1.3963541E-002
 41
4.712389
 42
6.2482787
 62
40
  0
LINE
  5
189
100
AcDbEntity
  8
104
100
AcDbLine
  6
CONTINUOUS
 62
40
 10
-3.4731884E+001
 20
7.2210208E+001
 11
-3.4007154E+001
 21
7.2499998E+001
  0
LINE
  5
18a
100
AcDbEntity
  8
104
100
AcDbLine
  6
CONTINUOUS
 62
40
 10
-3.4007154E+001
 20
-7.2499998E+001
 11
-3.1656959E+001
 21
-7.2499998E+001
  0
LINE
  5
18b
100
AcDbEntity
  8
104
100
AcDbLine
  6
CONTINUOUS
 62
40
 10
-3.4731884E+001
 20
-7.2210208E+001
 11
-3.4007154E+001
 21
-7.2499998E+001
  0
ELLIPSE
  5
18c
100
AcDbEntity
  8
104
100
AcDbEllipse
  6
CONTINUOUS
 10
-3.9129204E+001
 20
-7.2212351E+001
 11
4.4
 21
0.0
 40
1.3963541E-002
 41
3.4906585E-002
 42
1.5707963
 62
40
  0
LINE
  5
18d
100
AcDbEntity
  8
104
100
AcDbLine
  6
CONTINUOUS
 62
40
 10
-5.7185104E+001
 20
-7.2150908E+001
 11
-3.9129204E+001
 21
-7.2150908E+001
  0
ELLIPSE
  5
18e
100
AcDbEntity
  8
104
100
AcDbEllipse
  6
CONTINUOUS
 10
-5.7185104E+001
 20
-7.2212351E+001
 11
4.4
 21
0.0
 40
1.3963541E-002
 41
1.5707963
 42
3.1066861
 62
40
  0
LINE
  5
18f
100
AcDbEntity
  8
104
100
AcDbLine
  6
CONTINUOUS
 62
40
 10
-6.2307154E+001
 20
-7.2499998E+001
 11
-6.1582424E+001
 21
-7.2210208E+001
  0
LINE
  5
190
100
AcDbEntity
  8
104
100
AcDbLine
  6
CONTINUOUS
 62
40
 10
-6.4657349E+001
 20
-7.2499998E+001
 11
-6.2307154E+001
 21
-7.2499998E+001
  0
SPLINE
  5
191
100
AcDbEntity
  8
104
100
AcDbSpline
  6
CONTINUOUS
 62
40
210
0.0
220
0.0
230
0.0
 70
0
 71
3
 72
10
 73
6
 74
0
 42
1.0E-007
 43
1.0E-007
 44
0.0
 40
0.0
 40
0.0
 40
0.0
 40
0.0
 40
5.0E-001
 40
5.0E-001
 40
1.0
 40
1.0
 40
1.0
 40
1.0
 10
-1.4514314
 20
2.5824281E+001
 30
0.0
 10
-1.2866612
 20
2.5824364E+001
 30
0.0
 10
-1.1257694
 20
2.5772953E+001
 30
0.0
 10
-8.5857075E-001
 20
2.5584849E+001
 30
0.0
 10
-7.5515183E-001
 20
2.5449533E+001
 30
0.0
 10
-6.9941328E-001
 20
2.5294491E+001
 30
0.0
  0
SPLINE
  5
192
100
AcDbEntity
  8
104
100
AcDbSpline
  6
CONTINUOUS
 62
40
210
0.0
220
0.0
230
0.0
 70
0
 71
3
 72
8
 73
4
 74
0
 42
1.0E-007
 43
1.0E-007
 44
0.0
 40
0.0
 40
0.0
 40
0.0
 40
0.0
 40
1.0
 40
1.0
 40
1.0
 40
1.0
 10
-6.9941328E-001
 20
2.5294491E+001
 30
0.0
 10
-6.6903297E-001
 20
2.5203517E+001
 30
0.0
 10
-6.5318942E-001
 20
2.5108492E+001
 30
0.0
 10
-6.5374985E-001
 20
2.5008884E+001
 30
0.0
  0
SPLINE
  5
193
100
AcDbEntity
  8
104
100
AcDbSpline
  6
CONTINUOUS
 62
40
210
0.0
220
0.0
230
0.0
 70
0
 71
3
 72
10
 73
6
 74
0
 42
1.0E-007
 43
1.0E-007
 44
0.0
 40
0.0
 40
0.0
 40
0.0
 40
0.0
 40
5.0E-001
 40
5.0E-001
 40
1.0
 40
1.0
 40
1.0
 40
1.0
 10
-6.9941328E-001
 20
-2.5294491E+001
 30
0.0
 10
-7.5515417E-001
 20
-2.544954E+001
 30
0.0
 10
-8.5760639E-001
 20
-2.5583801E+001
 30
0.0
 10
-1.1243339
 20
-2.5772308E+001
 30
0.0
 10
-1.2866515
 20
-2.5824364E+001
 30
0.0
 10
-1.4514314
 20
-2.5824281E+001
 30
0.0
  0
SPLINE
  5
194
100
AcDbEntity
  8
104
100
AcDbSpline
  6
CONTINUOUS
 62
40
210
0.0
220
0.0
230
0.0
 70
0
 71
3
 72
8
 73
4
 74
0
 42
1.0E-007
 43
1.0E-007
 44
0.0
 40
0.0
 40
0.0
 40
0.0
 40
0.0
 40
1.0
 40
1.0
 40
1.0
 40
1.0
 10
-6.5374985E-001
 20
-2.5008884E+001
 30
0.0
 10
-6.5318942E-001
 20
-2.5108492E+001
 30
0.0
 10
-6.6903297E-001
 20
-2.5203517E+001
 30
0.0
 10
-6.9941328E-001
 20
-2.5294491E+001
 30
0.0
  0
ELLIPSE
  5
195
100
AcDbEntity
  8
104
100
AcDbEllipse
  6
CONTINUOUS
 10
-3.1657349E+001
 20
-7.0499805E+001
 11
-1.4144893
 21
1.4144893
 40
9.9980508E-001
 41
2.356292
 42
3.9268933
 62
40
  0
ELLIPSE
  5
196
100
AcDbEntity
  8
104
100
AcDbEllipse
  6
CONTINUOUS
 10
-3.1657349E+001
 20
7.0499805E+001
 11
1.4144893
 21
1.4144893
 40
9.9980508E-001
 41
5.4978846
 42
7.068486
 62
40
  0
ELLIPSE
  5
197
100
AcDbEntity
  8
104
100
AcDbEllipse
  6
CONTINUOUS
 10
-6.4656959E+001
 20
7.0499805E+001
 11
1.4144893
 21
-1.4144893
 40
9.9980508E-001
 41
2.356292
 42
3.9268933
 62
40
  0
ELLIPSE
  5
198
100
AcDbEntity
  8
104
100
AcDbEllipse
  6
CONTINUOUS
 10
-6.4656959E+001
 20
-7.0499805E+001
 11
-1.4144893
 21
-1.4144893
 40
9.9980508E-001
 41
5.4978846
 42
7.068486
 62
40
  0
POLYLINE
  5
199
100
AcDbEntity
  8
104
100
AcDb2dPolyline
  6
CONTINUOUS
 62
40
 66
1
 40
0.0
 41
0.0
 70
2
  0
VERTEX
  5
19a
100
AcDbEntity
  8
104
100
AcDbVertex
100
AcDb2dVertex
 42
0.0
 10
-2.9594638E+001
 20
2.7316401E+001
 70
0
  0
VERTEX
  5
19b
100
AcDbEntity
  8
104
100
AcDbVertex
100
AcDb2dVertex
 42
0.0
 10
-2.959456E+001
 20
2.7316253E+001
 70
1
  0
VERTEX
  5
19c
100
AcDbEntity
  8
104
100
AcDbVertex
100
AcDb2dVertex
 42
0.0
 10
-2.9594483E+001
 20
2.7316106E+001
 70
0
  0
VERTEX
  5
19d
100
AcDbEntity
  8
104
100
AcDbVertex
100
AcDb2dVertex
 42
0.0
 10
-2.9594406E+001
 20
2.7315959E+001
 70
1
  0
VERTEX
  5
19e
100
AcDbEntity
  8
104
100
AcDbVertex
100
AcDb2dVertex
 42
0.0
 10
-2.9594329E+001
 20
2.7315811E+001
 70
0
  0
VERTEX
  5
19f
100
AcDbEntity
  8
104
100
AcDbVertex
100
AcDb2dVertex
 42
0.0
 10
-2.9594251E+001
 20
2.7315664E+001
 70
1
  0
VERTEX
  5
1a0
100
AcDbEntity
  8
104
100
AcDbVertex
100
AcDb2dVertex
 42
0.0
 10
-2.9594174E+001
 20
2.7315516E+001
 70
0
  0
VERTEX
  5
1a1
100
AcDbEntity
  8
104
100
AcDbVertex
100
AcDb2dVertex
 42
0.0
 10
-2.9594097E+001
 20
2.7315369E+001
 70
1
  0
VERTEX
  5
1a2
100
AcDbEntity
  8
104
100
AcDbVertex
100
AcDb2dVertex
 42
0.0
 10
-2.9594019E+001
 20
2.7315221E+001
 70
0
  0
VERTEX
  5
1a3
100
AcDbEntity
  8
104
100
AcDbVertex
100
AcDb2dVertex
 42
0.0
 10
-2.9593942E+001
 20
2.7315074E+001
 70
1
  0
VERTEX
  5
1a4
100
AcDbEntity
  8
104
100
AcDbVertex
100
AcDb2dVertex
 42
0.0
 10
-2.9593865E+001
 20
2.7314926E+001
 70
0
  0
VERTEX
  5
1a5
100
AcDbEntity
  8
104
100
AcDbVertex
100
AcDb2dVertex
 42
0.0
 10
-2.9593788E+001
 20
2.731478E+001
 70
1
  0
VERTEX
  5
1a6
100
AcDbEntity
  8
104
100
AcDbVertex
100
AcDb2dVertex
 42
0.0
 10
-2.959371E+001
 20
2.7314632E+001
 70
0
  0
VERTEX
  5
1a7
100
AcDbEntity
  8
104
100
AcDbVertex
100
AcDb2dVertex
 42
0.0
 10
-2.959363E+001
 20
2.731448E+001
 70
1
  0
VERTEX
  5
1a8
100
AcDbEntity
  8
104
100
AcDbVertex
100
AcDb2dVertex
 42
0.0
 10
-2.9593556E+001
 20
2.7314337E+001
 70
0
  0
VERTEX
  5
1a9
100
AcDbEntity
  8
104
100
AcDbVertex
100
AcDb2dVertex
 42
0.0
 10
-2.9593488E+001
 20
2.7314208E+001
 70
1
  0
VERTEX
  5
1aa
100
AcDbEntity
  8
104
100
AcDbVertex
100
AcDb2dVertex
 42
0.0
 10
-2.9593401E+001
 20
2.7314042E+001
 70
0
  0
VERTEX
  5
1ab
100
AcDbEntity
  8
104
100
AcDbVertex
100
AcDb2dVertex
 42
0.0
 10
-2.9593267E+001
 20
2.7313787E+001
 70
1
  0
VERTEX
  5
1ac
100
AcDbEntity
  8
104
100
AcDbVertex
100
AcDb2dVertex
 42
-1.0
 10
-2.9593092E+001
 20
2.7313452E+001
 70
0
  0
SEQEND
  5
1ad
100
AcDbEntity
  0
SPLINE
  5
1ae
100
AcDbEntity
  8
104
100
AcDbSpline
  6
CONTINUOUS
 62
40
210
0.0
220
0.0
230
0.0
 70
0
 71
3
 72
12
 73
8
 74
0
 42
1.0E-007
 43
1.0E-007
 44
0.0
 40
0.0
 40
0.0
 40
0.0
 40
0.0
 40
2.3430294E-001
 40
4.6860668E-001
 40
7.0943286E-001
 40
9.5025997E-001
 40
1.0
 40
1.0
 40
1.0
 40
1.0
 10
-2.9593092E+001
 20
2.7313452E+001
 30
0.0
 10
-2.9634202E+001
 20
2.7384088E+001
 30
0.0
 10
-2.9716424E+001
 20
2.7525361E+001
 30
0.0
 10
-2.9818621E+001
 20
2.775111E+001
 30
0.0
 10
-2.9902766E+001
 20
2.7986214E+001
 30
0.0
 10
-2.9953178E+001
 20
2.8164928E+001
 30
0.0
 10
-2.9972131E+001
 20
2.8264451E+001
 30
0.0
 10
-2.9975376E+001
 20
2.8281488E+001
 30
0.0
  0
SPLINE
  5
1af
100
AcDbEntity
  8
104
100
AcDbSpline
  6
CONTINUOUS
 62
40
210
0.0
220
0.0
230
0.0
 70
0
 71
3
 72
13
 73
9
 74
0
 42
1.0E-007
 43
1.0E-007
 44
0.0
 40
0.0
 40
0.0
 40
0.0
 40
0.0
 40
1.5149546E-001
 40
3.8661422E-001
 40
5.3903404E-001
 40
6.9145401E-001
 40
8.4572735E-001
 40
1.0
 40
1.0
 40
1.0
 40
1.0
 10
-2.9979963E+001
 20
-2.8311769E+001
 30
0.0
 10
-2.9969629E+001
 20
-2.825837E+001
 30
0.0
 10
-2.9943256E+001
 20
-2.8122097E+001
 30
0.0
 10
-2.9885998E+001
 20
-2.7936867E+001
 30
0.0
 10
-2.9818378E+001
 20
-2.7755245E+001
 30
0.0
 10
-2.9751999E+001
 20
-2.7604356E+001
 30
0.0
 10
-2.9677787E+001
 20
-2.7456376E+001
 30
0.0
 10
-2.9621324E+001
 20
-2.7361093E+001
 30
0.0
 10
-2.9593092E+001
 20
-2.7313452E+001
 30
0.0
  0
SPLINE
  5
1b0
100
AcDbEntity
  8
104
100
AcDbSpline
  6
CONTINUOUS
 62
1
210
0.0
220
0.0
230
0.0
 70
0
 71
3
 72
14
 73
10
 74
0
 42
1.0E-007
 43
1.0E-007
 44
0.0
 40
0.0
 40
0.0
 40
0.0
 40
0.0
 40
1.25E-001
 40
1.25E-001
 40
2.5E-001
 40
2.5E-001
 40
5.0E-001
 40
5.0E-001
 40
1.0
 40
1.0
 40
1.0
 40
1.0
 10
-6.2859405E+001
 20
-1.3696236E+001
 30
0.0
 10
-6.2862418E+001
 20
-1.3881773E+001
 30
0.0
 10
-6.283971E+001
 20
-1.4066345E+001
 30
0.0
 10
-6.2757375E+001
 20
-1.4428966E+001
 30
0.0
 10
-6.2699279E+001
 20
-1.4605291E+001
 30
0.0
 10
-6.2498694E+001
 20
-1.5125614E+001
 30
0.0
 10
-6.2334445E+001
 20
-1.5455305E+001
 30
0.0
 10
-6.181131E+001
 20
-1.6426652E+001
 30
0.0
 10
-6.1418486E+001
 20
-1.7048631E+001
 30
0.0
 10
-6.1001467E+001
 20
-1.7655786E+001
 30
0.0
  0
SPLINE
  5
1b1
100
AcDbEntity
  8
104
100
AcDbSpline
  6
CONTINUOUS
 62
1
210
0.0
220
0.0
230
0.0
 70
0
 71
3
 72
16
 73
12
 74
0
 42
1.0E-007
 43
1.0E-007
 44
0.0
 40
0.0
 40
0.0
 40
0.0
 40
0.0
 40
2.5E-001
 40
2.5E-001
 40
3.75E-001
 40
3.75E-001
 40
5.0E-001
 40
5.0E-001
 40
7.5E-001
 40
7.5E-001
 40
1.0
 40
1.0
 40
1.0
 40
1.0
 10
-6.1001467E+001
 20
-1.7655786E+001
 30
0.0
 10
-6.0412854E+001
 20
-1.8191269E+001
 30
0.0
 10
-5.9764057E+001
 20
-1.8641597E+001
 30
0.0
 10
-5.8734719E+001
 20
-1.9237813E+001
 30
0.0
 10
-5.8382318E+001
 20
-1.9422456E+001
 30
0.0
 10
-5.7670932E+001
 20
-1.9764473E+001
 30
0.0
 10
-5.7310651E+001
 20
-1.9922581E+001
 30
0.0
 10
-5.6218473E+001
 20
-2.0365078E+001
 30
0.0
 10
-5.5475296E+001
 20
-2.0617788E+001
 30
0.0
 10
-5.3967777E+001
 20
-2.1063853E+001
 30
0.0
 10
-5.3203307E+001
 20
-2.1256849E+001
 30
0.0
 10
-5.2430881E+001
 20
-2.1427561E+001
 30
0.0
  0
SPLINE
  5
1b2
100
AcDbEntity
  8
104
100
AcDbSpline
  6
CONTINUOUS
 62
1
210
0.0
220
0.0
230
0.0
 70
0
 71
3
 72
12
 73
8
 74
0
 42
1.0E-007
 43
1.0E-007
 44
0.0
 40
0.0
 40
0.0
 40
0.0
 40
0.0
 40
2.5E-001
 40
2.5E-001
 40
5.0E-001
 40
5.0E-001
 40
1.0
 40
1.0
 40
1.0
 40
1.0
 10
-5.2430636E+001
 20
-2.1426478E+001
 30
0.0
 10
-5.1019747E+001
 20
-2.1737377E+001
 30
0.0
 10
-4.9602653E+001
 20
-2.2001795E+001
 30
0.0
 10
-4.6759785E+001
 20
-2.2465708E+001
 30
0.0
 10
-4.5333998E+001
 20
-2.26651E+001
 30
0.0
 10
-4.1047292E+001
 20
-2.319349E+001
 30
0.0
 10
-3.8177256E+001
 20
-2.3454392E+001
 30
0.0
 10
-3.5300407E+001
 20
-2.3664503E+001
 30
0.0
  0
SPLINE
  5
1b3
100
AcDbEntity
  8
104
100
AcDbSpline
  6
CONTINUOUS
 62
1
210
0.0
220
0.0
230
0.0
 70
0
 71
3
 72
30
 73
26
 74
0
 42
1.0E-007
 43
1.0E-007
 44
0.0
 40
0.0
 40
0.0
 40
0.0
 40
0.0
 40
3.125E-002
 40
3.125E-002
 40
6.25E-002
 40
6.25E-002
 40
1.25E-001
 40
1.25E-001
 40
2.5E-001
 40
2.5E-001
 40
3.75E-001
 40
3.75E-001
 40
5.0E-001
 40
5.0E-001
 40
6.25E-001
 40
6.25E-001
 40
7.5E-001
 40
7.5E-001
 40
8.75E-001
 40
8.75E-001
 40
9.375E-001
 40
9.375E-001
 40
9.6875E-001
 40
9.6875E-001
 40
1.0
 40
1.0
 40
1.0
 40
1.0
 10
-3.5300719E+001
 20
-2.3665554E+001
 30
0.0
 10
-3.5210713E+001
 20
-2.3676188E+001
 30
0.0
 10
-3.5118216E+001
 20
-2.3688339E+001
 30
0.0
 10
-3.4937952E+001
 20
-2.3714403E+001
 30
0.0
 10
-3.4848554E+001
 20
-2.372851E+001
 30
0.0
 10
-3.4582483E+001
 20
-2.3773925E+001
 30
0.0
 10
-3.4407928E+001
 20
-2.3808316E+001
 30
0.0
 10
-3.3892352E+001
 20
-2.3923167E+001
 30
0.0
 10
-3.3556374E+001
 20
-2.4016505E+001
 30
0.0
 10
-3.2935415E+001
 20
-2.4222653E+001
 30
0.0
 10
-3.2646656E+001
 20
-2.4336021E+001
 30
0.0
 10
-3.2108983E+001
 20
-2.4581074E+001
 30
0.0
 10
-3.1866042E+001
 20
-2.4710171E+001
 30
0.0
 10
-3.1431352E+001
 20
-2.497655E+001
 30
0.0
 10
-3.1237422E+001
 20
-2.51154E+001
 30
0.0
 10
-3.0903743E+001
 20
-2.5396273E+001
 30
0.0
 10
-3.0764344E+001
 20
-2.5537573E+001
 30
0.0
 10
-3.0537201E+001
 20
-2.5821605E+001
 30
0.0
 10
-3.0449241E+001
 20
-2.5965233E+001
 30
0.0
 10
-3.035915E+001
 20
-2.6177267E+001
 30
0.0
 10
-3.0335986E+001
 20
-2.6247447E+001
 30
0.0
 10
-3.0311546E+001
 20
-2.6351983E+001
 30
0.0
 10
-3.0305119E+001
 20
-2.6386705E+001
 30
0.0
 10
-3.0295739E+001
 20
-2.6455907E+001
 30
0.0
 10
-3.0292769E+001
 20
-2.6490839E+001
 30
0.0
 10
-3.0291595E+001
 20
-2.6524743E+001
 30
0.0
  0
LINE
  5
1b4
100
AcDbEntity
  8
104
100
AcDbLine
  6
CONTINUOUS
 62
40
 10
-7.1083154E+001
 20
1.3E+001
 11
-8.2157154E+001
 21
1.3E+001
  0
LINE
  5
1b5
100
AcDbEntity
  8
104
100
AcDbLine
  6
CONTINUOUS
 62
40
 10
-7.1083154E+001
 20
7.0
 11
-7.2657154E+001
 21
7.0
  0
LINE
  5
1b6
100
AcDbEntity
  8
104
100
AcDbLine
  6
CONTINUOUS
 62
40
 10
-7.1083154E+001
 20
-7.0
 11
-7.2657154E+001
 21
-7.0
  0
LINE
  5
1b7
100
AcDbEntity
  8
104
100
AcDbLine
  6
CONTINUOUS
 62
40
 10
-7.1083154E+001
 20
-1.3E+001
 11
-8.2157154E+001
 21
-1.3E+001
  0
CIRCLE
  5
1b8
100
AcDbEntity
  8
106
100
AcDbCircle
  6
CENTERLINE
 62
1
 10
-3.8907154E+001
 20
5.6499998E+001
 40
3.0
  0
CIRCLE
  5
1b9
100
AcDbEntity
  8
106
100
AcDbCircle
  6
CENTERLINE
 62
1
 10
-5.7407154E+001
 20
5.6499998E+001
 40
3.0
  0
CIRCLE
  5
1ba
100
AcDbEntity
  8
106
100
AcDbCircle
  6
CENTERLINE
 62
1
 10
-3.8907154E+001
 20
-5.6500002E+001
 40
3.0
  0
CIRCLE
  5
1bb
100
AcDbEntity
  8
106
100
AcDbCircle
  6
CENTERLINE
 62
1
 10
-5.7407154E+001
 20
-5.6500002E+001
 40
3.0
  0
LINE
  5
1bc
100
AcDbEntity
  8
106
100
AcDbLine
  6
CONTINUOUS
 62
1
 10
-3.8907154E+001
 20
5.6499998E+001
 11
-3.8907154E+001
 21
5.6499998E+001
  0
LINE
  5
1bd
100
AcDbEntity
  8
106
100
AcDbLine
  6
CONTINUOUS
 62
1
 10
-3.8907154E+001
 20
5.6499998E+001
 11
-3.8907154E+001
 21
5.6499998E+001
  0
LINE
  5
1be
100
AcDbEntity
  8
106
100
AcDbLine
  6
CENTERLINE
 62
1
 10
-3.8907154E+001
 20
5.6499998E+001
 11
-3.3907154E+001
 21
5.6499998E+001
  0
LINE
  5
1bf
100
AcDbEntity
  8
106
100
AcDbLine
  6
CENTERLINE
 62
1
 10
-3.8907154E+001
 20
5.6499998E+001
 11
-3.8907154E+001
 21
6.1499998E+001
  0
LINE
  5
1c0
100
AcDbEntity
  8
106
100
AcDbLine
  6
CENTERLINE
 62
1
 10
-3.8907154E+001
 20
5.6499998E+001
 11
-4.3907154E+001
 21
5.6499998E+001
  0
LINE
  5
1c1
100
AcDbEntity
  8
106
100
AcDbLine
  6
CENTERLINE
 62
1
 10
-3.8907154E+001
 20
5.6499998E+001
 11
-3.8907154E+001
 21
5.1499998E+001
  0
LINE
  5
1c2
100
AcDbEntity
  8
106
100
AcDbLine
  6
CONTINUOUS
 62
1
 10
-5.7407154E+001
 20
5.6499998E+001
 11
-5.7407154E+001
 21
5.6499998E+001
  0
LINE
  5
1c3
100
AcDbEntity
  8
106
100
AcDbLine
  6
CONTINUOUS
 62
1
 10
-5.7407154E+001
 20
5.6499998E+001
 11
-5.7407154E+001
 21
5.6499998E+001
  0
LINE
  5
1c4
100
AcDbEntity
  8
106
100
AcDbLine
  6
CENTERLINE
 62
1
 10
-5.7407154E+001
 20
5.6499998E+001
 11
-5.2407154E+001
 21
5.6499998E+001
  0
LINE
  5
1c5
100
AcDbEntity
  8
106
100
AcDbLine
  6
CENTERLINE
 62
1
 10
-5.7407154E+001
 20
5.6499998E+001
 11
-5.7407154E+001
 21
6.1499998E+001
  0
LINE
  5
1c6
100
AcDbEntity
  8
106
100
AcDbLine
  6
CENTERLINE
 62
1
 10
-5.7407154E+001
 20
5.6499998E+001
 11
-6.2407154E+001
 21
5.6499998E+001
  0
LINE
  5
1c7
100
AcDbEntity
  8
106
100
AcDbLine
  6
CENTERLINE
 62
1
 10
-5.7407154E+001
 20
5.6499998E+001
 11
-5.7407154E+001
 21
5.1499998E+001
  0
LINE
  5
1c8
100
AcDbEntity
  8
106
100
AcDbLine
  6
CONTINUOUS
 62
1
 10
-3.8907154E+001
 20
-5.6500002E+001
 11
-3.8907154E+001
 21
-5.6500002E+001
  0
LINE
  5
1c9
100
AcDbEntity
  8
106
100
AcDbLine
  6
CONTINUOUS
 62
1
 10
-3.8907154E+001
 20
-5.6500002E+001
 11
-3.8907154E+001
 21
-5.6500002E+001
  0
LINE
  5
1ca
100
AcDbEntity
  8
106
100
AcDbLine
  6
CENTERLINE
 62
1
 10
-3.8907154E+001
 20
-5.6500002E+001
 11
-3.3907154E+001
 21
-5.6500002E+001
  0
LINE
  5
1cb
100
AcDbEntity
  8
106
100
AcDbLine
  6
CENTERLINE
 62
1
 10
-3.8907154E+001
 20
-5.6500002E+001
 11
-3.8907154E+001
 21
-5.1500002E+001
  0
LINE
  5
1cc
100
AcDbEntity
  8
106
100
AcDbLine
  6
CENTERLINE
 62
1
 10
-3.8907154E+001
 20
-5.6500002E+001
 11
-4.3907154E+001
 21
-5.6500002E+001
  0
LINE
  5
1cd
100
AcDbEntity
  8
106
100
AcDbLine
  6
CENTERLINE
 62
1
 10
-3.8907154E+001
 20
-5.6500002E+001
 11
-3.8907154E+001
 21
-6.1500002E+001
  0
LINE
  5
1ce
100
AcDbEntity
  8
106
100
AcDbLine
  6
CONTINUOUS
 62
1
 10
-5.7407154E+001
 20
-5.6500002E+001
 11
-5.7407154E+001
 21
-5.6500002E+001
  0
LINE
  5
1cf
100
AcDbEntity
  8
106
100
AcDbLine
  6
CONTINUOUS
 62
1
 10
-5.7407154E+001
 20
-5.6500002E+001
 11
-5.7407154E+001
 21
-5.6500002E+001
  0
LINE
  5
1d0
100
AcDbEntity
  8
106
100
AcDbLine
  6
CENTERLINE
 62
1
 10
-5.7407154E+001
 20
-5.6500002E+001
 11
-5.2407154E+001
 21
-5.6500002E+001
  0
LINE
  5
1d1
100
AcDbEntity
  8
106
100
AcDbLine
  6
CENTERLINE
 62
1
 10
-5.7407154E+001
 20
-5.6500002E+001
 11
-5.7407154E+001
 21
-5.1500002E+001
  0
LINE
  5
1d2
100
AcDbEntity
  8
106
100
AcDbLine
  6
CENTERLINE
 62
1
 10
-5.7407154E+001
 20
-5.6500002E+001
 11
-6.2407154E+001
 21
-5.6500002E+001
  0
LINE
  5
1d3
100
AcDbEntity
  8
106
100
AcDbLine
  6
CENTERLINE
 62
1
 10
-5.7407154E+001
 20
-5.6500002E+001
 11
-5.7407154E+001
 21
-6.1500002E+001
  0
LINE
  5
1d4
100
AcDbEntity
  8
104
100
AcDbLine
  6
CONTINUOUS
 62
40
 10
-7.1088215E+001
 20
-4.3999E-005
 11
-6.707485E+001
 21
0.0
  0
LINE
  5
1d5
100
AcDbEntity
  8
104
100
AcDbLine
  6
CONTINUOUS
 62
40
 10
-2.9657154E+001
 20
3.0E+001
 11
7.2912189E+001
 21
3.0E+001
  0
LINE
  5
1d6
100
AcDbEntity
  8
104
100
AcDbLine
  6
CONTINUOUS
 62
40
 10
-1.4514314
 20
2.5824281E+001
 11
5.2371973E+002
 21
2.5824281E+001
  0
DIMENSION
  5
1d7
100
AcDbEntity
  8
100
100
AcDbDimension
  6
CONTINUOUS
 62
1
  2
*D270
  3
DSTYLE1
 10
1.3073706E+002
 20
-3.0E+001
 11
1.2423506E+002
 21
1.1910677
 70
128
100
AcDbAlignedDimension
 13
7.2912189E+001
 23
3.0E+001
 14
-2.9657154E+001
 24
-3.0E+001
 40
1.0E+001
 50
9.0E+001
100
AcDbRotatedDimension
1001
ACAD
1000
DSTYLE
1002
{
1070
173
1070
0
1070
5
1000
_AH13
1002
}
  0
LINE
  5
1d8
100
AcDbEntity
  8
104
100
AcDbLine
  6
CONTINUOUS
 62
40
 10
-1.4514314
 20
-2.5824281E+001
 11
5.2372429E+002
 21
-2.5824281E+001
  0
LINE
  5
1d9
100
AcDbEntity
  8
104
100
AcDbLine
  6
CONTINUOUS
 62
1
 10
-1.057646
 20
-1.381005E+001
 11
5.23602E+002
 21
-1.381005E+001
  0
LINE
  5
1da
100
AcDbEntity
  8
104
100
AcDbLine
  6
CONTINUOUS
 62
1
 10
-1.0576459
 20
1.3810237E+001
 11
5.2406884E+002
 21
1.3810237E+001
  0
POINT
  5
1db
100
AcDbEntity
  8
Drafting_Hidden_Entities
100
AcDbPoint
  6
CONTINUOUS
 62
1
 10
0.0
 20
0.0
  0
ENDBLK
  5
1dc
100
AcDbEntity
100
AcDbBlockEnd
  0
BLOCK
  5
1dd
100
AcDbEntity
100
AcDbBlockBegin
  2
NNM
 10
0.0
 20
0.0
 70
0
  0
ARC
  5
1de
100
AcDbEntity
  8
104
100
AcDbCircle
  6
CONTINUOUS
 62
40
 10
3.7E+001
 20
-1.2E+001
 40
3.15E+001
100
AcDbArc
 50
1.2041046E+002
 51
1.5760731E+002
  0
LINE
  5
1df
100
AcDbEntity
  8
104
100
AcDbLine
  6
CONTINUOUS
 62
40
 10
3.8411228E+001
 20
0.0
 11
2.7525988E+001
 21
1.3932471E+001
  0
ARC
  5
1e0
100
AcDbEntity
  8
104
100
AcDbCircle
  6
CONTINUOUS
 62
40
 10
2.3585934E+001
 20
1.0854164E+001
 40
5.0
100
AcDbArc
 50
3.8E+001
 51
1.2041046E+002
  0
POINT
  5
1e1
100
AcDbEntity
  8
Drafting_Hidden_Entities
100
AcDbPoint
  6
CONTINUOUS
 62
1
 10
0.0
 20
0.0
  0
ENDBLK
  5
1e2
100
AcDbEntity
100
AcDbBlockEnd
  0
BLOCK
  5
1e3
100
AcDbEntity
100
AcDbBlockBegin
  2
JJNMK
 10
0.0
 20
0.0
 70
0
  0
ARC
  5
1e4
100
AcDbEntity
  8
104
100
AcDbCircle
  6
CONTINUOUS
 62
40
 10
4.7841777E+001
 20
1.3451104E+001
 40
7.9450989
100
AcDbArc
 50
1.281565E+001
 51
6.9812322E+001
  0
ARC
  5
1e5
100
AcDbEntity
  8
104
100
AcDbCircle
  6
CONTINUOUS
 62
40
 10
4.7845469E+001
 20
-1.3453629E+001
 40
7.9409424
100
AcDbArc
 50
2.9019856E+002
 51
3.4719682E+002
  0
LINE
  5
1e6
100
AcDbEntity
  8
104
100
AcDbLine
  6
CONTINUOUS
 62
40
 10
2.0941219E+001
 20
-7.210286E+001
 11
-7.4999998
 21
-7.2499998E+001
  0
LINE
  5
1e7
100
AcDbEntity
  8
104
100
AcDbLine
  6
CONTINUOUS
 62
40
 10
-7.4999998
 20
-7.2499998E+001
 11
-7.4999998
 21
-7.0500195E+001
  0
ARC
  5
1e8
100
AcDbEntity
  8
104
100
AcDbCircle
  6
CONTINUOUS
 62
40
 10
5.0000017E-001
 20
-1.3E+001
 40
5.0E-001
100
AcDbArc
 50
1.8E+002
 51
2.7E+002
  0
LINE
  5
1e9
100
AcDbEntity
  8
104
100
AcDbLine
  6
CONTINUOUS
 62
40
 10
3.0499999E+001
 20
-1.35E+001
 11
5.0000055E-001
 21
-1.35E+001
  0
ARC
  5
1ea
100
AcDbEntity
  8
104
100
AcDbCircle
  6
CONTINUOUS
 62
40
 10
3.05E+001
 20
-1.3E+001
 40
5.0E-001
100
AcDbArc
 50
2.7E+002
 51
3.6E+002
  0
LINE
  5
1eb
100
AcDbEntity
  8
104
100
AcDbLine
  6
CONTINUOUS
 62
40
 10
3.1E+001
 20
-6.8999999
 11
3.1E+001
 21
-1.3E+001
  0
ARC
  5
1ec
100
AcDbEntity
  8
104
100
AcDbCircle
  6
CONTINUOUS
 62
40
 10
3.05E+001
 20
-6.9
 40
5.0E-001
100
AcDbArc
 50
0.0
 51
9.0E+001
  0
LINE
  5
1ed
100
AcDbEntity
  8
104
100
AcDbLine
  6
CONTINUOUS
 62
40
 10
1.8500001E+001
 20
-6.3999998
 11
3.0499999E+001
 21
-6.3999998
  0
ARC
  5
1ee
100
AcDbEntity
  8
104
100
AcDbCircle
  6
CONTINUOUS
 62
40
 10
1.85E+001
 20
-5.9
 40
5.0E-001
100
AcDbArc
 50
1.8E+002
 51
2.7E+002
  0
LINE
  5
1ef
100
AcDbEntity
  8
104
100
AcDbLine
  6
CONTINUOUS
 62
40
 10
1.8E+001
 20
5.9000002
 11
1.8E+001
 21
-5.9000002
  0
ARC
  5
1f0
100
AcDbEntity
  8
104
100
AcDbCircle
  6
CONTINUOUS
 62
40
 10
1.85E+001
 20
5.9
 40
5.0E-001
100
AcDbArc
 50
9.0E+001
 51
1.8E+002
  0
LINE
  5
1f1
100
AcDbEntity
  8
104
100
AcDbLine
  6
CONTINUOUS
 62
40
 10
3.0499999E+001
 20
6.3999998
 11
1.8500001E+001
 21
6.3999998
  0
ARC
  5
1f2
100
AcDbEntity
  8
104
100
AcDbCircle
  6
CONTINUOUS
 62
40
 10
3.05E+001
 20
6.9
 40
5.0E-001
100
AcDbArc
 50
2.7E+002
 51
3.6E+002
  0
LINE
  5
1f3
100
AcDbEntity
  8
104
100
AcDbLine
  6
CONTINUOUS
 62
40
 10
3.1E+001
 20
1.3E+001
 11
3.1E+001
 21
6.8999999
  0
ARC
  5
1f4
100
AcDbEntity
  8
104
100
AcDbCircle
  6
CONTINUOUS
 62
40
 10
3.05E+001
 20
1.3E+001
 40
5.0E-001
100
AcDbArc
 50
0.0
 51
9.0E+001
  0
LINE
  5
1f5
100
AcDbEntity
  8
104
100
AcDbLine
  6
CONTINUOUS
 62
40
 10
5.0000055E-001
 20
1.35E+001
 11
3.0499999E+001
 21
1.35E+001
  0
ARC
  5
1f6
100
AcDbEntity
  8
104
100
AcDbCircle
  6
CONTINUOUS
 62
40
 10
5.0000017E-001
 20
1.3E+001
 40
5.0E-001
100
AcDbArc
 50
9.0E+001
 51
1.8E+002
  0
LINE
  5
1f7
100
AcDbEntity
  8
104
100
AcDbLine
  6
CONTINUOUS
 62
40
 10
0.0
 20
-1.3E+001
 11
0.0
 21
1.3E+001
  0
LINE
  5
1f8
100
AcDbEntity
  8
104
100
AcDbLine
  6
CONTINUOUS
 62
40
 10
-7.4999998
 20
7.0500195E+001
 11
-7.4999998
 21
-7.0500195E+001
  0
LINE
  5
1f9
100
AcDbEntity
  8
104
100
AcDbLine
  6
CONTINUOUS
 62
40
 10
-7.4999998
 20
7.2499998E+001
 11
2.0941219E+001
 21
7.210286E+001
  0
LINE
  5
1fa
100
AcDbEntity
  8
104
100
AcDbLine
  6
CONTINUOUS
 62
40
 10
-7.4999998
 20
7.0500195E+001
 11
-7.4999998
 21
7.2499998E+001
  0
SPLINE
  5
1fb
100
AcDbEntity
  8
104
100
AcDbSpline
  6
CONTINUOUS
 62
40
210
0.0
220
0.0
230
0.0
 70
0
 71
3
 72
14
 73
10
 74
0
 42
1.0E-007
 43
1.0E-007
 44
0.0
 40
0.0
 40
0.0
 40
0.0
 40
0.0
 40
2.5E-001
 40
2.5E-001
 40
5.0E-001
 40
5.0E-001
 40
7.5E-001
 40
7.5E-001
 40
1.0
 40
1.0
 40
1.0
 40
1.0
 10
4.4382228E+001
 20
-1.7655786E+001
 30
0.0
 10
4.44208E+001
 20
-1.7352373E+001
 30
0.0
 10
4.4445732E+001
 20
-1.7044587E+001
 30
0.0
 10
4.4473202E+001
 20
-1.6419147E+001
 30
0.0
 10
4.4475547E+001
 20
-1.6101657E+001
 30
0.0
 10
4.4464903E+001
 20
-1.5452137E+001
 30
0.0
 10
4.4450806E+001
 20
-1.5119522E+001
 30
0.0
 10
4.4431406E+001
 20
-1.4431129E+001
 30
0.0
 10
4.4427506E+001
 20
-1.4067148E+001
 30
0.0
 10
4.4466295E+001
 20
-1.3696236E+001
 30
0.0
  0
ARC
  5
1fc
100
AcDbEntity
  8
104
100
AcDbCircle
  6
CONTINUOUS
 62
40
 10
-9.45E+001
 20
0.0
 40
1.4E+002
100
AcDbArc
 50
3.2949319E+002
 51
3.5275498E+002
  0
ARC
  5
1fd
100
AcDbEntity
  8
104
100
AcDbCircle
  6
CONTINUOUS
 62
40
 10
-9.45E+001
 20
0.0
 40
1.4E+002
100
AcDbArc
 50
7.2450208
 51
3.0506805E+001
  0
SPLINE
  5
1fe
100
AcDbEntity
  8
104
100
AcDbSpline
  6
CONTINUOUS
 62
40
210
0.0
220
0.0
230
0.0
 70
0
 71
3
 72
14
 73
10
 74
0
 42
1.0E-007
 43
1.0E-007
 44
0.0
 40
0.0
 40
0.0
 40
0.0
 40
0.0
 40
1.25E-001
 40
1.25E-001
 40
2.5E-001
 40
2.5E-001
 40
5.0E-001
 40
5.0E-001
 40
1.0
 40
1.0
 40
1.0
 40
1.0
 10
4.4466295E+001
 20
1.3696236E+001
 30
0.0
 10
4.4446892E+001
 20
1.3881773E+001
 30
0.0
 10
4.4437752E+001
 20
1.4066345E+001
 30
0.0
 10
4.4432743E+001
 20
1.4428966E+001
 30
0.0
 10
4.4436292E+001
 20
1.4605291E+001
 30
0.0
 10
4.4451022E+001
 20
1.5125614E+001
 30
0.0
 10
4.4464988E+001
 20
1.5455305E+001
 30
0.0
 10
4.4480808E+001
 20
1.6426652E+001
 30
0.0
 10
4.4459414E+001
 20
1.7048631E+001
 30
0.0
 10
4.4382228E+001
 20
1.7655786E+001
 30
0.0
  0
SPLINE
  5
1ff
100
AcDbEntity
  8
104
100
AcDbSpline
  6
CONTINUOUS
 62
40
210
0.0
220
0.0
230
0.0
 70
0
 71
3
 72
12
 73
8
 74
0
 42
1.0E-007
 43
1.0E-007
 44
0.0
 40
0.0
 40
0.0
 40
0.0
 40
0.0
 40
5.0E-001
 40
5.0E-001
 40
7.5E-001
 40
7.5E-001
 40
1.0
 40
1.0
 40
1.0
 40
1.0
 10
4.4466216E+001
 20
-1.3696225E+001
 30
0.0
 10
4.4942161E+001
 20
-9.1432436
 30
0.0
 10
4.5179578E+001
 20
-4.579414
 30
0.0
 10
4.5179826E+001
 20
2.2825655
 30
0.0
 10
4.512032E+001
 20
4.5720611
 30
0.0
 10
4.4882491E+001
 20
9.1396
 30
0.0
 10
4.4704188E+001
 20
1.1419734E+001
 30
0.0
 10
4.4466216E+001
 20
1.3696225E+001
 30
0.0
  0
SPLINE
  5
200
100
AcDbEntity
  8
104
100
AcDbSpline
  6
CONTINUOUS
 62
40
210
0.0
220
0.0
230
0.0
 70
0
 71
3
 72
20
 73
16
 74
0
 42
1.0E-007
 43
1.0E-007
 44
0.0
 40
0.0
 40
0.0
 40
0.0
 40
0.0
 40
2.5E-001
 40
2.5E-001
 40
3.75E-001
 40
3.75E-001
 40
5.0E-001
 40
5.0E-001
 40
6.25E-001
 40
6.25E-001
 40
7.5E-001
 40
7.5E-001
 40
8.75E-001
 40
8.75E-001
 40
1.0
 40
1.0
 40
1.0
 40
1.0
 10
2.0941219E+001
 20
7.210286E+001
 30
0.0
 10
2.1369666E+001
 20
7.2096877E+001
 30
0.0
 10
2.1785164E+001
 20
7.2091075E+001
 30
0.0
 10
2.2388355E+001
 20
7.2082653E+001
 30
0.0
 10
2.2586839E+001
 20
7.2079881E+001
 30
0.0
 10
2.2959578E+001
 20
7.2074676E+001
 30
0.0
 10
2.3135957E+001
 20
7.2072214E+001
 30
0.0
 10
2.3466989E+001
 20
7.2067591E+001
 30
0.0
 10
2.3623168E+001
 20
7.206541E+001
 30
0.0
 10
2.3897442E+001
 20
7.2061581E+001
 30
0.0
 10
2.4016831E+001
 20
7.2059913E+001
 30
0.0
 10
2.4215965E+001
 20
7.2057133E+001
 30
0.0
 10
2.4293102E+001
 20
7.2056056E+001
 30
0.0
 10
2.4396935E+001
 20
7.2054606E+001
 30
0.0
 10
2.4424429E+001
 20
7.2054222E+001
 30
0.0
 10
2.4424429E+001
 20
7.2054222E+001
 30
0.0
  0
ARC
  5
201
100
AcDbEntity
  8
104
100
AcDbCircle
  6
CONTINUOUS
 62
40
 10
2.4396504E+001
 20
7.0054417E+001
 40
2.0
100
AcDbArc
 50
3.0506805E+001
 51
8.92E+001
  0
SPLINE
  5
202
100
AcDbEntity
  8
104
100
AcDbSpline
  6
CONTINUOUS
 62
40
210
0.0
220
0.0
230
0.0
 70
0
 71
3
 72
20
 73
16
 74
0
 42
1.0E-007
 43
1.0E-007
 44
0.0
 40
0.0
 40
0.0
 40
0.0
 40
0.0
 40
1.25E-001
 40
1.25E-001
 40
2.5E-001
 40
2.5E-001
 40
3.75E-001
 40
3.75E-001
 40
5.0E-001
 40
5.0E-001
 40
6.25E-001
 40
6.25E-001
 40
7.5E-001
 40
7.5E-001
 40
1.0
 40
1.0
 40
1.0
 40
1.0
 10
2.4424429E+001
 20
-7.2054222E+001
 30
0.0
 10
2.4424429E+001
 20
-7.2054222E+001
 30
0.0
 10
2.4397789E+001
 20
-7.2054594E+001
 30
0.0
 10
2.429459E+001
 20
-7.2056035E+001
 30
0.0
 10
2.4216781E+001
 20
-7.2057121E+001
 30
0.0
 10
2.402062E+001
 20
-7.2059861E+001
 30
0.0
 10
2.3900744E+001
 20
-7.2061534E+001
 30
0.0
 10
2.362626E+001
 20
-7.2065367E+001
 30
0.0
 10
2.3473864E+001
 20
-7.2067495E+001
 30
0.0
 10
2.3141769E+001
 20
-7.2072132E+001
 30
0.0
 10
2.2961769E+001
 20
-7.2074646E+001
 30
0.0
 10
2.2588631E+001
 20
-7.2079856E+001
 30
0.0
 10
2.2393975E+001
 20
-7.2082574E+001
 30
0.0
 10
2.1786715E+001
 20
-7.2091054E+001
 30
0.0
 10
2.1368754E+001
 20
-7.209689E+001
 30
0.0
 10
2.0941219E+001
 20
-7.210286E+001
 30
0.0
  0
ARC
  5
203
100
AcDbEntity
  8
104
100
AcDbCircle
  6
CONTINUOUS
 62
40
 10
2.4396504E+001
 20
-7.0054417E+001
 40
2.0
100
AcDbArc
 50
2.708E+002
 51
3.2949319E+002
  0
SPLINE
  5
204
100
AcDbEntity
  8
104
100
AcDbSpline
  6
CONTINUOUS
 62
40
210
0.0
220
0.0
230
0.0
 70
0
 71
3
 72
8
 73
4
 74
0
 42
1.0E-007
 43
1.0E-007
 44
0.0
 40
0.0
 40
0.0
 40
0.0
 40
0.0
 40
1.0
 40
1.0
 40
1.0
 40
1.0
 10
4.4466295E+001
 20
1.3696236E+001
 30
0.0
 10
4.4522251E+001
 20
1.3705761E+001
 30
0.0
 10
4.4588887E+001
 20
1.3716332E+001
 30
0.0
 10
4.4665436E+001
 20
1.3727829E+001
 30
0.0
  0
SPLINE
  5
205
100
AcDbEntity
  8
104
100
AcDbSpline
  6
CONTINUOUS
 62
40
210
0.0
220
0.0
230
0.0
 70
0
 71
3
 72
8
 73
4
 74
0
 42
1.0E-007
 43
1.0E-007
 44
0.0
 40
0.0
 40
0.0
 40
0.0
 40
0.0
 40
1.0
 40
1.0
 40
1.0
 40
1.0
 10
4.4466214E+001
 20
-1.3696241E+001
 30
0.0
 10
4.4522171E+001
 20
-1.3705738E+001
 30
0.0
 10
4.4588803E+001
 20
-1.3716282E+001
 30
0.0
 10
4.4665345E+001
 20
-1.372775E+001
 30
0.0
  0
SPLINE
  5
206
100
AcDbEntity
  8
104
100
AcDbSpline
  6
CONTINUOUS
 62
40
210
0.0
220
0.0
230
0.0
 70
0
 71
3
 72
13
 73
9
 74
0
 42
1.0E-007
 43
1.0E-007
 44
0.0
 40
0.0
 40
0.0
 40
0.0
 40
0.0
 40
3.97036E-005
 40
2.4365758E-001
 40
4.8740848E-001
 40
7.3102595E-001
 40
9.7957734E-001
 40
1.0
 40
1.0
 40
1.0
 40
1.0
 10
5.5781983E+001
 20
1.3852544E+001
 30
0.0
 10
5.5781983E+001
 20
1.3852564E+001
 30
0.0
 10
5.5781984E+001
 20
1.3976399E+001
 30
0.0
 10
5.575341E+001
 20
1.4223223E+001
 30
0.0
 10
5.5712122E+001
 20
1.4592265E+001
 30
0.0
 10
5.5646568E+001
 20
1.4960659E+001
 30
0.0
 10
5.5594577E+001
 20
1.5216183E+001
 30
0.0
 10
5.5558674E+001
 20
1.5348088E+001
 30
0.0
 10
5.5555948E+001
 20
1.5358103E+001
 30
0.0
  0
LINE
  5
207
100
AcDbEntity
  8
104
100
AcDbLine
  6
CONTINUOUS
 62
40
 10
5.0774515E+001
 20
2.0834548E+001
 11
5.032903E+001
 21
2.0997314E+001
  0
LINE
  5
208
100
AcDbEntity
  8
104
100
AcDbLine
  6
CONTINUOUS
 62
40
 10
5.032903E+001
 20
2.0997314E+001
 11
4.9928431E+001
 21
2.1118499E+001
  0
LINE
  5
209
100
AcDbEntity
  8
104
100
AcDbLine
  6
CONTINUOUS
 62
40
 10
4.9928431E+001
 20
2.1118499E+001
 11
4.9928371E+001
 21
2.1118514E+001
  0
LINE
  5
20a
100
AcDbEntity
  8
104
100
AcDbLine
  6
CONTINUOUS
 62
40
 10
4.9928371E+001
 20
2.1118514E+001
 11
4.9928371E+001
 21
2.1118514E+001
  0
SPLINE
  5
20b
100
AcDbEntity
  8
104
100
AcDbSpline
  6
CONTINUOUS
 62
40
210
0.0
220
0.0
230
0.0
 70
0
 71
3
 72
26
 73
22
 74
0
 42
1.0E-007
 43
1.0E-007
 44
0.0
 40
0.0
 40
0.0
 40
0.0
 40
0.0
 40
3.2961661E-002
 40
7.5693937E-002
 40
1.2714425E-001
 40
1.860571E-001
 40
2.5101537E-001
 40
3.2049042E-001
 40
3.9290089E-001
 40
4.8546773E-001
 40
5.601711E-001
 40
6.2044003E-001
 40
6.6894948E-001
 40
7.1611506E-001
 40
7.6116233E-001
 40
8.0421181E-001
 40
8.4547593E-001
 40
8.8525798E-001
 40
9.2394731E-001
 40
9.6201296E-001
 40
1.0
 40
1.0
 40
1.0
 40
1.0
 10
5.5781995E+001
 20
1.3852357E+001
 30
0.0
 10
5.5778633E+001
 20
1.3864164E+001
 30
0.0
 10
5.5770913E+001
 20
1.3891277E+001
 30
0.0
 10
5.5740027E+001
 20
1.3934382E+001
 30
0.0
 10
5.56802E+001
 20
1.3983513E+001
 30
0.0
 10
5.5575998E+001
 20
1.4035373E+001
 30
0.0
 10
5.5411958E+001
 20
1.4086428E+001
 30
0.0
 10
5.5170631E+001
 20
1.4132739E+001
 30
0.0
 10
5.4804582E+001
 20
1.4172776E+001
 30
0.0
 10
5.4298813E+001
 20
1.4197391E+001
 30
0.0
 10
5.3655613E+001
 20
1.4202559E+001
 30
0.0
 10
5.300442E+001
 20
1.4192321E+001
 30
0.0
 10
5.2341569E+001
 20
1.4172988E+001
 30
0.0
 10
5.1642404E+001
 20
1.4148251E+001
 30
0.0
 10
5.0862872E+001
 20
1.4115941E+001
 30
0.0
 10
5.0006948E+001
 20
1.4075251E+001
 30
0.0
 10
4.9075581E+001
 20
1.4025428E+001
 30
0.0
 10
4.8071236E+001
 20
1.3965977E+001
 30
0.0
 10
4.6996905E+001
 20
1.3896447E+001
 30
0.0
 10
4.586064E+001
 20
1.3817535E+001
 30
0.0
 10
4.5063548E+001
 20
1.3757672E+001
 30
0.0
 10
4.4665414E+001
 20
1.3727772E+001
 30
0.0
  0
SPLINE
  5
20c
100
AcDbEntity
  8
104
100
AcDbSpline
  6
CONTINUOUS
 62
40
210
0.0
220
0.0
230
0.0
 70
0
 71
3
 72
31
 73
27
 74
0
 42
1.0E-007
 43
1.0E-007
 44
0.0
 40
0.0
 40
0.0
 40
0.0
 40
0.0
 40
2.0285792E-002
 40
4.0515586E-002
 40
6.0780335E-002
 40
8.1164585E-002
 40
1.0174677E-001
 40
1.2259922E-001
 40
1.4378801E-001
 40
1.6537268E-001
 40
1.8740594E-001
 40
2.0993338E-001
 40
2.3299326E-001
 40
2.5661641E-001
 40
2.8082617E-001
 40
3.056385E-001
 40
3.3106204E-001
 40
3.795692E-001
 40
4.398366E-001
 40
5.1453945E-001
 40
6.0710721E-001
 40
7.077476E-001
 40
8.0139302E-001
 40
8.8379016E-001
 40
9.5106663E-001
 40
1.0
 40
1.0
 40
1.0
 40
1.0
 10
4.4665414E+001
 20
-1.3727772E+001
 30
0.0
 10
4.4878731E+001
 20
-1.3743907E+001
 30
0.0
 10
4.5304777E+001
 20
-1.3776134E+001
 30
0.0
 10
4.5928946E+001
 20
-1.3821578E+001
 30
0.0
 10
4.6537838E+001
 20
-1.3864526E+001
 30
0.0
 10
4.7129599E+001
 20
-1.3904718E+001
 30
0.0
 10
4.7703456E+001
 20
-1.3942153E+001
 30
0.0
 10
4.8258509E+001
 20
-1.3976799E+001
 30
0.0
 10
4.8794054E+001
 20
-1.4008669E+001
 30
0.0
 10
4.9309486E+001
 20
-1.4037797E+001
 30
0.0
 10
4.9804317E+001
 20
-1.4064241E+001
 30
0.0
 10
5.0278167E+001
 20
-1.4088077E+001
 30
0.0
 10
5.0730753E+001
 20
-1.4109401E+001
 30
0.0
 10
5.1161888E+001
 20
-1.4128324E+001
 30
0.0
 10
5.1571472E+001
 20
-1.4144972E+001
 30
0.0
 10
5.1959492E+001
 20
-1.4159475E+001
 30
0.0
 10
5.2433971E+001
 20
-1.417569E+001
 30
0.0
 10
5.3004405E+001
 20
-1.4192316E+001
 30
0.0
 10
5.3655591E+001
 20
-1.4202562E+001
 30
0.0
 10
5.429881E+001
 20
-1.4197383E+001
 30
0.0
 10
5.4864116E+001
 20
-1.4169919E+001
 30
0.0
 10
5.5285217E+001
 20
-1.4117383E+001
 30
0.0
 10
5.5552356E+001
 20
-1.4048269E+001
 30
0.0
 10
5.5696171E+001
 20
-1.3976188E+001
 30
0.0
 10
5.5762893E+001
 20
-1.3911174E+001
 30
0.0
 10
5.5776334E+001
 20
-1.3869785E+001
 30
0.0
 10
5.5781995E+001
 20
-1.3852357E+001
 30
0.0
  0
SPLINE
  5
20d
100
AcDbEntity
  8
104
100
AcDbSpline
  6
CONTINUOUS
 62
40
210
0.0
220
0.0
230
0.0
 70
0
 71
3
 72
10
 73
6
 74
0
 42
1.0E-007
 43
1.0E-007
 44
0.0
 40
0.0
 40
0.0
 40
0.0
 40
0.0
 40
8.45656E-005
 40
5.1173602E-001
 40
1.0
 40
1.0
 40
1.0
 40
1.0
 10
4.9928371E+001
 20
-2.1118514E+001
 30
0.0
 10
4.9928391E+001
 20
-2.1118509E+001
 30
0.0
 10
5.0048621E+001
 20
-2.1088452E+001
 30
0.0
 10
5.0280021E+001
 20
-2.1016012E+001
 30
0.0
 10
5.0507945E+001
 20
-2.0934337E+001
 30
0.0
 10
5.0619241E+001
 20
-2.0894455E+001
 30
0.0
  0
LINE
  5
20e
100
AcDbEntity
  8
104
100
AcDbLine
  6
CONTINUOUS
 62
40
 10
5.5571601E+001
 20
-1.5289496E+001
 11
5.5589416E+001
 21
-1.5221583E+001
  0
LINE
  5
20f
100
AcDbEntity
  8
104
100
AcDbLine
  6
CONTINUOUS
 62
40
 10
5.5589416E+001
 20
-1.5221583E+001
 11
5.5683598E+001
 21
-1.4747846E+001
  0
LINE
  5
210
100
AcDbEntity
  8
104
100
AcDbLine
  6
CONTINUOUS
 62
40
 10
5.5683598E+001
 20
-1.4747846E+001
 11
5.574894E+001
 21
-1.4269277E+001
  0
LINE
  5
211
100
AcDbEntity
  8
104
100
AcDbLine
  6
CONTINUOUS
 62
40
 10
5.574894E+001
 20
-1.4269277E+001
 11
5.5781983E+001
 21
-1.3852605E+001
  0
LINE
  5
212
100
AcDbEntity
  8
104
100
AcDbLine
  6
CONTINUOUS
 62
40
 10
5.5781983E+001
 20
-1.3852605E+001
 11
5.5781983E+001
 21
-1.3852544E+001
  0
LINE
  5
213
100
AcDbEntity
  8
104
100
AcDbLine
  6
CONTINUOUS
 62
40
 10
5.5781983E+001
 20
-1.3852544E+001
 11
5.5781983E+001
 21
-1.3852544E+001
  0
SPLINE
  5
214
100
AcDbEntity
  8
104
100
AcDbSpline
  6
CONTINUOUS
 62
40
210
0.0
220
0.0
230
0.0
 70
0
 71
3
 72
10
 73
6
 74
0
 42
1.0E-007
 43
1.0E-007
 44
0.0
 40
0.0
 40
0.0
 40
0.0
 40
0.0
 40
5.0E-001
 40
5.0E-001
 40
1.0
 40
1.0
 40
1.0
 40
1.0
 10
5.5781995E+001
 20
-1.3852357E+001
 30
0.0
 10
5.6026354E+001
 20
-9.23798
 30
0.0
 10
5.614851E+001
 20
-4.6212836
 30
0.0
 10
5.614859E+001
 20
4.6167447
 30
0.0
 10
5.6026354E+001
 20
9.2379794
 30
0.0
 10
5.5781995E+001
 20
1.3852357E+001
 30
0.0
  0
SPLINE
  5
215
100
AcDbEntity
  8
104
100
AcDbSpline
  6
CONTINUOUS
 62
40
210
0.0
220
0.0
230
0.0
 70
0
 71
3
 72
11
 73
7
 74
0
 42
1.0E-007
 43
1.0E-007
 44
0.0
 40
0.0
 40
0.0
 40
0.0
 40
0.0
 40
2.5573557E-001
 40
5.1148541E-001
 40
7.6723501E-001
 40
1.0
 40
1.0
 40
1.0
 40
1.0
 10
4.992814E+001
 20
2.1118578E+001
 30
0.0
 10
4.9413377E+001
 20
2.1257979E+001
 30
0.0
 10
4.8383822E+001
 20
2.1536788E+001
 30
0.0
 10
4.6833845E+001
 20
2.1933715E+001
 30
0.0
 10
4.5326884E+001
 20
2.2305275E+001
 30
0.0
 10
4.4334508E+001
 20
2.2535512E+001
 30
0.0
 10
4.3861665E+001
 20
2.2645215E+001
 30
0.0
  0
SPLINE
  5
216
100
AcDbEntity
  8
104
100
AcDbSpline
  6
CONTINUOUS
 62
40
210
0.0
220
0.0
230
0.0
 70
0
 71
3
 72
11
 73
7
 74
0
 42
1.0E-007
 43
1.0E-007
 44
0.0
 40
0.0
 40
0.0
 40
0.0
 40
0.0
 40
1.8119394E-001
 40
4.5403474E-001
 40
7.2701767E-001
 40
1.0
 40
1.0
 40
1.0
 40
1.0
 10
4.3862436E+001
 20
-2.2643534E+001
 30
0.0
 10
4.4230644E+001
 20
-2.2558995E+001
 30
0.0
 10
4.5153296E+001
 20
-2.2347156E+001
 30
0.0
 10
4.662552E+001
 20
-2.1986048E+001
 30
0.0
 10
4.8279918E+001
 20
-2.1564614E+001
 30
0.0
 10
4.9378733E+001
 20
-2.1267256E+001
 30
0.0
 10
4.992814E+001
 20
-2.1118578E+001
 30
0.0
  0
SPLINE
  5
217
100
AcDbEntity
  8
104
100
AcDbSpline
  6
CONTINUOUS
 62
40
210
0.0
220
0.0
230
0.0
 70
0
 71
3
 72
9
 73
5
 74
0
 42
1.0E-007
 43
1.0E-007
 44
0.0
 40
0.0
 40
0.0
 40
0.0
 40
0.0
 40
8.8882863E-001
 40
1.0
 40
1.0
 40
1.0
 40
1.0
 10
4.3485478E+001
 20
-2.3664491E+001
 30
0.0
 10
4.3510846E+001
 20
-2.3523788E+001
 30
0.0
 10
4.3539387E+001
 20
-2.3365485E+001
 30
0.0
 10
4.3600521E+001
 20
-2.3217696E+001
 30
0.0
 10
4.3607317E+001
 20
-2.3201266E+001
 30
0.0
  0
LINE
  5
218
100
AcDbEntity
  8
104
100
AcDbLine
  6
CONTINUOUS
 62
40
 10
1.7500001E+001
 20
-7.2150908E+001
 11
1.7495765E+001
 21
-7.2150968E+001
  0
LINE
  5
219
100
AcDbEntity
  8
104
100
AcDbLine
  6
CONTINUOUS
 62
40
 10
1.7495765E+001
 20
-7.2150968E+001
 11
1.7483065E+001
 21
-7.2151147E+001
  0
LINE
  5
21a
100
AcDbEntity
  8
104
100
AcDbLine
  6
CONTINUOUS
 62
40
 10
1.7483065E+001
 20
-7.2151147E+001
 11
1.7461926E+001
 21
-7.2151445E+001
  0
LINE
  5
21b
100
AcDbEntity
  8
104
100
AcDbLine
  6
CONTINUOUS
 62
40
 10
1.7461926E+001
 20
-7.2151445E+001
 11
1.743239E+001
 21
-7.2151855E+001
  0
LINE
  5
21c
100
AcDbEntity
  8
104
100
AcDbLine
  6
CONTINUOUS
 62
40
 10
1.743239E+001
 20
-7.2151855E+001
 11
1.7394511E+001
 21
-7.2152384E+001
  0
LINE
  5
21d
100
AcDbEntity
  8
104
100
AcDbLine
  6
CONTINUOUS
 62
40
 10
1.7394511E+001
 20
-7.2152384E+001
 11
1.7348366E+001
 21
-7.2153032E+001
  0
LINE
  5
21e
100
AcDbEntity
  8
104
100
AcDbLine
  6
CONTINUOUS
 62
40
 10
1.7348366E+001
 20
-7.2153032E+001
 11
1.7294039E+001
 21
-7.2153784E+001
  0
LINE
  5
21f
100
AcDbEntity
  8
104
100
AcDbLine
  6
CONTINUOUS
 62
40
 10
1.7294039E+001
 20
-7.2153784E+001
 11
1.7231638E+001
 21
-7.2154656E+001
  0
LINE
  5
220
100
AcDbEntity
  8
104
100
AcDbLine
  6
CONTINUOUS
 62
40
 10
1.7231638E+001
 20
-7.2154656E+001
 11
1.7161282E+001
 21
-7.215564E+001
  0
LINE
  5
221
100
AcDbEntity
  8
104
100
AcDbLine
  6
CONTINUOUS
 62
40
 10
1.7161282E+001
 20
-7.215564E+001
 11
1.7083105E+001
 21
-7.2156735E+001
  0
LINE
  5
222
100
AcDbEntity
  8
104
100
AcDbLine
  6
CONTINUOUS
 62
40
 10
1.7083105E+001
 20
-7.2156735E+001
 11
1.6997261E+001
 21
-7.2157934E+001
  0
LINE
  5
223
100
AcDbEntity
  8
104
100
AcDbLine
  6
CONTINUOUS
 62
40
 10
1.6997261E+001
 20
-7.2157934E+001
 11
1.6903913E+001
 21
-7.2159238E+001
  0
LINE
  5
224
100
AcDbEntity
  8
104
100
AcDbLine
  6
CONTINUOUS
 62
40
 10
1.6903913E+001
 20
-7.2159238E+001
 11
1.6803241E+001
 21
-7.2160639E+001
  0
LINE
  5
225
100
AcDbEntity
  8
104
100
AcDbLine
  6
CONTINUOUS
 62
40
 10
1.6803241E+001
 20
-7.2160639E+001
 11
1.6695438E+001
 21
-7.2162144E+001
  0
LINE
  5
226
100
AcDbEntity
  8
104
100
AcDbLine
  6
CONTINUOUS
 62
40
 10
1.6695438E+001
 20
-7.2162144E+001
 11
1.6580713E+001
 21
-7.2163746E+001
  0
LINE
  5
227
100
AcDbEntity
  8
104
100
AcDbLine
  6
CONTINUOUS
 62
40
 10
1.6580713E+001
 20
-7.2163746E+001
 11
1.6459287E+001
 21
-7.2165444E+001
  0
LINE
  5
228
100
AcDbEntity
  8
104
100
AcDbLine
  6
CONTINUOUS
 62
40
 10
1.6459287E+001
 20
-7.2165444E+001
 11
1.6331392E+001
 21
-7.2167233E+001
  0
LINE
  5
229
100
AcDbEntity
  8
104
100
AcDbLine
  6
CONTINUOUS
 62
40
 10
1.6331392E+001
 20
-7.2167233E+001
 11
1.6197276E+001
 21
-7.2169103E+001
  0
LINE
  5
22a
100
AcDbEntity
  8
104
100
AcDbLine
  6
CONTINUOUS
 62
40
 10
1.6197276E+001
 20
-7.2169103E+001
 11
1.6057196E+001
 21
-7.2171055E+001
  0
LINE
  5
22b
100
AcDbEntity
  8
104
100
AcDbLine
  6
CONTINUOUS
 62
40
 10
1.6057196E+001
 20
-7.2171055E+001
 11
1.5911423E+001
 21
-7.2173096E+001
  0
LINE
  5
22c
100
AcDbEntity
  8
104
100
AcDbLine
  6
CONTINUOUS
 62
40
 10
1.5911423E+001
 20
-7.2173096E+001
 11
1.5760236E+001
 21
-7.2175205E+001
  0
LINE
  5
22d
100
AcDbEntity
  8
104
100
AcDbLine
  6
CONTINUOUS
 62
40
 10
1.5760236E+001
 20
-7.2175205E+001
 11
1.5603928E+001
 21
-7.2177388E+001
  0
LINE
  5
22e
100
AcDbEntity
  8
104
100
AcDbLine
  6
CONTINUOUS
 62
40
 10
1.5603928E+001
 20
-7.2177388E+001
 11
1.5442798E+001
 21
-7.2179638E+001
  0
LINE
  5
22f
100
AcDbEntity
  8
104
100
AcDbLine
  6
CONTINUOUS
 62
40
 10
1.5442798E+001
 20
-7.2179638E+001
 11
1.5277159E+001
 21
-7.2181948E+001
  0
LINE
  5
230
100
AcDbEntity
  8
104
100
AcDbLine
  6
CONTINUOUS
 62
40
 10
1.5277159E+001
 20
-7.2181948E+001
 11
1.5107327E+001
 21
-7.2184324E+001
  0
LINE
  5
231
100
AcDbEntity
  8
104
100
AcDbLine
  6
CONTINUOUS
 62
40
 10
1.5107327E+001
 20
-7.2184324E+001
 11
1.4933631E+001
 21
-7.2186746E+001
  0
LINE
  5
232
100
AcDbEntity
  8
104
100
AcDbLine
  6
CONTINUOUS
 62
40
 10
1.4933631E+001
 20
-7.2186746E+001
 11
1.4756402E+001
 21
-7.2189219E+001
  0
LINE
  5
233
100
AcDbEntity
  8
104
100
AcDbLine
  6
CONTINUOUS
 62
40
 10
1.4756402E+001
 20
-7.2189219E+001
 11
1.4575987E+001
 21
-7.2191738E+001
  0
LINE
  5
234
100
AcDbEntity
  8
104
100
AcDbLine
  6
CONTINUOUS
 62
40
 10
1.4575987E+001
 20
-7.2191738E+001
 11
1.4392728E+001
 21
-7.2194301E+001
  0
LINE
  5
235
100
AcDbEntity
  8
104
100
AcDbLine
  6
CONTINUOUS
 62
40
 10
1.4392728E+001
 20
-7.2194301E+001
 11
1.4206982E+001
 21
-7.2196893E+001
  0
LINE
  5
236
100
AcDbEntity
  8
104
100
AcDbLine
  6
CONTINUOUS
 62
40
 10
1.4206982E+001
 20
-7.2196893E+001
 11
1.4019104E+001
 21
-7.2199516E+001
  0
LINE
  5
237
100
AcDbEntity
  8
104
100
AcDbLine
  6
CONTINUOUS
 62
40
 10
1.4019104E+001
 20
-7.2199516E+001
 11
1.3829455E+001
 21
-7.2202168E+001
  0
LINE
  5
238
100
AcDbEntity
  8
104
100
AcDbLine
  6
CONTINUOUS
 62
40
 10
1.3829455E+001
 20
-7.2202168E+001
 11
1.3638404E+001
 21
-7.2204836E+001
  0
LINE
  5
239
100
AcDbEntity
  8
104
100
AcDbLine
  6
CONTINUOUS
 62
40
 10
1.3638404E+001
 20
-7.2204836E+001
 11
1.3446315E+001
 21
-7.2207518E+001
  0
LINE
  5
23a
100
AcDbEntity
  8
104
100
AcDbLine
  6
CONTINUOUS
 62
40
 10
1.3446315E+001
 20
-7.2207518E+001
 11
1.3253557E+001
 21
-7.2210208E+001
  0
LINE
  5
23b
100
AcDbEntity
  8
104
100
AcDbLine
  6
CONTINUOUS
 62
40
 10
1.7500001E+001
 20
7.2150908E+001
 11
1.7495765E+001
 21
7.2150968E+001
  0
LINE
  5
23c
100
AcDbEntity
  8
104
100
AcDbLine
  6
CONTINUOUS
 62
40
 10
1.7495765E+001
 20
7.2150968E+001
 11
1.7483065E+001
 21
7.2151147E+001
  0
LINE
  5
23d
100
AcDbEntity
  8
104
100
AcDbLine
  6
CONTINUOUS
 62
40
 10
1.7483065E+001
 20
7.2151147E+001
 11
1.7461926E+001
 21
7.2151445E+001
  0
LINE
  5
23e
100
AcDbEntity
  8
104
100
AcDbLine
  6
CONTINUOUS
 62
40
 10
1.7461926E+001
 20
7.2151445E+001
 11
1.743239E+001
 21
7.2151855E+001
  0
LINE
  5
23f
100
AcDbEntity
  8
104
100
AcDbLine
  6
CONTINUOUS
 62
40
 10
1.743239E+001
 20
7.2151855E+001
 11
1.7394511E+001
 21
7.2152384E+001
  0
LINE
  5
240
100
AcDbEntity
  8
104
100
AcDbLine
  6
CONTINUOUS
 62
40
 10
1.7394511E+001
 20
7.2152384E+001
 11
1.7348366E+001
 21
7.2153032E+001
  0
LINE
  5
241
100
AcDbEntity
  8
104
100
AcDbLine
  6
CONTINUOUS
 62
40
 10
1.7348366E+001
 20
7.2153032E+001
 11
1.7294039E+001
 21
7.2153784E+001
  0
LINE
  5
242
100
AcDbEntity
  8
104
100
AcDbLine
  6
CONTINUOUS
 62
40
 10
1.7294039E+001
 20
7.2153784E+001
 11
1.7231638E+001
 21
7.2154656E+001
  0
LINE
  5
243
100
AcDbEntity
  8
104
100
AcDbLine
  6
CONTINUOUS
 62
40
 10
1.7231638E+001
 20
7.2154656E+001
 11
1.7161282E+001
 21
7.215564E+001
  0
LINE
  5
244
100
AcDbEntity
  8
104
100
AcDbLine
  6
CONTINUOUS
 62
40
 10
1.7161282E+001
 20
7.215564E+001
 11
1.7083105E+001
 21
7.2156735E+001
  0
LINE
  5
245
100
AcDbEntity
  8
104
100
AcDbLine
  6
CONTINUOUS
 62
40
 10
1.7083105E+001
 20
7.2156735E+001
 11
1.6997261E+001
 21
7.2157934E+001
  0
LINE
  5
246
100
AcDbEntity
  8
104
100
AcDbLine
  6
CONTINUOUS
 62
40
 10
1.6997261E+001
 20
7.2157934E+001
 11
1.6903913E+001
 21
7.2159238E+001
  0
LINE
  5
247
100
AcDbEntity
  8
104
100
AcDbLine
  6
CONTINUOUS
 62
40
 10
1.6903913E+001
 20
7.2159238E+001
 11
1.6803241E+001
 21
7.2160639E+001
  0
LINE
  5
248
100
AcDbEntity
  8
104
100
AcDbLine
  6
CONTINUOUS
 62
40
 10
1.6803241E+001
 20
7.2160639E+001
 11
1.6695438E+001
 21
7.2162144E+001
  0
LINE
  5
249
100
AcDbEntity
  8
104
100
AcDbLine
  6
CONTINUOUS
 62
40
 10
1.6695438E+001
 20
7.2162144E+001
 11
1.6580713E+001
 21
7.2163746E+001
  0
LINE
  5
24a
100
AcDbEntity
  8
104
100
AcDbLine
  6
CONTINUOUS
 62
40
 10
1.6580713E+001
 20
7.2163746E+001
 11
1.6459287E+001
 21
7.2165444E+001
  0
LINE
  5
24b
100
AcDbEntity
  8
104
100
AcDbLine
  6
CONTINUOUS
 62
40
 10
1.6459287E+001
 20
7.2165444E+001
 11
1.6331392E+001
 21
7.2167233E+001
  0
LINE
  5
24c
100
AcDbEntity
  8
104
100
AcDbLine
  6
CONTINUOUS
 62
40
 10
1.6331392E+001
 20
7.2167233E+001
 11
1.6197276E+001
 21
7.2169103E+001
  0
LINE
  5
24d
100
AcDbEntity
  8
104
100
AcDbLine
  6
CONTINUOUS
 62
40
 10
1.6197276E+001
 20
7.2169103E+001
 11
1.6057196E+001
 21
7.2171055E+001
  0
LINE
  5
24e
100
AcDbEntity
  8
104
100
AcDbLine
  6
CONTINUOUS
 62
40
 10
1.6057196E+001
 20
7.2171055E+001
 11
1.5911423E+001
 21
7.2173096E+001
  0
LINE
  5
24f
100
AcDbEntity
  8
104
100
AcDbLine
  6
CONTINUOUS
 62
40
 10
1.5911423E+001
 20
7.2173096E+001
 11
1.5760236E+001
 21
7.2175205E+001
  0
LINE
  5
250
100
AcDbEntity
  8
104
100
AcDbLine
  6
CONTINUOUS
 62
40
 10
1.5760236E+001
 20
7.2175205E+001
 11
1.5603928E+001
 21
7.2177388E+001
  0
LINE
  5
251
100
AcDbEntity
  8
104
100
AcDbLine
  6
CONTINUOUS
 62
40
 10
1.5603928E+001
 20
7.2177388E+001
 11
1.5442798E+001
 21
7.2179638E+001
  0
LINE
  5
252
100
AcDbEntity
  8
104
100
AcDbLine
  6
CONTINUOUS
 62
40
 10
1.5442798E+001
 20
7.2179638E+001
 11
1.5277159E+001
 21
7.2181948E+001
  0
LINE
  5
253
100
AcDbEntity
  8
104
100
AcDbLine
  6
CONTINUOUS
 62
40
 10
1.5277159E+001
 20
7.2181948E+001
 11
1.5107327E+001
 21
7.2184324E+001
  0
LINE
  5
254
100
AcDbEntity
  8
104
100
AcDbLine
  6
CONTINUOUS
 62
40
 10
1.5107327E+001
 20
7.2184324E+001
 11
1.4933631E+001
 21
7.2186746E+001
  0
LINE
  5
255
100
AcDbEntity
  8
104
100
AcDbLine
  6
CONTINUOUS
 62
40
 10
1.4933631E+001
 20
7.2186746E+001
 11
1.4756402E+001
 21
7.2189219E+001
  0
LINE
  5
256
100
AcDbEntity
  8
104
100
AcDbLine
  6
CONTINUOUS
 62
40
 10
1.4756402E+001
 20
7.2189219E+001
 11
1.4575987E+001
 21
7.2191738E+001
  0
LINE
  5
257
100
AcDbEntity
  8
104
100
AcDbLine
  6
CONTINUOUS
 62
40
 10
1.4575987E+001
 20
7.2191738E+001
 11
1.4392728E+001
 21
7.2194301E+001
  0
LINE
  5
258
100
AcDbEntity
  8
104
100
AcDbLine
  6
CONTINUOUS
 62
40
 10
1.4392728E+001
 20
7.2194301E+001
 11
1.4206982E+001
 21
7.2196893E+001
  0
LINE
  5
259
100
AcDbEntity
  8
104
100
AcDbLine
  6
CONTINUOUS
 62
40
 10
1.4206982E+001
 20
7.2196893E+001
 11
1.4019104E+001
 21
7.2199516E+001
  0
LINE
  5
25a
100
AcDbEntity
  8
104
100
AcDbLine
  6
CONTINUOUS
 62
40
 10
1.4019104E+001
 20
7.2199516E+001
 11
1.3829455E+001
 21
7.2202168E+001
  0
LINE
  5
25b
100
AcDbEntity
  8
104
100
AcDbLine
  6
CONTINUOUS
 62
40
 10
1.3829455E+001
 20
7.2202168E+001
 11
1.3638404E+001
 21
7.2204836E+001
  0
LINE
  5
25c
100
AcDbEntity
  8
104
100
AcDbLine
  6
CONTINUOUS
 62
40
 10
1.3638404E+001
 20
7.2204836E+001
 11
1.3446315E+001
 21
7.2207518E+001
  0
LINE
  5
25d
100
AcDbEntity
  8
104
100
AcDbLine
  6
CONTINUOUS
 62
40
 10
1.3446315E+001
 20
7.2207518E+001
 11
1.3253557E+001
 21
7.2210208E+001
  0
POINT
  5
25e
100
AcDbEntity
  8
Drafting_Hidden_Entities
100
AcDbPoint
  6
CONTINUOUS
 62
1
 10
0.0
 20
0.0
  0
ENDBLK
  5
25f
100
AcDbEntity
100
AcDbBlockEnd
  0
BLOCK
  5
260
100
AcDbEntity
100
AcDbBlockBegin
  2
UUI
 10
0.0
 20
0.0
 70
0
  0
LINE
  5
261
100
AcDbEntity
  8
1
100
AcDbLine
  6
CONTINUOUS
 62
40
 10
-1.65E+001
 20
0.0
 11
1.65E+001
 21
0.0
  0
LINE
  5
262
100
AcDbEntity
  8
1
100
AcDbLine
  6
CONTINUOUS
 62
40
 10
1.85E+001
 20
2.0
 11
1.85E+001
 21
1.1E+002
  0
LINE
  5
263
100
AcDbEntity
  8
1
100
AcDbLine
  6
CONTINUOUS
 62
40
 10
1.65E+001
 20
1.12E+002
 11
-1.65E+001
 21
1.12E+002
  0
LINE
  5
264
100
AcDbEntity
  8
1
100
AcDbLine
  6
CONTINUOUS
 62
40
 10
-1.85E+001
 20
1.1E+002
 11
-1.85E+001
 21
2.0
  0
ARC
  5
265
100
AcDbEntity
  8
1
100
AcDbCircle
  6
CONTINUOUS
 62
40
 10
1.65E+001
 20
1.1E+002
 40
2.0
100
AcDbArc
 50
0.0
 51
9.0E+001
  0
ARC
  5
266
100
AcDbEntity
  8
1
100
AcDbCircle
  6
CONTINUOUS
 62
40
 10
-1.65E+001
 20
1.1E+002
 40
2.0
100
AcDbArc
 50
9.0E+001
 51
1.8E+002
  0
ARC
  5
267
100
AcDbEntity
  8
1
100
AcDbCircle
  6
CONTINUOUS
 62
40
 10
-1.65E+001
 20
2.0
 40
2.0
100
AcDbArc
 50
1.8E+002
 51
2.7E+002
  0
ARC
  5
268
100
AcDbEntity
  8
1
100
AcDbCircle
  6
CONTINUOUS
 62
40
 10
1.65E+001
 20
2.0
 40
2.0
100
AcDbArc
 50
2.7E+002
 51
3.6E+002
  0
CIRCLE
  5
269
100
AcDbEntity
  8
1
100
AcDbCircle
  6
CONTINUOUS
 62
1
 10
9.25
 20
1.5E+001
 40
3.0
  0
CIRCLE
  5
26a
100
AcDbEntity
  8
1
100
AcDbCircle
  6
CONTINUOUS
 62
1
 10
-9.25
 20
1.5E+001
 40
3.0
  0
CIRCLE
  5
26b
100
AcDbEntity
  8
1
100
AcDbCircle
  6
CONTINUOUS
 62
1
 10
-9.25
 20
9.2E+001
 40
3.0
  0
CIRCLE
  5
26c
100
AcDbEntity
  8
1
100
AcDbCircle
  6
CONTINUOUS
 62
1
 10
9.25
 20
9.2E+001
 40
3.0
  0
LINE
  5
26d
100
AcDbEntity
  8
1
100
AcDbLine
  6
CONTINUOUS
 62
1
 10
9.25
 20
9.2E+001
 11
9.25
 21
9.2E+001
  0
LINE
  5
26e
100
AcDbEntity
  8
1
100
AcDbLine
  6
CONTINUOUS
 62
1
 10
9.25
 20
9.2E+001
 11
9.25
 21
9.2E+001
  0
LINE
  5
26f
100
AcDbEntity
  8
1
100
AcDbLine
  6
CENTERLINE
 62
1
 10
9.25
 20
9.2E+001
 11
1.425E+001
 21
9.2E+001
  0
LINE
  5
270
100
AcDbEntity
  8
1
100
AcDbLine
  6
CENTERLINE
 62
1
 10
9.25
 20
9.2E+001
 11
9.25
 21
9.7E+001
  0
LINE
  5
271
100
AcDbEntity
  8
1
100
AcDbLine
  6
CENTERLINE
 62
1
 10
9.25
 20
9.2E+001
 11
4.25
 21
9.2E+001
  0
LINE
  5
272
100
AcDbEntity
  8
1
100
AcDbLine
  6
CENTERLINE
 62
1
 10
9.25
 20
9.2E+001
 11
9.25
 21
8.7E+001
  0
LINE
  5
273
100
AcDbEntity
  8
1
100
AcDbLine
  6
CONTINUOUS
 62
1
 10
-9.25
 20
9.2E+001
 11
-9.25
 21
9.2E+001
  0
LINE
  5
274
100
AcDbEntity
  8
1
100
AcDbLine
  6
CONTINUOUS
 62
1
 10
-9.25
 20
9.2E+001
 11
-9.25
 21
9.2E+001
  0
LINE
  5
275
100
AcDbEntity
  8
1
100
AcDbLine
  6
CENTERLINE
 62
1
 10
-9.25
 20
9.2E+001
 11
-4.25
 21
9.2E+001
  0
LINE
  5
276
100
AcDbEntity
  8
1
100
AcDbLine
  6
CENTERLINE
 62
1
 10
-9.25
 20
9.2E+001
 11
-9.25
 21
9.7E+001
  0
LINE
  5
277
100
AcDbEntity
  8
1
100
AcDbLine
  6
CENTERLINE
 62
1
 10
-9.25
 20
9.2E+001
 11
-1.425E+001
 21
9.2E+001
  0
LINE
  5
278
100
AcDbEntity
  8
1
100
AcDbLine
  6
CENTERLINE
 62
1
 10
-9.25
 20
9.2E+001
 11
-9.25
 21
8.7E+001
  0
LINE
  5
279
100
AcDbEntity
  8
1
100
AcDbLine
  6
CONTINUOUS
 62
1
 10
9.25
 20
1.5E+001
 11
9.25
 21
1.5E+001
  0
LINE
  5
27a
100
AcDbEntity
  8
1
100
AcDbLine
  6
CONTINUOUS
 62
1
 10
9.25
 20
1.5E+001
 11
9.25
 21
1.5E+001
  0
LINE
  5
27b
100
AcDbEntity
  8
1
100
AcDbLine
  6
CENTERLINE
 62
1
 10
9.25
 20
1.5E+001
 11
1.425E+001
 21
1.5E+001
  0
LINE
  5
27c
100
AcDbEntity
  8
1
100
AcDbLine
  6
CENTERLINE
 62
1
 10
9.25
 20
1.5E+001
 11
9.25
 21
2.0E+001
  0
LINE
  5
27d
100
AcDbEntity
  8
1
100
AcDbLine
  6
CENTERLINE
 62
1
 10
9.25
 20
1.5E+001
 11
4.25
 21
1.5E+001
  0
LINE
  5
27e
100
AcDbEntity
  8
1
100
AcDbLine
  6
CENTERLINE
 62
1
 10
9.25
 20
1.5E+001
 11
9.25
 21
1.0E+001
  0
LINE
  5
27f
100
AcDbEntity
  8
1
100
AcDbLine
  6
CONTINUOUS
 62
1
 10
-9.25
 20
1.5E+001
 11
-9.25
 21
1.5E+001
  0
LINE
  5
280
100
AcDbEntity
  8
1
100
AcDbLine
  6
CONTINUOUS
 62
1
 10
-9.25
 20
1.5E+001
 11
-9.25
 21
1.5E+001
  0
LINE
  5
281
100
AcDbEntity
  8
1
100
AcDbLine
  6
CENTERLINE
 62
1
 10
-9.25
 20
1.5E+001
 11
-4.25
 21
1.5E+001
  0
LINE
  5
282
100
AcDbEntity
  8
1
100
AcDbLine
  6
CENTERLINE
 62
1
 10
-9.25
 20
1.5E+001
 11
-9.25
 21
2.0E+001
  0
LINE
  5
283
100
AcDbEntity
  8
1
100
AcDbLine
  6
CENTERLINE
 62
1
 10
-9.25
 20
1.5E+001
 11
-1.425E+001
 21
1.5E+001
  0
LINE
  5
284
100
AcDbEntity
  8
1
100
AcDbLine
  6
CENTERLINE
 62
1
 10
-9.25
 20
1.5E+001
 11
-9.25
 21
1.0E+001
  0
LINE
  5
285
100
AcDbEntity
  8
1
100
AcDbLine
  6
CONTINUOUS
 62
40
 10
1.3E+001
 20
1.27E+002
 11
-1.3E+001
 21
1.27E+002
  0
LINE
  5
286
100
AcDbEntity
  8
1
100
AcDbLine
  6
CONTINUOUS
 62
40
 10
-1.3E+001
 20
1.12E+002
 11
-1.3E+001
 21
1.27E+002
  0
LINE
  5
287
100
AcDbEntity
  8
1
100
AcDbLine
  6
CONTINUOUS
 62
40
 10
1.3E+001
 20
1.12E+002
 11
1.3E+001
 21
1.27E+002
  0
POINT
  5
288
100
AcDbEntity
  8
Drafting_Hidden_Entities
100
AcDbPoint
  6
CONTINUOUS
 62
1
 10
0.0
 20
0.0
  0
ENDBLK
  5
289
100
AcDbEntity
100
AcDbBlockEnd
  0
BLOCK
  5
28a
100
AcDbEntity
100
AcDbBlockBegin
  2
JJNMKNEW00
 10
0.0
 20
0.0
 70
0
  0
LINE
  5
28b
100
AcDbEntity
  8
1
100
AcDbLine
  6
CONTINUOUS
 62
40
 10
3.8921871E+001
 20
-4.2409959E+001
 11
6.483698E+001
 21
-9.0483133E+001
  0
ARC
  5
28c
100
AcDbEntity
  8
1
100
AcDbCircle
  6
CONTINUOUS
 62
40
 10
7.5521091E+001
 20
-8.5019638E+001
 40
1.2E+001
100
AcDbArc
 50
2.0708367E+002
 51
2.9708367E+002
  0
ARC
  5
28d
100
AcDbEntity
  8
1
100
AcDbCircle
  6
CONTINUOUS
 62
40
 10
7.5521091E+001
 20
-8.5019638E+001
 40
1.2E+001
100
AcDbArc
 50
2.9708367E+002
 51
3.8708367E+002
  0
LINE
  5
28e
100
AcDbEntity
  8
1
100
AcDbLine
  6
CONTINUOUS
 62
40
 10
4.6066022E+001
 20
3.3306306
 11
8.6205202E+001
 21
-7.9556143E+001
  0
LINE
  5
28f
100
AcDbEntity
  8
1
100
AcDbLine
  6
CONTINUOUS
 62
40
 10
2.0941219E+001
 20
-7.210286E+001
 11
-7.4999993
 21
-7.2499998E+001
  0
LINE
  5
290
100
AcDbEntity
  8
1
100
AcDbLine
  6
CONTINUOUS
 62
40
 10
-7.4999993
 20
-7.2499998E+001
 11
-7.4999993
 21
-7.0500195E+001
  0
ARC
  5
291
100
AcDbEntity
  8
1
100
AcDbCircle
  6
CONTINUOUS
 62
40
 10
5.0000067E-001
 20
-1.3E+001
 40
5.0E-001
100
AcDbArc
 50
1.8E+002
 51
2.7E+002
  0
LINE
  5
292
100
AcDbEntity
  8
1
100
AcDbLine
  6
CONTINUOUS
 62
40
 10
3.0499999E+001
 20
-1.35E+001
 11
5.0000105E-001
 21
-1.35E+001
  0
ARC
  5
293
100
AcDbEntity
  8
1
100
AcDbCircle
  6
CONTINUOUS
 62
40
 10
3.0500001E+001
 20
-1.3E+001
 40
5.0E-001
100
AcDbArc
 50
2.7E+002
 51
3.6E+002
  0
LINE
  5
294
100
AcDbEntity
  8
1
100
AcDbLine
  6
CONTINUOUS
 62
40
 10
3.1E+001
 20
-6.9
 11
3.1E+001
 21
-1.3E+001
  0
ARC
  5
295
100
AcDbEntity
  8
1
100
AcDbCircle
  6
CONTINUOUS
 62
40
 10
3.0500001E+001
 20
-6.9000001
 40
5.0E-001
100
AcDbArc
 50
0.0
 51
9.0E+001
  0
LINE
  5
296
100
AcDbEntity
  8
1
100
AcDbLine
  6
CONTINUOUS
 62
40
 10
1.8500001E+001
 20
-6.3999999
 11
3.0499999E+001
 21
-6.3999999
  0
ARC
  5
297
100
AcDbEntity
  8
1
100
AcDbCircle
  6
CONTINUOUS
 62
40
 10
1.8500001E+001
 20
-5.9000001
 40
5.0E-001
100
AcDbArc
 50
1.8E+002
 51
2.7E+002
  0
LINE
  5
298
100
AcDbEntity
  8
1
100
AcDbLine
  6
CONTINUOUS
 62
40
 10
1.8E+001
 20
5.9000001
 11
1.8E+001
 21
-5.9000003
  0
ARC
  5
299
100
AcDbEntity
  8
1
100
AcDbCircle
  6
CONTINUOUS
 62
40
 10
1.8500001E+001
 20
5.8999999
 40
5.0E-001
100
AcDbArc
 50
9.0E+001
 51
1.8E+002
  0
LINE
  5
29a
100
AcDbEntity
  8
1
100
AcDbLine
  6
CONTINUOUS
 62
40
 10
3.0499999E+001
 20
6.3999998
 11
1.8500001E+001
 21
6.3999998
  0
ARC
  5
29b
100
AcDbEntity
  8
1
100
AcDbCircle
  6
CONTINUOUS
 62
40
 10
3.0500001E+001
 20
6.8999999
 40
5.0E-001
100
AcDbArc
 50
2.7E+002
 51
3.6E+002
  0
LINE
  5
29c
100
AcDbEntity
  8
1
100
AcDbLine
  6
CONTINUOUS
 62
40
 10
3.1E+001
 20
1.3E+001
 11
3.1E+001
 21
6.8999998
  0
ARC
  5
29d
100
AcDbEntity
  8
1
100
AcDbCircle
  6
CONTINUOUS
 62
40
 10
3.0500001E+001
 20
1.3E+001
 40
5.0E-001
100
AcDbArc
 50
0.0
 51
9.0E+001
  0
LINE
  5
29e
100
AcDbEntity
  8
1
100
AcDbLine
  6
CONTINUOUS
 62
40
 10
5.0000105E-001
 20
1.35E+001
 11
3.0499999E+001
 21
1.35E+001
  0
ARC
  5
29f
100
AcDbEntity
  8
1
100
AcDbCircle
  6
CONTINUOUS
 62
40
 10
5.0000067E-001
 20
1.3E+001
 40
5.0E-001
100
AcDbArc
 50
9.0E+001
 51
1.8E+002
  0
LINE
  5
2a0
100
AcDbEntity
  8
1
100
AcDbLine
  6
CONTINUOUS
 62
40
 10
4.99E-007
 20
-1.3E+001
 11
4.99E-007
 21
1.3E+001
  0
LINE
  5
2a1
100
AcDbEntity
  8
1
100
AcDbLine
  6
CONTINUOUS
 62
40
 10
-7.4999993
 20
7.0500195E+001
 11
-7.4999993
 21
-7.0500195E+001
  0
LINE
  5
2a2
100
AcDbEntity
  8
1
100
AcDbLine
  6
CONTINUOUS
 62
40
 10
-7.4999993
 20
7.2499998E+001
 11
2.0941219E+001
 21
7.210286E+001
  0
LINE
  5
2a3
100
AcDbEntity
  8
1
100
AcDbLine
  6
CONTINUOUS
 62
40
 10
-7.4999993
 20
7.0500195E+001
 11
-7.4999993
 21
7.2499998E+001
  0
SPLINE
  5
2a4
100
AcDbEntity
  8
1
100
AcDbSpline
  6
CONTINUOUS
 62
40
210
0.0
220
0.0
230
0.0
 70
0
 71
3
 72
14
 73
10
 74
0
 42
1.0E-007
 43
1.0E-007
 44
0.0
 40
0.0
 40
0.0
 40
0.0
 40
0.0
 40
2.5E-001
 40
2.5E-001
 40
5.0E-001
 40
5.0E-001
 40
7.5E-001
 40
7.5E-001
 40
1.0
 40
1.0
 40
1.0
 40
1.0
 10
4.4382228E+001
 20
-1.7655787E+001
 30
0.0
 10
4.4420801E+001
 20
-1.7352373E+001
 30
0.0
 10
4.4445732E+001
 20
-1.7044587E+001
 30
0.0
 10
4.4473203E+001
 20
-1.6419147E+001
 30
0.0
 10
4.4475548E+001
 20
-1.6101657E+001
 30
0.0
 10
4.4464904E+001
 20
-1.5452137E+001
 30
0.0
 10
4.4450807E+001
 20
-1.5119522E+001
 30
0.0
 10
4.4431406E+001
 20
-1.4431129E+001
 30
0.0
 10
4.4427506E+001
 20
-1.4067149E+001
 30
0.0
 10
4.4466295E+001
 20
-1.3696236E+001
 30
0.0
  0
ARC
  5
2a5
100
AcDbEntity
  8
1
100
AcDbCircle
  6
CONTINUOUS
 62
40
 10
-9.4499999E+001
 20
-8.62E-008
 40
1.4E+002
100
AcDbArc
 50
3.2949319E+002
 51
3.5275498E+002
  0
ARC
  5
2a6
100
AcDbEntity
  8
1
100
AcDbCircle
  6
CONTINUOUS
 62
40
 10
-9.4499999E+001
 20
-8.62E-008
 40
1.4E+002
100
AcDbArc
 50
7.2450208
 51
3.0506805E+001
  0
SPLINE
  5
2a7
100
AcDbEntity
  8
1
100
AcDbSpline
  6
CONTINUOUS
 62
40
210
0.0
220
0.0
230
0.0
 70
0
 71
3
 72
14
 73
10
 74
0
 42
1.0E-007
 43
1.0E-007
 44
0.0
 40
0.0
 40
0.0
 40
0.0
 40
0.0
 40
1.25E-001
 40
1.25E-001
 40
2.5E-001
 40
2.5E-001
 40
5.0E-001
 40
5.0E-001
 40
1.0
 40
1.0
 40
1.0
 40
1.0
 10
4.4466295E+001
 20
1.3696236E+001
 30
0.0
 10
4.4446892E+001
 20
1.3881773E+001
 30
0.0
 10
4.4437753E+001
 20
1.4066345E+001
 30
0.0
 10
4.4432743E+001
 20
1.4428966E+001
 30
0.0
 10
4.4436293E+001
 20
1.4605291E+001
 30
0.0
 10
4.4451023E+001
 20
1.5125614E+001
 30
0.0
 10
4.4464988E+001
 20
1.5455305E+001
 30
0.0
 10
4.4480808E+001
 20
1.6426652E+001
 30
0.0
 10
4.4459415E+001
 20
1.704863E+001
 30
0.0
 10
4.4382228E+001
 20
1.7655786E+001
 30
0.0
  0
SPLINE
  5
2a8
100
AcDbEntity
  8
1
100
AcDbSpline
  6
CONTINUOUS
 62
40
210
0.0
220
0.0
230
0.0
 70
0
 71
3
 72
12
 73
8
 74
0
 42
1.0E-007
 43
1.0E-007
 44
0.0
 40
0.0
 40
0.0
 40
0.0
 40
0.0
 40
5.0E-001
 40
5.0E-001
 40
7.5E-001
 40
7.5E-001
 40
1.0
 40
1.0
 40
1.0
 40
1.0
 10
4.4466216E+001
 20
-1.3696225E+001
 30
0.0
 10
4.4942161E+001
 20
-9.1432437
 30
0.0
 10
4.5179579E+001
 20
-4.5794141
 30
0.0
 10
4.5179826E+001
 20
2.2825654
 30
0.0
 10
4.512032E+001
 20
4.572061
 30
0.0
 10
4.4882491E+001
 20
9.1395999
 30
0.0
 10
4.4704189E+001
 20
1.1419734E+001
 30
0.0
 10
4.4466216E+001
 20
1.3696225E+001
 30
0.0
  0
SPLINE
  5
2a9
100
AcDbEntity
  8
1
100
AcDbSpline
  6
CONTINUOUS
 62
40
210
0.0
220
0.0
230
0.0
 70
0
 71
3
 72
20
 73
16
 74
0
 42
1.0E-007
 43
1.0E-007
 44
0.0
 40
0.0
 40
0.0
 40
0.0
 40
0.0
 40
2.5E-001
 40
2.5E-001
 40
3.75E-001
 40
3.75E-001
 40
5.0E-001
 40
5.0E-001
 40
6.25E-001
 40
6.25E-001
 40
7.5E-001
 40
7.5E-001
 40
8.75E-001
 40
8.75E-001
 40
1.0
 40
1.0
 40
1.0
 40
1.0
 10
2.0941219E+001
 20
7.210286E+001
 30
0.0
 10
2.1369666E+001
 20
7.2096877E+001
 30
0.0
 10
2.1785165E+001
 20
7.2091075E+001
 30
0.0
 10
2.2388356E+001
 20
7.2082653E+001
 30
0.0
 10
2.2586839E+001
 20
7.2079881E+001
 30
0.0
 10
2.2959578E+001
 20
7.2074676E+001
 30
0.0
 10
2.3135957E+001
 20
7.2072213E+001
 30
0.0
 10
2.3466989E+001
 20
7.2067591E+001
 30
0.0
 10
2.3623168E+001
 20
7.206541E+001
 30
0.0
 10
2.3897443E+001
 20
7.206158E+001
 30
0.0
 10
2.4016831E+001
 20
7.2059913E+001
 30
0.0
 10
2.4215966E+001
 20
7.2057133E+001
 30
0.0
 10
2.4293102E+001
 20
7.2056056E+001
 30
0.0
 10
2.4396935E+001
 20
7.2054606E+001
 30
0.0
 10
2.4424429E+001
 20
7.2054222E+001
 30
0.0
 10
2.4424429E+001
 20
7.2054222E+001
 30
0.0
  0
ARC
  5
2aa
100
AcDbEntity
  8
1
100
AcDbCircle
  6
CONTINUOUS
 62
40
 10
2.4396505E+001
 20
7.0054417E+001
 40
2.0
100
AcDbArc
 50
3.0506805E+001
 51
8.92E+001
  0
SPLINE
  5
2ab
100
AcDbEntity
  8
1
100
AcDbSpline
  6
CONTINUOUS
 62
40
210
0.0
220
0.0
230
0.0
 70
0
 71
3
 72
20
 73
16
 74
0
 42
1.0E-007
 43
1.0E-007
 44
0.0
 40
0.0
 40
0.0
 40
0.0
 40
0.0
 40
1.25E-001
 40
1.25E-001
 40
2.5E-001
 40
2.5E-001
 40
3.75E-001
 40
3.75E-001
 40
5.0E-001
 40
5.0E-001
 40
6.25E-001
 40
6.25E-001
 40
7.5E-001
 40
7.5E-001
 40
1.0
 40
1.0
 40
1.0
 40
1.0
 10
2.4424429E+001
 20
-7.2054222E+001
 30
0.0
 10
2.4424429E+001
 20
-7.2054222E+001
 30
0.0
 10
2.4397789E+001
 20
-7.2054594E+001
 30
0.0
 10
2.4294591E+001
 20
-7.2056035E+001
 30
0.0
 10
2.4216781E+001
 20
-7.2057122E+001
 30
0.0
 10
2.4020621E+001
 20
-7.2059861E+001
 30
0.0
 10
2.3900745E+001
 20
-7.2061534E+001
 30
0.0
 10
2.3626261E+001
 20
-7.2065367E+001
 30
0.0
 10
2.3473864E+001
 20
-7.2067495E+001
 30
0.0
 10
2.3141769E+001
 20
-7.2072132E+001
 30
0.0
 10
2.296177E+001
 20
-7.2074646E+001
 30
0.0
 10
2.2588631E+001
 20
-7.2079856E+001
 30
0.0
 10
2.2393975E+001
 20
-7.2082574E+001
 30
0.0
 10
2.1786715E+001
 20
-7.2091054E+001
 30
0.0
 10
2.1368755E+001
 20
-7.209689E+001
 30
0.0
 10
2.0941219E+001
 20
-7.210286E+001
 30
0.0
  0
ARC
  5
2ac
100
AcDbEntity
  8
1
100
AcDbCircle
  6
CONTINUOUS
 62
40
 10
2.4396505E+001
 20
-7.0054417E+001
 40
2.0
100
AcDbArc
 50
2.708E+002
 51
3.2949319E+002
  0
SPLINE
  5
2ad
100
AcDbEntity
  8
1
100
AcDbSpline
  6
CONTINUOUS
 62
40
210
0.0
220
0.0
230
0.0
 70
0
 71
3
 72
8
 73
4
 74
0
 42
1.0E-007
 43
1.0E-007
 44
0.0
 40
0.0
 40
0.0
 40
0.0
 40
0.0
 40
1.0
 40
1.0
 40
1.0
 40
1.0
 10
4.4466295E+001
 20
1.3696236E+001
 30
0.0
 10
4.4522252E+001
 20
1.3705761E+001
 30
0.0
 10
4.4588888E+001
 20
1.3716332E+001
 30
0.0
 10
4.4665437E+001
 20
1.3727829E+001
 30
0.0
  0
SPLINE
  5
2ae
100
AcDbEntity
  8
1
100
AcDbSpline
  6
CONTINUOUS
 62
40
210
0.0
220
0.0
230
0.0
 70
0
 71
3
 72
8
 73
4
 74
0
 42
1.0E-007
 43
1.0E-007
 44
0.0
 40
0.0
 40
0.0
 40
0.0
 40
0.0
 40
1.0
 40
1.0
 40
1.0
 40
1.0
 10
4.4466215E+001
 20
-1.3696241E+001
 30
0.0
 10
4.4522171E+001
 20
-1.3705738E+001
 30
0.0
 10
4.4588804E+001
 20
-1.3716282E+001
 30
0.0
 10
4.4665345E+001
 20
-1.372775E+001
 30
0.0
  0
SPLINE
  5
2af
100
AcDbEntity
  8
1
100
AcDbSpline
  6
CONTINUOUS
 62
40
210
0.0
220
0.0
230
0.0
 70
0
 71
3
 72
9
 73
5
 74
0
 42
1.0E-007
 43
1.0E-007
 44
0.0
 40
0.0
 40
0.0
 40
0.0
 40
0.0
 40
8.8882863E-001
 40
1.0
 40
1.0
 40
1.0
 40
1.0
 10
4.3485479E+001
 20
-2.3664491E+001
 30
0.0
 10
4.3510847E+001
 20
-2.3523788E+001
 30
0.0
 10
4.3539388E+001
 20
-2.3365485E+001
 30
0.0
 10
4.3600522E+001
 20
-2.3217696E+001
 30
0.0
 10
4.3607318E+001
 20
-2.3201266E+001
 30
0.0
  0
LINE
  5
2b0
100
AcDbEntity
  8
1
100
AcDbLine
  6
CONTINUOUS
 62
40
 10
1.7500001E+001
 20
-7.2150908E+001
 11
1.7495765E+001
 21
-7.2150968E+001
  0
LINE
  5
2b1
100
AcDbEntity
  8
1
100
AcDbLine
  6
CONTINUOUS
 62
40
 10
1.7495765E+001
 20
-7.2150968E+001
 11
1.7483066E+001
 21
-7.2151147E+001
  0
LINE
  5
2b2
100
AcDbEntity
  8
1
100
AcDbLine
  6
CONTINUOUS
 62
40
 10
1.7483066E+001
 20
-7.2151147E+001
 11
1.7461927E+001
 21
-7.2151445E+001
  0
LINE
  5
2b3
100
AcDbEntity
  8
1
100
AcDbLine
  6
CONTINUOUS
 62
40
 10
1.7461927E+001
 20
-7.2151445E+001
 11
1.7432391E+001
 21
-7.2151855E+001
  0
LINE
  5
2b4
100
AcDbEntity
  8
1
100
AcDbLine
  6
CONTINUOUS
 62
40
 10
1.7432391E+001
 20
-7.2151855E+001
 11
1.7394512E+001
 21
-7.2152384E+001
  0
LINE
  5
2b5
100
AcDbEntity
  8
1
100
AcDbLine
  6
CONTINUOUS
 62
40
 10
1.7394512E+001
 20
-7.2152384E+001
 11
1.7348367E+001
 21
-7.2153032E+001
  0
LINE
  5
2b6
100
AcDbEntity
  8
1
100
AcDbLine
  6
CONTINUOUS
 62
40
 10
1.7348367E+001
 20
-7.2153032E+001
 11
1.7294039E+001
 21
-7.2153784E+001
  0
LINE
  5
2b7
100
AcDbEntity
  8
1
100
AcDbLine
  6
CONTINUOUS
 62
40
 10
1.7294039E+001
 20
-7.2153784E+001
 11
1.7231639E+001
 21
-7.2154656E+001
  0
LINE
  5
2b8
100
AcDbEntity
  8
1
100
AcDbLine
  6
CONTINUOUS
 62
40
 10
1.7231639E+001
 20
-7.2154656E+001
 11
1.7161283E+001
 21
-7.215564E+001
  0
LINE
  5
2b9
100
AcDbEntity
  8
1
100
AcDbLine
  6
CONTINUOUS
 62
40
 10
1.7161283E+001
 20
-7.215564E+001
 11
1.7083106E+001
 21
-7.2156735E+001
  0
LINE
  5
2ba
100
AcDbEntity
  8
1
100
AcDbLine
  6
CONTINUOUS
 62
40
 10
1.7083106E+001
 20
-7.2156735E+001
 11
1.6997262E+001
 21
-7.2157934E+001
  0
LINE
  5
2bb
100
AcDbEntity
  8
1
100
AcDbLine
  6
CONTINUOUS
 62
40
 10
1.6997262E+001
 20
-7.2157934E+001
 11
1.6903914E+001
 21
-7.2159238E+001
  0
LINE
  5
2bc
100
AcDbEntity
  8
1
100
AcDbLine
  6
CONTINUOUS
 62
40
 10
1.6903914E+001
 20
-7.2159238E+001
 11
1.6803241E+001
 21
-7.2160639E+001
  0
LINE
  5
2bd
100
AcDbEntity
  8
1
100
AcDbLine
  6
CONTINUOUS
 62
40
 10
1.6803241E+001
 20
-7.2160639E+001
 11
1.6695439E+001
 21
-7.2162144E+001
  0
LINE
  5
2be
100
AcDbEntity
  8
1
100
AcDbLine
  6
CONTINUOUS
 62
40
 10
1.6695439E+001
 20
-7.2162144E+001
 11
1.6580713E+001
 21
-7.2163746E+001
  0
LINE
  5
2bf
100
AcDbEntity
  8
1
100
AcDbLine
  6
CONTINUOUS
 62
40
 10
1.6580713E+001
 20
-7.2163746E+001
 11
1.6459287E+001
 21
-7.2165445E+001
  0
LINE
  5
2c0
100
AcDbEntity
  8
1
100
AcDbLine
  6
CONTINUOUS
 62
40
 10
1.6459287E+001
 20
-7.2165445E+001
 11
1.6331392E+001
 21
-7.2167233E+001
  0
LINE
  5
2c1
100
AcDbEntity
  8
1
100
AcDbLine
  6
CONTINUOUS
 62
40
 10
1.6331392E+001
 20
-7.2167233E+001
 11
1.6197276E+001
 21
-7.2169103E+001
  0
LINE
  5
2c2
100
AcDbEntity
  8
1
100
AcDbLine
  6
CONTINUOUS
 62
40
 10
1.6197276E+001
 20
-7.2169103E+001
 11
1.6057196E+001
 21
-7.2171055E+001
  0
LINE
  5
2c3
100
AcDbEntity
  8
1
100
AcDbLine
  6
CONTINUOUS
 62
40
 10
1.6057196E+001
 20
-7.2171055E+001
 11
1.5911424E+001
 21
-7.2173096E+001
  0
LINE
  5
2c4
100
AcDbEntity
  8
1
100
AcDbLine
  6
CONTINUOUS
 62
40
 10
1.5911424E+001
 20
-7.2173096E+001
 11
1.5760236E+001
 21
-7.2175205E+001
  0
LINE
  5
2c5
100
AcDbEntity
  8
1
100
AcDbLine
  6
CONTINUOUS
 62
40
 10
1.5760236E+001
 20
-7.2175205E+001
 11
1.5603929E+001
 21
-7.2177388E+001
  0
LINE
  5
2c6
100
AcDbEntity
  8
1
100
AcDbLine
  6
CONTINUOUS
 62
40
 10
1.5603929E+001
 20
-7.2177388E+001
 11
1.5442799E+001
 21
-7.2179638E+001
  0
LINE
  5
2c7
100
AcDbEntity
  8
1
100
AcDbLine
  6
CONTINUOUS
 62
40
 10
1.5442799E+001
 20
-7.2179638E+001
 11
1.5277159E+001
 21
-7.2181948E+001
  0
LINE
  5
2c8
100
AcDbEntity
  8
1
100
AcDbLine
  6
CONTINUOUS
 62
40
 10
1.5277159E+001
 20
-7.2181948E+001
 11
1.5107327E+001
 21
-7.2184324E+001
  0
LINE
  5
2c9
100
AcDbEntity
  8
1
100
AcDbLine
  6
CONTINUOUS
 62
40
 10
1.5107327E+001
 20
-7.2184324E+001
 11
1.4933632E+001
 21
-7.2186746E+001
  0
LINE
  5
2ca
100
AcDbEntity
  8
1
100
AcDbLine
  6
CONTINUOUS
 62
40
 10
1.4933632E+001
 20
-7.2186746E+001
 11
1.4756403E+001
 21
-7.2189219E+001
  0
LINE
  5
2cb
100
AcDbEntity
  8
1
100
AcDbLine
  6
CONTINUOUS
 62
40
 10
1.4756403E+001
 20
-7.2189219E+001
 11
1.4575987E+001
 21
-7.2191738E+001
  0
LINE
  5
2cc
100
AcDbEntity
  8
1
100
AcDbLine
  6
CONTINUOUS
 62
40
 10
1.4575987E+001
 20
-7.2191738E+001
 11
1.4392729E+001
 21
-7.2194301E+001
  0
LINE
  5
2cd
100
AcDbEntity
  8
1
100
AcDbLine
  6
CONTINUOUS
 62
40
 10
1.4392729E+001
 20
-7.2194301E+001
 11
1.4206982E+001
 21
-7.2196893E+001
  0
LINE
  5
2ce
100
AcDbEntity
  8
1
100
AcDbLine
  6
CONTINUOUS
 62
40
 10
1.4206982E+001
 20
-7.2196893E+001
 11
1.4019105E+001
 21
-7.2199516E+001
  0
LINE
  5
2cf
100
AcDbEntity
  8
1
100
AcDbLine
  6
CONTINUOUS
 62
40
 10
1.4019105E+001
 20
-7.2199516E+001
 11
1.3829456E+001
 21
-7.2202168E+001
  0
LINE
  5
2d0
100
AcDbEntity
  8
1
100
AcDbLine
  6
CONTINUOUS
 62
40
 10
1.3829456E+001
 20
-7.2202168E+001
 11
1.3638404E+001
 21
-7.2204836E+001
  0
LINE
  5
2d1
100
AcDbEntity
  8
1
100
AcDbLine
  6
CONTINUOUS
 62
40
 10
1.3638404E+001
 20
-7.2204836E+001
 11
1.3446315E+001
 21
-7.2207518E+001
  0
LINE
  5
2d2
100
AcDbEntity
  8
1
100
AcDbLine
  6
CONTINUOUS
 62
40
 10
1.3446315E+001
 20
-7.2207518E+001
 11
1.3253558E+001
 21
-7.2210208E+001
  0
LINE
  5
2d3
100
AcDbEntity
  8
1
100
AcDbLine
  6
CONTINUOUS
 62
40
 10
1.7500001E+001
 20
7.2150908E+001
 11
1.7495765E+001
 21
7.2150968E+001
  0
LINE
  5
2d4
100
AcDbEntity
  8
1
100
AcDbLine
  6
CONTINUOUS
 62
40
 10
1.7495765E+001
 20
7.2150968E+001
 11
1.7483066E+001
 21
7.2151147E+001
  0
LINE
  5
2d5
100
AcDbEntity
  8
1
100
AcDbLine
  6
CONTINUOUS
 62
40
 10
1.7483066E+001
 20
7.2151147E+001
 11
1.7461927E+001
 21
7.2151445E+001
  0
LINE
  5
2d6
100
AcDbEntity
  8
1
100
AcDbLine
  6
CONTINUOUS
 62
40
 10
1.7461927E+001
 20
7.2151445E+001
 11
1.7432391E+001
 21
7.2151855E+001
  0
LINE
  5
2d7
100
AcDbEntity
  8
1
100
AcDbLine
  6
CONTINUOUS
 62
40
 10
1.7432391E+001
 20
7.2151855E+001
 11
1.7394512E+001
 21
7.2152384E+001
  0
LINE
  5
2d8
100
AcDbEntity
  8
1
100
AcDbLine
  6
CONTINUOUS
 62
40
 10
1.7394512E+001
 20
7.2152384E+001
 11
1.7348367E+001
 21
7.2153032E+001
  0
LINE
  5
2d9
100
AcDbEntity
  8
1
100
AcDbLine
  6
CONTINUOUS
 62
40
 10
1.7348367E+001
 20
7.2153032E+001
 11
1.7294039E+001
 21
7.2153784E+001
  0
LINE
  5
2da
100
AcDbEntity
  8
1
100
AcDbLine
  6
CONTINUOUS
 62
40
 10
1.7294039E+001
 20
7.2153784E+001
 11
1.7231639E+001
 21
7.2154656E+001
  0
LINE
  5
2db
100
AcDbEntity
  8
1
100
AcDbLine
  6
CONTINUOUS
 62
40
 10
1.7231639E+001
 20
7.2154656E+001
 11
1.7161283E+001
 21
7.2155639E+001
  0
LINE
  5
2dc
100
AcDbEntity
  8
1
100
AcDbLine
  6
CONTINUOUS
 62
40
 10
1.7161283E+001
 20
7.2155639E+001
 11
1.7083106E+001
 21
7.2156735E+001
  0
LINE
  5
2dd
100
AcDbEntity
  8
1
100
AcDbLine
  6
CONTINUOUS
 62
40
 10
1.7083106E+001
 20
7.2156735E+001
 11
1.6997262E+001
 21
7.2157934E+001
  0
LINE
  5
2de
100
AcDbEntity
  8
1
100
AcDbLine
  6
CONTINUOUS
 62
40
 10
1.6997262E+001
 20
7.2157934E+001
 11
1.6903914E+001
 21
7.2159238E+001
  0
LINE
  5
2df
100
AcDbEntity
  8
1
100
AcDbLine
  6
CONTINUOUS
 62
40
 10
1.6903914E+001
 20
7.2159238E+001
 11
1.6803241E+001
 21
7.2160639E+001
  0
LINE
  5
2e0
100
AcDbEntity
  8
1
100
AcDbLine
  6
CONTINUOUS
 62
40
 10
1.6803241E+001
 20
7.2160639E+001
 11
1.6695439E+001
 21
7.2162144E+001
  0
LINE
  5
2e1
100
AcDbEntity
  8
1
100
AcDbLine
  6
CONTINUOUS
 62
40
 10
1.6695439E+001
 20
7.2162144E+001
 11
1.6580713E+001
 21
7.2163746E+001
  0
LINE
  5
2e2
100
AcDbEntity
  8
1
100
AcDbLine
  6
CONTINUOUS
 62
40
 10
1.6580713E+001
 20
7.2163746E+001
 11
1.6459287E+001
 21
7.2165444E+001
  0
LINE
  5
2e3
100
AcDbEntity
  8
1
100
AcDbLine
  6
CONTINUOUS
 62
40
 10
1.6459287E+001
 20
7.2165444E+001
 11
1.6331392E+001
 21
7.2167233E+001
  0
LINE
  5
2e4
100
AcDbEntity
  8
1
100
AcDbLine
  6
CONTINUOUS
 62
40
 10
1.6331392E+001
 20
7.2167233E+001
 11
1.6197276E+001
 21
7.2169103E+001
  0
LINE
  5
2e5
100
AcDbEntity
  8
1
100
AcDbLine
  6
CONTINUOUS
 62
40
 10
1.6197276E+001
 20
7.2169103E+001
 11
1.6057196E+001
 21
7.2171055E+001
  0
LINE
  5
2e6
100
AcDbEntity
  8
1
100
AcDbLine
  6
CONTINUOUS
 62
40
 10
1.6057196E+001
 20
7.2171055E+001
 11
1.5911424E+001
 21
7.2173096E+001
  0
LINE
  5
2e7
100
AcDbEntity
  8
1
100
AcDbLine
  6
CONTINUOUS
 62
40
 10
1.5911424E+001
 20
7.2173096E+001
 11
1.5760236E+001
 21
7.2175205E+001
  0
LINE
  5
2e8
100
AcDbEntity
  8
1
100
AcDbLine
  6
CONTINUOUS
 62
40
 10
1.5760236E+001
 20
7.2175205E+001
 11
1.5603929E+001
 21
7.2177388E+001
  0
LINE
  5
2e9
100
AcDbEntity
  8
1
100
AcDbLine
  6
CONTINUOUS
 62
40
 10
1.5603929E+001
 20
7.2177388E+001
 11
1.5442799E+001
 21
7.2179638E+001
  0
LINE
  5
2ea
100
AcDbEntity
  8
1
100
AcDbLine
  6
CONTINUOUS
 62
40
 10
1.5442799E+001
 20
7.2179638E+001
 11
1.5277159E+001
 21
7.2181947E+001
  0
LINE
  5
2eb
100
AcDbEntity
  8
1
100
AcDbLine
  6
CONTINUOUS
 62
40
 10
1.5277159E+001
 20
7.2181947E+001
 11
1.5107327E+001
 21
7.2184324E+001
  0
LINE
  5
2ec
100
AcDbEntity
  8
1
100
AcDbLine
  6
CONTINUOUS
 62
40
 10
1.5107327E+001
 20
7.2184324E+001
 11
1.4933632E+001
 21
7.2186746E+001
  0
LINE
  5
2ed
100
AcDbEntity
  8
1
100
AcDbLine
  6
CONTINUOUS
 62
40
 10
1.4933632E+001
 20
7.2186746E+001
 11
1.4756403E+001
 21
7.2189219E+001
  0
LINE
  5
2ee
100
AcDbEntity
  8
1
100
AcDbLine
  6
CONTINUOUS
 62
40
 10
1.4756403E+001
 20
7.2189219E+001
 11
1.4575987E+001
 21
7.2191738E+001
  0
LINE
  5
2ef
100
AcDbEntity
  8
1
100
AcDbLine
  6
CONTINUOUS
 62
40
 10
1.4575987E+001
 20
7.2191738E+001
 11
1.4392729E+001
 21
7.2194301E+001
  0
LINE
  5
2f0
100
AcDbEntity
  8
1
100
AcDbLine
  6
CONTINUOUS
 62
40
 10
1.4392729E+001
 20
7.2194301E+001
 11
1.4206982E+001
 21
7.2196893E+001
  0
LINE
  5
2f1
100
AcDbEntity
  8
1
100
AcDbLine
  6
CONTINUOUS
 62
40
 10
1.4206982E+001
 20
7.2196893E+001
 11
1.4019105E+001
 21
7.2199516E+001
  0
LINE
  5
2f2
100
AcDbEntity
  8
1
100
AcDbLine
  6
CONTINUOUS
 62
40
 10
1.4019105E+001
 20
7.2199516E+001
 11
1.3829456E+001
 21
7.2202168E+001
  0
LINE
  5
2f3
100
AcDbEntity
  8
1
100
AcDbLine
  6
CONTINUOUS
 62
40
 10
1.3829456E+001
 20
7.2202168E+001
 11
1.3638404E+001
 21
7.2204836E+001
  0
LINE
  5
2f4
100
AcDbEntity
  8
1
100
AcDbLine
  6
CONTINUOUS
 62
40
 10
1.3638404E+001
 20
7.2204836E+001
 11
1.3446315E+001
 21
7.2207518E+001
  0
LINE
  5
2f5
100
AcDbEntity
  8
1
100
AcDbLine
  6
CONTINUOUS
 62
40
 10
1.3446315E+001
 20
7.2207518E+001
 11
1.3253558E+001
 21
7.2210207E+001
  0
POINT
  5
2f6
100
AcDbEntity
  8
Drafting_Hidden_Entities
100
AcDbPoint
  6
CONTINUOUS
 62
1
 10
0.0
 20
0.0
  0
ENDBLK
  5
2f7
100
AcDbEntity
100
AcDbBlockEnd
  0
BLOCK
  5
2f8
100
AcDbEntity
100
AcDbBlockBegin
  2
HHJK
 10
0.0
 20
0.0
 70
0
  0
LINE
  5
2f9
100
AcDbEntity
  8
1
100
AcDbLine
  6
CONTINUOUS
 62
40
 10
2.8441219E+001
 20
3.971383E-001
 11
0.0
 21
0.0
  0
LINE
  5
2fa
100
AcDbEntity
  8
1
100
AcDbLine
  6
CONTINUOUS
 62
40
 10
0.0
 20
0.0
 11
0.0
 21
1.9998029
  0
ARC
  5
2fb
100
AcDbEntity
  8
1
100
AcDbCircle
  6
CONTINUOUS
 62
40
 10
8.0
 20
5.9499998E+001
 40
5.0E-001
100
AcDbArc
 50
1.8E+002
 51
2.7E+002
  0
LINE
  5
2fc
100
AcDbEntity
  8
1
100
AcDbLine
  6
CONTINUOUS
 62
40
 10
3.7999999E+001
 20
5.8999998E+001
 11
8.0000004
 21
5.8999998E+001
  0
ARC
  5
2fd
100
AcDbEntity
  8
1
100
AcDbCircle
  6
CONTINUOUS
 62
40
 10
3.8E+001
 20
5.9499998E+001
 40
5.0E-001
100
AcDbArc
 50
2.7E+002
 51
3.6E+002
  0
LINE
  5
2fe
100
AcDbEntity
  8
1
100
AcDbLine
  6
CONTINUOUS
 62
40
 10
3.85E+001
 20
6.5599998E+001
 11
3.85E+001
 21
5.9499998E+001
  0
ARC
  5
2ff
100
AcDbEntity
  8
1
100
AcDbCircle
  6
CONTINUOUS
 62
40
 10
3.8E+001
 20
6.5599998E+001
 40
5.0E-001
100
AcDbArc
 50
0.0
 51
9.0E+001
  0
LINE
  5
300
100
AcDbEntity
  8
1
100
AcDbLine
  6
CONTINUOUS
 62
40
 10
2.6000001E+001
 20
6.6099998E+001
 11
3.7999999E+001
 21
6.6099998E+001
  0
ARC
  5
301
100
AcDbEntity
  8
1
100
AcDbCircle
  6
CONTINUOUS
 62
40
 10
2.6E+001
 20
6.6599998E+001
 40
5.0E-001
100
AcDbArc
 50
1.8E+002
 51
2.7E+002
  0
LINE
  5
302
100
AcDbEntity
  8
1
100
AcDbLine
  6
CONTINUOUS
 62
40
 10
2.55E+001
 20
7.8399998E+001
 11
2.55E+001
 21
6.6599998E+001
  0
ARC
  5
303
100
AcDbEntity
  8
1
100
AcDbCircle
  6
CONTINUOUS
 62
40
 10
2.6E+001
 20
7.8399998E+001
 40
5.0E-001
100
AcDbArc
 50
9.0E+001
 51
1.8E+002
  0
LINE
  5
304
100
AcDbEntity
  8
1
100
AcDbLine
  6
CONTINUOUS
 62
40
 10
3.7999999E+001
 20
7.8899998E+001
 11
2.6000001E+001
 21
7.8899998E+001
  0
ARC
  5
305
100
AcDbEntity
  8
1
100
AcDbCircle
  6
CONTINUOUS
 62
40
 10
3.8E+001
 20
7.9399998E+001
 40
5.0E-001
100
AcDbArc
 50
2.7E+002
 51
3.6E+002
  0
LINE
  5
306
100
AcDbEntity
  8
1
100
AcDbLine
  6
CONTINUOUS
 62
40
 10
3.85E+001
 20
8.5499998E+001
 11
3.85E+001
 21
7.9399998E+001
  0
ARC
  5
307
100
AcDbEntity
  8
1
100
AcDbCircle
  6
CONTINUOUS
 62
40
 10
3.8E+001
 20
8.5499998E+001
 40
5.0E-001
100
AcDbArc
 50
0.0
 51
9.0E+001
  0
LINE
  5
308
100
AcDbEntity
  8
1
100
AcDbLine
  6
CONTINUOUS
 62
40
 10
8.0000004
 20
8.5999998E+001
 11
3.7999999E+001
 21
8.5999998E+001
  0
ARC
  5
309
100
AcDbEntity
  8
1
100
AcDbCircle
  6
CONTINUOUS
 62
40
 10
8.0
 20
8.5499998E+001
 40
5.0E-001
100
AcDbArc
 50
9.0E+001
 51
1.8E+002
  0
LINE
  5
30a
100
AcDbEntity
  8
1
100
AcDbLine
  6
CONTINUOUS
 62
40
 10
7.4999998
 20
5.9499998E+001
 11
7.4999998
 21
8.5499998E+001
  0
LINE
  5
30b
100
AcDbEntity
  8
1
100
AcDbLine
  6
CONTINUOUS
 62
40
 10
0.0
 20
1.4300019E+002
 11
0.0
 21
1.9998029
  0
LINE
  5
30c
100
AcDbEntity
  8
1
100
AcDbLine
  6
CONTINUOUS
 62
40
 10
0.0
 20
1.45E+002
 11
2.8441219E+001
 21
1.4460286E+002
  0
LINE
  5
30d
100
AcDbEntity
  8
1
100
AcDbLine
  6
CONTINUOUS
 62
40
 10
0.0
 20
1.4300019E+002
 11
0.0
 21
1.45E+002
  0
SPLINE
  5
30e
100
AcDbEntity
  8
1
100
AcDbSpline
  6
CONTINUOUS
 62
40
210
0.0
220
0.0
230
0.0
 70
0
 71
3
 72
14
 73
10
 74
0
 42
1.0E-007
 43
1.0E-007
 44
0.0
 40
0.0
 40
0.0
 40
0.0
 40
0.0
 40
2.5E-001
 40
2.5E-001
 40
5.0E-001
 40
5.0E-001
 40
7.5E-001
 40
7.5E-001
 40
1.0
 40
1.0
 40
1.0
 40
1.0
 10
5.1882228E+001
 20
5.4844211E+001
 30
0.0
 10
5.19208E+001
 20
5.5147625E+001
 30
0.0
 10
5.1945732E+001
 20
5.5455411E+001
 30
0.0
 10
5.1973202E+001
 20
5.6080851E+001
 30
0.0
 10
5.1975547E+001
 20
5.6398341E+001
 30
0.0
 10
5.1964903E+001
 20
5.7047861E+001
 30
0.0
 10
5.1950806E+001
 20
5.7380476E+001
 30
0.0
 10
5.1931406E+001
 20
5.8068869E+001
 30
0.0
 10
5.1927506E+001
 20
5.8432849E+001
 30
0.0
 10
5.1966294E+001
 20
5.8803762E+001
 30
0.0
  0
ARC
  5
30f
100
AcDbEntity
  8
1
100
AcDbCircle
  6
CONTINUOUS
 62
40
 10
-8.7E+001
 20
7.2499998E+001
 40
1.4E+002
100
AcDbArc
 50
3.2949319E+002
 51
3.5275498E+002
  0
ARC
  5
310
100
AcDbEntity
  8
1
100
AcDbCircle
  6
CONTINUOUS
 62
40
 10
-8.7E+001
 20
7.2499998E+001
 40
1.4E+002
100
AcDbArc
 50
7.2450208
 51
3.0506805E+001
  0
SPLINE
  5
311
100
AcDbEntity
  8
1
100
AcDbSpline
  6
CONTINUOUS
 62
40
210
0.0
220
0.0
230
0.0
 70
0
 71
3
 72
14
 73
10
 74
0
 42
1.0E-007
 43
1.0E-007
 44
0.0
 40
0.0
 40
0.0
 40
0.0
 40
0.0
 40
1.25E-001
 40
1.25E-001
 40
2.5E-001
 40
2.5E-001
 40
5.0E-001
 40
5.0E-001
 40
1.0
 40
1.0
 40
1.0
 40
1.0
 10
5.1966294E+001
 20
8.6196234E+001
 30
0.0
 10
5.1946892E+001
 20
8.6381771E+001
 30
0.0
 10
5.1937752E+001
 20
8.6566343E+001
 30
0.0
 10
5.1932743E+001
 20
8.6928964E+001
 30
0.0
 10
5.1936292E+001
 20
8.7105289E+001
 30
0.0
 10
5.1951022E+001
 20
8.7625612E+001
 30
0.0
 10
5.1964987E+001
 20
8.7955303E+001
 30
0.0
 10
5.1980808E+001
 20
8.892665E+001
 30
0.0
 10
5.1959414E+001
 20
8.9548628E+001
 30
0.0
 10
5.1882228E+001
 20
9.0155784E+001
 30
0.0
  0
SPLINE
  5
312
100
AcDbEntity
  8
1
100
AcDbSpline
  6
CONTINUOUS
 62
40
210
0.0
220
0.0
230
0.0
 70
0
 71
3
 72
12
 73
8
 74
0
 42
1.0E-007
 43
1.0E-007
 44
0.0
 40
0.0
 40
0.0
 40
0.0
 40
0.0
 40
5.0E-001
 40
5.0E-001
 40
7.5E-001
 40
7.5E-001
 40
1.0
 40
1.0
 40
1.0
 40
1.0
 10
5.1966216E+001
 20
5.8803773E+001
 30
0.0
 10
5.2442161E+001
 20
6.3356754E+001
 30
0.0
 10
5.2679578E+001
 20
6.7920584E+001
 30
0.0
 10
5.2679826E+001
 20
7.4782563E+001
 30
0.0
 10
5.262032E+001
 20
7.7072059E+001
 30
0.0
 10
5.2382491E+001
 20
8.1639598E+001
 30
0.0
 10
5.2204188E+001
 20
8.3919732E+001
 30
0.0
 10
5.1966216E+001
 20
8.6196223E+001
 30
0.0
  0
SPLINE
  5
313
100
AcDbEntity
  8
1
100
AcDbSpline
  6
CONTINUOUS
 62
40
210
0.0
220
0.0
230
0.0
 70
0
 71
3
 72
20
 73
16
 74
0
 42
1.0E-007
 43
1.0E-007
 44
0.0
 40
0.0
 40
0.0
 40
0.0
 40
0.0
 40
2.5E-001
 40
2.5E-001
 40
3.75E-001
 40
3.75E-001
 40
5.0E-001
 40
5.0E-001
 40
6.25E-001
 40
6.25E-001
 40
7.5E-001
 40
7.5E-001
 40
8.75E-001
 40
8.75E-001
 40
1.0
 40
1.0
 40
1.0
 40
1.0
 10
2.8441219E+001
 20
1.4460286E+002
 30
0.0
 10
2.8869666E+001
 20
1.4459688E+002
 30
0.0
 10
2.9285164E+001
 20
1.4459107E+002
 30
0.0
 10
2.9888355E+001
 20
1.4458265E+002
 30
0.0
 10
3.0086838E+001
 20
1.4457988E+002
 30
0.0
 10
3.0459578E+001
 20
1.4457467E+002
 30
0.0
 10
3.0635956E+001
 20
1.4457221E+002
 30
0.0
 10
3.0966989E+001
 20
1.4456759E+002
 30
0.0
 10
3.1123168E+001
 20
1.4456541E+002
 30
0.0
 10
3.1397442E+001
 20
1.4456158E+002
 30
0.0
 10
3.1516831E+001
 20
1.4455991E+002
 30
0.0
 10
3.1715965E+001
 20
1.4455713E+002
 30
0.0
 10
3.1793102E+001
 20
1.4455605E+002
 30
0.0
 10
3.1896935E+001
 20
1.445546E+002
 30
0.0
 10
3.1924428E+001
 20
1.4455422E+002
 30
0.0
 10
3.1924428E+001
 20
1.4455422E+002
 30
0.0
  0
ARC
  5
314
100
AcDbEntity
  8
1
100
AcDbCircle
  6
CONTINUOUS
 62
40
 10
3.1896504E+001
 20
1.4255441E+002
 40
2.0
100
AcDbArc
 50
3.0506805E+001
 51
8.92E+001
  0
SPLINE
  5
315
100
AcDbEntity
  8
1
100
AcDbSpline
  6
CONTINUOUS
 62
40
210
0.0
220
0.0
230
0.0
 70
0
 71
3
 72
20
 73
16
 74
0
 42
1.0E-007
 43
1.0E-007
 44
0.0
 40
0.0
 40
0.0
 40
0.0
 40
0.0
 40
1.25E-001
 40
1.25E-001
 40
2.5E-001
 40
2.5E-001
 40
3.75E-001
 40
3.75E-001
 40
5.0E-001
 40
5.0E-001
 40
6.25E-001
 40
6.25E-001
 40
7.5E-001
 40
7.5E-001
 40
1.0
 40
1.0
 40
1.0
 40
1.0
 10
3.1924428E+001
 20
4.4577599E-001
 30
0.0
 10
3.1924428E+001
 20
4.4577599E-001
 30
0.0
 10
3.1897789E+001
 20
4.4540401E-001
 30
0.0
 10
3.179459E+001
 20
4.4396299E-001
 30
0.0
 10
3.1716781E+001
 20
4.4287649E-001
 30
0.0
 10
3.152062E+001
 20
4.401374E-001
 30
0.0
 10
3.1400744E+001
 20
4.3846351E-001
 30
0.0
 10
3.112626E+001
 20
4.3463074E-001
 30
0.0
 10
3.0973864E+001
 20
4.3250274E-001
 30
0.0
 10
3.0641769E+001
 20
4.2786552E-001
 30
0.0
 10
3.0461769E+001
 20
4.2535209E-001
 30
0.0
 10
3.008863E+001
 20
4.2014175E-001
 30
0.0
 10
2.9893975E+001
 20
4.1742367E-001
 30
0.0
 10
2.9286714E+001
 20
4.0894416E-001
 30
0.0
 10
2.8868754E+001
 20
4.0310796E-001
 30
0.0
 10
2.8441219E+001
 20
3.9713805E-001
 30
0.0
  0
ARC
  5
316
100
AcDbEntity
  8
1
100
AcDbCircle
  6
CONTINUOUS
 62
40
 10
3.1896504E+001
 20
2.445581
 40
2.0
100
AcDbArc
 50
2.708E+002
 51
3.2949319E+002
  0
SPLINE
  5
317
100
AcDbEntity
  8
1
100
AcDbSpline
  6
CONTINUOUS
 62
40
210
0.0
220
0.0
230
0.0
 70
0
 71
3
 72
8
 73
4
 74
0
 42
1.0E-007
 43
1.0E-007
 44
0.0
 40
0.0
 40
0.0
 40
0.0
 40
0.0
 40
1.0
 40
1.0
 40
1.0
 40
1.0
 10
5.1966294E+001
 20
8.6196234E+001
 30
0.0
 10
5.2022251E+001
 20
8.6205759E+001
 30
0.0
 10
5.2088887E+001
 20
8.621633E+001
 30
0.0
 10
5.2165436E+001
 20
8.6227827E+001
 30
0.0
  0
SPLINE
  5
318
100
AcDbEntity
  8
1
100
AcDbSpline
  6
CONTINUOUS
 62
40
210
0.0
220
0.0
230
0.0
 70
0
 71
3
 72
8
 73
4
 74
0
 42
1.0E-007
 43
1.0E-007
 44
0.0
 40
0.0
 40
0.0
 40
0.0
 40
0.0
 40
1.0
 40
1.0
 40
1.0
 40
1.0
 10
5.1966214E+001
 20
5.8803757E+001
 30
0.0
 10
5.2022171E+001
 20
5.879426E+001
 30
0.0
 10
5.2088803E+001
 20
5.8783716E+001
 30
0.0
 10
5.2165345E+001
 20
5.8772248E+001
 30
0.0
  0
SPLINE
  5
319
100
AcDbEntity
  8
1
100
AcDbSpline
  6
CONTINUOUS
 62
40
210
0.0
220
0.0
230
0.0
 70
0
 71
3
 72
9
 73
5
 74
0
 42
1.0E-007
 43
1.0E-007
 44
0.0
 40
0.0
 40
0.0
 40
0.0
 40
0.0
 40
8.8882863E-001
 40
1.0
 40
1.0
 40
1.0
 40
1.0
 10
5.0985478E+001
 20
4.8835507E+001
 30
0.0
 10
5.1010846E+001
 20
4.897621E+001
 30
0.0
 10
5.1039387E+001
 20
4.9134513E+001
 30
0.0
 10
5.1100521E+001
 20
4.9282302E+001
 30
0.0
 10
5.1107317E+001
 20
4.9298732E+001
 30
0.0
  0
LINE
  5
31a
100
AcDbEntity
  8
1
100
AcDbLine
  6
CONTINUOUS
 62
40
 10
2.5E+001
 20
3.490895E-001
 11
2.4995765E+001
 21
3.490299E-001
  0
LINE
  5
31b
100
AcDbEntity
  8
1
100
AcDbLine
  6
CONTINUOUS
 62
40
 10
2.4995765E+001
 20
3.490299E-001
 11
2.4983065E+001
 21
3.4885108E-001
  0
LINE
  5
31c
100
AcDbEntity
  8
1
100
AcDbLine
  6
CONTINUOUS
 62
40
 10
2.4983065E+001
 20
3.4885108E-001
 11
2.4961926E+001
 21
3.4855306E-001
  0
LINE
  5
31d
100
AcDbEntity
  8
1
100
AcDbLine
  6
CONTINUOUS
 62
40
 10
2.4961926E+001
 20
3.4855306E-001
 11
2.493239E+001
 21
3.4814328E-001
  0
LINE
  5
31e
100
AcDbEntity
  8
1
100
AcDbLine
  6
CONTINUOUS
 62
40
 10
2.493239E+001
 20
3.4814328E-001
 11
2.4894511E+001
 21
3.4761429E-001
  0
LINE
  5
31f
100
AcDbEntity
  8
1
100
AcDbLine
  6
CONTINUOUS
 62
40
 10
2.4894511E+001
 20
3.4761429E-001
 11
2.4848366E+001
 21
3.4696609E-001
  0
LINE
  5
320
100
AcDbEntity
  8
1
100
AcDbLine
  6
CONTINUOUS
 62
40
 10
2.4848366E+001
 20
3.4696609E-001
 11
2.4794038E+001
 21
3.4621358E-001
  0
LINE
  5
321
100
AcDbEntity
  8
1
100
AcDbLine
  6
CONTINUOUS
 62
40
 10
2.4794038E+001
 20
3.4621358E-001
 11
2.4731638E+001
 21
3.4534186E-001
  0
LINE
  5
322
100
AcDbEntity
  8
1
100
AcDbLine
  6
CONTINUOUS
 62
40
 10
2.4731638E+001
 20
3.4534186E-001
 11
2.4661282E+001
 21
3.4435838E-001
  0
LINE
  5
323
100
AcDbEntity
  8
1
100
AcDbLine
  6
CONTINUOUS
 62
40
 10
2.4661282E+001
 20
3.4435838E-001
 11
2.4583105E+001
 21
3.4326315E-001
  0
LINE
  5
324
100
AcDbEntity
  8
1
100
AcDbLine
  6
CONTINUOUS
 62
40
 10
2.4583105E+001
 20
3.4326315E-001
 11
2.4497261E+001
 21
3.4206361E-001
  0
LINE
  5
325
100
AcDbEntity
  8
1
100
AcDbLine
  6
CONTINUOUS
 62
40
 10
2.4497261E+001
 20
3.4206361E-001
 11
2.4403913E+001
 21
3.4075975E-001
  0
LINE
  5
326
100
AcDbEntity
  8
1
100
AcDbLine
  6
CONTINUOUS
 62
40
 10
2.4403913E+001
 20
3.4075975E-001
 11
2.4303241E+001
 21
3.3935905E-001
  0
LINE
  5
327
100
AcDbEntity
  8
1
100
AcDbLine
  6
CONTINUOUS
 62
40
 10
2.4303241E+001
 20
3.3935905E-001
 11
2.4195438E+001
 21
3.3785403E-001
  0
LINE
  5
328
100
AcDbEntity
  8
1
100
AcDbLine
  6
CONTINUOUS
 62
40
 10
2.4195438E+001
 20
3.3785403E-001
 11
2.4080712E+001
 21
3.3625215E-001
  0
LINE
  5
329
100
AcDbEntity
  8
1
100
AcDbLine
  6
CONTINUOUS
 62
40
 10
2.4080712E+001
 20
3.3625215E-001
 11
2.3959287E+001
 21
3.3455342E-001
  0
LINE
  5
32a
100
AcDbEntity
  8
1
100
AcDbLine
  6
CONTINUOUS
 62
40
 10
2.3959287E+001
 20
3.3455342E-001
 11
2.3831392E+001
 21
3.3276528E-001
  0
LINE
  5
32b
100
AcDbEntity
  8
1
100
AcDbLine
  6
CONTINUOUS
 62
40
 10
2.3831392E+001
 20
3.3276528E-001
 11
2.3697276E+001
 21
3.3089519E-001
  0
LINE
  5
32c
100
AcDbEntity
  8
1
100
AcDbLine
  6
CONTINUOUS
 62
40
 10
2.3697276E+001
 20
3.3089519E-001
 11
2.3557195E+001
 21
3.2894313E-001
  0
LINE
  5
32d
100
AcDbEntity
  8
1
100
AcDbLine
  6
CONTINUOUS
 62
40
 10
2.3557195E+001
 20
3.2894313E-001
 11
2.3411423E+001
 21
3.2690167E-001
  0
LINE
  5
32e
100
AcDbEntity
  8
1
100
AcDbLine
  6
CONTINUOUS
 62
40
 10
2.3411423E+001
 20
3.2690167E-001
 11
2.3260236E+001
 21
3.2479316E-001
  0
LINE
  5
32f
100
AcDbEntity
  8
1
100
AcDbLine
  6
CONTINUOUS
 62
40
 10
2.3260236E+001
 20
3.2479316E-001
 11
2.3103928E+001
 21
3.2261014E-001
  0
LINE
  5
330
100
AcDbEntity
  8
1
100
AcDbLine
  6
CONTINUOUS
 62
40
 10
2.3103928E+001
 20
3.2261014E-001
 11
2.2942798E+001
 21
3.2036006E-001
  0
LINE
  5
331
100
AcDbEntity
  8
1
100
AcDbLine
  6
CONTINUOUS
 62
40
 10
2.2942798E+001
 20
3.2036006E-001
 11
2.2777159E+001
 21
3.1805038E-001
  0
LINE
  5
332
100
AcDbEntity
  8
1
100
AcDbLine
  6
CONTINUOUS
 62
40
 10
2.2777159E+001
 20
3.1805038E-001
 11
2.2607327E+001
 21
3.1567365E-001
  0
LINE
  5
333
100
AcDbEntity
  8
1
100
AcDbLine
  6
CONTINUOUS
 62
40
 10
2.2607327E+001
 20
3.1567365E-001
 11
2.2433631E+001
 21
3.1325221E-001
  0
LINE
  5
334
100
AcDbEntity
  8
1
100
AcDbLine
  6
CONTINUOUS
 62
40
 10
2.2433631E+001
 20
3.1325221E-001
 11
2.2256402E+001
 21
3.1077862E-001
  0
LINE
  5
335
100
AcDbEntity
  8
1
100
AcDbLine
  6
CONTINUOUS
 62
40
 10
2.2256402E+001
 20
3.1077862E-001
 11
2.2075986E+001
 21
3.0826032E-001
  0
LINE
  5
336
100
AcDbEntity
  8
1
100
AcDbLine
  6
CONTINUOUS
 62
40
 10
2.2075986E+001
 20
3.0826032E-001
 11
2.1892728E+001
 21
3.0569732E-001
  0
LINE
  5
337
100
AcDbEntity
  8
1
100
AcDbLine
  6
CONTINUOUS
 62
40
 10
2.1892728E+001
 20
3.0569732E-001
 11
2.1706982E+001
 21
3.0310452E-001
  0
LINE
  5
338
100
AcDbEntity
  8
1
100
AcDbLine
  6
CONTINUOUS
 62
40
 10
2.1706982E+001
 20
3.0310452E-001
 11
2.1519104E+001
 21
3.0048192E-001
  0
LINE
  5
339
100
AcDbEntity
  8
1
100
AcDbLine
  6
CONTINUOUS
 62
40
 10
2.1519104E+001
 20
3.0048192E-001
 11
2.1329455E+001
 21
2.9782951E-001
  0
LINE
  5
33a
100
AcDbEntity
  8
1
100
AcDbLine
  6
CONTINUOUS
 62
40
 10
2.1329455E+001
 20
2.9782951E-001
 11
2.1138404E+001
 21
2.951622E-001
  0
LINE
  5
33b
100
AcDbEntity
  8
1
100
AcDbLine
  6
CONTINUOUS
 62
40
 10
2.1138404E+001
 20
2.951622E-001
 11
2.0946315E+001
 21
2.9247999E-001
  0
LINE
  5
33c
100
AcDbEntity
  8
1
100
AcDbLine
  6
CONTINUOUS
 62
40
 10
2.0946315E+001
 20
2.9247999E-001
 11
2.0753557E+001
 21
2.8979033E-001
  0
LINE
  5
33d
100
AcDbEntity
  8
1
100
AcDbLine
  6
CONTINUOUS
 62
40
 10
2.5E+001
 20
1.4465091E+002
 11
2.4995765E+001
 21
1.4465097E+002
  0
LINE
  5
33e
100
AcDbEntity
  8
1
100
AcDbLine
  6
CONTINUOUS
 62
40
 10
2.4995765E+001
 20
1.4465097E+002
 11
2.4983065E+001
 21
1.4465114E+002
  0
LINE
  5
33f
100
AcDbEntity
  8
1
100
AcDbLine
  6
CONTINUOUS
 62
40
 10
2.4983065E+001
 20
1.4465114E+002
 11
2.4961926E+001
 21
1.4465144E+002
  0
LINE
  5
340
100
AcDbEntity
  8
1
100
AcDbLine
  6
CONTINUOUS
 62
40
 10
2.4961926E+001
 20
1.4465144E+002
 11
2.493239E+001
 21
1.4465185E+002
  0
LINE
  5
341
100
AcDbEntity
  8
1
100
AcDbLine
  6
CONTINUOUS
 62
40
 10
2.493239E+001
 20
1.4465185E+002
 11
2.4894511E+001
 21
1.4465238E+002
  0
LINE
  5
342
100
AcDbEntity
  8
1
100
AcDbLine
  6
CONTINUOUS
 62
40
 10
2.4894511E+001
 20
1.4465238E+002
 11
2.4848366E+001
 21
1.4465303E+002
  0
LINE
  5
343
100
AcDbEntity
  8
1
100
AcDbLine
  6
CONTINUOUS
 62
40
 10
2.4848366E+001
 20
1.4465303E+002
 11
2.4794038E+001
 21
1.4465378E+002
  0
LINE
  5
344
100
AcDbEntity
  8
1
100
AcDbLine
  6
CONTINUOUS
 62
40
 10
2.4794038E+001
 20
1.4465378E+002
 11
2.4731638E+001
 21
1.4465465E+002
  0
LINE
  5
345
100
AcDbEntity
  8
1
100
AcDbLine
  6
CONTINUOUS
 62
40
 10
2.4731638E+001
 20
1.4465465E+002
 11
2.4661282E+001
 21
1.4465564E+002
  0
LINE
  5
346
100
AcDbEntity
  8
1
100
AcDbLine
  6
CONTINUOUS
 62
40
 10
2.4661282E+001
 20
1.4465564E+002
 11
2.4583105E+001
 21
1.4465673E+002
  0
LINE
  5
347
100
AcDbEntity
  8
1
100
AcDbLine
  6
CONTINUOUS
 62
40
 10
2.4583105E+001
 20
1.4465673E+002
 11
2.4497261E+001
 21
1.4465793E+002
  0
LINE
  5
348
100
AcDbEntity
  8
1
100
AcDbLine
  6
CONTINUOUS
 62
40
 10
2.4497261E+001
 20
1.4465793E+002
 11
2.4403913E+001
 21
1.4465924E+002
  0
LINE
  5
349
100
AcDbEntity
  8
1
100
AcDbLine
  6
CONTINUOUS
 62
40
 10
2.4403913E+001
 20
1.4465924E+002
 11
2.4303241E+001
 21
1.4466064E+002
  0
LINE
  5
34a
100
AcDbEntity
  8
1
100
AcDbLine
  6
CONTINUOUS
 62
40
 10
2.4303241E+001
 20
1.4466064E+002
 11
2.4195438E+001
 21
1.4466214E+002
  0
LINE
  5
34b
100
AcDbEntity
  8
1
100
AcDbLine
  6
CONTINUOUS
 62
40
 10
2.4195438E+001
 20
1.4466214E+002
 11
2.4080712E+001
 21
1.4466374E+002
  0
LINE
  5
34c
100
AcDbEntity
  8
1
100
AcDbLine
  6
CONTINUOUS
 62
40
 10
2.4080712E+001
 20
1.4466374E+002
 11
2.3959287E+001
 21
1.4466544E+002
  0
LINE
  5
34d
100
AcDbEntity
  8
1
100
AcDbLine
  6
CONTINUOUS
 62
40
 10
2.3959287E+001
 20
1.4466544E+002
 11
2.3831392E+001
 21
1.4466723E+002
  0
LINE
  5
34e
100
AcDbEntity
  8
1
100
AcDbLine
  6
CONTINUOUS
 62
40
 10
2.3831392E+001
 20
1.4466723E+002
 11
2.3697276E+001
 21
1.446691E+002
  0
LINE
  5
34f
100
AcDbEntity
  8
1
100
AcDbLine
  6
CONTINUOUS
 62
40
 10
2.3697276E+001
 20
1.446691E+002
 11
2.3557195E+001
 21
1.4467105E+002
  0
LINE
  5
350
100
AcDbEntity
  8
1
100
AcDbLine
  6
CONTINUOUS
 62
40
 10
2.3557195E+001
 20
1.4467105E+002
 11
2.3411423E+001
 21
1.4467309E+002
  0
LINE
  5
351
100
AcDbEntity
  8
1
100
AcDbLine
  6
CONTINUOUS
 62
40
 10
2.3411423E+001
 20
1.4467309E+002
 11
2.3260236E+001
 21
1.446752E+002
  0
LINE
  5
352
100
AcDbEntity
  8
1
100
AcDbLine
  6
CONTINUOUS
 62
40
 10
2.3260236E+001
 20
1.446752E+002
 11
2.3103928E+001
 21
1.4467739E+002
  0
LINE
  5
353
100
AcDbEntity
  8
1
100
AcDbLine
  6
CONTINUOUS
 62
40
 10
2.3103928E+001
 20
1.4467739E+002
 11
2.2942798E+001
 21
1.4467964E+002
  0
LINE
  5
354
100
AcDbEntity
  8
1
100
AcDbLine
  6
CONTINUOUS
 62
40
 10
2.2942798E+001
 20
1.4467964E+002
 11
2.2777159E+001
 21
1.4468195E+002
  0
LINE
  5
355
100
AcDbEntity
  8
1
100
AcDbLine
  6
CONTINUOUS
 62
40
 10
2.2777159E+001
 20
1.4468195E+002
 11
2.2607327E+001
 21
1.4468432E+002
  0
LINE
  5
356
100
AcDbEntity
  8
1
100
AcDbLine
  6
CONTINUOUS
 62
40
 10
2.2607327E+001
 20
1.4468432E+002
 11
2.2433631E+001
 21
1.4468674E+002
  0
LINE
  5
357
100
AcDbEntity
  8
1
100
AcDbLine
  6
CONTINUOUS
 62
40
 10
2.2433631E+001
 20
1.4468674E+002
 11
2.2256402E+001
 21
1.4468922E+002
  0
LINE
  5
358
100
AcDbEntity
  8
1
100
AcDbLine
  6
CONTINUOUS
 62
40
 10
2.2256402E+001
 20
1.4468922E+002
 11
2.2075986E+001
 21
1.4469174E+002
  0
LINE
  5
359
100
AcDbEntity
  8
1
100
AcDbLine
  6
CONTINUOUS
 62
40
 10
2.2075986E+001
 20
1.4469174E+002
 11
2.1892728E+001
 21
1.446943E+002
  0
LINE
  5
35a
100
AcDbEntity
  8
1
100
AcDbLine
  6
CONTINUOUS
 62
40
 10
2.1892728E+001
 20
1.446943E+002
 11
2.1706982E+001
 21
1.4469689E+002
  0
LINE
  5
35b
100
AcDbEntity
  8
1
100
AcDbLine
  6
CONTINUOUS
 62
40
 10
2.1706982E+001
 20
1.4469689E+002
 11
2.1519104E+001
 21
1.4469951E+002
  0
LINE
  5
35c
100
AcDbEntity
  8
1
100
AcDbLine
  6
CONTINUOUS
 62
40
 10
2.1519104E+001
 20
1.4469951E+002
 11
2.1329455E+001
 21
1.4470217E+002
  0
LINE
  5
35d
100
AcDbEntity
  8
1
100
AcDbLine
  6
CONTINUOUS
 62
40
 10
2.1329455E+001
 20
1.4470217E+002
 11
2.1138404E+001
 21
1.4470483E+002
  0
LINE
  5
35e
100
AcDbEntity
  8
1
100
AcDbLine
  6
CONTINUOUS
 62
40
 10
2.1138404E+001
 20
1.4470483E+002
 11
2.0946315E+001
 21
1.4470752E+002
  0
LINE
  5
35f
100
AcDbEntity
  8
1
100
AcDbLine
  6
CONTINUOUS
 62
40
 10
2.0946315E+001
 20
1.4470752E+002
 11
2.0753557E+001
 21
1.4471021E+002
  0
POINT
  5
360
100
AcDbEntity
  8
Drafting_Hidden_Entities
100
AcDbPoint
  6
CONTINUOUS
 62
1
 10
0.0
 20
0.0
  0
ENDBLK
  5
361
100
AcDbEntity
100
AcDbBlockEnd
  0
BLOCK
  5
362
100
AcDbEntity
100
AcDbBlockBegin
  2
HHN
 10
0.0
 20
0.0
 70
0
  0
ARC
  5
363
100
AcDbEntity
  8
1
100
AcDbCircle
  6
CONTINUOUS
 62
40
 10
4.3451916E+001
 20
-1.0015021E+002
 40
3.5E+001
100
AcDbArc
 50
2.0021307E+002
 51
2.3007927E+002
  0
LINE
  5
364
100
AcDbEntity
  8
1
100
AcDbLine
  6
CONTINUOUS
 62
40
 10
3.5E+001
 20
-1.12E+002
 11
2.1E+001
 21
-1.27E+002
  0
LINE
  5
365
100
AcDbEntity
  8
1
100
AcDbLine
  6
CONTINUOUS
 62
40
 10
0.0
 20
-1.12E+002
 11
0.0
 21
0.0
  0
LINE
  5
366
100
AcDbEntity
  8
1
100
AcDbLine
  6
CONTINUOUS
 62
40
 10
0.0
 20
-1.12E+002
 11
4.4993289E+001
 21
-1.12E+002
  0
LINE
  5
367
100
AcDbEntity
  8
1
100
AcDbLine
  6
CONTINUOUS
 62
40
 10
0.0
 20
0.0
 11
2.395487E+001
 21
0.0
  0
CIRCLE
  5
368
100
AcDbEntity
  8
1
100
AcDbCircle
  6
CONTINUOUS
 62
40
 10
2.0E+001
 20
-3.7E+001
 40
4.0
  0
ARC
  5
369
100
AcDbEntity
  8
1
100
AcDbCircle
  6
CONTINUOUS
 62
40
 10
-2.53E+002
 20
-1.12E+002
 40
3.0E+002
100
AcDbArc
 50
3.8453832E-001
 51
2.1661819E+001
  0
ARC
  5
36a
100
AcDbEntity
  8
1
100
AcDbCircle
  6
CONTINUOUS
 62
40
 10
4.4993289E+001
 20
-1.1E+002
 40
2.0
100
AcDbArc
 50
2.7E+002
 51
3.6038454E+002
  0
ARC
  5
36b
100
AcDbEntity
  8
1
100
AcDbCircle
  6
CONTINUOUS
 62
40
 10
2.395487E+001
 20
-2.0
 40
2.0
100
AcDbArc
 50
2.1661819E+001
 51
9.0E+001
  0
POINT
  5
36c
100
AcDbEntity
  8
Drafting_Hidden_Entities
100
AcDbPoint
  6
CONTINUOUS
 62
1
 10
0.0
 20
0.0
  0
ENDBLK
  5
36d
100
AcDbEntity
100
AcDbBlockEnd
  0
BLOCK
  5
36e
100
AcDbEntity
100
AcDbBlockBegin
  2
IIUO
 10
0.0
 20
0.0
 70
0
  0
ARC
  5
36f
100
AcDbEntity
  8
104
100
AcDbCircle
  6
CONTINUOUS
 62
40
 10
2.1114405E+001
 20
-1.0103423E+002
 40
2.9941956
100
AcDbArc
 50
1.4845786E+002
 51
1.6898686E+002
  0
ARC
  5
370
100
AcDbEntity
  8
1
100
AcDbCircle
  6
CONTINUOUS
 62
7
 10
2.1112746E+001
 20
-4.3267801E+001
 40
2.9926466
100
AcDbArc
 50
1.9160051E+002
 51
2.1156422E+002
  0
SPLINE
  5
371
100
AcDbEntity
  8
104
100
AcDbSpline
  6
CONTINUOUS
 62
1
210
0.0
220
0.0
230
0.0
 70
0
 71
3
 72
10
 73
6
 74
0
 42
1.0E-007
 43
1.0E-007
 44
0.0
 40
0.0
 40
0.0
 40
0.0
 40
0.0
 40
5.0E-001
 40
5.0E-001
 40
1.0
 40
1.0
 40
1.0
 40
1.0
 10
4.6297467E+001
 20
-5.8298364E+001
 30
0.0
 10
4.6505515E+001
 20
-5.8298479E+001
 30
0.0
 10
4.6712538E+001
 20
-5.8303089E+001
 30
0.0
 10
4.7009065E+001
 20
-5.8318731E+001
 30
0.0
 10
4.7096789E+001
 20
-5.8329668E+001
 30
0.0
 10
4.7099508E+001
 20
-5.8340671E+001
 30
0.0
  0
SPLINE
  5
372
100
AcDbEntity
  8
104
100
AcDbSpline
  6
CONTINUOUS
 62
1
210
0.0
220
0.0
230
0.0
 70
0
 71
3
 72
10
 73
6
 74
0
 42
1.0E-007
 43
1.0E-007
 44
0.0
 40
0.0
 40
0.0
 40
0.0
 40
0.0
 40
5.0E-001
 40
5.0E-001
 40
1.0
 40
1.0
 40
1.0
 40
1.0
 10
4.6297467E+001
 20
-8.6003266E+001
 30
0.0
 10
4.6505514E+001
 20
-8.6003151E+001
 30
0.0
 10
4.6712538E+001
 20
-8.599854E+001
 30
0.0
 10
4.7009065E+001
 20
-8.5982898E+001
 30
0.0
 10
4.7096789E+001
 20
-8.5971961E+001
 30
0.0
 10
4.7099508E+001
 20
-8.5960959E+001
 30
0.0
  0
ELLIPSE
  5
373
100
AcDbEntity
  8
104
100
AcDbEllipse
  6
CONTINUOUS
 10
4.754189E+001
 20
-9.5896206E+001
 11
0.0
 21
3.2
 40
1.3090717E-002
 41
1.5707963
 42
1.9767234
 62
40
  0
SPLINE
  5
374
100
AcDbEntity
  8
104
100
AcDbSpline
  6
CONTINUOUS
 62
40
210
0.0
220
0.0
230
0.0
 70
0
 71
3
 72
8
 73
4
 74
0
 42
1.0E-007
 43
1.0E-007
 44
0.0
 40
0.0
 40
0.0
 40
0.0
 40
0.0
 40
1.856676E-004
 40
1.856676E-004
 40
1.856676E-004
 40
1.856676E-004
 10
4.7500984E+001
 20
-9.7142447E+001
 30
0.0
 10
4.7501791E+001
 20
-9.7148267E+001
 30
0.0
 10
4.7502598E+001
 20
-9.7154049E+001
 30
0.0
 10
4.7503404E+001
 20
-9.7159792E+001
 30
0.0
  0
SPLINE
  5
375
100
AcDbEntity
  8
104
100
AcDbSpline
  6
CONTINUOUS
 62
40
210
0.0
220
0.0
230
0.0
 70
0
 71
3
 72
8
 73
4
 74
0
 42
1.0E-007
 43
1.0E-007
 44
0.0
 40
0.0
 40
0.0
 40
0.0
 40
0.0
 40
1.857147E-004
 40
1.857147E-004
 40
1.857147E-004
 40
1.857147E-004
 10
4.7503404E+001
 20
-4.7142025E+001
 30
0.0
 10
4.7502597E+001
 20
-4.7147769E+001
 30
0.0
 10
4.7501791E+001
 20
-4.7153552E+001
 30
0.0
 10
4.7500984E+001
 20
-4.7159374E+001
 30
0.0
  0
ELLIPSE
  5
376
100
AcDbEntity
  8
104
100
AcDbEllipse
  6
CONTINUOUS
 10
4.754189E+001
 20
-4.8405611E+001
 11
0.0
 21
3.2
 40
1.3090717E-002
 41
1.1648692
 42
1.5707963
 62
40
  0
LINE
  5
377
100
AcDbEntity
  8
104
100
AcDbLine
  6
CONTINUOUS
 62
40
 10
4.7499999E+001
 20
-4.9973104E+001
 11
4.7499999E+001
 21
-4.840561E+001
  0
ELLIPSE
  5
378
100
AcDbEntity
  8
104
100
AcDbEllipse
  6
CONTINUOUS
 10
4.7496073E+001
 20
-4.9973105E+001
 11
0.0
 21
3.0E-001
 40
1.3090717E-002
 41
3.1593493
 42
4.712389
 62
40
  0
ELLIPSE
  5
379
100
AcDbEntity
  8
104
100
AcDbEllipse
  6
CONTINUOUS
 10
4.75288E+001
 20
-1.9075091E+002
 11
0.0
 21
1.405E+002
 40
1.3090717E-002
 41
1.7756615E-002
 42
1.7456117E-001
 62
40
  0
ELLIPSE
  5
37a
100
AcDbEntity
  8
104
100
AcDbEllipse
  6
CONTINUOUS
 10
4.7227555E+001
 20
-6.0264531E+001
 11
0.0
 21
8.0
 40
1.3090717E-002
 41
1.7456117E-001
 42
1.4049485
 62
40
  0
ELLIPSE
  5
37b
100
AcDbEntity
  8
104
100
AcDbEllipse
  6
CONTINUOUS
 10
4.8157154E+001
 20
-7.2150908E+001
 11
0.0
 21
8.0E+001
 40
1.3090717E-002
 41
1.4049485
 42
1.7366441
 62
40
  0
ELLIPSE
  5
37c
100
AcDbEntity
  8
104
100
AcDbEllipse
  6
CONTINUOUS
 10
4.7227555E+001
 20
-8.4037286E+001
 11
0.0
 21
8.0
 40
1.3090717E-002
 41
1.7366441
 42
2.9670315
 62
40
  0
ELLIPSE
  5
37d
100
AcDbEntity
  8
104
100
AcDbEllipse
  6
CONTINUOUS
 10
4.75288E+001
 20
4.6449092E+001
 11
0.0
 21
1.405E+002
 40
1.3090717E-002
 41
2.9670315
 42
3.123836
 62
40
  0
ELLIPSE
  5
37e
100
AcDbEntity
  8
104
100
AcDbEllipse
  6
CONTINUOUS
 10
4.7496073E+001
 20
-9.4328712E+001
 11
0.0
 21
3.0E-001
 40
1.3090717E-002
 41
4.712389
 42
6.2654287
 62
40
  0
LINE
  5
37f
100
AcDbEntity
  8
104
100
AcDbLine
  6
CONTINUOUS
 62
40
 10
4.7499999E+001
 20
-9.5896207E+001
 11
4.7499999E+001
 21
-9.4328713E+001
  0
SPLINE
  5
380
100
AcDbEntity
  8
104
100
AcDbSpline
  6
CONTINUOUS
 62
1
210
0.0
220
0.0
230
0.0
 70
0
 71
3
 72
26
 73
22
 74
0
 42
1.0E-007
 43
1.0E-007
 44
0.0
 40
0.0
 40
0.0
 40
0.0
 40
0.0
 40
3.2961661E-002
 40
7.5693937E-002
 40
1.2714425E-001
 40
1.860571E-001
 40
2.5101537E-001
 40
3.2049042E-001
 40
3.9290089E-001
 40
4.8546773E-001
 40
5.601711E-001
 40
6.2044003E-001
 40
6.6894948E-001
 40
7.1611506E-001
 40
7.6116233E-001
 40
8.0421181E-001
 40
8.4547593E-001
 40
8.8525798E-001
 40
9.2394731E-001
 40
9.6201296E-001
 40
1.0
 40
1.0
 40
1.0
 40
1.0
 10
4.6297467E+001
 20
-5.8298551E+001
 30
0.0
 10
4.5612053E+001
 20
-5.8286745E+001
 30
0.0
 10
4.4038052E+001
 20
-5.8259632E+001
 30
0.0
 10
4.1394266E+001
 20
-5.8216527E+001
 30
0.0
 10
3.8211158E+001
 20
-5.8167395E+001
 30
0.0
 10
3.4566679E+001
 20
-5.8115536E+001
 30
0.0
 10
3.0549095E+001
 20
-5.8064481E+001
 30
0.0
 10
2.6254045E+001
 20
-5.8018169E+001
 30
0.0
 10
2.1391609E+001
 20
-5.7978133E+001
 30
0.0
 10
1.6431596E+001
 20
-5.7953517E+001
 30
0.0
 10
1.1742273E+001
 20
-5.7948349E+001
 30
0.0
 10
7.9814803
 20
-5.7958588E+001
 30
0.0
 10
4.8061423
 20
-5.797792E+001
 30
0.0
 10
1.9635882
 20
-5.8002658E+001
 30
0.0
 10
-7.4002244E-001
 20
-5.8034967E+001
 30
0.0
 10
-3.2912499
 20
-5.8075658E+001
 30
0.0
 10
-5.6986924
 20
-5.812548E+001
 30
0.0
 10
-7.9775748
 20
-5.8184931E+001
 30
0.0
 10
-1.0149777E+001
 20
-5.8254462E+001
 30
0.0
 10
-1.224738E+001
 20
-5.8333373E+001
 30
0.0
 10
-1.3612329E+001
 20
-5.8393236E+001
 30
0.0
 10
-1.4294099E+001
 20
-5.8423137E+001
 30
0.0
  0
SPLINE
  5
381
100
AcDbEntity
  8
104
100
AcDbSpline
  6
CONTINUOUS
 62
1
210
0.0
220
0.0
230
0.0
 70
0
 71
3
 72
31
 73
27
 74
0
 42
1.0E-007
 43
1.0E-007
 44
0.0
 40
0.0
 40
0.0
 40
0.0
 40
0.0
 40
2.0285792E-002
 40
4.0515586E-002
 40
6.0780335E-002
 40
8.1164585E-002
 40
1.0174677E-001
 40
1.2259922E-001
 40
1.4378801E-001
 40
1.6537268E-001
 40
1.8740594E-001
 40
2.0993338E-001
 40
2.3299326E-001
 40
2.5661641E-001
 40
2.8082617E-001
 40
3.056385E-001
 40
3.3106204E-001
 40
3.795692E-001
 40
4.398366E-001
 40
5.1453945E-001
 40
6.0710721E-001
 40
7.077476E-001
 40
8.0139302E-001
 40
8.8379016E-001
 40
9.5106663E-001
 40
1.0
 40
1.0
 40
1.0
 40
1.0
 10
-1.4294099E+001
 20
-8.587868E+001
 30
0.0
 10
-1.3930452E+001
 20
-8.5894816E+001
 30
0.0
 10
-1.3204164E+001
 20
-8.5927042E+001
 30
0.0
 10
-1.2105793E+001
 20
-8.5972486E+001
 30
0.0
 10
-1.0996434E+001
 20
-8.6015435E+001
 30
0.0
 10
-9.8694199
 20
-8.6055627E+001
 30
0.0
 10
-8.7193901
 20
-8.6093062E+001
 30
0.0
 10
-7.5415319
 20
-8.6127708E+001
 30
0.0
 10
-6.3317428
 20
-8.6159578E+001
 30
0.0
 10
-5.0865444
 20
-8.6188706E+001
 30
0.0
 10
-3.8030648
 20
-8.6215149E+001
 30
0.0
 10
-2.4790036
 20
-8.6238986E+001
 30
0.0
 10
-1.112604
 20
-8.626031E+001
 30
0.0
 10
2.9737655E-001
 20
-8.6279233E+001
 30
0.0
 10
1.7516917
 20
-8.629588E+001
 30
0.0
 10
3.2506381
 20
-8.6310384E+001
 30
0.0
 10
5.2487732
 20
-8.6326599E+001
 30
0.0
 10
7.9814127
 20
-8.6343225E+001
 30
0.0
 10
1.1742138E+001
 20
-8.635347E+001
 30
0.0
 10
1.643151E+001
 20
-8.6348291E+001
 30
0.0
 10
2.1975764E+001
 20
-8.6320827E+001
 30
0.0
 10
2.7927394E+001
 20
-8.6268292E+001
 30
0.0
 10
3.3675606E+001
 20
-8.6199177E+001
 30
0.0
 10
3.8733738E+001
 20
-8.6127097E+001
 30
0.0
 10
4.2863386E+001
 20
-8.6062083E+001
 30
0.0
 10
4.5279917E+001
 20
-8.6020694E+001
 30
0.0
 10
4.6297464E+001
 20
-8.6003266E+001
 30
0.0
  0
SPLINE
  5
382
100
AcDbEntity
  8
104
100
AcDbSpline
  6
CONTINUOUS
 62
1
210
0.0
220
0.0
230
0.0
 70
0
 71
3
 72
10
 73
6
 74
0
 42
1.0E-007
 43
1.0E-007
 44
0.0
 40
0.0
 40
0.0
 40
0.0
 40
0.0
 40
5.0E-001
 40
5.0E-001
 40
1.0
 40
1.0
 40
1.0
 40
1.0
 10
4.6367506E+001
 20
-5.1032331E+001
 30
0.0
 10
4.6576636E+001
 20
-5.1032774E+001
 30
0.0
 10
4.6784594E+001
 20
-5.1116124E+001
 30
0.0
 10
4.7081047E+001
 20
-5.1401697E+001
 30
0.0
 10
4.7167726E+001
 20
-5.1602171E+001
 30
0.0
 10
4.7168449E+001
 20
-5.180388E+001
 30
0.0
  0
SPLINE
  5
383
100
AcDbEntity
  8
104
100
AcDbSpline
  6
CONTINUOUS
 62
1
210
0.0
220
0.0
230
0.0
 70
0
 71
3
 72
10
 73
6
 74
0
 42
1.0E-007
 43
1.0E-007
 44
0.0
 40
0.0
 40
0.0
 40
0.0
 40
0.0
 40
5.0E-001
 40
5.0E-001
 40
1.0
 40
1.0
 40
1.0
 40
1.0
 10
4.6367503E+001
 20
-9.3269423E+001
 30
0.0
 10
4.6576633E+001
 20
-9.326898E+001
 30
0.0
 10
4.6784591E+001
 20
-9.318563E+001
 30
0.0
 10
4.7081044E+001
 20
-9.2900057E+001
 30
0.0
 10
4.7167723E+001
 20
-9.2699583E+001
 30
0.0
 10
4.7168446E+001
 20
-9.2497873E+001
 30
0.0
  0
SPLINE
  5
384
100
AcDbEntity
  8
104
100
AcDbSpline
  6
CONTINUOUS
 62
1
210
0.0
220
0.0
230
0.0
 70
0
 71
3
 72
18
 73
14
 74
0
 42
1.0E-007
 43
1.0E-007
 44
0.0
 40
0.0
 40
0.0
 40
0.0
 40
0.0
 40
5.0E-001
 40
5.0E-001
 40
7.5E-001
 40
7.5E-001
 40
8.75E-001
 40
8.75E-001
 40
9.375E-001
 40
9.375E-001
 40
9.6875E-001
 40
9.6875E-001
 40
1.0
 40
1.0
 40
1.0
 40
1.0
 10
-1.1544547E+001
 20
-5.5785953E+001
 30
0.0
 10
-1.2085915E+001
 20
-5.6158483E+001
 30
0.0
 10
-1.2609682E+001
 20
-5.6540712E+001
 30
0.0
 10
-1.3356365E+001
 20
-5.7150037E+001
 30
0.0
 10
-1.3599677E+001
 20
-5.7357838E+001
 30
0.0
 10
-1.3937074E+001
 20
-5.7703862E+001
 30
0.0
 10
-1.4045977E+001
 20
-5.7825493E+001
 30
0.0
 10
-1.4181083E+001
 20
-5.8028586E+001
 30
0.0
 10
-1.422197E+001
 20
-5.8101241E+001
 30
0.0
 10
-1.426575E+001
 20
-5.8217445E+001
 30
0.0
 10
-1.4277329E+001
 20
-5.8257228E+001
 30
0.0
 10
-1.429235E+001
 20
-5.8339627E+001
 30
0.0
 10
-1.4295493E+001
 20
-5.8382546E+001
 30
0.0
 10
-1.4293951E+001
 20
-5.8423079E+001
 30
0.0
  0
SPLINE
  5
385
100
AcDbEntity
  8
104
100
AcDbSpline
  6
CONTINUOUS
 62
1
210
0.0
220
0.0
230
0.0
 70
0
 71
3
 72
16
 73
12
 74
0
 42
1.0E-007
 43
1.0E-007
 44
0.0
 40
0.0
 40
0.0
 40
0.0
 40
0.0
 40
1.25E-001
 40
1.25E-001
 40
2.5E-001
 40
2.5E-001
 40
5.0E-001
 40
5.0E-001
 40
7.5E-001
 40
7.5E-001
 40
1.0
 40
1.0
 40
1.0
 40
1.0
 10
-3.6865002
 20
-5.3048779E+001
 30
0.0
 10
-4.0284494
 20
-5.3113288E+001
 30
0.0
 10
-4.3720862
 20
-5.3182007E+001
 30
0.0
 10
-5.0541023
 20
-5.3327427E+001
 30
0.0
 10
-5.3938692
 20
-5.3404387E+001
 30
0.0
 10
-6.4088854
 20
-5.365006E+001
 30
0.0
 10
-7.0799482
 20
-5.383331E+001
 30
0.0
 10
-8.4058475
 20
-5.4256883E+001
 30
0.0
 10
-9.0622576
 20
-5.4497011E+001
 30
0.0
 10
-1.0344114E+001
 20
-5.5064555E+001
 30
0.0
 10
-1.0964561E+001
 20
-5.5386849E+001
 30
0.0
 10
-1.1544547E+001
 20
-5.5785953E+001
 30
0.0
  0
SPLINE
  5
386
100
AcDbEntity
  8
104
100
AcDbSpline
  6
CONTINUOUS
 62
1
210
0.0
220
0.0
230
0.0
 70
0
 71
3
 72
31
 73
27
 74
0
 42
1.0E-007
 43
1.0E-007
 44
0.0
 40
0.0
 40
0.0
 40
0.0
 40
0.0
 40
1.5588529E-002
 40
3.1696953E-002
 40
4.8354723E-002
 40
6.5592417E-002
 40
8.3441753E-002
 40
1.0193559E-001
 40
1.2110795E-001
 40
1.40994E-001
 40
1.6163007E-001
 40
1.8305367E-001
 40
2.0530346E-001
 40
2.2841928E-001
 40
2.5244218E-001
 40
2.7741436E-001
 40
3.3321105E-001
 40
3.9237253E-001
 40
4.5503274E-001
 40
5.2131167E-001
 40
5.9131547E-001
 40
6.6513684E-001
 40
7.4285532E-001
 40
8.2453772E-001
 40
9.1023845E-001
 40
1.0
 40
1.0
 40
1.0
 40
1.0
 10
-3.6831023
 20
-5.3049144E+001
 30
0.0
 10
-3.4324268
 20
-5.3020533E+001
 30
0.0
 10
-2.9227154
 20
-5.2962356E+001
 30
0.0
 10
-2.1415557
 20
-5.2877853E+001
 30
0.0
 10
-1.3311849
 20
-5.2793681E+001
 30
0.0
 10
-4.8976912E-001
 20
-5.2710237E+001
 30
0.0
 10
3.8421953E-001
 20
-5.2627512E+001
 30
0.0
 10
1.2924566
 20
-5.2545619E+001
 30
0.0
 10
2.2366385
 20
-5.2464636E+001
 30
0.0
 10
3.2185193
 20
-5.2384658E+001
 30
0.0
 10
4.2399015
 20
-5.2305779E+001
 30
0.0
 10
5.3026396
 20
-5.2228095E+001
 30
0.0
 10
6.4086403
 20
-5.2151709E+001
 30
0.0
 10
7.5598637
 20
-5.2076725E+001
 30
0.0
 10
8.7583248
 20
-5.2003253E+001
 30
0.0
 10
1.0502662E+001
 20
-5.1902808E+001
 30
0.0
 10
1.2837175E+001
 20
-5.1781774E+001
 30
0.0
 10
1.5807326E+001
 20
-5.1648599E+001
 30
0.0
 10
1.8958367E+001
 20
-5.1527378E+001
 30
0.0
 10
2.2295435E+001
 20
-5.1418318E+001
 30
0.0
 10
2.5823057E+001
 20
-5.1321607E+001
 30
0.0
 10
2.9545148E+001
 20
-5.1237448E+001
 30
0.0
 10
3.346504E+001
 20
-5.1165943E+001
 30
0.0
 10
3.7585481E+001
 20
-5.1107549E+001
 30
0.0
 10
4.1908728E+001
 20
-5.1061277E+001
 30
0.0
 10
4.4858486E+001
 20
-5.1042127E+001
 30
0.0
 10
4.6367499E+001
 20
-5.1032331E+001
 30
0.0
  0
SPLINE
  5
387
100
AcDbEntity
  8
104
100
AcDbSpline
  6
CONTINUOUS
 62
1
210
0.0
220
0.0
230
0.0
 70
0
 71
3
 72
16
 73
12
 74
0
 42
1.0E-007
 43
1.0E-007
 44
0.0
 40
0.0
 40
0.0
 40
0.0
 40
0.0
 40
2.5E-001
 40
2.5E-001
 40
5.0E-001
 40
5.0E-001
 40
7.5E-001
 40
7.5E-001
 40
8.75E-001
 40
8.75E-001
 40
1.0
 40
1.0
 40
1.0
 40
1.0
 10
-1.1544547E+001
 20
-8.8515864E+001
 30
0.0
 10
-1.09641E+001
 20
-8.8915285E+001
 30
0.0
 10
-1.0346018E+001
 20
-8.923609E+001
 30
0.0
 10
-9.0725499
 20
-8.9800574E+001
 30
0.0
 10
-8.4139416
 20
-9.0042152E+001
 30
0.0
 10
-7.0841573
 20
-9.0467356E+001
 30
0.0
 10
-6.4117028
 20
-9.0651036E+001
 30
0.0
 10
-5.3952062
 20
-9.0897126E+001
 30
0.0
 10
-5.0550478
 20
-9.0974183E+001
 30
0.0
 10
-4.3724289
 20
-9.1119742E+001
 30
0.0
 10
-4.0285604
 20
-9.1188508E+001
 30
0.0
 10
-3.6865002
 20
-9.1253038E+001
 30
0.0
  0
SPLINE
  5
388
100
AcDbEntity
  8
104
100
AcDbSpline
  6
CONTINUOUS
 62
1
210
0.0
220
0.0
230
0.0
 70
0
 71
3
 72
16
 73
12
 74
0
 42
1.0E-007
 43
1.0E-007
 44
0.0
 40
0.0
 40
0.0
 40
0.0
 40
0.0
 40
6.25E-002
 40
6.25E-002
 40
1.25E-001
 40
1.25E-001
 40
2.5E-001
 40
2.5E-001
 40
5.0E-001
 40
5.0E-001
 40
1.0
 40
1.0
 40
1.0
 40
1.0
 10
-1.4293951E+001
 20
-8.5878737E+001
 30
0.0
 10
-1.429707E+001
 20
-8.5960742E+001
 30
0.0
 10
-1.4280626E+001
 20
-8.604468E+001
 30
0.0
 10
-1.4222178E+001
 20
-8.6200229E+001
 30
0.0
 10
-1.4181142E+001
 20
-8.6273115E+001
 30
0.0
 10
-1.4046318E+001
 20
-8.6475863E+001
 30
0.0
 10
-1.3939815E+001
 20
-8.6594874E+001
 30
0.0
 10
-1.3605188E+001
 20
-8.6938853E+001
 30
0.0
 10
-1.3360374E+001
 20
-8.7148398E+001
 30
0.0
 10
-1.2611039E+001
 20
-8.7760218E+001
 30
0.0
 10
-1.2084723E+001
 20
-8.8144154E+001
 30
0.0
 10
-1.1544547E+001
 20
-8.8515864E+001
 30
0.0
  0
SPLINE
  5
389
100
AcDbEntity
  8
104
100
AcDbSpline
  6
CONTINUOUS
 62
1
210
0.0
220
0.0
230
0.0
 70
0
 71
3
 72
35
 73
31
 74
0
 42
1.0E-007
 43
1.0E-007
 44
0.0
 40
0.0
 40
0.0
 40
0.0
 40
0.0
 40
4.5390125E-002
 40
8.9760735E-002
 40
1.3311605E-001
 40
1.7546099E-001
 40
2.1680125E-001
 40
2.5714323E-001
 40
2.964941E-001
 40
3.3486183E-001
 40
3.7225514E-001
 40
4.0868357E-001
 40
4.4415745E-001
 40
4.7868796E-001
 40
5.1228708E-001
 40
5.4496767E-001
 40
5.767434E-001
 40
6.0762884E-001
 40
6.3763941E-001
 40
6.6679142E-001
 40
6.9510205E-001
 40
7.2258936E-001
 40
7.6566464E-001
 40
8.0592951E-001
 40
8.4360306E-001
 40
8.7889333E-001
 40
9.1199738E-001
 40
9.4310138E-001
 40
9.723807E-001
 40
1.0
 40
1.0
 40
1.0
 40
1.0
 10
4.6367507E+001
 20
-9.3269486E+001
 30
0.0
 10
4.5604451E+001
 20
-9.3264863E+001
 30
0.0
 10
4.4095478E+001
 20
-9.3255722E+001
 30
0.0
 10
4.1857534E+001
 20
-9.3237583E+001
 30
0.0
 10
3.9670757E+001
 20
-9.3216387E+001
 30
0.0
 10
3.7534942E+001
 20
-9.3191844E+001
 30
0.0
 10
3.5449869E+001
 20
-9.3164053E+001
 30
0.0
 10
3.3415276E+001
 20
-9.3133014E+001
 30
0.0
 10
3.1430874E+001
 20
-9.3098752E+001
 30
0.0
 10
2.9496335E+001
 20
-9.3061289E+001
 30
0.0
 10
2.7611298E+001
 20
-9.3020644E+001
 30
0.0
 10
2.5775367E+001
 20
-9.2976841E+001
 30
0.0
 10
2.3988108E+001
 20
-9.2929901E+001
 30
0.0
 10
2.2249053E+001
 20
-9.2879848E+001
 30
0.0
 10
2.0557693E+001
 20
-9.2826705E+001
 30
0.0
 10
1.8913484E+001
 20
-9.2770497E+001
 30
0.0
 10
1.7315842E+001
 20
-9.2711248E+001
 30
0.0
 10
1.5764144E+001
 20
-9.2648985E+001
 30
0.0
 10
1.4257727E+001
 20
-9.2583734E+001
 30
0.0
 10
1.2795887E+001
 20
-9.2515524E+001
 30
0.0
 10
1.1377878E+001
 20
-9.2444383E+001
 30
0.0
 10
9.7296575
 20
-9.2355622E+001
 30
0.0
 10
7.8857412
 20
-9.224707E+001
 30
0.0
 10
5.8782829
 20
-9.2115541E+001
 30
0.0
 10
4.0064447
 20
-9.1979861E+001
 30
0.0
 10
2.2600007
 20
-9.1840549E+001
 30
0.0
 10
6.2910828E-001
 20
-9.1698209E+001
 30
0.0
 10
-8.9525274E-001
 20
-9.1553014E+001
 30
0.0
 10
-2.3228238
 20
-9.1406474E+001
 30
0.0
 10
-3.2385828
 20
-9.1302933E+001
 30
0.0
 10
-3.6831036
 20
-9.1252672E+001
 30
0.0
  0
SPLINE
  5
38a
100
AcDbEntity
  8
104
100
AcDbSpline
  6
CONTINUOUS
 62
40
210
0.0
220
0.0
230
0.0
 70
0
 71
3
 72
10
 73
6
 74
0
 42
1.0E-007
 43
1.0E-007
 44
0.0
 40
0.0
 40
0.0
 40
0.0
 40
0.0
 40
5.0E-001
 40
5.0E-001
 40
1.0
 40
1.0
 40
1.0
 40
1.0
 10
4.6705723E+001
 20
-4.6326628E+001
 30
0.0
 10
4.2442863E+001
 20
-4.6328783E+001
 30
0.0
 10
3.8180204E+001
 20
-4.6348189E+001
 30
0.0
 10
2.9655471E+001
 20
-4.64374E+001
 30
0.0
 10
2.5393396E+001
 20
-4.6507021E+001
 30
0.0
 10
2.1131762E+001
 20
-4.6614679E+001
 30
0.0
  0
SPLINE
  5
38b
100
AcDbEntity
  8
104
100
AcDbSpline
  6
CONTINUOUS
 62
40
210
0.0
220
0.0
230
0.0
 70
0
 71
3
 72
10
 73
6
 74
0
 42
1.0E-007
 43
1.0E-007
 44
0.0
 40
0.0
 40
0.0
 40
0.0
 40
0.0
 40
5.0E-001
 40
5.0E-001
 40
1.0
 40
1.0
 40
1.0
 40
1.0
 10
4.6705723E+001
 20
-9.7975189E+001
 30
0.0
 10
4.2442986E+001
 20
-9.7973034E+001
 30
0.0
 10
3.8180386E+001
 20
-9.7953629E+001
 30
0.0
 10
2.9655583E+001
 20
-9.7864418E+001
 30
0.0
 10
2.5393213E+001
 20
-9.7794791E+001
 30
0.0
 10
2.1131762E+001
 20
-9.7687137E+001
 30
0.0
  0
SPLINE
  5
38c
100
AcDbEntity
  8
104
100
AcDbSpline
  6
CONTINUOUS
 62
1
210
0.0
220
0.0
230
0.0
 70
0
 71
3
 72
12
 73
8
 74
0
 42
1.0E-007
 43
1.0E-007
 44
0.0
 40
0.0
 40
0.0
 40
0.0
 40
0.0
 40
2.5E-001
 40
2.5E-001
 40
5.0E-001
 40
5.0E-001
 40
1.0
 40
1.0
 40
1.0
 40
1.0
 10
-4.2734821
 20
-5.072443E+001
 30
0.0
 10
-2.8625929
 20
-5.0413531E+001
 30
0.0
 10
-1.4454994
 20
-5.0149113E+001
 30
0.0
 10
1.3973686
 20
-4.9685201E+001
 30
0.0
 10
2.8231563
 20
-4.9485808E+001
 30
0.0
 10
7.1098624
 20
-4.8957418E+001
 30
0.0
 10
9.9798979
 20
-4.8696516E+001
 30
0.0
 10
1.2856747E+001
 20
-4.8486406E+001
 30
0.0
  0
SPLINE
  5
38d
100
AcDbEntity
  8
104
100
AcDbSpline
  6
CONTINUOUS
 62
1
210
0.0
220
0.0
230
0.0
 70
0
 71
3
 72
16
 73
12
 74
0
 42
1.0E-007
 43
1.0E-007
 44
0.0
 40
0.0
 40
0.0
 40
0.0
 40
0.0
 40
2.5E-001
 40
2.5E-001
 40
3.75E-001
 40
3.75E-001
 40
5.0E-001
 40
5.0E-001
 40
7.5E-001
 40
7.5E-001
 40
1.0
 40
1.0
 40
1.0
 40
1.0
 10
-1.2844313E+001
 20
-5.4495122E+001
 30
0.0
 10
-1.22557E+001
 20
-5.395964E+001
 30
0.0
 10
-1.1606903E+001
 20
-5.3509311E+001
 30
0.0
 10
-1.0577565E+001
 20
-5.2913095E+001
 30
0.0
 10
-1.0225164E+001
 20
-5.2728452E+001
 30
0.0
 10
-9.5137785
 20
-5.2386436E+001
 30
0.0
 10
-9.1534966
 20
-5.2228328E+001
 30
0.0
 10
-8.0613188
 20
-5.178583E+001
 30
0.0
 10
-7.3181422
 20
-5.153312E+001
 30
0.0
 10
-5.8106229
 20
-5.1087055E+001
 30
0.0
 10
-5.0461527
 20
-5.089406E+001
 30
0.0
 10
-4.2737272
 20
-5.0723347E+001
 30
0.0
  0
SPLINE
  5
38e
100
AcDbEntity
  8
104
100
AcDbSpline
  6
CONTINUOUS
 62
1
210
0.0
220
0.0
230
0.0
 70
0
 71
3
 72
12
 73
8
 74
0
 42
1.0E-007
 43
1.0E-007
 44
0.0
 40
0.0
 40
0.0
 40
0.0
 40
0.0
 40
5.0E-001
 40
5.0E-001
 40
7.5E-001
 40
7.5E-001
 40
1.0
 40
1.0
 40
1.0
 40
1.0
 10
-1.4702449E+001
 20
-8.5847133E+001
 30
0.0
 10
-1.4628984E+001
 20
-8.1294152E+001
 30
0.0
 10
-1.4589972E+001
 20
-7.6730322E+001
 30
0.0
 10
-1.4589932E+001
 20
-6.9868343E+001
 30
0.0
 10
-1.4599557E+001
 20
-6.7578847E+001
 30
0.0
 10
-1.4637449E+001
 20
-6.3011308E+001
 30
0.0
 10
-1.4665716E+001
 20
-6.0731174E+001
 30
0.0
 10
-1.4702449E+001
 20
-5.8454684E+001
 30
0.0
  0
SPLINE
  5
38f
100
AcDbEntity
  8
104
100
AcDbSpline
  6
CONTINUOUS
 62
1
210
0.0
220
0.0
230
0.0
 70
0
 71
3
 72
8
 73
4
 74
0
 42
1.0E-007
 43
1.0E-007
 44
0.0
 40
0.0
 40
0.0
 40
0.0
 40
0.0
 40
1.0
 40
1.0
 40
1.0
 40
1.0
 10
-1.4702251E+001
 20
-5.8454672E+001
 30
0.0
 10
-1.4561315E+001
 20
-5.8445148E+001
 30
0.0
 10
-1.4424691E+001
 20
-5.8434576E+001
 30
0.0
 10
-1.4293951E+001
 20
-5.8423079E+001
 30
0.0
  0
SPLINE
  5
390
100
AcDbEntity
  8
104
100
AcDbSpline
  6
CONTINUOUS
 62
1
210
0.0
220
0.0
230
0.0
 70
0
 71
3
 72
8
 73
4
 74
0
 42
1.0E-007
 43
1.0E-007
 44
0.0
 40
0.0
 40
0.0
 40
0.0
 40
0.0
 40
1.0
 40
1.0
 40
1.0
 40
1.0
 10
-1.4702449E+001
 20
-8.5847149E+001
 30
0.0
 10
-1.4561537E+001
 20
-8.5856646E+001
 30
0.0
 10
-1.4424937E+001
 20
-8.586719E+001
 30
0.0
 10
-1.4294219E+001
 20
-8.5878659E+001
 30
0.0
  0
SPLINE
  5
391
100
AcDbEntity
  8
104
100
AcDbSpline
  6
CONTINUOUS
 62
1
210
0.0
220
0.0
230
0.0
 70
0
 71
3
 72
30
 73
26
 74
0
 42
1.0E-007
 43
1.0E-007
 44
0.0
 40
0.0
 40
0.0
 40
0.0
 40
0.0
 40
3.125E-002
 40
3.125E-002
 40
6.25E-002
 40
6.25E-002
 40
1.25E-001
 40
1.25E-001
 40
2.5E-001
 40
2.5E-001
 40
3.75E-001
 40
3.75E-001
 40
5.0E-001
 40
5.0E-001
 40
6.25E-001
 40
6.25E-001
 40
7.5E-001
 40
7.5E-001
 40
8.75E-001
 40
8.75E-001
 40
9.375E-001
 40
9.375E-001
 40
9.6875E-001
 40
9.6875E-001
 40
1.0
 40
1.0
 40
1.0
 40
1.0
 10
1.2856435E+001
 20
-4.8485354E+001
 30
0.0
 10
1.2946441E+001
 20
-4.847472E+001
 30
0.0
 10
1.3038938E+001
 20
-4.846257E+001
 30
0.0
 10
1.3219202E+001
 20
-4.8436505E+001
 30
0.0
 10
1.33086E+001
 20
-4.8422398E+001
 30
0.0
 10
1.3574671E+001
 20
-4.8376984E+001
 30
0.0
 10
1.3749226E+001
 20
-4.8342592E+001
 30
0.0
 10
1.4264802E+001
 20
-4.8227741E+001
 30
0.0
 10
1.460078E+001
 20
-4.8134404E+001
 30
0.0
 10
1.5221739E+001
 20
-4.7928255E+001
 30
0.0
 10
1.5510498E+001
 20
-4.7814887E+001
 30
0.0
 10
1.6048171E+001
 20
-4.7569834E+001
 30
0.0
 10
1.6291112E+001
 20
-4.7440738E+001
 30
0.0
 10
1.6725802E+001
 20
-4.7174359E+001
 30
0.0
 10
1.6919732E+001
 20
-4.7035509E+001
 30
0.0
 10
1.7253411E+001
 20
-4.6754636E+001
 30
0.0
 10
1.739281E+001
 20
-4.6613335E+001
 30
0.0
 10
1.7619953E+001
 20
-4.6329303E+001
 30
0.0
 10
1.7707913E+001
 20
-4.6185676E+001
 30
0.0
 10
1.7798004E+001
 20
-4.5973641E+001
 30
0.0
 10
1.7821168E+001
 20
-4.5903461E+001
 30
0.0
 10
1.7845608E+001
 20
-4.5798926E+001
 30
0.0
 10
1.7852035E+001
 20
-4.5764203E+001
 30
0.0
 10
1.7861415E+001
 20
-4.5695001E+001
 30
0.0
 10
1.7864385E+001
 20
-4.566007E+001
 30
0.0
 10
1.7865559E+001
 20
-4.5626165E+001
 30
0.0
  0
SPLINE
  5
392
100
AcDbEntity
  8
104
100
AcDbSpline
  6
CONTINUOUS
 62
1
210
0.0
220
0.0
230
0.0
 70
0
 71
3
 72
14
 73
10
 74
0
 42
1.0E-007
 43
1.0E-007
 44
0.0
 40
0.0
 40
0.0
 40
0.0
 40
0.0
 40
2.5E-001
 40
2.5E-001
 40
5.0E-001
 40
5.0E-001
 40
7.5E-001
 40
7.5E-001
 40
1.0
 40
1.0
 40
1.0
 40
1.0
 10
-1.2844313E+001
 20
-8.9806695E+001
 30
0.0
 10
-1.305271E+001
 20
-8.9503281E+001
 30
0.0
 10
-1.325448E+001
 20
-8.9195496E+001
 30
0.0
 10
-1.3642612E+001
 20
-8.8570055E+001
 30
0.0
 10
-1.3829261E+001
 20
-8.8252565E+001
 30
0.0
 10
-1.4178922E+001
 20
-8.7603046E+001
 30
0.0
 10
-1.4344156E+001
 20
-8.727043E+001
 30
0.0
 10
-1.4608994E+001
 20
-8.6582038E+001
 30
0.0
 10
-1.4708274E+001
 20
-8.6218057E+001
 30
0.0
 10
-1.4702251E+001
 20
-8.5847145E+001
 30
0.0
  0
ELLIPSE
  5
393
100
AcDbEntity
  8
104
100
AcDbEllipse
  6
CONTINUOUS
 10
-1.4714341E+001
 20
-7.2150908E+001
 11
0.0
 21
1.4E+002
 40
1.3464844E-002
 41
4.1799448
 42
4.5859395
 62
1
  0
ELLIPSE
  5
394
100
AcDbEntity
  8
104
100
AcDbEllipse
  6
CONTINUOUS
 10
-1.4714341E+001
 20
-7.2150908E+001
 11
0.0
 21
1.4E+002
 40
1.3464844E-002
 41
4.8388384
 42
5.2448332
 62
1
  0
SPLINE
  5
395
100
AcDbEntity
  8
104
100
AcDbSpline
  6
CONTINUOUS
 62
1
210
0.0
220
0.0
230
0.0
 70
0
 71
3
 72
14
 73
10
 74
0
 42
1.0E-007
 43
1.0E-007
 44
0.0
 40
0.0
 40
0.0
 40
0.0
 40
0.0
 40
1.25E-001
 40
1.25E-001
 40
2.5E-001
 40
2.5E-001
 40
5.0E-001
 40
5.0E-001
 40
1.0
 40
1.0
 40
1.0
 40
1.0
 10
-1.4702251E+001
 20
-5.8454672E+001
 30
0.0
 10
-1.4705264E+001
 20
-5.8269135E+001
 30
0.0
 10
-1.4682556E+001
 20
-5.8084564E+001
 30
0.0
 10
-1.4600221E+001
 20
-5.7721943E+001
 30
0.0
 10
-1.4542125E+001
 20
-5.7545618E+001
 30
0.0
 10
-1.434154E+001
 20
-5.7025294E+001
 30
0.0
 10
-1.4177291E+001
 20
-5.6695603E+001
 30
0.0
 10
-1.3654156E+001
 20
-5.5724257E+001
 30
0.0
 10
-1.3261332E+001
 20
-5.5102278E+001
 30
0.0
 10
-1.2844313E+001
 20
-5.4495122E+001
 30
0.0
  0
SPLINE
  5
396
100
AcDbEntity
  8
104
100
AcDbSpline
  6
CONTINUOUS
 62
1
210
0.0
220
0.0
230
0.0
 70
0
 71
3
 72
53
 73
49
 74
0
 42
1.0E-007
 43
1.0E-007
 44
0.0
 40
0.0
 40
0.0
 40
0.0
 40
0.0
 40
2.1379773E-002
 40
4.2775513E-002
 40
6.4187223E-002
 40
8.5614901E-002
 40
1.0705855E-001
 40
1.2851816E-001
 40
1.4999375E-001
 40
1.714853E-001
 40
1.9299283E-001
 40
2.1451632E-001
 40
2.3605579E-001
 40
2.5761123E-001
 40
2.7918263E-001
 40
3.0077001E-001
 40
3.2237336E-001
 40
3.4399268E-001
 40
3.6562797E-001
 40
3.8727923E-001
 40
4.0894647E-001
 40
4.3062968E-001
 40
4.5232886E-001
 40
4.7404401E-001
 40
4.9577513E-001
 40
5.1752223E-001
 40
5.392853E-001
 40
5.6106435E-001
 40
5.8285937E-001
 40
6.0467036E-001
 40
6.2649733E-001
 40
6.4834027E-001
 40
6.7019918E-001
 40
6.9207407E-001
 40
7.1396494E-001
 40
7.3587178E-001
 40
7.577946E-001
 40
7.7973339E-001
 40
8.0168815E-001
 40
8.236589E-001
 40
8.4564562E-001
 40
8.6764831E-001
 40
8.8966698E-001
 40
9.1170163E-001
 40
9.3375226E-001
 40
9.5581886E-001
 40
9.7790144E-001
 40
1.0
 40
1.0
 40
1.0
 40
1.0
 10
1.2856749E+001
 20
-4.8485601E+001
 30
0.0
 10
1.2857589E+001
 20
-4.8129172E+001
 30
0.0
 10
1.285927E+001
 20
-4.7416049E+001
 30
0.0
 10
1.2861933E+001
 20
-4.6347835E+001
 30
0.0
 10
1.28647E+001
 20
-4.5280276E+001
 30
0.0
 10
1.2867581E+001
 20
-4.4213571E+001
 30
0.0
 10
1.2870575E+001
 20
-4.3147751E+001
 30
0.0
 10
1.2873682E+001
 20
-4.2082896E+001
 30
0.0
 10
1.2876901E+001
 20
-4.101907E+001
 30
0.0
 10
1.2880232E+001
 20
-3.9956344E+001
 30
0.0
 10
1.2883676E+001
 20
-3.8894785E+001
 30
0.0
 10
1.2887233E+001
 20
-3.7834464E+001
 30
0.0
 10
1.2890902E+001
 20
-3.6775448E+001
 30
0.0
 10
1.2894684E+001
 20
-3.5717808E+001
 30
0.0
 10
1.2898578E+001
 20
-3.4661612E+001
 30
0.0
 10
1.2902585E+001
 20
-3.3606931E+001
 30
0.0
 10
1.2906705E+001
 20
-3.2553834E+001
 30
0.0
 10
1.2910936E+001
 20
-3.1502392E+001
 30
0.0
 10
1.2915281E+001
 20
-3.0452674E+001
 30
0.0
 10
1.2919738E+001
 20
-2.940475E+001
 30
0.0
 10
1.2924308E+001
 20
-2.8358691E+001
 30
0.0
 10
1.292899E+001
 20
-2.7314567E+001
 30
0.0
 10
1.2933784E+001
 20
-2.6272449E+001
 30
0.0
 10
1.2938692E+001
 20
-2.5232408E+001
 30
0.0
 10
1.2943711E+001
 20
-2.4194514E+001
 30
0.0
 10
1.2948844E+001
 20
-2.3158839E+001
 30
0.0
 10
1.2954089E+001
 20
-2.2125453E+001
 30
0.0
 10
1.2959446E+001
 20
-2.1094427E+001
 30
0.0
 10
1.2964916E+001
 20
-2.0065833E+001
 30
0.0
 10
1.2970499E+001
 20
-1.9039743E+001
 30
0.0
 10
1.2976194E+001
 20
-1.8016226E+001
 30
0.0
 10
1.2982001E+001
 20
-1.6995356E+001
 30
0.0
 10
1.2987921E+001
 20
-1.5977203E+001
 30
0.0
 10
1.2993954E+001
 20
-1.4961839E+001
 30
0.0
 10
1.3000099E+001
 20
-1.3949336E+001
 30
0.0
 10
1.3006357E+001
 20
-1.2939766E+001
 30
0.0
 10
1.3012728E+001
 20
-1.1933199E+001
 30
0.0
 10
1.3019211E+001
 20
-1.0929709E+001
 30
0.0
 10
1.3025806E+001
 20
-9.9293674
 30
0.0
 10
1.3032514E+001
 20
-8.9322455
 30
0.0
 10
1.3039335E+001
 20
-7.9384154
 30
0.0
 10
1.3046268E+001
 20
-6.9479496
 30
0.0
 10
1.3053313E+001
 20
-5.9609181
 30
0.0
 10
1.3060472E+001
 20
-4.9774008
 30
0.0
 10
1.3067742E+001
 20
-3.9974401
 30
0.0
 10
1.3075127E+001
 20
-3.021219
 30
0.0
 10
1.3082617E+001
 20
-2.0483946
 30
0.0
 10
1.3087702E+001
 20
-1.4034241
 30
0.0
 10
1.3090246E+001
 20
-1.0808223
 30
0.0
  0
SPLINE
  5
397
100
AcDbEntity
  8
104
100
AcDbSpline
  6
CONTINUOUS
 62
1
210
0.0
220
0.0
230
0.0
 70
0
 71
3
 72
53
 73
49
 74
0
 42
1.0E-007
 43
1.0E-007
 44
0.0
 40
0.0
 40
0.0
 40
0.0
 40
0.0
 40
2.2098465E-002
 40
4.4180956E-002
 40
6.6247475E-002
 40
8.829802E-002
 40
1.1033259E-001
 40
1.3235119E-001
 40
1.5435382E-001
 40
1.7634047E-001
 40
1.9831116E-001
 40
2.2026587E-001
 40
2.4220461E-001
 40
2.6412738E-001
 40
2.8603417E-001
 40
3.07925E-001
 40
3.2979985E-001
 40
3.5165874E-001
 40
3.7350165E-001
 40
3.953286E-001
 40
4.1713957E-001
 40
4.3893458E-001
 40
4.6071361E-001
 40
4.8247668E-001
 40
5.0422377E-001
 40
5.259549E-001
 40
5.4767006E-001
 40
5.6936925E-001
 40
5.9105247E-001
 40
6.1271972E-001
 40
6.3437101E-001
 40
6.5600633E-001
 40
6.7762568E-001
 40
6.9922906E-001
 40
7.2081648E-001
 40
7.4238793E-001
 40
7.6394341E-001
 40
7.8548293E-001
 40
8.0700648E-001
 40
8.2851407E-001
 40
8.5000569E-001
 40
8.7148134E-001
 40
8.9294103E-001
 40
9.1438475E-001
 40
9.3581251E-001
 40
9.572243E-001
 40
9.7862013E-001
 40
1.0
 40
1.0
 40
1.0
 40
1.0
 10
1.3090246E+001
 20
-1.4322099E+002
 30
0.0
 10
1.3087702E+001
 20
-1.4289839E+002
 30
0.0
 10
1.3082617E+001
 20
-1.4225343E+002
 30
0.0
 10
1.3075127E+001
 20
-1.4128061E+002
 30
0.0
 10
1.3067742E+001
 20
-1.4030439E+002
 30
0.0
 10
1.3060472E+001
 20
-1.3932443E+002
 30
0.0
 10
1.3053313E+001
 20
-1.3834092E+002
 30
0.0
 10
1.3046268E+001
 20
-1.3735389E+002
 30
0.0
 10
1.3039335E+001
 20
-1.3636343E+002
 30
0.0
 10
1.3032514E+001
 20
-1.353696E+002
 30
0.0
 10
1.3025806E+001
 20
-1.3437248E+002
 30
0.0
 10
1.3019211E+001
 20
-1.3337214E+002
 30
0.0
 10
1.3012728E+001
 20
-1.3236865E+002
 30
0.0
 10
1.3006358E+001
 20
-1.3136209E+002
 30
0.0
 10
1.30001E+001
 20
-1.3035252E+002
 30
0.0
 10
1.2993955E+001
 20
-1.2934002E+002
 30
0.0
 10
1.2987922E+001
 20
-1.2832466E+002
 30
0.0
 10
1.2982002E+001
 20
-1.2730651E+002
 30
0.0
 10
1.2976194E+001
 20
-1.2628564E+002
 30
0.0
 10
1.2970499E+001
 20
-1.2526212E+002
 30
0.0
 10
1.2964916E+001
 20
-1.2423603E+002
 30
0.0
 10
1.2959447E+001
 20
-1.2320744E+002
 30
0.0
 10
1.2954089E+001
 20
-1.2217642E+002
 30
0.0
 10
1.2948844E+001
 20
-1.2114303E+002
 30
0.0
 10
1.2943712E+001
 20
-1.2010735E+002
 30
0.0
 10
1.2938692E+001
 20
-1.1906946E+002
 30
0.0
 10
1.2933785E+001
 20
-1.1802942E+002
 30
0.0
 10
1.292899E+001
 20
-1.169873E+002
 30
0.0
 10
1.2924308E+001
 20
-1.1594318E+002
 30
0.0
 10
1.2919739E+001
 20
-1.1489712E+002
 30
0.0
 10
1.2915282E+001
 20
-1.1384919E+002
 30
0.0
 10
1.2910937E+001
 20
-1.1279947E+002
 30
0.0
 10
1.2906705E+001
 20
-1.1174803E+002
 30
0.0
 10
1.2902586E+001
 20
-1.1069493E+002
 30
0.0
 10
1.2898579E+001
 20
-1.0964025E+002
 30
0.0
 10
1.2894685E+001
 20
-1.0858405E+002
 30
0.0
 10
1.2890903E+001
 20
-1.0752641E+002
 30
0.0
 10
1.2887234E+001
 20
-1.0646739E+002
 30
0.0
 10
1.2883677E+001
 20
-1.0540707E+002
 30
0.0
 10
1.2880233E+001
 20
-1.043455E+002
 30
0.0
 10
1.2876901E+001
 20
-1.0328277E+002
 30
0.0
 10
1.2873682E+001
 20
-1.0221895E+002
 30
0.0
 10
1.2870576E+001
 20
-1.0115409E+002
 30
0.0
 10
1.2867582E+001
 20
-1.0008826E+002
 30
0.0
 10
1.28647E+001
 20
-9.9021554E+001
 30
0.0
 10
1.2861933E+001
 20
-9.7953991E+001
 30
0.0
 10
1.2859271E+001
 20
-9.6885772E+001
 30
0.0
 10
1.285759E+001
 20
-9.6172646E+001
 30
0.0
 10
1.285675E+001
 20
-9.5816216E+001
 30
0.0
  0
LINE
  5
398
100
AcDbEntity
  8
104
100
AcDbLine
  6
CONTINUOUS
 62
40
 10
-1.85E+001
 20
-1.6507134
 11
-1.85E+001
 21
-1.426511E+002
  0
SPLINE
  5
399
100
AcDbEntity
  8
104
100
AcDbSpline
  6
CONTINUOUS
 62
40
210
0.0
220
0.0
230
0.0
 70
0
 71
3
 72
10
 73
6
 74
0
 42
1.0E-007
 43
1.0E-007
 44
0.0
 40
0.0
 40
0.0
 40
0.0
 40
0.0
 40
5.0E-001
 40
5.0E-001
 40
1.0
 40
1.0
 40
1.0
 40
1.0
 10
1.9636429E+001
 20
-4.6256417E+001
 30
0.0
 10
1.9866097E+001
 20
-4.638053E+001
 30
0.0
 10
2.0106712E+001
 20
-4.6472352E+001
 30
0.0
 10
2.0609211E+001
 20
-4.6593252E+001
 30
0.0
 10
2.0870782E+001
 20
-4.6621272E+001
 30
0.0
 10
2.1131762E+001
 20
-4.6614679E+001
 30
0.0
  0
SPLINE
  5
39a
100
AcDbEntity
  8
104
100
AcDbSpline
  6
CONTINUOUS
 62
40
210
0.0
220
0.0
230
0.0
 70
0
 71
3
 72
8
 73
4
 74
0
 42
1.0E-007
 43
1.0E-007
 44
0.0
 40
0.0
 40
0.0
 40
0.0
 40
0.0
 40
1.0
 40
1.0
 40
1.0
 40
1.0
 10
1.8564062E+001
 20
-4.4837457E+001
 30
0.0
 10
1.8612875E+001
 20
-4.4980289E+001
 30
0.0
 10
1.8669059E+001
 20
-4.5128279E+001
 30
0.0
 10
1.8734727E+001
 20
-4.5281375E+001
 30
0.0
  0
SPLINE
  5
39b
100
AcDbEntity
  8
104
100
AcDbSpline
  6
CONTINUOUS
 62
40
210
0.0
220
0.0
230
0.0
 70
0
 71
3
 72
14
 73
10
 74
0
 42
1.0E-007
 43
1.0E-007
 44
0.0
 40
0.0
 40
0.0
 40
0.0
 40
0.0
 40
2.5E-001
 40
2.5E-001
 40
5.0E-001
 40
5.0E-001
 40
7.5E-001
 40
7.5E-001
 40
1.0
 40
1.0
 40
1.0
 40
1.0
 10
1.9464678E+001
 20
-4.6094544E+001
 30
0.0
 10
1.935318E+001
 20
-4.6015347E+001
 30
0.0
 10
1.9253299E+001
 20
-4.5931407E+001
 30
0.0
 10
1.9081448E+001
 20
-4.5767224E+001
 30
0.0
 10
1.9010205E+001
 20
-4.5688084E+001
 30
0.0
 10
1.8891646E+001
 20
-4.5541642E+001
 30
0.0
 10
1.884488E+001
 20
-4.5474888E+001
 30
0.0
 10
1.8774274E+001
 20
-4.5362721E+001
 30
0.0
 10
1.8749698E+001
 20
-4.531628E+001
 30
0.0
 10
1.8734727E+001
 20
-4.5281375E+001
 30
0.0
  0
SPLINE
  5
39c
100
AcDbEntity
  8
104
100
AcDbSpline
  6
CONTINUOUS
 62
40
210
0.0
220
0.0
230
0.0
 70
0
 71
3
 72
10
 73
6
 74
0
 42
1.0E-007
 43
1.0E-007
 44
0.0
 40
0.0
 40
0.0
 40
0.0
 40
0.0
 40
5.0E-001
 40
5.0E-001
 40
1.0
 40
1.0
 40
1.0
 40
1.0
 10
1.9645518E+001
 20
-4.6231538E+001
 30
0.0
 10
1.9647517E+001
 20
-4.6225739E+001
 30
0.0
 10
1.9623262E+001
 20
-4.6206551E+001
 30
0.0
 10
1.9553734E+001
 20
-4.6156735E+001
 30
0.0
 10
1.951064E+001
 20
-4.6127191E+001
 30
0.0
 10
1.9464678E+001
 20
-4.6094544E+001
 30
0.0
  0
SPLINE
  5
39d
100
AcDbEntity
  8
104
100
AcDbSpline
  6
CONTINUOUS
 62
40
210
1.832108E-004
220
1.832108E-004
230
1.832108E-004
 70
0
 71
3
 72
8
 73
4
 74
0
 42
1.0E-007
 43
1.0E-007
 44
0.0
 40
1.832108E-004
 40
1.832108E-004
 40
1.832108E-004
 40
1.832108E-004
 40
4.688193E-004
 40
4.688193E-004
 40
4.688193E-004
 40
4.688193E-004
 10
1.9645518E+001
 20
-4.6231538E+001
 30
0.0
 10
1.9642659E+001
 20
-4.6239831E+001
 30
0.0
 10
1.9639629E+001
 20
-4.6248125E+001
 30
0.0
 10
1.9636429E+001
 20
-4.6256417E+001
 30
0.0
  0
SPLINE
  5
39e
100
AcDbEntity
  8
104
100
AcDbSpline
  6
CONTINUOUS
 62
40
210
0.0
220
0.0
230
0.0
 70
0
 71
3
 72
8
 73
4
 74
0
 42
1.0E-007
 43
1.0E-007
 44
0.0
 40
0.0
 40
0.0
 40
0.0
 40
0.0
 40
1.0
 40
1.0
 40
1.0
 40
1.0
 10
1.8734727E+001
 20
-9.9020442E+001
 30
0.0
 10
1.8669085E+001
 20
-9.9173476E+001
 30
0.0
 10
1.8612894E+001
 20
-9.9321473E+001
 30
0.0
 10
1.8564062E+001
 20
-9.946436E+001
 30
0.0
  0
SPLINE
  5
39f
100
AcDbEntity
  8
104
100
AcDbSpline
  6
CONTINUOUS
 62
40
210
0.0
220
0.0
230
0.0
 70
0
 71
3
 72
10
 73
6
 74
0
 42
1.0E-007
 43
1.0E-007
 44
0.0
 40
0.0
 40
0.0
 40
0.0
 40
0.0
 40
5.0E-001
 40
5.0E-001
 40
1.0
 40
1.0
 40
1.0
 40
1.0
 10
1.9636429E+001
 20
-9.8045399E+001
 30
0.0
 10
1.9866097E+001
 20
-9.7921287E+001
 30
0.0
 10
2.0106712E+001
 20
-9.7829464E+001
 30
0.0
 10
2.0609211E+001
 20
-9.7708565E+001
 30
0.0
 10
2.0870782E+001
 20
-9.7680544E+001
 30
0.0
 10
2.1131762E+001
 20
-9.7687137E+001
 30
0.0
  0
SPLINE
  5
3a0
100
AcDbEntity
  8
104
100
AcDbSpline
  6
CONTINUOUS
 62
40
210
1.832108E-004
220
1.832108E-004
230
1.832108E-004
 70
0
 71
3
 72
8
 73
4
 74
0
 42
1.0E-007
 43
1.0E-007
 44
0.0
 40
1.832108E-004
 40
1.832108E-004
 40
1.832108E-004
 40
1.832108E-004
 40
4.688193E-004
 40
4.688193E-004
 40
4.688193E-004
 40
4.688193E-004
 10
1.9645518E+001
 20
-9.8070279E+001
 30
0.0
 10
1.9642659E+001
 20
-9.8061986E+001
 30
0.0
 10
1.9639629E+001
 20
-9.8053692E+001
 30
0.0
 10
1.9636429E+001
 20
-9.8045399E+001
 30
0.0
  0
SPLINE
  5
3a1
100
AcDbEntity
  8
104
100
AcDbSpline
  6
CONTINUOUS
 62
40
210
0.0
220
0.0
230
0.0
 70
0
 71
3
 72
10
 73
6
 74
0
 42
1.0E-007
 43
1.0E-007
 44
0.0
 40
0.0
 40
0.0
 40
0.0
 40
0.0
 40
5.0E-001
 40
5.0E-001
 40
1.0
 40
1.0
 40
1.0
 40
1.0
 10
1.9464678E+001
 20
-9.8207272E+001
 30
0.0
 10
1.9510601E+001
 20
-9.8174653E+001
 30
0.0
 10
1.9553859E+001
 20
-9.8144991E+001
 30
0.0
 10
1.96231E+001
 20
-9.8095382E+001
 30
0.0
 10
1.9647513E+001
 20
-9.8076067E+001
 30
0.0
 10
1.9645518E+001
 20
-9.8070279E+001
 30
0.0
  0
SPLINE
  5
3a2
100
AcDbEntity
  8
104
100
AcDbSpline
  6
CONTINUOUS
 62
40
210
0.0
220
0.0
230
0.0
 70
0
 71
3
 72
14
 73
10
 74
0
 42
1.0E-007
 43
1.0E-007
 44
0.0
 40
0.0
 40
0.0
 40
0.0
 40
0.0
 40
2.5E-001
 40
2.5E-001
 40
5.0E-001
 40
5.0E-001
 40
7.5E-001
 40
7.5E-001
 40
1.0
 40
1.0
 40
1.0
 40
1.0
 10
1.8734727E+001
 20
-9.9020442E+001
 30
0.0
 10
1.8749719E+001
 20
-9.898549E+001
 30
0.0
 10
1.8774113E+001
 20
-9.8939377E+001
 30
0.0
 10
1.8844698E+001
 20
-9.8827194E+001
 30
0.0
 10
1.8891701E+001
 20
-9.8760115E+001
 30
0.0
 10
1.9010007E+001
 20
-9.861397E+001
 30
0.0
 10
1.9081104E+001
 20
-9.8534964E+001
 30
0.0
 10
1.9252671E+001
 20
-9.8370967E+001
 30
0.0
 10
1.9353049E+001
 20
-9.8286563E+001
 30
0.0
 10
1.9464678E+001
 20
-9.8207272E+001
 30
0.0
  0
LINE
  5
3a3
100
AcDbEntity
  8
104
100
AcDbLine
  6
CONTINUOUS
 62
40
 10
1.8479723E+001
 20
-1.0232556E+002
 11
1.85E+001
 21
-1.0235091E+002
  0
LINE
  5
3a4
100
AcDbEntity
  8
104
100
AcDbLine
  6
CONTINUOUS
 62
40
 10
1.85E+001
 20
-1.426511E+002
 11
1.85E+001
 21
-1.0235091E+002
  0
ELLIPSE
  5
3a5
100
AcDbEntity
  8
104
100
AcDbEllipse
  6
CONTINUOUS
 10
1.8513964E+001
 20
3.8153039E+001
 11
0.0
 21
1.405E+002
 40
1.3963541E-002
 41
2.9749826
 42
3.1241394
 62
40
  0
LINE
  5
3a6
100
AcDbEntity
  8
104
100
AcDbLine
  6
CONTINUOUS
 62
40
 10
1.85E+001
 20
-4.1950908E+001
 11
1.85E+001
 21
-1.6507134
  0
LINE
  5
3a7
100
AcDbEntity
  8
1
100
AcDbLine
  6
CONTINUOUS
 62
7
 10
1.85E+001
 20
-4.1950908E+001
 11
1.8479723E+001
 21
-4.1976254E+001
  0
ELLIPSE
  5
3a8
100
AcDbEntity
  8
104
100
AcDbEllipse
  6
CONTINUOUS
 10
1.8513964E+001
 20
-1.8245486E+002
 11
0.0
 21
1.405E+002
 40
1.3963541E-002
 41
1.7453293E-002
 42
1.6654367E-001
 62
40
  0
LINE
  5
3a9
100
AcDbEntity
  8
104
100
AcDbLine
  6
CONTINUOUS
 62
40
 10
1.415E+001
 20
3.490895E-001
 11
-1.415E+001
 21
3.490895E-001
  0
LINE
  5
3aa
100
AcDbEntity
  8
104
100
AcDbLine
  6
CONTINUOUS
 62
40
 10
1.415E+001
 20
-1.4465091E+002
 11
-1.415E+001
 21
-1.4465091E+002
  0
LINE
  5
3ab
100
AcDbEntity
  8
104
100
AcDbLine
  6
CONTINUOUS
 62
40
 10
-3.4E+001
 20
-5.9150908E+001
 11
-3.4E+001
 21
-8.5150908E+001
  0
LINE
  5
3ac
100
AcDbEntity
  8
104
100
AcDbLine
  6
CONTINUOUS
 62
40
 10
-1.85E+001
 20
-5.9150908E+001
 11
-2.2926E+001
 21
-5.9150908E+001
  0
LINE
  5
3ad
100
AcDbEntity
  8
104
100
AcDbLine
  6
CONTINUOUS
 62
40
 10
-1.85E+001
 20
-8.5150908E+001
 11
-2.2926E+001
 21
-8.5150908E+001
  0
LINE
  5
3ae
100
AcDbEntity
  8
104
100
AcDbLine
  6
CONTINUOUS
 62
40
 10
-1.85E+001
 20
-7.9150908E+001
 11
-2.2926E+001
 21
-7.9150908E+001
  0
LINE
  5
3af
100
AcDbEntity
  8
104
100
AcDbLine
  6
CONTINUOUS
 62
40
 10
-1.85E+001
 20
-6.5150908E+001
 11
-2.2926E+001
 21
-6.5150908E+001
  0
LINE
  5
3b0
100
AcDbEntity
  8
104
100
AcDbLine
  6
CONTINUOUS
 62
40
 10
-2.45E+001
 20
-6.5150908E+001
 11
-2.45E+001
 21
-7.9150908E+001
  0
LINE
  5
3b1
100
AcDbEntity
  8
104
100
AcDbLine
  6
CONTINUOUS
 62
40
 10
-2.45E+001
 20
-7.2150908E+001
 11
-3.4E+001
 21
-7.2150908E+001
  0
LINE
  5
3b2
100
AcDbEntity
  8
104
100
AcDbLine
  6
CONTINUOUS
 62
40
 10
1.6500195E+001
 20
3.490895E-001
 11
1.415E+001
 21
3.490895E-001
  0
LINE
  5
3b3
100
AcDbEntity
  8
104
100
AcDbLine
  6
CONTINUOUS
 62
40
 10
-1.415E+001
 20
3.490895E-001
 11
-1.6500195E+001
 21
3.490895E-001
  0
LINE
  5
3b4
100
AcDbEntity
  8
104
100
AcDbLine
  6
CONTINUOUS
 62
1
 10
-1.415E+001
 20
3.490895E-001
 11
-1.342527E+001
 21
5.9299171E-002
  0
ELLIPSE
  5
3b5
100
AcDbEntity
  8
104
100
AcDbEllipse
  6
CONTINUOUS
 10
-9.0279502
 20
6.1442636E-002
 11
4.4
 21
0.0
 40
1.3963541E-002
 41
3.1764992
 42
4.712389
 62
1
  0
LINE
  5
3b6
100
AcDbEntity
  8
104
100
AcDbLine
  6
CONTINUOUS
 62
1
 10
-9.0279505
 20
0.0
 11
9.0279505
 21
0.0
  0
ELLIPSE
  5
3b7
100
AcDbEntity
  8
104
100
AcDbEllipse
  6
CONTINUOUS
 10
9.0279502
 20
6.1442636E-002
 11
4.4
 21
0.0
 40
1.3963541E-002
 41
4.712389
 42
6.2482787
 62
1
  0
LINE
  5
3b8
100
AcDbEntity
  8
104
100
AcDbLine
  6
CONTINUOUS
 62
1
 10
1.342527E+001
 20
5.9299171E-002
 11
1.415E+001
 21
3.490895E-001
  0
LINE
  5
3b9
100
AcDbEntity
  8
104
100
AcDbLine
  6
CONTINUOUS
 62
40
 10
1.415E+001
 20
-1.4465091E+002
 11
1.6500195E+001
 21
-1.4465091E+002
  0
LINE
  5
3ba
100
AcDbEntity
  8
104
100
AcDbLine
  6
CONTINUOUS
 62
1
 10
1.342527E+001
 20
-1.4436112E+002
 11
1.415E+001
 21
-1.4465091E+002
  0
ELLIPSE
  5
3bb
100
AcDbEntity
  8
104
100
AcDbEllipse
  6
CONTINUOUS
 10
9.0279502
 20
-1.4436326E+002
 11
4.4
 21
0.0
 40
1.3963541E-002
 41
3.4906585E-002
 42
1.5707963
 62
1
  0
LINE
  5
3bc
100
AcDbEntity
  8
104
100
AcDbLine
  6
CONTINUOUS
 62
1
 10
-9.0279505
 20
-1.4430182E+002
 11
9.0279505
 21
-1.4430182E+002
  0
ELLIPSE
  5
3bd
100
AcDbEntity
  8
104
100
AcDbEllipse
  6
CONTINUOUS
 10
-9.0279502
 20
-1.4436326E+002
 11
4.4
 21
0.0
 40
1.3963541E-002
 41
1.5707963
 42
3.1066861
 62
1
  0
LINE
  5
3be
100
AcDbEntity
  8
104
100
AcDbLine
  6
CONTINUOUS
 62
1
 10
-1.415E+001
 20
-1.4465091E+002
 11
-1.342527E+001
 21
-1.4436112E+002
  0
LINE
  5
3bf
100
AcDbEntity
  8
104
100
AcDbLine
  6
CONTINUOUS
 62
40
 10
-1.6500195E+001
 20
-1.4465091E+002
 11
-1.415E+001
 21
-1.4465091E+002
  0
SPLINE
  5
3c0
100
AcDbEntity
  8
104
100
AcDbSpline
  6
CONTINUOUS
 62
40
210
0.0
220
0.0
230
0.0
 70
0
 71
3
 72
10
 73
6
 74
0
 42
1.0E-007
 43
1.0E-007
 44
0.0
 40
0.0
 40
0.0
 40
0.0
 40
0.0
 40
5.0E-001
 40
5.0E-001
 40
1.0
 40
1.0
 40
1.0
 40
1.0
 10
4.6705723E+001
 20
-4.6326628E+001
 30
0.0
 10
4.6870493E+001
 20
-4.6326544E+001
 30
0.0
 10
4.7031385E+001
 20
-4.6377955E+001
 30
0.0
 10
4.7298583E+001
 20
-4.656606E+001
 30
0.0
 10
4.7402002E+001
 20
-4.6701375E+001
 30
0.0
 10
4.7457741E+001
 20
-4.6856417E+001
 30
0.0
  0
SPLINE
  5
3c1
100
AcDbEntity
  8
104
100
AcDbSpline
  6
CONTINUOUS
 62
40
210
0.0
220
0.0
230
0.0
 70
0
 71
3
 72
8
 73
4
 74
0
 42
1.0E-007
 43
1.0E-007
 44
0.0
 40
0.0
 40
0.0
 40
0.0
 40
0.0
 40
1.0
 40
1.0
 40
1.0
 40
1.0
 10
4.7457741E+001
 20
-4.6856417E+001
 30
0.0
 10
4.7488121E+001
 20
-4.6947392E+001
 30
0.0
 10
4.7503965E+001
 20
-4.7042417E+001
 30
0.0
 10
4.7503404E+001
 20
-4.7142025E+001
 30
0.0
  0
SPLINE
  5
3c2
100
AcDbEntity
  8
104
100
AcDbSpline
  6
CONTINUOUS
 62
40
210
0.0
220
0.0
230
0.0
 70
0
 71
3
 72
10
 73
6
 74
0
 42
1.0E-007
 43
1.0E-007
 44
0.0
 40
0.0
 40
0.0
 40
0.0
 40
0.0
 40
5.0E-001
 40
5.0E-001
 40
1.0
 40
1.0
 40
1.0
 40
1.0
 10
4.7457741E+001
 20
-9.7445399E+001
 30
0.0
 10
4.7402E+001
 20
-9.7600448E+001
 30
0.0
 10
4.7299548E+001
 20
-9.7734709E+001
 30
0.0
 10
4.703282E+001
 20
-9.7923217E+001
 30
0.0
 10
4.6870502E+001
 20
-9.7975273E+001
 30
0.0
 10
4.6705723E+001
 20
-9.7975189E+001
 30
0.0
  0
SPLINE
  5
3c3
100
AcDbEntity
  8
104
100
AcDbSpline
  6
CONTINUOUS
 62
40
210
0.0
220
0.0
230
0.0
 70
0
 71
3
 72
8
 73
4
 74
0
 42
1.0E-007
 43
1.0E-007
 44
0.0
 40
0.0
 40
0.0
 40
0.0
 40
0.0
 40
1.0
 40
1.0
 40
1.0
 40
1.0
 10
4.7503404E+001
 20
-9.7159792E+001
 30
0.0
 10
4.7503965E+001
 20
-9.72594E+001
 30
0.0
 10
4.7488121E+001
 20
-9.7354425E+001
 30
0.0
 10
4.7457741E+001
 20
-9.7445399E+001
 30
0.0
  0
ELLIPSE
  5
3c4
100
AcDbEntity
  8
104
100
AcDbEllipse
  6
CONTINUOUS
 10
1.6499805E+001
 20
-1.4265071E+002
 11
-1.4144893
 21
1.4144893
 40
9.9980508E-001
 41
2.356292
 42
3.9268933
 62
40
  0
ELLIPSE
  5
3c5
100
AcDbEntity
  8
104
100
AcDbEllipse
  6
CONTINUOUS
 10
1.6499805E+001
 20
-1.6511034
 11
1.4144893
 21
1.4144893
 40
9.9980508E-001
 41
5.4978846
 42
7.068486
 62
40
  0
ELLIPSE
  5
3c6
100
AcDbEntity
  8
104
100
AcDbEllipse
  6
CONTINUOUS
 10
-1.6499805E+001
 20
-1.6511034
 11
1.4144893
 21
-1.4144893
 40
9.9980508E-001
 41
2.356292
 42
3.9268933
 62
40
  0
ELLIPSE
  5
3c7
100
AcDbEntity
  8
104
100
AcDbEllipse
  6
CONTINUOUS
 10
-1.6499805E+001
 20
-1.4265071E+002
 11
-1.4144893
 21
-1.4144893
 40
9.9980508E-001
 41
5.4978846
 42
7.068486
 62
40
  0
POLYLINE
  5
3c8
100
AcDbEntity
  8
104
100
AcDb2dPolyline
  6
CONTINUOUS
 62
40
 66
1
 40
0.0
 41
0.0
 70
2
  0
VERTEX
  5
3c9
100
AcDbEntity
  8
104
100
AcDbVertex
100
AcDb2dVertex
 42
0.0
 10
1.8562516E+001
 20
-4.4834508E+001
 70
0
  0
VERTEX
  5
3ca
100
AcDbEntity
  8
104
100
AcDbVertex
100
AcDb2dVertex
 42
0.0
 10
1.8562593E+001
 20
-4.4834655E+001
 70
1
  0
VERTEX
  5
3cb
100
AcDbEntity
  8
104
100
AcDbVertex
100
AcDb2dVertex
 42
0.0
 10
1.8562671E+001
 20
-4.4834802E+001
 70
0
  0
VERTEX
  5
3cc
100
AcDbEntity
  8
104
100
AcDbVertex
100
AcDb2dVertex
 42
0.0
 10
1.8562748E+001
 20
-4.483495E+001
 70
1
  0
VERTEX
  5
3cd
100
AcDbEntity
  8
104
100
AcDbVertex
100
AcDb2dVertex
 42
-1.0
 10
1.8562825E+001
 20
-4.4835097E+001
 70
0
  0
VERTEX
  5
3ce
100
AcDbEntity
  8
104
100
AcDbVertex
100
AcDb2dVertex
 42
0.0
 10
1.8562903E+001
 20
-4.4835245E+001
 70
1
  0
VERTEX
  5
3cf
100
AcDbEntity
  8
104
100
AcDbVertex
100
AcDb2dVertex
 42
0.0
 10
1.856298E+001
 20
-4.4835392E+001
 70
0
  0
VERTEX
  5
3d0
100
AcDbEntity
  8
104
100
AcDbVertex
100
AcDb2dVertex
 42
0.0
 10
1.8563057E+001
 20
-4.483554E+001
 70
1
  0
VERTEX
  5
3d1
100
AcDbEntity
  8
104
100
AcDbVertex
100
AcDb2dVertex
 42
0.0
 10
1.8563135E+001
 20
-4.4835687E+001
 70
0
  0
VERTEX
  5
3d2
100
AcDbEntity
  8
104
100
AcDbVertex
100
AcDb2dVertex
 42
0.0
 10
1.8563212E+001
 20
-4.4835835E+001
 70
1
  0
VERTEX
  5
3d3
100
AcDbEntity
  8
104
100
AcDbVertex
100
AcDb2dVertex
 42
0.0
 10
1.8563289E+001
 20
-4.4835982E+001
 70
0
  0
VERTEX
  5
3d4
100
AcDbEntity
  8
104
100
AcDbVertex
100
AcDb2dVertex
 42
0.0
 10
1.8563366E+001
 20
-4.4836128E+001
 70
1
  0
VERTEX
  5
3d5
100
AcDbEntity
  8
104
100
AcDbVertex
100
AcDb2dVertex
 42
0.0
 10
1.8563444E+001
 20
-4.4836277E+001
 70
0
  0
VERTEX
  5
3d6
100
AcDbEntity
  8
104
100
AcDbVertex
100
AcDb2dVertex
 42
0.0
 10
1.8563524E+001
 20
-4.4836429E+001
 70
1
  0
VERTEX
  5
3d7
100
AcDbEntity
  8
104
100
AcDbVertex
100
AcDb2dVertex
 42
0.0
 10
1.8563598E+001
 20
-4.4836572E+001
 70
0
  0
VERTEX
  5
3d8
100
AcDbEntity
  8
104
100
AcDbVertex
100
AcDb2dVertex
 42
0.0
 10
1.8563666E+001
 20
-4.4836701E+001
 70
1
  0
VERTEX
  5
3d9
100
AcDbEntity
  8
104
100
AcDbVertex
100
AcDb2dVertex
 42
0.0
 10
1.8563753E+001
 20
-4.4836866E+001
 70
0
  0
VERTEX
  5
3da
100
AcDbEntity
  8
104
100
AcDbVertex
100
AcDb2dVertex
 42
0.0
 10
1.8563887E+001
 20
-4.4837122E+001
 70
1
  0
VERTEX
  5
3db
100
AcDbEntity
  8
104
100
AcDbVertex
100
AcDb2dVertex
 42
0.0
 10
1.8564062E+001
 20
-4.4837456E+001
 70
0
  0
SEQEND
  5
3dc
100
AcDbEntity
  0
SPLINE
  5
3dd
100
AcDbEntity
  8
104
100
AcDbSpline
  6
CONTINUOUS
 62
40
210
0.0
220
0.0
230
0.0
 70
0
 71
3
 72
12
 73
8
 74
0
 42
1.0E-007
 43
1.0E-007
 44
0.0
 40
0.0
 40
0.0
 40
0.0
 40
0.0
 40
2.3430294E-001
 40
4.6860668E-001
 40
7.0943286E-001
 40
9.5025997E-001
 40
1.0
 40
1.0
 40
1.0
 40
1.0
 10
1.8564062E+001
 20
-4.4837456E+001
 30
0.0
 10
1.8522952E+001
 20
-4.476682E+001
 30
0.0
 10
1.844073E+001
 20
-4.4625548E+001
 30
0.0
 10
1.8338533E+001
 20
-4.4399799E+001
 30
0.0
 10
1.8254388E+001
 20
-4.4164694E+001
 30
0.0
 10
1.8203976E+001
 20
-4.398598E+001
 30
0.0
 10
1.8185023E+001
 20
-4.3886457E+001
 30
0.0
 10
1.8181778E+001
 20
-4.3869421E+001
 30
0.0
  0
SPLINE
  5
3de
100
AcDbEntity
  8
104
100
AcDbSpline
  6
CONTINUOUS
 62
40
210
0.0
220
0.0
230
0.0
 70
0
 71
3
 72
13
 73
9
 74
0
 42
1.0E-007
 43
1.0E-007
 44
0.0
 40
0.0
 40
0.0
 40
0.0
 40
0.0
 40
1.5149546E-001
 40
3.8661422E-001
 40
5.3903404E-001
 40
6.9145401E-001
 40
8.4572735E-001
 40
1.0
 40
1.0
 40
1.0
 40
1.0
 10
1.8177191E+001
 20
-1.0046268E+002
 30
0.0
 10
1.8187525E+001
 20
-1.0040928E+002
 30
0.0
 10
1.8213898E+001
 20
-1.00273E+002
 30
0.0
 10
1.8271156E+001
 20
-1.0008778E+002
 30
0.0
 10
1.8338776E+001
 20
-9.9906153E+001
 30
0.0
 10
1.8405155E+001
 20
-9.9755264E+001
 30
0.0
 10
1.8479367E+001
 20
-9.9607284E+001
 30
0.0
 10
1.853583E+001
 20
-9.9512002E+001
 30
0.0
 10
1.8564062E+001
 20
-9.9464361E+001
 30
0.0
  0
SPLINE
  5
3df
100
AcDbEntity
  8
104
100
AcDbSpline
  6
CONTINUOUS
 62
1
210
0.0
220
0.0
230
0.0
 70
0
 71
3
 72
14
 73
10
 74
0
 42
1.0E-007
 43
1.0E-007
 44
0.0
 40
0.0
 40
0.0
 40
0.0
 40
0.0
 40
1.25E-001
 40
1.25E-001
 40
2.5E-001
 40
2.5E-001
 40
5.0E-001
 40
5.0E-001
 40
1.0
 40
1.0
 40
1.0
 40
1.0
 10
-1.4702251E+001
 20
-8.5847145E+001
 30
0.0
 10
-1.4705264E+001
 20
-8.6032682E+001
 30
0.0
 10
-1.4682556E+001
 20
-8.6217253E+001
 30
0.0
 10
-1.4600221E+001
 20
-8.6579874E+001
 30
0.0
 10
-1.4542125E+001
 20
-8.6756199E+001
 30
0.0
 10
-1.434154E+001
 20
-8.7276523E+001
 30
0.0
 10
-1.4177291E+001
 20
-8.7606213E+001
 30
0.0
 10
-1.3654156E+001
 20
-8.857756E+001
 30
0.0
 10
-1.3261332E+001
 20
-8.9199539E+001
 30
0.0
 10
-1.2844313E+001
 20
-8.9806695E+001
 30
0.0
  0
SPLINE
  5
3e0
100
AcDbEntity
  8
104
100
AcDbSpline
  6
CONTINUOUS
 62
1
210
0.0
220
0.0
230
0.0
 70
0
 71
3
 72
16
 73
12
 74
0
 42
1.0E-007
 43
1.0E-007
 44
0.0
 40
0.0
 40
0.0
 40
0.0
 40
0.0
 40
2.5E-001
 40
2.5E-001
 40
3.75E-001
 40
3.75E-001
 40
5.0E-001
 40
5.0E-001
 40
7.5E-001
 40
7.5E-001
 40
1.0
 40
1.0
 40
1.0
 40
1.0
 10
-1.2844313E+001
 20
-8.9806695E+001
 30
0.0
 10
-1.22557E+001
 20
-9.0342177E+001
 30
0.0
 10
-1.1606903E+001
 20
-9.0792506E+001
 30
0.0
 10
-1.0577565E+001
 20
-9.1388721E+001
 30
0.0
 10
-1.0225164E+001
 20
-9.1573365E+001
 30
0.0
 10
-9.5137785
 20
-9.1915381E+001
 30
0.0
 10
-9.1534966
 20
-9.2073489E+001
 30
0.0
 10
-8.0613188
 20
-9.2515987E+001
 30
0.0
 10
-7.3181422
 20
-9.2768697E+001
 30
0.0
 10
-5.8106229
 20
-9.3214761E+001
 30
0.0
 10
-5.0461527
 20
-9.3407757E+001
 30
0.0
 10
-4.2737272
 20
-9.3578469E+001
 30
0.0
  0
SPLINE
  5
3e1
100
AcDbEntity
  8
104
100
AcDbSpline
  6
CONTINUOUS
 62
1
210
0.0
220
0.0
230
0.0
 70
0
 71
3
 72
12
 73
8
 74
0
 42
1.0E-007
 43
1.0E-007
 44
0.0
 40
0.0
 40
0.0
 40
0.0
 40
0.0
 40
2.5E-001
 40
2.5E-001
 40
5.0E-001
 40
5.0E-001
 40
1.0
 40
1.0
 40
1.0
 40
1.0
 10
-4.2734821
 20
-9.3577387E+001
 30
0.0
 10
-2.8625929
 20
-9.3888285E+001
 30
0.0
 10
-1.4454994
 20
-9.4152703E+001
 30
0.0
 10
1.3973686
 20
-9.4616616E+001
 30
0.0
 10
2.8231563
 20
-9.4816008E+001
 30
0.0
 10
7.1098624
 20
-9.5344399E+001
 30
0.0
 10
9.9798979
 20
-9.5605301E+001
 30
0.0
 10
1.2856747E+001
 20
-9.5815411E+001
 30
0.0
  0
SPLINE
  5
3e2
100
AcDbEntity
  8
104
100
AcDbSpline
  6
CONTINUOUS
 62
1
210
0.0
220
0.0
230
0.0
 70
0
 71
3
 72
30
 73
26
 74
0
 42
1.0E-007
 43
1.0E-007
 44
0.0
 40
0.0
 40
0.0
 40
0.0
 40
0.0
 40
3.125E-002
 40
3.125E-002
 40
6.25E-002
 40
6.25E-002
 40
1.25E-001
 40
1.25E-001
 40
2.5E-001
 40
2.5E-001
 40
3.75E-001
 40
3.75E-001
 40
5.0E-001
 40
5.0E-001
 40
6.25E-001
 40
6.25E-001
 40
7.5E-001
 40
7.5E-001
 40
8.75E-001
 40
8.75E-001
 40
9.375E-001
 40
9.375E-001
 40
9.6875E-001
 40
9.6875E-001
 40
1.0
 40
1.0
 40
1.0
 40
1.0
 10
1.2856435E+001
 20
-9.5816463E+001
 30
0.0
 10
1.2946441E+001
 20
-9.5827097E+001
 30
0.0
 10
1.3038938E+001
 20
-9.5839247E+001
 30
0.0
 10
1.3219202E+001
 20
-9.5865312E+001
 30
0.0
 10
1.33086E+001
 20
-9.5879419E+001
 30
0.0
 10
1.3574671E+001
 20
-9.5924833E+001
 30
0.0
 10
1.3749226E+001
 20
-9.5959225E+001
 30
0.0
 10
1.4264802E+001
 20
-9.6074075E+001
 30
0.0
 10
1.460078E+001
 20
-9.6167413E+001
 30
0.0
 10
1.5221739E+001
 20
-9.6373562E+001
 30
0.0
 10
1.5510498E+001
 20
-9.648693E+001
 30
0.0
 10
1.6048171E+001
 20
-9.6731983E+001
 30
0.0
 10
1.6291112E+001
 20
-9.6861079E+001
 30
0.0
 10
1.6725802E+001
 20
-9.7127458E+001
 30
0.0
 10
1.6919732E+001
 20
-9.7266308E+001
 30
0.0
 10
1.7253411E+001
 20
-9.7547181E+001
 30
0.0
 10
1.739281E+001
 20
-9.7688482E+001
 30
0.0
 10
1.7619953E+001
 20
-9.7972514E+001
 30
0.0
 10
1.7707913E+001
 20
-9.8116141E+001
 30
0.0
 10
1.7798004E+001
 20
-9.8328176E+001
 30
0.0
 10
1.7821168E+001
 20
-9.8398356E+001
 30
0.0
 10
1.7845608E+001
 20
-9.8502891E+001
 30
0.0
 10
1.7852035E+001
 20
-9.8537614E+001
 30
0.0
 10
1.7861415E+001
 20
-9.8606815E+001
 30
0.0
 10
1.7864385E+001
 20
-9.8641747E+001
 30
0.0
 10
1.7865559E+001
 20
-9.8675651E+001
 30
0.0
  0
LINE
  5
3e3
100
AcDbEntity
  8
104
100
AcDbLine
  6
CONTINUOUS
 62
40
 10
-2.2926E+001
 20
-5.9150908E+001
 11
-3.4E+001
 21
-5.9150908E+001
  0
LINE
  5
3e4
100
AcDbEntity
  8
104
100
AcDbLine
  6
CONTINUOUS
 62
40
 10
-2.2926E+001
 20
-6.5150908E+001
 11
-2.45E+001
 21
-6.5150908E+001
  0
LINE
  5
3e5
100
AcDbEntity
  8
104
100
AcDbLine
  6
CONTINUOUS
 62
40
 10
-2.2926E+001
 20
-7.9150908E+001
 11
-2.45E+001
 21
-7.9150908E+001
  0
LINE
  5
3e6
100
AcDbEntity
  8
104
100
AcDbLine
  6
CONTINUOUS
 62
40
 10
-2.2926E+001
 20
-8.5150908E+001
 11
-3.4E+001
 21
-8.5150908E+001
  0
CIRCLE
  5
3e7
100
AcDbEntity
  8
106
100
AcDbCircle
  6
CENTERLINE
 62
1
 10
9.2499998
 20
-1.565091E+001
 40
3.0
  0
CIRCLE
  5
3e8
100
AcDbEntity
  8
106
100
AcDbCircle
  6
CENTERLINE
 62
1
 10
-9.2500002
 20
-1.565091E+001
 40
3.0
  0
CIRCLE
  5
3e9
100
AcDbEntity
  8
106
100
AcDbCircle
  6
CENTERLINE
 62
1
 10
9.2499998
 20
-1.2865091E+002
 40
3.0
  0
CIRCLE
  5
3ea
100
AcDbEntity
  8
106
100
AcDbCircle
  6
CENTERLINE
 62
1
 10
-9.2500002
 20
-1.2865091E+002
 40
3.0
  0
LINE
  5
3eb
100
AcDbEntity
  8
106
100
AcDbLine
  6
CONTINUOUS
 62
1
 10
9.2499998
 20
-1.565091E+001
 11
9.2499998
 21
-1.565091E+001
  0
LINE
  5
3ec
100
AcDbEntity
  8
106
100
AcDbLine
  6
CONTINUOUS
 62
1
 10
9.2499998
 20
-1.565091E+001
 11
9.2499998
 21
-1.565091E+001
  0
LINE
  5
3ed
100
AcDbEntity
  8
106
100
AcDbLine
  6
CENTERLINE
 62
1
 10
9.2499998
 20
-1.565091E+001
 11
1.425E+001
 21
-1.565091E+001
  0
LINE
  5
3ee
100
AcDbEntity
  8
106
100
AcDbLine
  6
CENTERLINE
 62
1
 10
9.2499998
 20
-1.565091E+001
 11
9.2499998
 21
-1.065091E+001
  0
LINE
  5
3ef
100
AcDbEntity
  8
106
100
AcDbLine
  6
CENTERLINE
 62
1
 10
9.2499998
 20
-1.565091E+001
 11
4.2499998
 21
-1.565091E+001
  0
LINE
  5
3f0
100
AcDbEntity
  8
106
100
AcDbLine
  6
CENTERLINE
 62
1
 10
9.2499998
 20
-1.565091E+001
 11
9.2499998
 21
-2.065091E+001
  0
LINE
  5
3f1
100
AcDbEntity
  8
106
100
AcDbLine
  6
CONTINUOUS
 62
1
 10
-9.2500002
 20
-1.565091E+001
 11
-9.2500002
 21
-1.565091E+001
  0
LINE
  5
3f2
100
AcDbEntity
  8
106
100
AcDbLine
  6
CONTINUOUS
 62
1
 10
-9.2500002
 20
-1.565091E+001
 11
-9.2500002
 21
-1.565091E+001
  0
LINE
  5
3f3
100
AcDbEntity
  8
106
100
AcDbLine
  6
CENTERLINE
 62
1
 10
-9.2500002
 20
-1.565091E+001
 11
-4.2500002
 21
-1.565091E+001
  0
LINE
  5
3f4
100
AcDbEntity
  8
106
100
AcDbLine
  6
CENTERLINE
 62
1
 10
-9.2500002
 20
-1.565091E+001
 11
-9.2500002
 21
-1.065091E+001
  0
LINE
  5
3f5
100
AcDbEntity
  8
106
100
AcDbLine
  6
CENTERLINE
 62
1
 10
-9.2500002
 20
-1.565091E+001
 11
-1.425E+001
 21
-1.565091E+001
  0
LINE
  5
3f6
100
AcDbEntity
  8
106
100
AcDbLine
  6
CENTERLINE
 62
1
 10
-9.2500002
 20
-1.565091E+001
 11
-9.2500002
 21
-2.065091E+001
  0
LINE
  5
3f7
100
AcDbEntity
  8
106
100
AcDbLine
  6
CONTINUOUS
 62
1
 10
9.2499998
 20
-1.2865091E+002
 11
9.2499998
 21
-1.2865091E+002
  0
LINE
  5
3f8
100
AcDbEntity
  8
106
100
AcDbLine
  6
CONTINUOUS
 62
1
 10
9.2499998
 20
-1.2865091E+002
 11
9.2499998
 21
-1.2865091E+002
  0
LINE
  5
3f9
100
AcDbEntity
  8
106
100
AcDbLine
  6
CENTERLINE
 62
1
 10
9.2499998
 20
-1.2865091E+002
 11
1.425E+001
 21
-1.2865091E+002
  0
LINE
  5
3fa
100
AcDbEntity
  8
106
100
AcDbLine
  6
CENTERLINE
 62
1
 10
9.2499998
 20
-1.2865091E+002
 11
9.2499998
 21
-1.2365091E+002
  0
LINE
  5
3fb
100
AcDbEntity
  8
106
100
AcDbLine
  6
CENTERLINE
 62
1
 10
9.2499998
 20
-1.2865091E+002
 11
4.2499998
 21
-1.2865091E+002
  0
LINE
  5
3fc
100
AcDbEntity
  8
106
100
AcDbLine
  6
CENTERLINE
 62
1
 10
9.2499998
 20
-1.2865091E+002
 11
9.2499998
 21
-1.3365091E+002
  0
LINE
  5
3fd
100
AcDbEntity
  8
106
100
AcDbLine
  6
CONTINUOUS
 62
1
 10
-9.2500002
 20
-1.2865091E+002
 11
-9.2500002
 21
-1.2865091E+002
  0
LINE
  5
3fe
100
AcDbEntity
  8
106
100
AcDbLine
  6
CONTINUOUS
 62
1
 10
-9.2500002
 20
-1.2865091E+002
 11
-9.2500002
 21
-1.2865091E+002
  0
LINE
  5
3ff
100
AcDbEntity
  8
106
100
AcDbLine
  6
CENTERLINE
 62
1
 10
-9.2500002
 20
-1.2865091E+002
 11
-4.2500002
 21
-1.2865091E+002
  0
LINE
  5
400
100
AcDbEntity
  8
106
100
AcDbLine
  6
CENTERLINE
 62
1
 10
-9.2500002
 20
-1.2865091E+002
 11
-9.2500002
 21
-1.2365091E+002
  0
LINE
  5
401
100
AcDbEntity
  8
106
100
AcDbLine
  6
CENTERLINE
 62
1
 10
-9.2500002
 20
-1.2865091E+002
 11
-1.425E+001
 21
-1.2865091E+002
  0
LINE
  5
402
100
AcDbEntity
  8
106
100
AcDbLine
  6
CENTERLINE
 62
1
 10
-9.2500002
 20
-1.2865091E+002
 11
-9.2500002
 21
-1.3365091E+002
  0
LINE
  5
403
100
AcDbEntity
  8
104
100
AcDbLine
  6
CONTINUOUS
 62
40
 10
-2.2931061E+001
 20
-7.2150952E+001
 11
-1.8917696E+001
 21
-7.2150908E+001
  0
LINE
  5
404
100
AcDbEntity
  8
104
100
AcDbLine
  6
CONTINUOUS
 62
40
 10
1.85E+001
 20
-4.2150908E+001
 11
1.2106934E+002
 21
-4.2150908E+001
  0
LINE
  5
405
100
AcDbEntity
  8
104
100
AcDbLine
  6
CONTINUOUS
 62
40
 10
4.6705723E+001
 20
-4.6326628E+001
 11
1.2106934E+002
 21
-4.6326628E+001
  0
LINE
  5
406
100
AcDbEntity
  8
104
100
AcDbLine
  6
CONTINUOUS
 62
40
 10
4.6705723E+001
 20
-9.7975189E+001
 11
1.2106934E+002
 21
-9.7975189E+001
  0
LINE
  5
407
100
AcDbEntity
  8
104
100
AcDbLine
  6
CONTINUOUS
 62
1
 10
4.7099508E+001
 20
-8.5960959E+001
 11
1.2106934E+002
 21
-8.5960959E+001
  0
LINE
  5
408
100
AcDbEntity
  8
104
100
AcDbLine
  6
CONTINUOUS
 62
1
 10
4.7099508E+001
 20
-5.8340671E+001
 11
1.2106934E+002
 21
-5.8340671E+001
  0
LINE
  5
409
100
AcDbEntity
  8
106
100
AcDbLine
  6
CENTERLINE
 62
1
 10
1.2106934E+002
 20
-2.9096476E+001
 11
1.2106934E+002
 21
-1.0991703E+002
  0
POINT
  5
40a
100
AcDbEntity
  8
Drafting_Hidden_Entities
100
AcDbPoint
  6
CONTINUOUS
 62
1
 10
0.0
 20
0.0
  0
ENDBLK
  5
40b
100
AcDbEntity
100
AcDbBlockEnd
  0
BLOCK
  5
40c
100
AcDbEntity
100
AcDbBlockBegin
  2
BBNM
 10
0.0
 20
0.0
 70
0
  0
LINE
  5
40d
100
AcDbEntity
  8
1
100
AcDbLine
  6
CONTINUOUS
 62
40
 10
-1.4981496E+001
 20
-7.25E+001
 11
1.8018504E+001
 21
-7.25E+001
  0
LINE
  5
40e
100
AcDbEntity
  8
1
100
AcDbLine
  6
CONTINUOUS
 62
40
 10
2.0018504E+001
 20
-7.05E+001
 11
2.0018504E+001
 21
7.05E+001
  0
LINE
  5
40f
100
AcDbEntity
  8
1
100
AcDbLine
  6
CONTINUOUS
 62
40
 10
1.8018504E+001
 20
7.25E+001
 11
-1.4981496E+001
 21
7.25E+001
  0
LINE
  5
410
100
AcDbEntity
  8
1
100
AcDbLine
  6
CONTINUOUS
 62
40
 10
-1.6981496E+001
 20
7.05E+001
 11
-1.6981496E+001
 21
-7.05E+001
  0
ARC
  5
411
100
AcDbEntity
  8
1
100
AcDbCircle
  6
CONTINUOUS
 62
40
 10
1.8018504E+001
 20
7.05E+001
 40
2.0
100
AcDbArc
 50
0.0
 51
9.0E+001
  0
ARC
  5
412
100
AcDbEntity
  8
1
100
AcDbCircle
  6
CONTINUOUS
 62
40
 10
-1.4981496E+001
 20
7.05E+001
 40
2.0
100
AcDbArc
 50
9.0E+001
 51
1.8E+002
  0
ARC
  5
413
100
AcDbEntity
  8
1
100
AcDbCircle
  6
CONTINUOUS
 62
40
 10
-1.4981496E+001
 20
-7.05E+001
 40
2.0
100
AcDbArc
 50
1.8E+002
 51
2.7E+002
  0
ARC
  5
414
100
AcDbEntity
  8
1
100
AcDbCircle
  6
CONTINUOUS
 62
40
 10
1.8018504E+001
 20
-7.05E+001
 40
2.0
100
AcDbArc
 50
2.7E+002
 51
3.6E+002
  0
SPLINE
  5
415
100
AcDbEntity
  8
1
100
AcDbSpline
  6
CONTINUOUS
 62
1
210
0.0
220
0.0
230
0.0
 70
0
 71
3
 72
46
 73
42
 74
0
 42
1.0E-007
 43
1.0E-007
 44
0.0
 40
0.0
 40
0.0
 40
0.0
 40
0.0
 40
7.9043328E-003
 40
1.5819102E-002
 40
2.3744316E-002
 40
3.167998E-002
 40
3.9626103E-002
 40
4.758269E-002
 40
5.554975E-002
 40
6.3527289E-002
 40
7.1515314E-002
 40
7.9513832E-002
 40
8.7522849E-002
 40
9.5542374E-002
 40
1.0357241E-001
 40
1.1161297E-001
 40
1.1966406E-001
 40
1.4564741E-001
 40
1.7544249E-001
 40
2.0904925E-001
 40
2.4646759E-001
 40
3.270416E-001
 40
3.7324049E-001
 40
4.4067147E-001
 40
5.0000053E-001
 40
5.5932813E-001
 40
6.2676057E-001
 40
6.7295929E-001
 40
7.5353347E-001
 40
7.9095086E-001
 40
8.245573E-001
 40
8.543527E-001
 40
8.8033701E-001
 40
8.9542379E-001
 40
9.1047365E-001
 40
9.2548663E-001
 40
9.4046278E-001
 40
9.5540215E-001
 40
9.7030478E-001
 40
9.8517071E-001
 40
1.0
 40
1.0
 40
1.0
 40
1.0
 10
-1.1371314E+001
 20
7.1163163E+001
 30
0.0
 10
-1.1369391E+001
 20
7.0829791E+001
 30
0.0
 10
-1.1365543E+001
 20
7.0162606E+001
 30
0.0
 10
-1.1361202E+001
 20
6.9153797E+001
 30
0.0
 10
-1.1357903E+001
 20
6.813835E+001
 30
0.0
 10
-1.1355749E+001
 20
6.7115793E+001
 30
0.0
 10
-1.1354712E+001
 20
6.6086332E+001
 30
0.0
 10
-1.13548E+001
 20
6.5049992E+001
 30
0.0
 10
-1.135601E+001
 20
6.4006848E+001
 30
0.0
 10
-1.1358344E+001
 20
6.2956963E+001
 30
0.0
 10
-1.1361802E+001
 20
6.1900406E+001
 30
0.0
 10
-1.1366382E+001
 20
6.0837244E+001
 30
0.0
 10
-1.1372086E+001
 20
5.9767547E+001
 30
0.0
 10
-1.1378913E+001
 20
5.8691386E+001
 30
0.0
 10
-1.1386864E+001
 20
5.7608832E+001
 30
0.0
 10
-1.1395935E+001
 20
5.6519956E+001
 30
0.0
 10
-1.1413709E+001
 20
5.4612265E+001
 30
0.0
 10
-1.1446689E+001
 20
5.1691637E+001
 30
0.0
 10
-1.1501739E+001
 20
4.754498E+001
 30
0.0
 10
-1.1571352E+001
 20
4.2800665E+001
 30
0.0
 10
-1.1686903E+001
 20
3.5565978E+001
 30
0.0
 10
-1.1814632E+001
 20
2.7564885E+001
 30
0.0
 10
-1.1957112E+001
 20
1.796731E+001
 30
0.0
 10
-1.2045053E+001
 20
9.3338329
 30
0.0
 10
-1.2085348E+001
 20
7.36201E-005
 30
0.0
 10
-1.2045054E+001
 20
-9.333759
 30
0.0
 10
-1.1957113E+001
 20
-1.7967229E+001
 30
0.0
 10
-1.1814633E+001
 20
-2.7564876E+001
 30
0.0
 10
-1.1686903E+001
 20
-3.5565923E+001
 30
0.0
 10
-1.1571353E+001
 20
-4.2800559E+001
 30
0.0
 10
-1.150174E+001
 20
-4.7544829E+001
 30
0.0
 10
-1.1446693E+001
 20
-5.169154E+001
 30
0.0
 10
-1.1410067E+001
 20
-5.4934135E+001
 30
0.0
 10
-1.1387475E+001
 20
-5.7473892E+001
 30
0.0
 10
-1.1373228E+001
 20
-5.9499991E+001
 30
0.0
 10
-1.1362922E+001
 20
-6.1503436E+001
 30
0.0
 10
-1.1356573E+001
 20
-6.3483735E+001
 30
0.0
 10
-1.1354151E+001
 20
-6.5440572E+001
 30
0.0
 10
-1.1355756E+001
 20
-6.7373004E+001
 30
0.0
 10
-1.1361022E+001
 20
-6.9282498E+001
 30
0.0
 10
-1.1367886E+001
 20
-7.0536791E+001
 30
0.0
 10
-1.1371314E+001
 20
-7.1163163E+001
 30
0.0
  0
SPLINE
  5
416
100
AcDbEntity
  8
1
100
AcDbSpline
  6
CONTINUOUS
 62
1
210
0.0
220
0.0
230
0.0
 70
0
 71
3
 72
46
 73
42
 74
0
 42
1.0E-007
 43
1.0E-007
 44
0.0
 40
0.0
 40
0.0
 40
0.0
 40
0.0
 40
7.9043328E-003
 40
1.5819102E-002
 40
2.3744316E-002
 40
3.167998E-002
 40
3.9626103E-002
 40
4.758269E-002
 40
5.554975E-002
 40
6.3527289E-002
 40
7.1515314E-002
 40
7.9513832E-002
 40
8.7522849E-002
 40
9.5542374E-002
 40
1.0357241E-001
 40
1.1161297E-001
 40
1.1966406E-001
 40
1.4564741E-001
 40
1.7544249E-001
 40
2.0904925E-001
 40
2.4646759E-001
 40
3.270416E-001
 40
3.7324049E-001
 40
4.4067147E-001
 40
5.0000053E-001
 40
5.5932813E-001
 40
6.2676057E-001
 40
6.7295929E-001
 40
7.5353347E-001
 40
7.9095086E-001
 40
8.245573E-001
 40
8.543527E-001
 40
8.8033701E-001
 40
8.9542379E-001
 40
9.1047365E-001
 40
9.2548663E-001
 40
9.4046278E-001
 40
9.5540215E-001
 40
9.7030478E-001
 40
9.8517071E-001
 40
1.0
 40
1.0
 40
1.0
 40
1.0
 10
1.4857105E+001
 20
-7.1163163E+001
 30
0.0
 10
1.4855182E+001
 20
-7.0829791E+001
 30
0.0
 10
1.4851334E+001
 20
-7.0162606E+001
 30
0.0
 10
1.4846993E+001
 20
-6.9153797E+001
 30
0.0
 10
1.4843694E+001
 20
-6.813835E+001
 30
0.0
 10
1.4841539E+001
 20
-6.7115793E+001
 30
0.0
 10
1.4840502E+001
 20
-6.6086332E+001
 30
0.0
 10
1.484059E+001
 20
-6.5049992E+001
 30
0.0
 10
1.4841801E+001
 20
-6.4006848E+001
 30
0.0
 10
1.4844135E+001
 20
-6.2956963E+001
 30
0.0
 10
1.4847592E+001
 20
-6.1900406E+001
 30
0.0
 10
1.4852173E+001
 20
-6.0837244E+001
 30
0.0
 10
1.4857877E+001
 20
-5.9767547E+001
 30
0.0
 10
1.4864704E+001
 20
-5.8691386E+001
 30
0.0
 10
1.4872654E+001
 20
-5.7608832E+001
 30
0.0
 10
1.4881726E+001
 20
-5.6519956E+001
 30
0.0
 10
1.48995E+001
 20
-5.4612265E+001
 30
0.0
 10
1.493248E+001
 20
-5.1691637E+001
 30
0.0
 10
1.498753E+001
 20
-4.754498E+001
 30
0.0
 10
1.5057142E+001
 20
-4.2800665E+001
 30
0.0
 10
1.5172694E+001
 20
-3.5565978E+001
 30
0.0
 10
1.5300423E+001
 20
-2.7564885E+001
 30
0.0
 10
1.5442903E+001
 20
-1.796731E+001
 30
0.0
 10
1.5530843E+001
 20
-9.3338329
 30
0.0
 10
1.5571139E+001
 20
-7.36213E-005
 30
0.0
 10
1.5530844E+001
 20
9.333759
 30
0.0
 10
1.5442904E+001
 20
1.7967229E+001
 30
0.0
 10
1.5300423E+001
 20
2.7564876E+001
 30
0.0
 10
1.5172694E+001
 20
3.5565923E+001
 30
0.0
 10
1.5057144E+001
 20
4.2800559E+001
 30
0.0
 10
1.4987531E+001
 20
4.7544829E+001
 30
0.0
 10
1.4932484E+001
 20
5.169154E+001
 30
0.0
 10
1.4895858E+001
 20
5.4934135E+001
 30
0.0
 10
1.4873266E+001
 20
5.7473892E+001
 30
0.0
 10
1.4859019E+001
 20
5.9499991E+001
 30
0.0
 10
1.4848713E+001
 20
6.1503436E+001
 30
0.0
 10
1.4842364E+001
 20
6.3483735E+001
 30
0.0
 10
1.4839942E+001
 20
6.5440572E+001
 30
0.0
 10
1.4841546E+001
 20
6.7373004E+001
 30
0.0
 10
1.4846812E+001
 20
6.9282498E+001
 30
0.0
 10
1.4853677E+001
 20
7.0536791E+001
 30
0.0
 10
1.4857105E+001
 20
7.1163163E+001
 30
0.0
  0
LINE
  5
417
100
AcDbEntity
  8
1
100
AcDbLine
  6
CENTERLINE
 62
1
 10
-1.3345138E+001
 20
5.65E+001
 11
-3.1685621
 21
5.65E+001
  0
LINE
  5
418
100
AcDbEntity
  8
1
100
AcDbLine
  6
CENTERLINE
 62
1
 10
-7.731496
 20
4.919713E+001
 11
-7.731496
 21
6.4094515E+001
  0
CIRCLE
  5
419
100
AcDbEntity
  8
1
100
AcDbCircle
  6
CONTINUOUS
 62
1
 10
-7.731496
 20
5.65E+001
 40
2.25
  0
LINE
  5
41a
100
AcDbEntity
  8
1
100
AcDbLine
  6
CENTERLINE
 62
1
 10
1.0768504E+001
 20
4.919713E+001
 11
1.0768504E+001
 21
6.4094515E+001
  0
LINE
  5
41b
100
AcDbEntity
  8
1
100
AcDbLine
  6
CENTERLINE
 62
1
 10
6.0677132
 20
5.65E+001
 11
1.7018504E+001
 21
5.65E+001
  0
CIRCLE
  5
41c
100
AcDbEntity
  8
1
100
AcDbCircle
  6
CONTINUOUS
 62
1
 10
1.0768504E+001
 20
5.65E+001
 40
2.25
  0
LINE
  5
41d
100
AcDbEntity
  8
1
100
AcDbLine
  6
CENTERLINE
 62
1
 10
-7.731496
 20
-6.2741643E+001
 11
-7.731496
 21
-5.0089594E+001
  0
LINE
  5
41e
100
AcDbEntity
  8
1
100
AcDbLine
  6
CENTERLINE
 62
1
 10
-1.3345138E+001
 20
-5.65E+001
 11
-3.5525849
 21
-5.65E+001
  0
CIRCLE
  5
41f
100
AcDbEntity
  8
1
100
AcDbCircle
  6
CONTINUOUS
 62
1
 10
-7.731496
 20
-5.65E+001
 40
2.25
  0
LINE
  5
420
100
AcDbEntity
  8
1
100
AcDbLine
  6
CENTERLINE
 62
1
 10
1.0768504E+001
 20
-5.0089594E+001
 11
1.0768504E+001
 21
-6.2741643E+001
  0
LINE
  5
421
100
AcDbEntity
  8
1
100
AcDbLine
  6
CENTERLINE
 62
1
 10
6.030032
 20
-5.65E+001
 11
1.7018504E+001
 21
-5.65E+001
  0
CIRCLE
  5
422
100
AcDbEntity
  8
1
100
AcDbCircle
  6
CONTINUOUS
 62
1
 10
1.0768504E+001
 20
-5.65E+001
 40
2.25
  0
LINE
  5
423
100
AcDbEntity
  8
1
100
AcDbLine
  6
CONTINUOUS
 62
40
 10
-1.6981496E+001
 20
1.3E+001
 11
-3.1981496E+001
 21
1.3E+001
  0
LINE
  5
424
100
AcDbEntity
  8
1
100
AcDbLine
  6
CONTINUOUS
 62
40
 10
-3.1981496E+001
 20
-1.3E+001
 11
-1.6981496E+001
 21
-1.3E+001
  0
LINE
  5
425
100
AcDbEntity
  8
1
100
AcDbLine
  6
CONTINUOUS
 62
40
 10
-3.1981496E+001
 20
1.3E+001
 11
-3.1981496E+001
 21
-1.3E+001
  0
POINT
  5
426
100
AcDbEntity
  8
Drafting_Hidden_Entities
100
AcDbPoint
  6
CONTINUOUS
 62
1
 10
0.0
 20
0.0
  0
ENDBLK
  5
427
100
AcDbEntity
100
AcDbBlockEnd
  0
BLOCK
  5
428
100
AcDbEntity
100
AcDbBlockBegin
  2
HH
 10
0.0
 20
0.0
 70
0
  0
LINE
  5
429
100
AcDbEntity
  8
1
100
AcDbLine
  6
CONTINUOUS
 62
40
 10
6.0825379
 20
2.1250001E+001
 11
4.8669049
 21
2.1250001E+001
  0
ARC
  5
42a
100
AcDbEntity
  8
1
100
AcDbCircle
  6
CONTINUOUS
 62
40
 10
6.0825375
 20
2.095E+001
 40
3.0E-001
100
AcDbArc
 50
1.3271027E+001
 51
9.0E+001
  0
ARC
  5
42b
100
AcDbEntity
  8
1
100
AcDbCircle
  6
CONTINUOUS
 62
40
 10
4.8669048
 20
2.105E+001
 40
2.0E-001
100
AcDbArc
 50
9.0E+001
 51
1.79E+002
  0
LINE
  5
42c
100
AcDbEntity
  8
1
100
AcDbLine
  6
CONTINUOUS
 62
40
 10
4.6669351
 20
2.1053491E+001
 11
4.6180006
 21
1.825E+001
  0
LINE
  5
42d
100
AcDbEntity
  8
1
100
AcDbLine
  6
CONTINUOUS
 62
40
 10
4.6180006
 20
-1.8249999E+001
 11
4.7028413
 21
-2.3110561E+001
  0
ARC
  5
42e
100
AcDbEntity
  8
1
100
AcDbCircle
  6
CONTINUOUS
 62
40
 10
-8.2742805E+001
 20
3.2E-007
 40
9.15625E+001
100
AcDbArc
 50
3.5871894E+002
 51
3.6E+002
  0
ARC
  5
42f
100
AcDbEntity
  8
1
100
AcDbCircle
  6
CONTINUOUS
 62
40
 10
-8.2742805E+001
 20
3.2E-007
 40
9.15625E+001
100
AcDbArc
 50
0.0
 51
1.3271027E+001
  0
LINE
  5
430
100
AcDbEntity
  8
1
100
AcDbLine
  6
CONTINUOUS
 62
40
 10
4.6180006
 20
1.825E+001
 11
4.418
 21
1.6000001E+001
  0
LINE
  5
431
100
AcDbEntity
  8
1
100
AcDbLine
  6
CONTINUOUS
 62
40
 10
4.418
 20
-1.6E+001
 11
4.6180006
 21
-1.8249999E+001
  0
ARC
  5
432
100
AcDbEntity
  8
1
100
AcDbCircle
  6
CONTINUOUS
 62
40
 10
1.2235141E+001
 20
-2.1563344
 40
3.4393137
100
AcDbArc
 50
1.7817956E+002
 51
1.8448053E+002
  0
LINE
  5
433
100
AcDbEntity
  8
1
100
AcDbLine
  6
CONTINUOUS
 62
40
 10
4.418
 20
1.6000001E+001
 11
4.2122224
 21
1.1286915E+001
  0
LINE
  5
434
100
AcDbEntity
  8
1
100
AcDbLine
  6
CONTINUOUS
 62
40
 10
4.2122224
 20
-1.1286914E+001
 11
4.418
 21
-1.6E+001
  0
LINE
  5
435
100
AcDbEntity
  8
1
100
AcDbLine
  6
CONTINUOUS
 62
40
 10
4.7019593
 20
-2.3110833E+001
 11
4.7090634
 21
-2.3134272E+001
  0
LINE
  5
436
100
AcDbEntity
  8
1
100
AcDbLine
  6
CONTINUOUS
 62
40
 10
4.7090634
 20
-2.3134272E+001
 11
4.802693
 21
-2.3477724E+001
  0
LINE
  5
437
100
AcDbEntity
  8
1
100
AcDbLine
  6
CONTINUOUS
 62
40
 10
4.802693
 20
-2.3477724E+001
 11
4.8925889
 21
-2.384095E+001
  0
LINE
  5
438
100
AcDbEntity
  8
1
100
AcDbLine
  6
CONTINUOUS
 62
40
 10
4.8925889
 20
-2.384095E+001
 11
4.9790613
 21
-2.4222655E+001
  0
LINE
  5
439
100
AcDbEntity
  8
1
100
AcDbLine
  6
CONTINUOUS
 62
40
 10
4.9790613
 20
-2.4222655E+001
 11
5.0769778
 21
-2.469453E+001
  0
LINE
  5
43a
100
AcDbEntity
  8
1
100
AcDbLine
  6
CONTINUOUS
 62
40
 10
5.0769778
 20
-2.469453E+001
 11
5.1709994
 21
-2.5188341E+001
  0
LINE
  5
43b
100
AcDbEntity
  8
1
100
AcDbLine
  6
CONTINUOUS
 62
40
 10
5.1709994
 20
-2.5188341E+001
 11
5.261551
 21
-2.5702184E+001
  0
LINE
  5
43c
100
AcDbEntity
  8
1
100
AcDbLine
  6
CONTINUOUS
 62
40
 10
5.261551
 20
-2.5702184E+001
 11
5.3490255
 21
-2.6234232E+001
  0
LINE
  5
43d
100
AcDbEntity
  8
1
100
AcDbLine
  6
CONTINUOUS
 62
40
 10
5.3490255
 20
-2.6234232E+001
 11
5.4496605
 21
-2.6888927E+001
  0
LINE
  5
43e
100
AcDbEntity
  8
1
100
AcDbLine
  6
CONTINUOUS
 62
40
 10
5.4496605
 20
-2.6888927E+001
 11
5.5470274
 21
-2.7564116E+001
  0
LINE
  5
43f
100
AcDbEntity
  8
1
100
AcDbLine
  6
CONTINUOUS
 62
40
 10
5.5470274
 20
-2.7564116E+001
 11
5.6416452
 21
-2.8257109E+001
  0
LINE
  5
440
100
AcDbEntity
  8
1
100
AcDbLine
  6
CONTINUOUS
 62
40
 10
5.6416452
 20
-2.8257109E+001
 11
5.7339849
 21
-2.8965357E+001
  0
LINE
  5
441
100
AcDbEntity
  8
1
100
AcDbLine
  6
CONTINUOUS
 62
40
 10
5.7339849
 20
-2.8965357E+001
 11
5.8244703
 21
-2.9686443E+001
  0
LINE
  5
442
100
AcDbEntity
  8
1
100
AcDbLine
  6
CONTINUOUS
 62
40
 10
5.8244703
 20
-2.9686443E+001
 11
5.9134805
 21
-3.041807E+001
  0
LINE
  5
443
100
AcDbEntity
  8
1
100
AcDbLine
  6
CONTINUOUS
 62
40
 10
5.9134805
 20
-3.041807E+001
 11
6.069789
 21
-3.1744025E+001
  0
LINE
  5
444
100
AcDbEntity
  8
1
100
AcDbLine
  6
CONTINUOUS
 62
40
 10
6.069789
 20
-3.1744025E+001
 11
6.2240384
 21
-3.3085286E+001
  0
LINE
  5
445
100
AcDbEntity
  8
1
100
AcDbLine
  6
CONTINUOUS
 62
40
 10
6.2240384
 20
-3.3085286E+001
 11
6.3774515
 21
-3.4431506E+001
  0
LINE
  5
446
100
AcDbEntity
  8
1
100
AcDbLine
  6
CONTINUOUS
 62
40
 10
6.3774515
 20
-3.4431506E+001
 11
6.5309064
 21
-3.5773374E+001
  0
LINE
  5
447
100
AcDbEntity
  8
1
100
AcDbLine
  6
CONTINUOUS
 62
40
 10
6.5309064
 20
-3.5773374E+001
 11
6.6849732
 21
-3.7102535E+001
  0
LINE
  5
448
100
AcDbEntity
  8
1
100
AcDbLine
  6
CONTINUOUS
 62
40
 10
6.6849732
 20
-3.7102535E+001
 11
6.8399435
 21
-3.8411531E+001
  0
LINE
  5
449
100
AcDbEntity
  8
1
100
AcDbLine
  6
CONTINUOUS
 62
40
 10
6.8399435
 20
-3.8411531E+001
 11
6.944626
 21
-3.9276492E+001
  0
LINE
  5
44a
100
AcDbEntity
  8
1
100
AcDbLine
  6
CONTINUOUS
 62
40
 10
6.944626
 20
-3.9276492E+001
 11
7.0497006
 21
-4.0127504E+001
  0
LINE
  5
44b
100
AcDbEntity
  8
1
100
AcDbLine
  6
CONTINUOUS
 62
40
 10
7.0497006
 20
-4.0127504E+001
 11
7.1550881
 21
-4.0962901E+001
  0
LINE
  5
44c
100
AcDbEntity
  8
1
100
AcDbLine
  6
CONTINUOUS
 62
40
 10
7.1550881
 20
-4.0962901E+001
 11
7.2606694
 21
-4.1781138E+001
  0
LINE
  5
44d
100
AcDbEntity
  8
1
100
AcDbLine
  6
CONTINUOUS
 62
40
 10
7.2606694
 20
-4.1781138E+001
 11
7.3662953
 21
-4.2580809E+001
  0
LINE
  5
44e
100
AcDbEntity
  8
1
100
AcDbLine
  6
CONTINUOUS
 62
40
 10
7.3662953
 20
-4.2580809E+001
 11
7.469904
 21
-4.3346878E+001
  0
LINE
  5
44f
100
AcDbEntity
  8
1
100
AcDbLine
  6
CONTINUOUS
 62
40
 10
7.469904
 20
-4.3346878E+001
 11
7.5731905
 21
-4.4092681E+001
  0
LINE
  5
450
100
AcDbEntity
  8
1
100
AcDbLine
  6
CONTINUOUS
 62
40
 10
7.5731905
 20
-4.4092681E+001
 11
7.6759386
 21
-4.4817205E+001
  0
LINE
  5
451
100
AcDbEntity
  8
1
100
AcDbLine
  6
CONTINUOUS
 62
40
 10
7.6759386
 20
-4.4817205E+001
 11
7.7796125
 21
-4.5531057E+001
  0
LINE
  5
452
100
AcDbEntity
  8
1
100
AcDbLine
  6
CONTINUOUS
 62
40
 10
7.7796125
 20
-4.5531057E+001
 11
8.0364583
 21
-4.7228209E+001
  0
LINE
  5
453
100
AcDbEntity
  8
1
100
AcDbLine
  6
CONTINUOUS
 62
40
 10
8.0364583
 20
-4.7228209E+001
 11
8.3078606
 21
-4.8917934E+001
  0
LINE
  5
454
100
AcDbEntity
  8
1
100
AcDbLine
  6
CONTINUOUS
 62
40
 10
8.3078606
 20
-4.8917934E+001
 11
8.5942609
 21
-5.0595726E+001
  0
LINE
  5
455
100
AcDbEntity
  8
1
100
AcDbLine
  6
CONTINUOUS
 62
40
 10
8.5942609
 20
-5.0595726E+001
 11
8.8232582
 21
-5.1866341E+001
  0
LINE
  5
456
100
AcDbEntity
  8
1
100
AcDbLine
  6
CONTINUOUS
 62
40
 10
8.8232582
 20
-5.1866341E+001
 11
9.0612614
 21
-5.3125892E+001
  0
LINE
  5
457
100
AcDbEntity
  8
1
100
AcDbLine
  6
CONTINUOUS
 62
40
 10
9.0612614
 20
-5.3125892E+001
 11
9.308304
 21
-5.4372802E+001
  0
LINE
  5
458
100
AcDbEntity
  8
1
100
AcDbLine
  6
CONTINUOUS
 62
40
 10
9.308304
 20
-5.4372802E+001
 11
9.5643824
 21
-5.5605609E+001
  0
LINE
  5
459
100
AcDbEntity
  8
1
100
AcDbLine
  6
CONTINUOUS
 62
40
 10
9.5643824
 20
-5.5605609E+001
 11
9.8294442
 21
-5.682297E+001
  0
LINE
  5
45a
100
AcDbEntity
  8
1
100
AcDbLine
  6
CONTINUOUS
 62
40
 10
9.8294442
 20
-5.682297E+001
 11
1.0098436E+001
 21
-5.8002356E+001
  0
LINE
  5
45b
100
AcDbEntity
  8
1
100
AcDbLine
  6
CONTINUOUS
 62
40
 10
1.0098436E+001
 20
-5.8002356E+001
 11
1.0375894E+001
 21
-5.9164561E+001
  0
LINE
  5
45c
100
AcDbEntity
  8
1
100
AcDbLine
  6
CONTINUOUS
 62
40
 10
1.0375894E+001
 20
-5.9164561E+001
 11
1.066167E+001
 21
-6.0308601E+001
  0
LINE
  5
45d
100
AcDbEntity
  8
1
100
AcDbLine
  6
CONTINUOUS
 62
40
 10
1.066167E+001
 20
-6.0308601E+001
 11
1.0955581E+001
 21
-6.1433576E+001
  0
LINE
  5
45e
100
AcDbEntity
  8
1
100
AcDbLine
  6
CONTINUOUS
 62
40
 10
1.0955581E+001
 20
-6.1433576E+001
 11
1.1263657E+001
 21
-6.256102E+001
  0
LINE
  5
45f
100
AcDbEntity
  8
1
100
AcDbLine
  6
CONTINUOUS
 62
40
 10
1.1263657E+001
 20
-6.256102E+001
 11
1.1579731E+001
 21
-6.3666992E+001
  0
LINE
  5
460
100
AcDbEntity
  8
1
100
AcDbLine
  6
CONTINUOUS
 62
40
 10
1.1579731E+001
 20
-6.3666992E+001
 11
1.1903518E+001
 21
-6.4750805E+001
  0
LINE
  5
461
100
AcDbEntity
  8
1
100
AcDbLine
  6
CONTINUOUS
 62
40
 10
1.1903518E+001
 20
-6.4750805E+001
 11
1.223471E+001
 21
-6.5811857E+001
  0
LINE
  5
462
100
AcDbEntity
  8
1
100
AcDbLine
  6
CONTINUOUS
 62
40
 10
1.223471E+001
 20
-6.5811857E+001
 11
1.2575643E+001
 21
-6.6857628E+001
  0
LINE
  5
463
100
AcDbEntity
  8
1
100
AcDbLine
  6
CONTINUOUS
 62
40
 10
1.2575643E+001
 20
-6.6857628E+001
 11
1.2929303E+001
 21
-6.7896284E+001
  0
LINE
  5
464
100
AcDbEntity
  8
1
100
AcDbLine
  6
CONTINUOUS
 62
40
 10
1.2929303E+001
 20
-6.7896284E+001
 11
1.329597E+001
 21
-6.8927124E+001
  0
LINE
  5
465
100
AcDbEntity
  8
1
100
AcDbLine
  6
CONTINUOUS
 62
40
 10
1.329597E+001
 20
-6.8927124E+001
 11
1.3727804E+001
 21
-7.0085615E+001
  0
LINE
  5
466
100
AcDbEntity
  8
1
100
AcDbLine
  6
CONTINUOUS
 62
40
 10
1.3727804E+001
 20
-7.0085615E+001
 11
1.4177098E+001
 21
-7.123214E+001
  0
LINE
  5
467
100
AcDbEntity
  8
1
100
AcDbLine
  6
CONTINUOUS
 62
40
 10
1.4177098E+001
 20
-7.123214E+001
 11
1.464424E+001
 21
-7.2365679E+001
  0
LINE
  5
468
100
AcDbEntity
  8
1
100
AcDbLine
  6
CONTINUOUS
 62
40
 10
1.464424E+001
 20
-7.2365679E+001
 11
1.5129608E+001
 21
-7.348524E+001
  0
LINE
  5
469
100
AcDbEntity
  8
1
100
AcDbLine
  6
CONTINUOUS
 62
40
 10
1.5129608E+001
 20
-7.348524E+001
 11
1.5633581E+001
 21
-7.4589848E+001
  0
LINE
  5
46a
100
AcDbEntity
  8
1
100
AcDbLine
  6
CONTINUOUS
 62
40
 10
1.5633581E+001
 20
-7.4589848E+001
 11
1.6147021E+001
 21
-7.565923E+001
  0
LINE
  5
46b
100
AcDbEntity
  8
1
100
AcDbLine
  6
CONTINUOUS
 62
40
 10
1.6147021E+001
 20
-7.565923E+001
 11
1.6679109E+001
 21
-7.671234E+001
  0
LINE
  5
46c
100
AcDbEntity
  8
1
100
AcDbLine
  6
CONTINUOUS
 62
40
 10
1.6679109E+001
 20
-7.671234E+001
 11
1.723019E+001
 21
-7.7748283E+001
  0
LINE
  5
46d
100
AcDbEntity
  8
1
100
AcDbLine
  6
CONTINUOUS
 62
40
 10
1.723019E+001
 20
-7.7748283E+001
 11
1.7800601E+001
 21
-7.8766152E+001
  0
LINE
  5
46e
100
AcDbEntity
  8
1
100
AcDbLine
  6
CONTINUOUS
 62
40
 10
1.7800601E+001
 20
-7.8766152E+001
 11
1.8271108E+001
 21
-7.9566925E+001
  0
LINE
  5
46f
100
AcDbEntity
  8
1
100
AcDbLine
  6
CONTINUOUS
 62
40
 10
1.8271108E+001
 20
-7.9566925E+001
 11
1.87547E+001
 21
-8.0355651E+001
  0
LINE
  5
470
100
AcDbEntity
  8
1
100
AcDbLine
  6
CONTINUOUS
 62
40
 10
1.87547E+001
 20
-8.0355651E+001
 11
1.9251624E+001
 21
-8.113195E+001
  0
LINE
  5
471
100
AcDbEntity
  8
1
100
AcDbLine
  6
CONTINUOUS
 62
40
 10
1.9251624E+001
 20
-8.113195E+001
 11
1.9762081E+001
 21
-8.1895359E+001
  0
LINE
  5
472
100
AcDbEntity
  8
1
100
AcDbLine
  6
CONTINUOUS
 62
40
 10
1.9762081E+001
 20
-8.1895359E+001
 11
2.0286269E+001
 21
-8.2645408E+001
  0
LINE
  5
473
100
AcDbEntity
  8
1
100
AcDbLine
  6
CONTINUOUS
 62
40
 10
2.0286269E+001
 20
-8.2645408E+001
 11
2.0814651E+001
 21
-8.3368614E+001
  0
LINE
  5
474
100
AcDbEntity
  8
1
100
AcDbLine
  6
CONTINUOUS
 62
40
 10
2.0814651E+001
 20
-8.3368614E+001
 11
2.1356651E+001
 21
-8.4078051E+001
  0
LINE
  5
475
100
AcDbEntity
  8
1
100
AcDbLine
  6
CONTINUOUS
 62
40
 10
2.1356651E+001
 20
-8.4078051E+001
 11
2.1912455E+001
 21
-8.4773279E+001
  0
LINE
  5
476
100
AcDbEntity
  8
1
100
AcDbLine
  6
CONTINUOUS
 62
40
 10
2.1912455E+001
 20
-8.4773279E+001
 11
2.2482246E+001
 21
-8.5453868E+001
  0
LINE
  5
477
100
AcDbEntity
  8
1
100
AcDbLine
  6
CONTINUOUS
 62
40
 10
2.2482246E+001
 20
-8.5453868E+001
 11
2.3113474E+001
 21
-8.6171887E+001
  0
LINE
  5
478
100
AcDbEntity
  8
1
100
AcDbLine
  6
CONTINUOUS
 62
40
 10
2.3113474E+001
 20
-8.6171887E+001
 11
2.3761458E+001
 21
-8.687178E+001
  0
LINE
  5
479
100
AcDbEntity
  8
1
100
AcDbLine
  6
CONTINUOUS
 62
40
 10
2.3761458E+001
 20
-8.687178E+001
 11
2.4426422E+001
 21
-8.7553024E+001
  0
LINE
  5
47a
100
AcDbEntity
  8
1
100
AcDbLine
  6
CONTINUOUS
 62
40
 10
2.4426422E+001
 20
-8.7553024E+001
 11
2.4745862E+001
 21
-8.786755E+001
  0
LINE
  5
47b
100
AcDbEntity
  8
1
100
AcDbLine
  6
CONTINUOUS
 62
40
 10
2.4745862E+001
 20
-8.786755E+001
 11
2.5069147E+001
 21
-8.8177755E+001
  0
LINE
  5
47c
100
AcDbEntity
  8
1
100
AcDbLine
  6
CONTINUOUS
 62
40
 10
2.5069147E+001
 20
-8.8177755E+001
 11
2.5396305E+001
 21
-8.8483579E+001
  0
LINE
  5
47d
100
AcDbEntity
  8
1
100
AcDbLine
  6
CONTINUOUS
 62
40
 10
2.5396305E+001
 20
-8.8483579E+001
 11
2.5731459E+001
 21
-8.8788651E+001
  0
LINE
  5
47e
100
AcDbEntity
  8
1
100
AcDbLine
  6
CONTINUOUS
 62
40
 10
2.5731459E+001
 20
-8.8788651E+001
 11
2.6084627E+001
 21
-8.9101351E+001
  0
LINE
  5
47f
100
AcDbEntity
  8
1
100
AcDbLine
  6
CONTINUOUS
 62
40
 10
2.6084627E+001
 20
-8.9101351E+001
 11
2.6456799E+001
 21
-8.9421384E+001
  0
LINE
  5
480
100
AcDbEntity
  8
1
100
AcDbLine
  6
CONTINUOUS
 62
40
 10
2.6456799E+001
 20
-8.9421384E+001
 11
2.6848576E+001
 21
-8.9748054E+001
  0
LINE
  5
481
100
AcDbEntity
  8
1
100
AcDbLine
  6
CONTINUOUS
 62
40
 10
2.6848576E+001
 20
-8.9748054E+001
 11
2.7260597E+001
 21
-9.0080604E+001
  0
LINE
  5
482
100
AcDbEntity
  8
1
100
AcDbLine
  6
CONTINUOUS
 62
40
 10
2.7260597E+001
 20
-9.0080604E+001
 11
2.7693524E+001
 21
-9.0418249E+001
  0
LINE
  5
483
100
AcDbEntity
  8
1
100
AcDbLine
  6
CONTINUOUS
 62
7
 10
2.7693524E+001
 20
-9.0418249E+001
 11
2.8148058E+001
 21
-9.0760141E+001
  0
LINE
  5
484
100
AcDbEntity
  8
1
100
AcDbLine
  6
CONTINUOUS
 62
7
 10
2.8148058E+001
 20
-9.0760141E+001
 11
2.8616219E+001
 21
-9.1099195E+001
  0
LINE
  5
485
100
AcDbEntity
  8
1
100
AcDbLine
  6
CONTINUOUS
 62
40
 10
2.8616219E+001
 20
-9.1099195E+001
 11
2.9106654E+001
 21
-9.1440595E+001
  0
LINE
  5
486
100
AcDbEntity
  8
1
100
AcDbLine
  6
CONTINUOUS
 62
40
 10
2.9106654E+001
 20
-9.1440595E+001
 11
2.9620125E+001
 21
-9.1783397E+001
  0
LINE
  5
487
100
AcDbEntity
  8
1
100
AcDbLine
  6
CONTINUOUS
 62
40
 10
2.9620125E+001
 20
-9.1783397E+001
 11
3.015742E+001
 21
-9.2126608E+001
  0
LINE
  5
488
100
AcDbEntity
  8
1
100
AcDbLine
  6
CONTINUOUS
 62
40
 10
3.015742E+001
 20
-9.2126608E+001
 11
3.0620038E+001
 21
-9.2409812E+001
  0
LINE
  5
489
100
AcDbEntity
  8
1
100
AcDbLine
  6
CONTINUOUS
 62
40
 10
3.0620038E+001
 20
-9.2409812E+001
 11
3.1099982E+001
 21
-9.2691965E+001
  0
LINE
  5
48a
100
AcDbEntity
  8
1
100
AcDbLine
  6
CONTINUOUS
 62
40
 10
3.1099982E+001
 20
-9.2691965E+001
 11
3.1597755E+001
 21
-9.2972412E+001
  0
LINE
  5
48b
100
AcDbEntity
  8
1
100
AcDbLine
  6
CONTINUOUS
 62
40
 10
3.1597755E+001
 20
-9.2972412E+001
 11
3.2113872E+001
 21
-9.3250483E+001
  0
LINE
  5
48c
100
AcDbEntity
  8
1
100
AcDbLine
  6
CONTINUOUS
 62
40
 10
3.2113872E+001
 20
-9.3250483E+001
 11
3.2648876E+001
 21
-9.3525469E+001
  0
LINE
  5
48d
100
AcDbEntity
  8
1
100
AcDbLine
  6
CONTINUOUS
 62
40
 10
3.2648876E+001
 20
-9.3525469E+001
 11
3.3203322E+001
 21
-9.379664E+001
  0
LINE
  5
48e
100
AcDbEntity
  8
1
100
AcDbLine
  6
CONTINUOUS
 62
40
 10
3.3203322E+001
 20
-9.379664E+001
 11
3.377778E+001
 21
-9.4063237E+001
  0
LINE
  5
48f
100
AcDbEntity
  8
1
100
AcDbLine
  6
CONTINUOUS
 62
40
 10
3.377778E+001
 20
-9.4063237E+001
 11
3.4322462E+001
 21
-9.4302915E+001
  0
LINE
  5
490
100
AcDbEntity
  8
1
100
AcDbLine
  6
CONTINUOUS
 62
40
 10
3.4322462E+001
 20
-9.4302915E+001
 11
3.4884933E+001
 21
-9.4537444E+001
  0
LINE
  5
491
100
AcDbEntity
  8
1
100
AcDbLine
  6
CONTINUOUS
 62
40
 10
3.4884933E+001
 20
-9.4537444E+001
 11
3.5465676E+001
 21
-9.4766155E+001
  0
LINE
  5
492
100
AcDbEntity
  8
1
100
AcDbLine
  6
CONTINUOUS
 62
40
 10
3.5465676E+001
 20
-9.4766155E+001
 11
3.6065198E+001
 21
-9.4988376E+001
  0
LINE
  5
493
100
AcDbEntity
  8
1
100
AcDbLine
  6
CONTINUOUS
 62
40
 10
3.6065198E+001
 20
-9.4988376E+001
 11
3.668401E+001
 21
-9.5203399E+001
  0
LINE
  5
494
100
AcDbEntity
  8
1
100
AcDbLine
  6
CONTINUOUS
 62
40
 10
3.668401E+001
 20
-9.5203399E+001
 11
3.7322644E+001
 21
-9.5410473E+001
  0
LINE
  5
495
100
AcDbEntity
  8
1
100
AcDbLine
  6
CONTINUOUS
 62
40
 10
3.7322644E+001
 20
-9.5410473E+001
 11
3.7884984E+001
 21
-9.5580719E+001
  0
LINE
  5
496
100
AcDbEntity
  8
1
100
AcDbLine
  6
CONTINUOUS
 62
40
 10
3.7884984E+001
 20
-9.5580719E+001
 11
3.8051057E+001
 21
-9.5627695E+001
  0
LINE
  5
497
100
AcDbEntity
  8
1
100
AcDbLine
  6
CONTINUOUS
 62
40
 10
4.759648E+001
 20
-6.2993981E+001
 11
4.6889405E+001
 21
-6.2976248E+001
  0
LINE
  5
498
100
AcDbEntity
  8
1
100
AcDbLine
  6
CONTINUOUS
 62
40
 10
4.6889405E+001
 20
-6.2976248E+001
 11
4.6198144E+001
 21
-6.2947273E+001
  0
LINE
  5
499
100
AcDbEntity
  8
1
100
AcDbLine
  6
CONTINUOUS
 62
40
 10
4.6198144E+001
 20
-6.2947273E+001
 11
4.552238E+001
 21
-6.2907509E+001
  0
LINE
  5
49a
100
AcDbEntity
  8
1
100
AcDbLine
  6
CONTINUOUS
 62
40
 10
4.552238E+001
 20
-6.2907509E+001
 11
4.48618E+001
 21
-6.2857404E+001
  0
LINE
  5
49b
100
AcDbEntity
  8
1
100
AcDbLine
  6
CONTINUOUS
 62
40
 10
4.48618E+001
 20
-6.2857404E+001
 11
4.4216096E+001
 21
-6.2797397E+001
  0
LINE
  5
49c
100
AcDbEntity
  8
1
100
AcDbLine
  6
CONTINUOUS
 62
40
 10
4.4216096E+001
 20
-6.2797397E+001
 11
4.3473772E+001
 21
-6.2714547E+001
  0
LINE
  5
49d
100
AcDbEntity
  8
1
100
AcDbLine
  6
CONTINUOUS
 62
40
 10
4.3473772E+001
 20
-6.2714547E+001
 11
4.2751211E+001
 21
-6.2619231E+001
  0
LINE
  5
49e
100
AcDbEntity
  8
1
100
AcDbLine
  6
CONTINUOUS
 62
40
 10
4.2751211E+001
 20
-6.2619231E+001
 11
4.2047936E+001
 21
-6.2512099E+001
  0
LINE
  5
49f
100
AcDbEntity
  8
1
100
AcDbLine
  6
CONTINUOUS
 62
40
 10
4.2047936E+001
 20
-6.2512099E+001
 11
4.1363492E+001
 21
-6.2393807E+001
  0
LINE
  5
4a0
100
AcDbEntity
  8
1
100
AcDbLine
  6
CONTINUOUS
 62
40
 10
4.1363492E+001
 20
-6.2393807E+001
 11
4.0684018E+001
 21
-6.2262248E+001
  0
LINE
  5
4a1
100
AcDbEntity
  8
1
100
AcDbLine
  6
CONTINUOUS
 62
40
 10
4.0684018E+001
 20
-6.2262248E+001
 11
4.0023215E+001
 21
-6.2120374E+001
  0
LINE
  5
4a2
100
AcDbEntity
  8
1
100
AcDbLine
  6
CONTINUOUS
 62
40
 10
4.0023215E+001
 20
-6.2120374E+001
 11
3.9380621E+001
 21
-6.1968807E+001
  0
LINE
  5
4a3
100
AcDbEntity
  8
1
100
AcDbLine
  6
CONTINUOUS
 62
40
 10
3.9380621E+001
 20
-6.1968807E+001
 11
3.8755793E+001
 21
-6.1808169E+001
  0
LINE
  5
4a4
100
AcDbEntity
  8
1
100
AcDbLine
  6
CONTINUOUS
 62
40
 10
3.8755793E+001
 20
-6.1808169E+001
 11
3.8148295E+001
 21
-6.1639052E+001
  0
LINE
  5
4a5
100
AcDbEntity
  8
1
100
AcDbLine
  6
CONTINUOUS
 62
40
 10
3.8148295E+001
 20
-6.1639052E+001
 11
3.7557702E+001
 21
-6.1462033E+001
  0
LINE
  5
4a6
100
AcDbEntity
  8
1
100
AcDbLine
  6
CONTINUOUS
 62
40
 10
3.7557702E+001
 20
-6.1462033E+001
 11
3.6983605E+001
 21
-6.1277672E+001
  0
LINE
  5
4a7
100
AcDbEntity
  8
1
100
AcDbLine
  6
CONTINUOUS
 62
40
 10
3.6983605E+001
 20
-6.1277672E+001
 11
3.6276154E+001
 21
-6.1033267E+001
  0
LINE
  5
4a8
100
AcDbEntity
  8
1
100
AcDbLine
  6
CONTINUOUS
 62
40
 10
3.6276154E+001
 20
-6.1033267E+001
 11
3.5593956E+001
 21
-6.0778934E+001
  0
LINE
  5
4a9
100
AcDbEntity
  8
1
100
AcDbLine
  6
CONTINUOUS
 62
40
 10
3.5593956E+001
 20
-6.0778934E+001
 11
3.4936226E+001
 21
-6.0515716E+001
  0
LINE
  5
4aa
100
AcDbEntity
  8
1
100
AcDbLine
  6
CONTINUOUS
 62
40
 10
3.4936226E+001
 20
-6.0515716E+001
 11
3.4302212E+001
 21
-6.0244608E+001
  0
LINE
  5
4ab
100
AcDbEntity
  8
1
100
AcDbLine
  6
CONTINUOUS
 62
40
 10
3.4302212E+001
 20
-6.0244608E+001
 11
3.3691171E+001
 21
-5.9966579E+001
  0
LINE
  5
4ac
100
AcDbEntity
  8
1
100
AcDbLine
  6
CONTINUOUS
 62
40
 10
3.3691171E+001
 20
-5.9966579E+001
 11
3.3102404E+001
 21
-5.9682551E+001
  0
LINE
  5
4ad
100
AcDbEntity
  8
1
100
AcDbLine
  6
CONTINUOUS
 62
40
 10
3.3102404E+001
 20
-5.9682551E+001
 11
3.2535217E+001
 21
-5.9393413E+001
  0
LINE
  5
4ae
100
AcDbEntity
  8
1
100
AcDbLine
  6
CONTINUOUS
 62
40
 10
3.2535217E+001
 20
-5.9393413E+001
 11
3.1935445E+001
 21
-5.9070475E+001
  0
LINE
  5
4af
100
AcDbEntity
  8
1
100
AcDbLine
  6
CONTINUOUS
 62
40
 10
3.1935445E+001
 20
-5.9070475E+001
 11
3.1360134E+001
 21
-5.8743469E+001
  0
LINE
  5
4b0
100
AcDbEntity
  8
1
100
AcDbLine
  6
CONTINUOUS
 62
40
 10
3.1360134E+001
 20
-5.8743469E+001
 11
3.0808459E+001
 21
-5.8413431E+001
  0
LINE
  5
4b1
100
AcDbEntity
  8
1
100
AcDbLine
  6
CONTINUOUS
 62
40
 10
3.0808459E+001
 20
-5.8413431E+001
 11
3.0279632E+001
 21
-5.8081355E+001
  0
LINE
  5
4b2
100
AcDbEntity
  8
1
100
AcDbLine
  6
CONTINUOUS
 62
40
 10
3.0279632E+001
 20
-5.8081355E+001
 11
2.9772892E+001
 21
-5.7748183E+001
  0
LINE
  5
4b3
100
AcDbEntity
  8
1
100
AcDbLine
  6
CONTINUOUS
 62
40
 10
2.9772892E+001
 20
-5.7748183E+001
 11
2.9278874E+001
 21
-5.7408753E+001
  0
LINE
  5
4b4
100
AcDbEntity
  8
1
100
AcDbLine
  6
CONTINUOUS
 62
40
 10
2.9278874E+001
 20
-5.7408753E+001
 11
2.8806257E+001
 21
-5.7070031E+001
  0
LINE
  5
4b5
100
AcDbEntity
  8
1
100
AcDbLine
  6
CONTINUOUS
 62
40
 10
2.8806257E+001
 20
-5.7070031E+001
 11
2.8354331E+001
 21
-5.6732867E+001
  0
LINE
  5
4b6
100
AcDbEntity
  8
1
100
AcDbLine
  6
CONTINUOUS
 62
40
 10
2.8354331E+001
 20
-5.6732867E+001
 11
2.792241E+001
 21
-5.6398086E+001
  0
LINE
  5
4b7
100
AcDbEntity
  8
1
100
AcDbLine
  6
CONTINUOUS
 62
40
 10
2.792241E+001
 20
-5.6398086E+001
 11
2.7509845E+001
 21
-5.6066461E+001
  0
LINE
  5
4b8
100
AcDbEntity
  8
1
100
AcDbLine
  6
CONTINUOUS
 62
40
 10
2.7509845E+001
 20
-5.6066461E+001
 11
2.7116004E+001
 21
-5.5738736E+001
  0
LINE
  5
4b9
100
AcDbEntity
  8
1
100
AcDbLine
  6
CONTINUOUS
 62
40
 10
2.7116004E+001
 20
-5.5738736E+001
 11
2.6740293E+001
 21
-5.5415604E+001
  0
LINE
  5
4ba
100
AcDbEntity
  8
1
100
AcDbLine
  6
CONTINUOUS
 62
40
 10
2.6740293E+001
 20
-5.5415604E+001
 11
2.6347264E+001
 21
-5.5066265E+001
  0
LINE
  5
4bb
100
AcDbEntity
  8
1
100
AcDbLine
  6
CONTINUOUS
 62
40
 10
2.6347264E+001
 20
-5.5066265E+001
 11
2.597475E+001
 21
-5.4724123E+001
  0
LINE
  5
4bc
100
AcDbEntity
  8
1
100
AcDbLine
  6
CONTINUOUS
 62
40
 10
2.597475E+001
 20
-5.4724123E+001
 11
2.5622058E+001
 21
-5.4389964E+001
  0
LINE
  5
4bd
100
AcDbEntity
  8
1
100
AcDbLine
  6
CONTINUOUS
 62
40
 10
2.5622058E+001
 20
-5.4389964E+001
 11
2.528822E+001
 21
-5.4064214E+001
  0
LINE
  5
4be
100
AcDbEntity
  8
1
100
AcDbLine
  6
CONTINUOUS
 62
40
 10
2.528822E+001
 20
-5.4064214E+001
 11
2.4963304E+001
 21
-5.3738068E+001
  0
LINE
  5
4bf
100
AcDbEntity
  8
1
100
AcDbLine
  6
CONTINUOUS
 62
40
 10
2.4963304E+001
 20
-5.3738068E+001
 11
2.4394083E+001
 21
-5.3144212E+001
  0
LINE
  5
4c0
100
AcDbEntity
  8
1
100
AcDbLine
  6
CONTINUOUS
 62
40
 10
2.4394083E+001
 20
-5.3144212E+001
 11
2.3838788E+001
 21
-5.2535992E+001
  0
LINE
  5
4c1
100
AcDbEntity
  8
1
100
AcDbLine
  6
CONTINUOUS
 62
40
 10
2.3838788E+001
 20
-5.2535992E+001
 11
2.3297224E+001
 21
-5.191379E+001
  0
LINE
  5
4c2
100
AcDbEntity
  8
1
100
AcDbLine
  6
CONTINUOUS
 62
40
 10
2.3297224E+001
 20
-5.191379E+001
 11
2.2769208E+001
 21
-5.1277984E+001
  0
LINE
  5
4c3
100
AcDbEntity
  8
1
100
AcDbLine
  6
CONTINUOUS
 62
40
 10
2.2769208E+001
 20
-5.1277984E+001
 11
2.225455E+001
 21
-5.0628956E+001
  0
LINE
  5
4c4
100
AcDbEntity
  8
1
100
AcDbLine
  6
CONTINUOUS
 62
40
 10
2.225455E+001
 20
-5.0628956E+001
 11
2.1660299E+001
 21
-4.9841325E+001
  0
LINE
  5
4c5
100
AcDbEntity
  8
1
100
AcDbLine
  6
CONTINUOUS
 62
40
 10
2.1660299E+001
 20
-4.9841325E+001
 11
2.1084317E+001
 21
-4.9036204E+001
  0
LINE
  5
4c6
100
AcDbEntity
  8
1
100
AcDbLine
  6
CONTINUOUS
 62
40
 10
2.1084317E+001
 20
-4.9036204E+001
 11
2.0526289E+001
 21
-4.821423E+001
  0
LINE
  5
4c7
100
AcDbEntity
  8
1
100
AcDbLine
  6
CONTINUOUS
 62
40
 10
2.0526289E+001
 20
-4.821423E+001
 11
1.9985902E+001
 21
-4.7376036E+001
  0
LINE
  5
4c8
100
AcDbEntity
  8
1
100
AcDbLine
  6
CONTINUOUS
 62
40
 10
1.9985902E+001
 20
-4.7376036E+001
 11
1.9462838E+001
 21
-4.6522252E+001
  0
LINE
  5
4c9
100
AcDbEntity
  8
1
100
AcDbLine
  6
CONTINUOUS
 62
40
 10
1.9462838E+001
 20
-4.6522252E+001
 11
1.8956787E+001
 21
-4.5653514E+001
  0
LINE
  5
4ca
100
AcDbEntity
  8
1
100
AcDbLine
  6
CONTINUOUS
 62
40
 10
1.8956787E+001
 20
-4.5653514E+001
 11
1.849495E+001
 21
-4.4821292E+001
  0
LINE
  5
4cb
100
AcDbEntity
  8
1
100
AcDbLine
  6
CONTINUOUS
 62
40
 10
1.849495E+001
 20
-4.4821292E+001
 11
1.8047664E+001
 21
-4.3976817E+001
  0
LINE
  5
4cc
100
AcDbEntity
  8
1
100
AcDbLine
  6
CONTINUOUS
 62
40
 10
1.8047664E+001
 20
-4.3976817E+001
 11
1.7614427E+001
 21
-4.3120127E+001
  0
LINE
  5
4cd
100
AcDbEntity
  8
1
100
AcDbLine
  6
CONTINUOUS
 62
40
 10
1.7614427E+001
 20
-4.3120127E+001
 11
1.7194948E+001
 21
-4.2251613E+001
  0
LINE
  5
4ce
100
AcDbEntity
  8
1
100
AcDbLine
  6
CONTINUOUS
 62
40
 10
1.7194948E+001
 20
-4.2251613E+001
 11
1.6788996E+001
 21
-4.1371785E+001
  0
LINE
  5
4cf
100
AcDbEntity
  8
1
100
AcDbLine
  6
CONTINUOUS
 62
40
 10
1.6788996E+001
 20
-4.1371785E+001
 11
1.6290457E+001
 21
-4.0233936E+001
  0
LINE
  5
4d0
100
AcDbEntity
  8
1
100
AcDbLine
  6
CONTINUOUS
 62
40
 10
1.6290457E+001
 20
-4.0233936E+001
 11
1.5813058E+001
 21
-3.9079569E+001
  0
LINE
  5
4d1
100
AcDbEntity
  8
1
100
AcDbLine
  6
CONTINUOUS
 62
40
 10
1.5813058E+001
 20
-3.9079569E+001
 11
1.5356307E+001
 21
-3.790975E+001
  0
LINE
  5
4d2
100
AcDbEntity
  8
1
100
AcDbLine
  6
CONTINUOUS
 62
40
 10
1.5356307E+001
 20
-3.790975E+001
 11
1.4919716E+001
 21
-3.6725547E+001
  0
LINE
  5
4d3
100
AcDbEntity
  8
1
100
AcDbLine
  6
CONTINUOUS
 62
40
 10
1.4919716E+001
 20
-3.6725547E+001
 11
1.4502789E+001
 21
-3.5528041E+001
  0
LINE
  5
4d4
100
AcDbEntity
  8
1
100
AcDbLine
  6
CONTINUOUS
 62
40
 10
1.4502789E+001
 20
-3.5528041E+001
 11
1.4105029E+001
 21
-3.431832E+001
  0
LINE
  5
4d5
100
AcDbEntity
  8
1
100
AcDbLine
  6
CONTINUOUS
 62
40
 10
1.4105029E+001
 20
-3.431832E+001
 11
1.3725934E+001
 21
-3.3097464E+001
  0
LINE
  5
4d6
100
AcDbEntity
  8
1
100
AcDbLine
  6
CONTINUOUS
 62
40
 10
1.3725934E+001
 20
-3.3097464E+001
 11
1.3389231E+001
 21
-3.1951442E+001
  0
LINE
  5
4d7
100
AcDbEntity
  8
1
100
AcDbLine
  6
CONTINUOUS
 62
40
 10
1.3389231E+001
 20
-3.1951442E+001
 11
1.3067873E+001
 21
-3.0797608E+001
  0
LINE
  5
4d8
100
AcDbEntity
  8
1
100
AcDbLine
  6
CONTINUOUS
 62
40
 10
1.3067873E+001
 20
-3.0797608E+001
 11
1.2760685E+001
 21
-2.9633885E+001
  0
LINE
  5
4d9
100
AcDbEntity
  8
1
100
AcDbLine
  6
CONTINUOUS
 62
40
 10
1.2760685E+001
 20
-2.9633885E+001
 11
1.2463694E+001
 21
-2.844603E+001
  0
LINE
  5
4da
100
AcDbEntity
  8
1
100
AcDbLine
  6
CONTINUOUS
 62
40
 10
1.2463694E+001
 20
-2.844603E+001
 11
1.2176658E+001
 21
-2.7232658E+001
  0
LINE
  5
4db
100
AcDbEntity
  8
1
100
AcDbLine
  6
CONTINUOUS
 62
40
 10
1.2176658E+001
 20
-2.7232658E+001
 11
1.1899869E+001
 21
-2.5994582E+001
  0
LINE
  5
4dc
100
AcDbEntity
  8
1
100
AcDbLine
  6
CONTINUOUS
 62
40
 10
1.1899869E+001
 20
-2.5994582E+001
 11
1.1648511E+001
 21
-2.4805445E+001
  0
LINE
  5
4dd
100
AcDbEntity
  8
1
100
AcDbLine
  6
CONTINUOUS
 62
40
 10
1.1648511E+001
 20
-2.4805445E+001
 11
1.1406661E+001
 21
-2.3596013E+001
  0
LINE
  5
4de
100
AcDbEntity
  8
1
100
AcDbLine
  6
CONTINUOUS
 62
40
 10
1.1406661E+001
 20
-2.3596013E+001
 11
1.1174462E+001
 21
-2.2367229E+001
  0
LINE
  5
4df
100
AcDbEntity
  8
1
100
AcDbLine
  6
CONTINUOUS
 62
40
 10
1.1174462E+001
 20
-2.2367229E+001
 11
1.0952018E+001
 21
-2.1120138E+001
  0
LINE
  5
4e0
100
AcDbEntity
  8
1
100
AcDbLine
  6
CONTINUOUS
 62
40
 10
1.0952018E+001
 20
-2.1120138E+001
 11
1.0739397E+001
 21
-1.9855871E+001
  0
LINE
  5
4e1
100
AcDbEntity
  8
1
100
AcDbLine
  6
CONTINUOUS
 62
40
 10
1.0739397E+001
 20
-1.9855871E+001
 11
1.0513724E+001
 21
-1.8426107E+001
  0
LINE
  5
4e2
100
AcDbEntity
  8
1
100
AcDbLine
  6
CONTINUOUS
 62
40
 10
1.0513724E+001
 20
-1.8426107E+001
 11
1.0300291E+001
 21
-1.6978373E+001
  0
LINE
  5
4e3
100
AcDbEntity
  8
1
100
AcDbLine
  6
CONTINUOUS
 62
40
 10
1.0300291E+001
 20
-1.6978373E+001
 11
1.0099001E+001
 21
-1.5514721E+001
  0
LINE
  5
4e4
100
AcDbEntity
  8
1
100
AcDbLine
  6
CONTINUOUS
 62
40
 10
1.0099001E+001
 20
-1.5514721E+001
 11
9.9096851
 21
-1.403737E+001
  0
LINE
  5
4e5
100
AcDbEntity
  8
1
100
AcDbLine
  6
CONTINUOUS
 62
40
 10
9.9096851
 20
-1.403737E+001
 11
9.7321024
 21
-1.2548729E+001
  0
LINE
  5
4e6
100
AcDbEntity
  8
1
100
AcDbLine
  6
CONTINUOUS
 62
40
 10
9.7321024
 20
-1.2548729E+001
 11
9.5659302
 21
-1.1051397E+001
  0
LINE
  5
4e7
100
AcDbEntity
  8
1
100
AcDbLine
  6
CONTINUOUS
 62
40
 10
5.9319693E+001
 20
-6.5250001E+001
 11
8.3535387E+001
 21
-6.5250001E+001
  0
LINE
  5
4e8
100
AcDbEntity
  8
1
100
AcDbLine
  6
CONTINUOUS
 62
40
 10
5.9319693E+001
 20
-9.5250001E+001
 11
8.3535387E+001
 21
-9.5250001E+001
  0
LINE
  5
4e9
100
AcDbEntity
  8
1
100
AcDbLine
  6
CONTINUOUS
 62
40
 10
9.5659302
 20
-1.1051397E+001
 11
9.4107644
 21
-9.5481683
  0
LINE
  5
4ea
100
AcDbEntity
  8
1
100
AcDbLine
  6
CONTINUOUS
 62
40
 10
9.4107644
 20
-9.5481683
 11
9.2660965
 21
-8.0418798
  0
LINE
  5
4eb
100
AcDbEntity
  8
1
100
AcDbLine
  6
CONTINUOUS
 62
40
 10
9.2660965
 20
-8.0418798
 11
9.1960089
 21
-7.2716471
  0
LINE
  5
4ec
100
AcDbEntity
  8
1
100
AcDbLine
  6
CONTINUOUS
 62
40
 10
9.1960089
 20
-7.2716471
 11
9.1264559
 21
-6.4790087
  0
LINE
  5
4ed
100
AcDbEntity
  8
1
100
AcDbLine
  6
CONTINUOUS
 62
40
 10
9.1264559
 20
-6.4790087
 11
9.057605
 21
-5.6650645
  0
LINE
  5
4ee
100
AcDbEntity
  8
1
100
AcDbLine
  6
CONTINUOUS
 62
40
 10
9.057605
 20
-5.6650645
 11
8.9895961
 21
-4.8310209
  0
LINE
  5
4ef
100
AcDbEntity
  8
1
100
AcDbLine
  6
CONTINUOUS
 62
40
 10
8.9895961
 20
-4.8310209
 11
8.9225391
 21
-3.978199
  0
LINE
  5
4f0
100
AcDbEntity
  8
1
100
AcDbLine
  6
CONTINUOUS
 62
40
 10
8.9225391
 20
-3.978199
 11
8.857678
 21
-3.1237233
  0
LINE
  5
4f1
100
AcDbEntity
  8
1
100
AcDbLine
  6
CONTINUOUS
 62
40
 10
8.857678
 20
-3.1237233
 11
8.806392
 21
-2.4249734
  0
ARC
  5
4f2
100
AcDbEntity
  8
1
100
AcDbCircle
  6
CONTINUOUS
 62
40
 10
3.9125079
 20
-1.13E+001
 40
3.0E-001
100
AcDbArc
 50
2.5
 51
9.0E+001
  0
ARC
  5
4f3
100
AcDbEntity
  8
1
100
AcDbCircle
  6
CONTINUOUS
 62
40
 10
3.9125079
 20
1.13E+001
 40
3.0E-001
100
AcDbArc
 50
2.7E+002
 51
3.575E+002
  0
POLYLINE
  5
4f4
100
AcDbEntity
  8
1
100
AcDb2dPolyline
  6
CONTINUOUS
 62
40
 66
1
 40
0.0
 41
0.0
 70
2
  0
VERTEX
  5
4f5
100
AcDbEntity
  8
1
100
AcDbVertex
100
AcDb2dVertex
 42
0.0
 10
8.8051403
 20
-2.4250791
 70
0
  0
VERTEX
  5
4f6
100
AcDbEntity
  8
1
100
AcDbVertex
100
AcDb2dVertex
 42
0.0
 10
8.8051418
 20
-2.4250783
 70
1
  0
VERTEX
  5
4f7
100
AcDbEntity
  8
1
100
AcDbVertex
100
AcDb2dVertex
 42
0.0
 10
8.8051434
 20
-2.4250775
 70
0
  0
VERTEX
  5
4f8
100
AcDbEntity
  8
1
100
AcDbVertex
100
AcDb2dVertex
 42
0.0
 10
8.805145
 20
-2.4250767
 70
1
  0
VERTEX
  5
4f9
100
AcDbEntity
  8
1
100
AcDbVertex
100
AcDb2dVertex
 42
0.0
 10
8.8051466
 20
-2.4250759
 70
0
  0
VERTEX
  5
4fa
100
AcDbEntity
  8
1
100
AcDbVertex
100
AcDb2dVertex
 42
0.0
 10
8.8051482
 20
-2.4250751
 70
1
  0
VERTEX
  5
4fb
100
AcDbEntity
  8
1
100
AcDbVertex
100
AcDb2dVertex
 42
0.0
 10
8.8051498
 20
-2.4250743
 70
0
  0
VERTEX
  5
4fc
100
AcDbEntity
  8
1
100
AcDbVertex
100
AcDb2dVertex
 42
0.0
 10
8.8051513
 20
-2.4250734
 70
1
  0
VERTEX
  5
4fd
100
AcDbEntity
  8
1
100
AcDbVertex
100
AcDb2dVertex
 42
0.0
 10
8.8051529
 20
-2.4250726
 70
0
  0
VERTEX
  5
4fe
100
AcDbEntity
  8
1
100
AcDbVertex
100
AcDb2dVertex
 42
0.0
 10
8.8051545
 20
-2.4250718
 70
1
  0
VERTEX
  5
4ff
100
AcDbEntity
  8
1
100
AcDbVertex
100
AcDb2dVertex
 42
0.0
 10
8.8051561
 20
-2.425071
 70
0
  0
VERTEX
  5
500
100
AcDbEntity
  8
1
100
AcDbVertex
100
AcDb2dVertex
 42
0.0
 10
8.8051577
 20
-2.4250702
 70
1
  0
VERTEX
  5
501
100
AcDbEntity
  8
1
100
AcDbVertex
100
AcDb2dVertex
 42
0.0
 10
8.8051593
 20
-2.4250694
 70
0
  0
VERTEX
  5
502
100
AcDbEntity
  8
1
100
AcDbVertex
100
AcDb2dVertex
 42
0.0
 10
8.8051609
 20
-2.4250685
 70
1
  0
VERTEX
  5
503
100
AcDbEntity
  8
1
100
AcDbVertex
100
AcDb2dVertex
 42
0.0
 10
8.8051624
 20
-2.4250677
 70
0
  0
VERTEX
  5
504
100
AcDbEntity
  8
1
100
AcDbVertex
100
AcDb2dVertex
 42
0.0
 10
8.8051638
 20
-2.425067
 70
1
  0
VERTEX
  5
505
100
AcDbEntity
  8
1
100
AcDbVertex
100
AcDb2dVertex
 42
0.0
 10
8.8051656
 20
-2.4250661
 70
0
  0
VERTEX
  5
506
100
AcDbEntity
  8
1
100
AcDbVertex
100
AcDb2dVertex
 42
0.0
 10
8.8051683
 20
-2.4250647
 70
1
  0
VERTEX
  5
507
100
AcDbEntity
  8
1
100
AcDbVertex
100
AcDb2dVertex
 42
0.0
 10
8.8051719
 20
-2.4250628
 70
0
  0
SEQEND
  5
508
100
AcDbEntity
  0
SPLINE
  5
509
100
AcDbEntity
  8
1
100
AcDbSpline
  6
CONTINUOUS
 62
40
210
0.0
220
0.0
230
0.0
 70
0
 71
3
 72
8
 73
4
 74
0
 42
1.0E-007
 43
1.0E-007
 44
0.0
 40
0.0
 40
0.0
 40
0.0
 40
0.0
 40
1.0
 40
1.0
 40
1.0
 40
1.0
 10
4.3208236
 20
-3.3425179
 30
0.0
 10
4.2549859
 20
-5.0671942
 30
0.0
 10
4.2122223
 20
-6.7922268
 30
0.0
 10
4.2122223
 20
-8.5183419
 30
0.0
  0
SPLINE
  5
50a
100
AcDbEntity
  8
1
100
AcDbSpline
  6
CONTINUOUS
 62
40
210
0.0
220
0.0
230
0.0
 70
0
 71
3
 72
26
 73
22
 74
0
 42
1.0E-007
 43
1.0E-007
 44
0.0
 40
0.0
 40
0.0
 40
0.0
 40
0.0
 40
1.25E-001
 40
1.25E-001
 40
2.5E-001
 40
2.5E-001
 40
3.75E-001
 40
3.75E-001
 40
5.0E-001
 40
5.0E-001
 40
5.625E-001
 40
5.625E-001
 40
6.25E-001
 40
6.25E-001
 40
7.5E-001
 40
7.5E-001
 40
8.125E-001
 40
8.125E-001
 40
8.75E-001
 40
8.75E-001
 40
1.0
 40
1.0
 40
1.0
 40
1.0
 10
4.3208236
 20
3.3425186
 30
0.0
 10
4.3288022
 20
3.1335109
 30
0.0
 10
4.3357424
 20
2.9026085
 30
0.0
 10
4.347812
 20
2.3987022
 30
0.0
 10
4.3529755
 20
2.1221505
 30
0.0
 10
4.36115
 20
1.5483973
 30
0.0
 10
4.3642196
 20
1.2500774
 30
0.0
 10
4.3683731
 20
6.3011794E-001
 30
0.0
 10
4.3694036
 20
3.1345863E-001
 30
0.0
 10
4.3694008
 20
-1.5804947E-001
 30
0.0
 10
4.3691439
 20
-3.1531897E-001
 30
0.0
 10
4.3681056
 20
-6.3006251E-001
 30
0.0
 10
4.3673174
 20
-7.8812345E-001
 30
0.0
 10
4.3642033
 20
-1.251623
 30
0.0
 10
4.3611351
 20
-1.5498335
 30
0.0
 10
4.3549835
 20
-1.9810127
 30
0.0
 10
4.3526549
 20
-2.1228568
 30
0.0
 10
4.3475455
 20
-2.3951975
 30
0.0
 10
4.3447643
 20
-2.5260203
 30
0.0
 10
4.335732
 20
-2.902887
 30
0.0
 10
4.3288022
 20
-3.1335105
 30
0.0
 10
4.3208236
 20
-3.3425179
 30
0.0
  0
SPLINE
  5
50b
100
AcDbEntity
  8
1
100
AcDbSpline
  6
CONTINUOUS
 62
40
210
0.0
220
0.0
230
0.0
 70
0
 71
3
 72
8
 73
4
 74
0
 42
1.0E-007
 43
1.0E-007
 44
0.0
 40
0.0
 40
0.0
 40
0.0
 40
0.0
 40
1.0
 40
1.0
 40
1.0
 40
1.0
 10
4.2122223
 20
8.5183426
 30
0.0
 10
4.2122223
 20
6.7922385
 30
0.0
 10
4.2549864
 20
5.067182
 30
0.0
 10
4.3208236
 20
3.3425186
 30
0.0
  0
SPLINE
  5
50c
100
AcDbEntity
  8
1
100
AcDbSpline
  6
CONTINUOUS
 62
40
210
0.0
220
0.0
230
0.0
 70
0
 71
3
 72
48
 73
44
 74
0
 42
1.0E-007
 43
1.0E-007
 44
0.0
 40
0.0
 40
0.0
 40
0.0
 40
0.0
 40
6.352267E-004
 40
2.3390622E-002
 40
4.6863963E-002
 40
7.0338241E-002
 40
9.2274655E-002
 40
1.1421233E-001
 40
1.3669937E-001
 40
1.5918784E-001
 40
1.8287687E-001
 40
2.065674E-001
 40
2.3078929E-001
 40
2.5501215E-001
 40
2.8198814E-001
 40
3.0896497E-001
 40
3.365766E-001
 40
3.6418859E-001
 40
3.9407953E-001
 40
4.2397001E-001
 40
4.5473001E-001
 40
4.8548813E-001
 40
5.1522743E-001
 40
5.4496462E-001
 40
5.6548524E-001
 40
5.8602682E-001
 40
6.065456E-001
 40
6.3355925E-001
 40
6.605717E-001
 40
6.8849057E-001
 40
7.1640892E-001
 40
7.4162211E-001
 40
7.6683511E-001
 40
7.9279076E-001
 40
8.1874656E-001
 40
8.4381546E-001
 40
8.6888461E-001
 40
8.9466589E-001
 40
9.2044727E-001
 40
9.4016661E-001
 40
9.5988613E-001
 40
9.7994305E-001
 40
1.0
 40
1.0
 40
1.0
 40
1.0
 10
3.805077E+001
 20
-9.5628701E+001
 30
0.0
 10
3.8050686E+001
 20
-9.5628703E+001
 30
0.0
 10
3.804759E+001
 20
-9.5628797E+001
 30
0.0
 10
3.8058798E+001
 20
-9.5628508E+001
 30
0.0
 10
3.8086598E+001
 20
-9.5627858E+001
 30
0.0
 10
3.8135207E+001
 20
-9.5626784E+001
 30
0.0
 10
3.8199538E+001
 20
-9.5625467E+001
 30
0.0
 10
3.8278674E+001
 20
-9.5624083E+001
 30
0.0
 10
3.8373592E+001
 20
-9.5622746E+001
 30
0.0
 10
3.8485546E+001
 20
-9.5621658E+001
 30
0.0
 10
3.861363E+001
 20
-9.5621108E+001
 30
0.0
 10
3.8758386E+001
 20
-9.5621406E+001
 30
0.0
 10
3.8916798E+001
 20
-9.5622918E+001
 30
0.0
 10
3.9094303E+001
 20
-9.5626131E+001
 30
0.0
 10
3.9290036E+001
 20
-9.563163E+001
 30
0.0
 10
3.9505488E+001
 20
-9.5640244E+001
 30
0.0
 10
3.9732639E+001
 20
-9.5652356E+001
 30
0.0
 10
3.9976729E+001
 20
-9.5668988E+001
 30
0.0
 10
4.0235326E+001
 20
-9.5691002E+001
 30
0.0
 10
4.0509905E+001
 20
-9.5719634E+001
 30
0.0
 10
4.0792056E+001
 20
-9.5755106E+001
 30
0.0
 10
4.1076615E+001
 20
-9.5797418E+001
 30
0.0
 10
4.1358567E+001
 20
-9.5846341E+001
 30
0.0
 10
4.1607133E+001
 20
-9.5895715E+001
 30
0.0
 10
4.1824374E+001
 20
-9.5943834E+001
 30
0.0
 10
4.2010672E+001
 20
-9.598857E+001
 30
0.0
 10
4.2212749E+001
 20
-9.604098E+001
 30
0.0
 10
4.2427975E+001
 20
-9.6101757E+001
 30
0.0
 10
4.2655189E+001
 20
-9.6171749E+001
 30
0.0
 10
4.2873302E+001
 20
-9.6244755E+001
 30
0.0
 10
4.3073572E+001
 20
-9.6316977E+001
 30
0.0
 10
4.3253462E+001
 20
-9.6386215E+001
 30
0.0
 10
4.3415325E+001
 20
-9.6452011E+001
 30
0.0
 10
4.3563817E+001
 20
-9.6515489E+001
 30
0.0
 10
4.3696271E+001
 20
-9.6574662E+001
 30
0.0
 10
4.381107E+001
 20
-9.6627902E+001
 30
0.0
 10
4.390946E+001
 20
-9.6674997E+001
 30
0.0
 10
4.3991695E+001
 20
-9.6715364E+001
 30
0.0
 10
4.4051877E+001
 20
-9.6745562E+001
 30
0.0
 10
4.4093539E+001
 20
-9.6766698E+001
 30
0.0
 10
4.41207E+001
 20
-9.6780612E+001
 30
0.0
 10
4.413787E+001
 20
-9.6789438E+001
 30
0.0
 10
4.4140017E+001
 20
-9.6790543E+001
 30
0.0
 10
4.4141091E+001
 20
-9.6791096E+001
 30
0.0
  0
LINE
  5
50d
100
AcDbEntity
  8
1
100
AcDbLine
  6
CONTINUOUS
 62
40
 10
4.2122224
 20
-8.5183416
 11
4.2122224
 21
-1.1286914E+001
  0
LINE
  5
50e
100
AcDbEntity
  8
1
100
AcDbLine
  6
CONTINUOUS
 62
40
 10
4.2122224
 20
1.1286915E+001
 11
4.2122224
 21
8.5183422
  0
LINE
  5
50f
100
AcDbEntity
  8
1
100
AcDbLine
  6
CONTINUOUS
 62
7
 10
5.9319695E+001
 20
-6.3E+001
 11
5.9319695E+001
 21
-9.7E+001
  0
ARC
  5
510
100
AcDbEntity
  8
1
100
AcDbCircle
  6
CONTINUOUS
 62
40
 10
4.8183757E+001
 20
-5.8101513E+001
 40
3.8898728E+001
100
AcDbArc
 50
2.6403483E+002
 51
2.7020023E+002
  0
LINE
  5
511
100
AcDbEntity
  8
1
100
AcDbLine
  6
CONTINUOUS
 62
40
 10
4.8319697E+001
 20
-6.3000001E+001
 11
4.759648E+001
 21
-6.2993981E+001
  0
LINE
  5
512
100
AcDbEntity
  8
1
100
AcDbLine
  6
CONTINUOUS
 62
40
 10
5.9319693E+001
 20
-6.3000001E+001
 11
4.8319697E+001
 21
-6.3000001E+001
  0
LINE
  5
513
100
AcDbEntity
  8
1
100
AcDbLine
  6
CONTINUOUS
 62
40
 10
4.8319697E+001
 20
-9.7000003E+001
 11
5.9319693E+001
 21
-9.7000003E+001
  0
LINE
  5
514
100
AcDbEntity
  8
1
100
AcDbLine
  6
CONTINUOUS
 62
40
 10
5.9319693E+001
 20
-6.3000001E+001
 11
5.9319693E+001
 21
-9.7000003E+001
  0
POINT
  5
515
100
AcDbEntity
  8
Drafting_Hidden_Entities
100
AcDbPoint
  6
CONTINUOUS
 62
1
 10
0.0
 20
0.0
  0
LINE
  5
516
100
AcDbEntity
  8
1
100
AcDbLine
  6
CENTERLINE
 62
1
 10
8.3535387E+001
 20
-1.011911E+002
 11
8.3535387E+001
 21
-6.0157679E+001
  0
POINT
  5
517
100
AcDbEntity
  8
Drafting_Hidden_Entities
100
AcDbPoint
  6
CONTINUOUS
 62
1
 10
0.0
 20
0.0
  0
ENDBLK
  5
518
100
AcDbEntity
100
AcDbBlockEnd
  0
BLOCK
  5
519
100
AcDbEntity
100
AcDbBlockBegin
  2
UUIR
 10
0.0
 20
0.0
 70
0
  0
LINE
  5
51a
100
AcDbEntity
  8
1
100
AcDbLine
  6
CONTINUOUS
 62
40
 10
-1.65E+001
 20
-1.45E+002
 11
1.65E+001
 21
-1.45E+002
  0
LINE
  5
51b
100
AcDbEntity
  8
1
100
AcDbLine
  6
CONTINUOUS
 62
40
 10
1.85E+001
 20
-1.43E+002
 11
1.85E+001
 21
-2.0
  0
LINE
  5
51c
100
AcDbEntity
  8
1
100
AcDbLine
  6
CONTINUOUS
 62
40
 10
1.65E+001
 20
0.0
 11
-1.65E+001
 21
0.0
  0
LINE
  5
51d
100
AcDbEntity
  8
1
100
AcDbLine
  6
CONTINUOUS
 62
40
 10
-1.85E+001
 20
-2.0
 11
-1.85E+001
 21
-1.43E+002
  0
ARC
  5
51e
100
AcDbEntity
  8
1
100
AcDbCircle
  6
CONTINUOUS
 62
40
 10
1.65E+001
 20
-2.0
 40
2.0
100
AcDbArc
 50
0.0
 51
9.0E+001
  0
ARC
  5
51f
100
AcDbEntity
  8
1
100
AcDbCircle
  6
CONTINUOUS
 62
40
 10
-1.65E+001
 20
-2.0
 40
2.0
100
AcDbArc
 50
9.0E+001
 51
1.8E+002
  0
ARC
  5
520
100
AcDbEntity
  8
1
100
AcDbCircle
  6
CONTINUOUS
 62
40
 10
-1.65E+001
 20
-1.43E+002
 40
2.0
100
AcDbArc
 50
1.8E+002
 51
2.7E+002
  0
ARC
  5
521
100
AcDbEntity
  8
1
100
AcDbCircle
  6
CONTINUOUS
 62
40
 10
1.65E+001
 20
-1.43E+002
 40
2.0
100
AcDbArc
 50
2.7E+002
 51
3.6E+002
  0
CIRCLE
  5
522
100
AcDbEntity
  8
1
100
AcDbCircle
  6
CONTINUOUS
 62
1
 10
9.25
 20
-1.29E+002
 40
3.0
  0
CIRCLE
  5
523
100
AcDbEntity
  8
1
100
AcDbCircle
  6
CONTINUOUS
 62
1
 10
-9.25
 20
-1.29E+002
 40
3.0
  0
CIRCLE
  5
524
100
AcDbEntity
  8
1
100
AcDbCircle
  6
CONTINUOUS
 62
1
 10
-9.25
 20
-1.6E+001
 40
3.0
  0
CIRCLE
  5
525
100
AcDbEntity
  8
1
100
AcDbCircle
  6
CONTINUOUS
 62
1
 10
9.25
 20
-1.6E+001
 40
3.0
  0
LINE
  5
526
100
AcDbEntity
  8
1
100
AcDbLine
  6
CONTINUOUS
 62
1
 10
9.25
 20
-1.6E+001
 11
9.25
 21
-1.6E+001
  0
LINE
  5
527
100
AcDbEntity
  8
1
100
AcDbLine
  6
CONTINUOUS
 62
1
 10
9.25
 20
-1.6E+001
 11
9.25
 21
-1.6E+001
  0
LINE
  5
528
100
AcDbEntity
  8
1
100
AcDbLine
  6
CENTERLINE
 62
1
 10
9.25
 20
-1.6E+001
 11
1.425E+001
 21
-1.6E+001
  0
LINE
  5
529
100
AcDbEntity
  8
1
100
AcDbLine
  6
CENTERLINE
 62
1
 10
9.25
 20
-1.6E+001
 11
9.25
 21
-1.1E+001
  0
LINE
  5
52a
100
AcDbEntity
  8
1
100
AcDbLine
  6
CENTERLINE
 62
1
 10
9.25
 20
-1.6E+001
 11
4.25
 21
-1.6E+001
  0
LINE
  5
52b
100
AcDbEntity
  8
1
100
AcDbLine
  6
CENTERLINE
 62
1
 10
9.25
 20
-1.6E+001
 11
9.25
 21
-2.1E+001
  0
LINE
  5
52c
100
AcDbEntity
  8
1
100
AcDbLine
  6
CONTINUOUS
 62
1
 10
-9.25
 20
-1.6E+001
 11
-9.25
 21
-1.6E+001
  0
LINE
  5
52d
100
AcDbEntity
  8
1
100
AcDbLine
  6
CONTINUOUS
 62
1
 10
-9.25
 20
-1.6E+001
 11
-9.25
 21
-1.6E+001
  0
LINE
  5
52e
100
AcDbEntity
  8
1
100
AcDbLine
  6
CENTERLINE
 62
1
 10
-9.25
 20
-1.6E+001
 11
-4.25
 21
-1.6E+001
  0
LINE
  5
52f
100
AcDbEntity
  8
1
100
AcDbLine
  6
CENTERLINE
 62
1
 10
-9.25
 20
-1.6E+001
 11
-9.25
 21
-1.1E+001
  0
LINE
  5
530
100
AcDbEntity
  8
1
100
AcDbLine
  6
CENTERLINE
 62
1
 10
-9.25
 20
-1.6E+001
 11
-1.425E+001
 21
-1.6E+001
  0
LINE
  5
531
100
AcDbEntity
  8
1
100
AcDbLine
  6
CENTERLINE
 62
1
 10
-9.25
 20
-1.6E+001
 11
-9.25
 21
-2.1E+001
  0
LINE
  5
532
100
AcDbEntity
  8
1
100
AcDbLine
  6
CONTINUOUS
 62
1
 10
9.25
 20
-1.29E+002
 11
9.25
 21
-1.29E+002
  0
LINE
  5
533
100
AcDbEntity
  8
1
100
AcDbLine
  6
CONTINUOUS
 62
1
 10
9.25
 20
-1.29E+002
 11
9.25
 21
-1.29E+002
  0
LINE
  5
534
100
AcDbEntity
  8
1
100
AcDbLine
  6
CENTERLINE
 62
1
 10
9.25
 20
-1.29E+002
 11
1.425E+001
 21
-1.29E+002
  0
LINE
  5
535
100
AcDbEntity
  8
1
100
AcDbLine
  6
CENTERLINE
 62
1
 10
9.25
 20
-1.29E+002
 11
9.25
 21
-1.24E+002
  0
LINE
  5
536
100
AcDbEntity
  8
1
100
AcDbLine
  6
CENTERLINE
 62
1
 10
9.25
 20
-1.29E+002
 11
4.25
 21
-1.29E+002
  0
LINE
  5
537
100
AcDbEntity
  8
1
100
AcDbLine
  6
CENTERLINE
 62
1
 10
9.25
 20
-1.29E+002
 11
9.25
 21
-1.34E+002
  0
LINE
  5
538
100
AcDbEntity
  8
1
100
AcDbLine
  6
CONTINUOUS
 62
1
 10
-9.25
 20
-1.29E+002
 11
-9.25
 21
-1.29E+002
  0
LINE
  5
539
100
AcDbEntity
  8
1
100
AcDbLine
  6
CONTINUOUS
 62
1
 10
-9.25
 20
-1.29E+002
 11
-9.25
 21
-1.29E+002
  0
LINE
  5
53a
100
AcDbEntity
  8
1
100
AcDbLine
  6
CENTERLINE
 62
1
 10
-9.25
 20
-1.29E+002
 11
-4.25
 21
-1.29E+002
  0
LINE
  5
53b
100
AcDbEntity
  8
1
100
AcDbLine
  6
CENTERLINE
 62
1
 10
-9.25
 20
-1.29E+002
 11
-9.25
 21
-1.24E+002
  0
LINE
  5
53c
100
AcDbEntity
  8
1
100
AcDbLine
  6
CENTERLINE
 62
1
 10
-9.25
 20
-1.29E+002
 11
-1.425E+001
 21
-1.29E+002
  0
LINE
  5
53d
100
AcDbEntity
  8
1
100
AcDbLine
  6
CENTERLINE
 62
1
 10
-9.25
 20
-1.29E+002
 11
-9.25
 21
-1.34E+002
  0
LINE
  5
53e
100
AcDbEntity
  8
1
100
AcDbLine
  6
CONTINUOUS
 62
40
 10
1.65E+001
 20
-1.45E+002
 11
-1.65E+001
 21
-1.45E+002
  0
LINE
  5
53f
100
AcDbEntity
  8
1
100
AcDbLine
  6
CONTINUOUS
 62
40
 10
-3.4E+001
 20
-8.55E+001
 11
-3.4E+001
 21
-5.95E+001
  0
LINE
  5
540
100
AcDbEntity
  8
1
100
AcDbLine
  6
CONTINUOUS
 62
40
 10
-1.85E+001
 20
-5.95E+001
 11
-3.4E+001
 21
-5.95E+001
  0
LINE
  5
541
100
AcDbEntity
  8
1
100
AcDbLine
  6
CONTINUOUS
 62
40
 10
-1.85E+001
 20
-8.55E+001
 11
-3.4E+001
 21
-8.55E+001
  0
POINT
  5
542
100
AcDbEntity
  8
Drafting_Hidden_Entities
100
AcDbPoint
  6
CONTINUOUS
 62
1
 10
0.0
 20
0.0
  0
ENDBLK
  5
543
100
AcDbEntity
100
AcDbBlockEnd
  0
BLOCK
  5
544
100
AcDbEntity
100
AcDbBlockBegin
  2
*TX88
  3
*TX
 10
0.0
 20
0.0
 70
65
  0
TEXT
  5
545
100
AcDbEntity
  8
103
100
AcDbText
  6
CONTINUOUS
 62
40
 10
-6.46875
 20
-5.0
 40
1.0E+001
  1
  
 41
6.46875E-001
 72
1
 11
0.0
 21
0.0
100
AcDbText
 73
2
  0
TEXT
  5
546
100
AcDbEntity
  8
103
100
AcDbText
  6
CONTINUOUS
 62
40
 10
-2.5875E+001
 20
-2.0E+001
 40
1.0E+001
  1
04.03.04
 41
6.46875E-001
 72
1
 11
0.0
 21
-1.5E+001
100
AcDbText
 73
2
  0
ENDBLK
  5
547
100
AcDbEntity
100
AcDbBlockEnd
  0
BLOCK
  5
548
100
AcDbEntity
100
AcDbBlockBegin
  2
*TX89
  3
*TX
 10
0.0
 20
0.0
 70
65
  0
TEXT
  5
549
100
AcDbEntity
  8
1
100
AcDbText
  6
CONTINUOUS
 62
40
 10
-6.46875
 20
-5.0
 40
1.0E+001
  1
  
 41
6.46875E-001
 72
1
 11
0.0
 21
0.0
100
AcDbText
 73
2
  0
TEXT
  5
54a
100
AcDbEntity
  8
1
100
AcDbText
  6
CONTINUOUS
 62
40
 10
-2.5875E+001
 20
-2.0E+001
 40
1.0E+001
  1
19.11.08
 41
6.46875E-001
 72
1
 11
0.0
 21
-1.5E+001
100
AcDbText
 73
2
  0
ENDBLK
  5
54b
100
AcDbEntity
100
AcDbBlockEnd
  0
BLOCK
  5
54c
100
AcDbEntity
100
AcDbBlockBegin
  2
_AH1
 70
0
 10
0.0
 20
0.0
  3
_AH1
  0
LINE
  5
54d
100
AcDbEntity
  8
0
100
AcDbLine
  6
CONTINUOUS
 62
0
 10
-1.0
 20
1.66667E-001
 11
0.0
 21
0.0
  0
LINE
  5
54e
100
AcDbEntity
  8
0
100
AcDbLine
  6
CONTINUOUS
 62
0
 10
0.0
 20
0.0
 11
-1.0
 21
-1.66667E-001
  0
LINE
  5
54f
100
AcDbEntity
  8
0
100
AcDbLine
  6
CONTINUOUS
 62
0
 10
-1.0
 20
1.66667E-001
 11
-1.0
 21
-1.66667E-001
  0
LINE
  5
550
100
AcDbEntity
  8
0
100
AcDbLine
  6
CONTINUOUS
 62
0
 10
0.0
 20
0.0
 11
-1.0
 21
0.0
  0
ENDBLK
  5
551
100
AcDbEntity
100
AcDbBlockEnd
  0
BLOCK
  5
552
100
AcDbEntity
100
AcDbBlockBegin
  2
_AH2
 70
0
 10
0.0
 20
0.0
  3
_AH2
  0
LINE
  5
553
100
AcDbEntity
  8
0
100
AcDbLine
  6
CONTINUOUS
 62
0
 10
-1.0
 20
1.66667E-001
 11
0.0
 21
0.0
  0
LINE
  5
554
100
AcDbEntity
  8
0
100
AcDbLine
  6
CONTINUOUS
 62
0
 10
0.0
 20
0.0
 11
-1.0
 21
-1.66667E-001
  0
LINE
  5
555
100
AcDbEntity
  8
0
100
AcDbLine
  6
CONTINUOUS
 62
0
 10
0.0
 20
0.0
 11
-1.0
 21
0.0
  0
ENDBLK
  5
556
100
AcDbEntity
100
AcDbBlockEnd
  0
BLOCK
  5
557
100
AcDbEntity
100
AcDbBlockBegin
  2
*D270
  3
*D
 10
0.0
 20
0.0
 70
65
  0
LINE
  5
558
100
AcDbEntity
  8
100
100
AcDbLine
  6
CONTINUOUS
 62
1
 10
7.2912189E+001
 20
3.0E+001
 11
1.3373706E+002
 21
3.0E+001
  0
LINE
  5
559
100
AcDbEntity
  8
100
100
AcDbLine
  6
CONTINUOUS
 62
1
 10
-2.9657154E+001
 20
-3.0E+001
 11
1.3373706E+002
 21
-3.0E+001
  0
LINE
  5
55a
100
AcDbEntity
  8
100
100
AcDbLine
  6
CONTINUOUS
 62
1
 10
1.3073706E+002
 20
3.0E+001
 11
1.3073706E+002
 21
1.1910677
  0
LINE
  5
55b
100
AcDbEntity
  8
100
100
AcDbLine
  6
CONTINUOUS
 62
1
 10
1.3073706E+002
 20
-3.0E+001
 11
1.3073706E+002
 21
1.1910677
  0
TEXT
  5
55c
100
AcDbEntity
  8
100
100
AcDbText
  6
CONTINUOUS
 62
1
 10
1.2773506E+002
 20
-4.4089323
 40
7.0
  1
60
 41
8.0E-001
 50
9.0E+001
100
AcDbText
  0
INSERT
  5
55d
100
AcDbEntity
100
AcDbBlockReference
  2
_AH13
  8
100
 62
1
 10
1.3073706E+002
 20
3.0E+001
 41
8.0
 42
8.0
 43
8.0
 50
2.7E+002
  0
INSERT
  5
55e
100
AcDbEntity
100
AcDbBlockReference
  2
_AH13
  8
100
 62
1
 10
1.3073706E+002
 20
-3.0E+001
 41
8.0
 42
8.0
 43
8.0
 50
4.5E+002
  0
ENDBLK
  5
55f
100
AcDbEntity
100
AcDbBlockEnd
  0
BLOCK
  5
560
100
AcDbEntity
100
AcDbBlockBegin
  2
*D614
  3
*D
 10
0.0
 20
0.0
 70
65
  0
LINE
  5
561
100
AcDbEntity
  8
1
100
AcDbLine
  6
CONTINUOUS
 62
1
 10
1.6677365E+002
 20
5.6435049E+002
 11
1.6677365E+002
 21
5.9535156E+002
  0
LINE
  5
562
100
AcDbEntity
  8
1
100
AcDbLine
  6
CONTINUOUS
 62
1
 10
1.9077365E+002
 20
5.6435049E+002
 11
1.9077365E+002
 21
5.9535156E+002
  0
LINE
  5
563
100
AcDbEntity
  8
1
100
AcDbLine
  6
CONTINUOUS
 62
1
 10
1.6677365E+002
 20
5.9235156E+002
 11
1.3208842E+002
 21
5.9235156E+002
  0
LINE
  5
564
100
AcDbEntity
  8
1
100
AcDbLine
  6
CONTINUOUS
 62
1
 10
2.0677365E+002
 20
5.9235156E+002
 11
1.6677365E+002
 21
5.9235156E+002
  0
TEXT
  5
565
100
AcDbEntity
  8
1
100
AcDbText
  6
CONTINUOUS
 62
1
 10
1.3508842E+002
 20
5.9535356E+002
 40
1.0E+001
  1
24
 41
8.0E-001
100
AcDbText
  0
INSERT
  5
566
100
AcDbEntity
100
AcDbBlockReference
  2
_AH13
  8
1
 62
1
 10
1.6677365E+002
 20
5.9235156E+002
 41
8.0
 42
8.0
 43
8.0
 50
1.8E+002
  0
INSERT
  5
567
100
AcDbEntity
100
AcDbBlockReference
  2
_AH13
  8
1
 62
1
 10
1.9077365E+002
 20
5.9235156E+002
 41
8.0
 42
8.0
 43
8.0
 50
3.6E+002
  0
ENDBLK
  5
568
100
AcDbEntity
100
AcDbBlockEnd
  0
BLOCK
  5
569
100
AcDbEntity
100
AcDbBlockBegin
  2
*D615
  3
*D
 10
0.0
 20
0.0
 70
65
  0
LINE
  5
56a
100
AcDbEntity
  8
1
100
AcDbLine
  6
CONTINUOUS
 62
1
 10
1.9527365E+002
 20
7.5872485E+002
 11
2.3804483E+002
 21
7.5872485E+002
  0
LINE
  5
56b
100
AcDbEntity
  8
1
100
AcDbLine
  6
CONTINUOUS
 62
1
 10
1.9527365E+002
 20
6.4672485E+002
 11
2.3804483E+002
 21
6.4672485E+002
  0
LINE
  5
56c
100
AcDbEntity
  8
1
100
AcDbLine
  6
CONTINUOUS
 62
1
 10
2.3504483E+002
 20
7.5872485E+002
 11
2.3504483E+002
 21
7.0749963E+002
  0
LINE
  5
56d
100
AcDbEntity
  8
1
100
AcDbLine
  6
CONTINUOUS
 62
1
 10
2.3504483E+002
 20
6.4672485E+002
 11
2.3504483E+002
 21
7.0749963E+002
  0
TEXT
  5
56e
100
AcDbEntity
  8
1
100
AcDbText
  6
CONTINUOUS
 62
1
 10
2.3204283E+002
 20
6.9549963E+002
 40
1.0E+001
  1
112
 41
8.0E-001
 50
9.0E+001
100
AcDbText
  0
INSERT
  5
56f
100
AcDbEntity
100
AcDbBlockReference
  2
_AH13
  8
1
 62
1
 10
2.3504483E+002
 20
7.5872485E+002
 41
8.0
 42
8.0
 43
8.0
 50
2.7E+002
  0
INSERT
  5
570
100
AcDbEntity
100
AcDbBlockReference
  2
_AH13
  8
1
 62
1
 10
2.3504483E+002
 20
6.4672485E+002
 41
8.0
 42
8.0
 43
8.0
 50
4.5E+002
  0
ENDBLK
  5
571
100
AcDbEntity
100
AcDbBlockEnd
  0
BLOCK
  5
572
100
AcDbEntity
100
AcDbBlockBegin
  2
*D616
  3
*D
 10
0.0
 20
0.0
 70
65
  0
LINE
  5
573
100
AcDbEntity
  8
1
100
AcDbLine
  6
CONTINUOUS
 62
1
 10
1.9177365E+002
 20
7.7372485E+002
 11
2.3804483E+002
 21
7.7372485E+002
  0
LINE
  5
574
100
AcDbEntity
  8
1
100
AcDbLine
  6
CONTINUOUS
 62
1
 10
1.9177365E+002
 20
7.5872485E+002
 11
2.3804483E+002
 21
7.5872485E+002
  0
LINE
  5
575
100
AcDbEntity
  8
1
100
AcDbLine
  6
CONTINUOUS
 62
1
 10
2.3504483E+002
 20
7.7372485E+002
 11
2.3504483E+002
 21
7.9605596E+002
  0
LINE
  5
576
100
AcDbEntity
  8
1
100
AcDbLine
  6
CONTINUOUS
 62
1
 10
2.3504483E+002
 20
7.4272485E+002
 11
2.3504483E+002
 21
7.7372485E+002
  0
TEXT
  5
577
100
AcDbEntity
  8
1
100
AcDbText
  6
CONTINUOUS
 62
1
 10
2.3204283E+002
 20
7.7705596E+002
 40
1.0E+001
  1
15
 41
8.0E-001
 50
9.0E+001
100
AcDbText
  0
INSERT
  5
578
100
AcDbEntity
100
AcDbBlockReference
  2
_AH13
  8
1
 62
1
 10
2.3504483E+002
 20
7.7372485E+002
 41
8.0
 42
8.0
 43
8.0
 50
4.5E+002
  0
INSERT
  5
579
100
AcDbEntity
100
AcDbBlockReference
  2
_AH13
  8
1
 62
1
 10
2.3504483E+002
 20
7.5872485E+002
 41
8.0
 42
8.0
 43
8.0
 50
6.3E+002
  0
ENDBLK
  5
57a
100
AcDbEntity
100
AcDbBlockEnd
  0
BLOCK
  5
57b
100
AcDbEntity
100
AcDbBlockBegin
  2
*D617
  3
*D
 10
0.0
 20
0.0
 70
65
  0
LINE
  5
57c
100
AcDbEntity
  8
1
100
AcDbLine
  6
CONTINUOUS
 62
1
 10
1.6652365E+002
 20
7.3872485E+002
 11
1.3365327E+002
 21
7.3872485E+002
  0
LINE
  5
57d
100
AcDbEntity
  8
1
100
AcDbLine
  6
CONTINUOUS
 62
1
 10
1.6452365E+002
 20
6.6172485E+002
 11
1.3365327E+002
 21
6.6172485E+002
  0
LINE
  5
57e
100
AcDbEntity
  8
1
100
AcDbLine
  6
CONTINUOUS
 62
1
 10
1.3665327E+002
 20
7.3872485E+002
 11
1.3665327E+002
 21
7.0465178E+002
  0
LINE
  5
57f
100
AcDbEntity
  8
1
100
AcDbLine
  6
CONTINUOUS
 62
1
 10
1.3665327E+002
 20
6.6172485E+002
 11
1.3665327E+002
 21
7.0465178E+002
  0
TEXT
  5
580
100
AcDbEntity
  8
1
100
AcDbText
  6
CONTINUOUS
 62
1
 10
1.3365127E+002
 20
6.9665178E+002
 40
1.0E+001
  1
77
 41
8.0E-001
 50
9.0E+001
100
AcDbText
  0
INSERT
  5
581
100
AcDbEntity
100
AcDbBlockReference
  2
_AH13
  8
1
 62
1
 10
1.3665327E+002
 20
7.3872485E+002
 41
8.0
 42
8.0
 43
8.0
 50
2.7E+002
  0
INSERT
  5
582
100
AcDbEntity
100
AcDbBlockReference
  2
_AH13
  8
1
 62
1
 10
1.3665327E+002
 20
6.6172485E+002
 41
8.0
 42
8.0
 43
8.0
 50
4.5E+002
  0
ENDBLK
  5
583
100
AcDbEntity
100
AcDbBlockEnd
  0
BLOCK
  5
584
100
AcDbEntity
100
AcDbBlockBegin
  2
*D618
  3
*D
 10
0.0
 20
0.0
 70
65
  0
LINE
  5
585
100
AcDbEntity
  8
1
100
AcDbLine
  6
CONTINUOUS
 62
1
 10
1.6652365E+002
 20
7.3872485E+002
 11
1.3365327E+002
 21
7.3872485E+002
  0
LINE
  5
586
100
AcDbEntity
  8
1
100
AcDbLine
  6
CONTINUOUS
 62
1
 10
1.6227365E+002
 20
7.5872485E+002
 11
1.3365327E+002
 21
7.5872485E+002
  0
LINE
  5
587
100
AcDbEntity
  8
1
100
AcDbLine
  6
CONTINUOUS
 62
1
 10
1.3665327E+002
 20
7.2272485E+002
 11
1.3665327E+002
 21
7.5872485E+002
  0
LINE
  5
588
100
AcDbEntity
  8
1
100
AcDbLine
  6
CONTINUOUS
 62
1
 10
1.3665327E+002
 20
7.5872485E+002
 11
1.3665327E+002
 21
7.8591398E+002
  0
TEXT
  5
589
100
AcDbEntity
  8
1
100
AcDbText
  6
CONTINUOUS
 62
1
 10
1.3365127E+002
 20
7.6691398E+002
 40
1.0E+001
  1
20
 41
8.0E-001
 50
9.0E+001
100
AcDbText
  0
INSERT
  5
58a
100
AcDbEntity
100
AcDbBlockReference
  2
_AH13
  8
1
 62
1
 10
1.3665327E+002
 20
7.3872485E+002
 41
8.0
 42
8.0
 43
8.0
 50
2.7E+002
  0
INSERT
  5
58b
100
AcDbEntity
100
AcDbBlockReference
  2
_AH13
  8
1
 62
1
 10
1.3665327E+002
 20
7.5872485E+002
 41
8.0
 42
8.0
 43
8.0
 50
4.5E+002
  0
ENDBLK
  5
58c
100
AcDbEntity
100
AcDbBlockEnd
  0
BLOCK
  5
58d
100
AcDbEntity
100
AcDbBlockBegin
  2
*D619
  3
*D
 10
0.0
 20
0.0
 70
65
  0
LINE
  5
58e
100
AcDbEntity
  8
1
100
AcDbLine
  6
CONTINUOUS
 62
1
 10
1.6577365E+002
 20
7.7372485E+002
 11
1.6577365E+002
 21
7.8967282E+002
  0
LINE
  5
58f
100
AcDbEntity
  8
1
100
AcDbLine
  6
CONTINUOUS
 62
1
 10
1.9177365E+002
 20
7.7372485E+002
 11
1.9177365E+002
 21
7.8967282E+002
  0
LINE
  5
590
100
AcDbEntity
  8
1
100
AcDbLine
  6
CONTINUOUS
 62
1
 10
1.6577365E+002
 20
7.8667282E+002
 11
1.7987915E+002
 21
7.8667282E+002
  0
LINE
  5
591
100
AcDbEntity
  8
1
100
AcDbLine
  6
CONTINUOUS
 62
1
 10
1.9177365E+002
 20
7.8667282E+002
 11
1.7987915E+002
 21
7.8667282E+002
  0
TEXT
  5
592
100
AcDbEntity
  8
1
100
AcDbText
  6
CONTINUOUS
 62
1
 10
1.7187915E+002
 20
7.8967482E+002
 40
1.0E+001
  1
26
 41
8.0E-001
100
AcDbText
  0
INSERT
  5
593
100
AcDbEntity
100
AcDbBlockReference
  2
_AH13
  8
1
 62
1
 10
1.6577365E+002
 20
7.8667282E+002
 41
8.0
 42
8.0
 43
8.0
 50
0.0
  0
INSERT
  5
594
100
AcDbEntity
100
AcDbBlockReference
  2
_AH13
  8
1
 62
1
 10
1.9177365E+002
 20
7.8667282E+002
 41
8.0
 42
8.0
 43
8.0
 50
1.8E+002
  0
ENDBLK
  5
595
100
AcDbEntity
100
AcDbBlockEnd
  0
BLOCK
  5
596
100
AcDbEntity
100
AcDbBlockBegin
  2
*D620
  3
*D
 10
0.0
 20
0.0
 70
65
  0
LINE
  5
597
100
AcDbEntity
  8
1
100
AcDbLine
  6
CONTINUOUS
 62
1
 10
1.9727365E+002
 20
7.5672485E+002
 11
1.9727365E+002
 21
8.0752775E+002
  0
LINE
  5
598
100
AcDbEntity
  8
1
100
AcDbLine
  6
CONTINUOUS
 62
1
 10
1.6027365E+002
 20
7.5672485E+002
 11
1.6027365E+002
 21
8.0752775E+002
  0
LINE
  5
599
100
AcDbEntity
  8
1
100
AcDbLine
  6
CONTINUOUS
 62
1
 10
1.9727365E+002
 20
8.0452775E+002
 11
1.8012043E+002
 21
8.0452775E+002
  0
LINE
  5
59a
100
AcDbEntity
  8
1
100
AcDbLine
  6
CONTINUOUS
 62
1
 10
1.6027365E+002
 20
8.0452775E+002
 11
1.8012043E+002
 21
8.0452775E+002
  0
TEXT
  5
59b
100
AcDbEntity
  8
1
100
AcDbText
  6
CONTINUOUS
 62
1
 10
1.7212043E+002
 20
8.0752975E+002
 40
1.0E+001
  1
37
 41
8.0E-001
 50
3.6E+002
100
AcDbText
  0
INSERT
  5
59c
100
AcDbEntity
100
AcDbBlockReference
  2
_AH13
  8
1
 62
1
 10
1.9727365E+002
 20
8.0452775E+002
 41
8.0
 42
8.0
 43
8.0
 50
1.8E+002
  0
INSERT
  5
59d
100
AcDbEntity
100
AcDbBlockReference
  2
_AH13
  8
1
 62
1
 10
1.6027365E+002
 20
8.0452775E+002
 41
8.0
 42
8.0
 43
8.0
 50
3.6E+002
  0
ENDBLK
  5
59e
100
AcDbEntity
100
AcDbBlockEnd
  0
BLOCK
  5
59f
100
AcDbEntity
100
AcDbBlockBegin
  2
*D622
  3
*D
 10
0.0
 20
0.0
 70
65
  0
LINE
  5
5a0
100
AcDbEntity
  8
1
100
AcDbLine
  6
CONTINUOUS
 62
1
 10
1.6227346E+002
 20
3.2205234E+002
 11
9.7755981E+001
 21
3.2205362E+002
  0
LINE
  5
5a1
100
AcDbEntity
  8
1
100
AcDbLine
  6
CONTINUOUS
 62
1
 10
1.6227635E+002
 20
4.6705234E+002
 11
9.775887E+001
 21
4.6705362E+002
  0
LINE
  5
5a2
100
AcDbEntity
  8
1
100
AcDbLine
  6
CONTINUOUS
 62
1
 10
1.0075598E+002
 20
3.2205356E+002
 11
1.0075744E+002
 21
3.9542864E+002
  0
LINE
  5
5a3
100
AcDbEntity
  8
1
100
AcDbLine
  6
CONTINUOUS
 62
1
 10
1.0075887E+002
 20
4.6705356E+002
 11
1.0075744E+002
 21
3.9542864E+002
  0
TEXT
  5
5a4
100
AcDbEntity
  8
1
100
AcDbText
  6
CONTINUOUS
 62
1
 10
9.7755204E+001
 20
3.834287E+002
 40
1.0E+001
  1
145
 41
8.0E-001
 50
8.9998859E+001
100
AcDbText
  0
INSERT
  5
5a5
100
AcDbEntity
100
AcDbBlockReference
  2
_AH13
  8
1
 62
1
 10
1.0075598E+002
 20
3.2205356E+002
 41
8.0
 42
8.0
 43
8.0
 50
8.9998859E+001
  0
INSERT
  5
5a6
100
AcDbEntity
100
AcDbBlockReference
  2
_AH13
  8
1
 62
1
 10
1.0075887E+002
 20
4.6705356E+002
 41
8.0
 42
8.0
 43
8.0
 50
2.6999886E+002
  0
ENDBLK
  5
5a7
100
AcDbEntity
100
AcDbBlockEnd
  0
BLOCK
  5
5a8
100
AcDbEntity
100
AcDbBlockBegin
  2
*D624
  3
*D
 10
0.0
 20
0.0
 70
65
  0
LINE
  5
5a9
100
AcDbEntity
  8
1
100
AcDbLine
  6
CONTINUOUS
 62
1
 10
1.6462365E+002
 20
4.6705234E+002
 11
9.7757443E+001
 21
4.6705234E+002
  0
LINE
  5
5aa
100
AcDbEntity
  8
1
100
AcDbLine
  6
CONTINUOUS
 62
1
 10
1.6577365E+002
 20
7.5872485E+002
 11
9.7757443E+001
 21
7.5872485E+002
  0
LINE
  5
5ab
100
AcDbEntity
  8
1
100
AcDbLine
  6
CONTINUOUS
 62
1
 10
1.0075744E+002
 20
4.6705234E+002
 11
1.0075744E+002
 21
6.3499085E+002
  0
LINE
  5
5ac
100
AcDbEntity
  8
1
100
AcDbLine
  6
CONTINUOUS
 62
1
 10
1.0075744E+002
 20
7.5872485E+002
 11
1.0075744E+002
 21
6.3499085E+002
  0
TEXT
  5
5ad
100
AcDbEntity
  8
1
100
AcDbText
  6
CONTINUOUS
 62
1
 10
9.7755443E+001
 20
5.5499085E+002
 40
1.0E+001
  1
max.1142 7 max. 2272
 41
8.0E-001
 50
9.0E+001
100
AcDbText
  0
INSERT
  5
5ae
100
AcDbEntity
100
AcDbBlockReference
  2
_AH13
  8
1
 62
1
 10
1.0075744E+002
 20
4.6705234E+002
 41
8.0
 42
8.0
 43
8.0
 50
9.0E+001
  0
INSERT
  5
5af
100
AcDbEntity
100
AcDbBlockReference
  2
_AH13
  8
1
 62
1
 10
1.0075744E+002
 20
7.5872485E+002
 41
8.0
 42
8.0
 43
8.0
 50
2.7E+002
  0
ENDBLK
  5
5b0
100
AcDbEntity
100
AcDbBlockEnd
  0
BLOCK
  5
5b1
100
AcDbEntity
100
AcDbBlockBegin
  2
*D625
  3
*D
 10
0.0
 20
0.0
 70
65
  0
LINE
  5
5b2
100
AcDbEntity
  8
1
100
AcDbLine
  6
CONTINUOUS
 62
1
 10
1.6577365E+002
 20
3.5368833E+001
 11
9.7752874E+001
 21
3.5368833E+001
  0
LINE
  5
5b3
100
AcDbEntity
  8
1
100
AcDbLine
  6
CONTINUOUS
 62
1
 10
1.6227635E+002
 20
3.2205234E+002
 11
9.7752874E+001
 21
3.2205234E+002
  0
LINE
  5
5b4
100
AcDbEntity
  8
1
100
AcDbLine
  6
CONTINUOUS
 62
1
 10
1.0075287E+002
 20
3.5368833E+001
 11
1.0075287E+002
 21
1.6606849E+002
  0
LINE
  5
5b5
100
AcDbEntity
  8
1
100
AcDbLine
  6
CONTINUOUS
 62
1
 10
1.0075287E+002
 20
3.2205234E+002
 11
1.0075287E+002
 21
1.6606849E+002
  0
TEXT
  5
5b6
100
AcDbEntity
  8
1
100
AcDbText
  6
CONTINUOUS
 62
1
 10
9.7750874E+001
 20
1.5406849E+002
 40
1.0E+001
  1
958
 41
8.0E-001
 50
9.0E+001
100
AcDbText
  0
INSERT
  5
5b7
100
AcDbEntity
100
AcDbBlockReference
  2
_AH13
  8
1
 62
1
 10
1.0075287E+002
 20
3.5368833E+001
 41
8.0
 42
8.0
 43
8.0
 50
9.0E+001
  0
INSERT
  5
5b8
100
AcDbEntity
100
AcDbBlockReference
  2
_AH13
  8
1
 62
1
 10
1.0075287E+002
 20
3.2205234E+002
 41
8.0
 42
8.0
 43
8.0
 50
2.7E+002
  0
ENDBLK
  5
5b9
100
AcDbEntity
100
AcDbBlockEnd
  0
BLOCK
  5
5ba
100
AcDbEntity
100
AcDbBlockBegin
  2
*D626
  3
*D
 10
0.0
 20
0.0
 70
65
  0
LINE
  5
5bb
100
AcDbEntity
  8
1
100
AcDbLine
  6
CONTINUOUS
 62
1
 10
1.6577365E+002
 20
3.5368833E+001
 11
6.6207892E+001
 21
3.5368833E+001
  0
LINE
  5
5bc
100
AcDbEntity
  8
1
100
AcDbLine
  6
CONTINUOUS
 62
1
 10
1.6577365E+002
 20
7.5872485E+002
 11
6.6207892E+001
 21
7.5872485E+002
  0
LINE
  5
5bd
100
AcDbEntity
  8
1
100
AcDbLine
  6
CONTINUOUS
 62
1
 10
6.9207892E+001
 20
3.5368833E+001
 11
6.9207892E+001
 21
4.0733576E+002
  0
LINE
  5
5be
100
AcDbEntity
  8
1
100
AcDbLine
  6
CONTINUOUS
 62
1
 10
6.9207892E+001
 20
7.5872485E+002
 11
6.9207892E+001
 21
4.0733576E+002
  0
TEXT
  5
5bf
100
AcDbEntity
  8
1
100
AcDbText
  6
CONTINUOUS
 62
1
 10
6.6205892E+001
 20
3.2333576E+002
 40
1.0E+001
  1
max. 2245 / max. 3375
 41
8.0E-001
 50
9.0E+001
100
AcDbText
  0
INSERT
  5
5c0
100
AcDbEntity
100
AcDbBlockReference
  2
_AH13
  8
1
 62
1
 10
6.9207892E+001
 20
3.5368833E+001
 41
8.0
 42
8.0
 43
8.0
 50
9.0E+001
  0
INSERT
  5
5c1
100
AcDbEntity
100
AcDbBlockReference
  2
_AH13
  8
1
 62
1
 10
6.9207892E+001
 20
7.5872485E+002
 41
8.0
 42
8.0
 43
8.0
 50
2.7E+002
  0
ENDBLK
  5
5c2
100
AcDbEntity
100
AcDbBlockEnd
  0
BLOCK
  5
5c3
100
AcDbEntity
100
AcDbBlockBegin
  2
*D1290
  3
*D
 10
0.0
 20
0.0
 70
65
  0
LINE
  5
5c4
100
AcDbEntity
  8
1
100
AcDbLine
  6
CONTINUOUS
 62
1
 10
3.6090371E+002
 20
7.5872485E+002
 11
3.6090371E+002
 21
8.0122734E+002
  0
LINE
  5
5c5
100
AcDbEntity
  8
1
100
AcDbLine
  6
CONTINUOUS
 62
1
 10
4.0789695E+002
 20
7.5671143E+002
 11
4.0789695E+002
 21
8.0122734E+002
  0
LINE
  5
5c6
100
AcDbEntity
  8
1
100
AcDbLine
  6
CONTINUOUS
 62
1
 10
3.6090371E+002
 20
7.9822734E+002
 11
3.8728556E+002
 21
7.9822734E+002
  0
LINE
  5
5c7
100
AcDbEntity
  8
1
100
AcDbLine
  6
CONTINUOUS
 62
1
 10
4.0789695E+002
 20
7.9822734E+002
 11
3.8728556E+002
 21
7.9822734E+002
  0
TEXT
  5
5c8
100
AcDbEntity
  8
1
100
AcDbText
  6
CONTINUOUS
 62
1
 10
3.7928556E+002
 20
8.0122934E+002
 40
1.0E+001
  1
47
 41
8.0E-001
100
AcDbText
  0
INSERT
  5
5c9
100
AcDbEntity
100
AcDbBlockReference
  2
_AH13
  8
1
 62
1
 10
3.6090371E+002
 20
7.9822734E+002
 41
8.0
 42
8.0
 43
8.0
 50
0.0
  0
INSERT
  5
5ca
100
AcDbEntity
100
AcDbBlockReference
  2
_AH13
  8
1
 62
1
 10
4.0789695E+002
 20
7.9822734E+002
 41
8.0
 42
8.0
 43
8.0
 50
1.8E+002
  0
ENDBLK
  5
5cb
100
AcDbEntity
100
AcDbBlockEnd
  0
BLOCK
  5
5cc
100
AcDbEntity
100
AcDbBlockBegin
  2
*D1291
  3
*D
 10
0.0
 20
0.0
 70
65
  0
LINE
  5
5cd
100
AcDbEntity
  8
1
100
AcDbLine
  6
CONTINUOUS
 62
1
 10
3.6090371E+002
 20
6.4672485E+002
 11
3.6090371E+002
 21
5.9675446E+002
  0
LINE
  5
5ce
100
AcDbEntity
  8
1
100
AcDbLine
  6
CONTINUOUS
 62
1
 10
3.8490371E+002
 20
6.4672485E+002
 11
3.8490371E+002
 21
5.9675446E+002
  0
LINE
  5
5cf
100
AcDbEntity
  8
1
100
AcDbLine
  6
CONTINUOUS
 62
1
 10
3.4490371E+002
 20
5.9975446E+002
 11
3.8490371E+002
 21
5.9975446E+002
  0
LINE
  5
5d0
100
AcDbEntity
  8
1
100
AcDbLine
  6
CONTINUOUS
 62
1
 10
3.8490371E+002
 20
5.9975446E+002
 11
4.2406905E+002
 21
5.9975446E+002
  0
TEXT
  5
5d1
100
AcDbEntity
  8
1
100
AcDbText
  6
CONTINUOUS
 62
1
 10
4.0506905E+002
 20
6.0275646E+002
 40
1.0E+001
  1
24
 41
8.0E-001
100
AcDbText
  0
INSERT
  5
5d2
100
AcDbEntity
100
AcDbBlockReference
  2
_AH13
  8
1
 62
1
 10
3.6090371E+002
 20
5.9975446E+002
 41
8.0
 42
8.0
 43
8.0
 50
1.8E+002
  0
INSERT
  5
5d3
100
AcDbEntity
100
AcDbBlockReference
  2
_AH13
  8
1
 62
1
 10
3.8490371E+002
 20
5.9975446E+002
 41
8.0
 42
8.0
 43
8.0
 50
3.6E+002
  0
ENDBLK
  5
5d4
100
AcDbEntity
100
AcDbBlockEnd
  0
BLOCK
  5
5d5
100
AcDbEntity
100
AcDbBlockBegin
  2
*D1473
  3
*D
 10
0.0
 20
0.0
 70
65
  0
LINE
  5
5d6
100
AcDbEntity
  8
1
100
AcDbLine
  6
CONTINUOUS
 62
1
 10
6.1843092E+002
 20
5.6435049E+002
 11
6.1843092E+002
 21
5.677776E+002
  0
LINE
  5
5d7
100
AcDbEntity
  8
1
100
AcDbLine
  6
CONTINUOUS
 62
1
 10
6.4243092E+002
 20
5.6435049E+002
 11
6.4243092E+002
 21
5.677776E+002
  0
LINE
  5
5d8
100
AcDbEntity
  8
1
100
AcDbLine
  6
CONTINUOUS
 62
1
 10
6.1843092E+002
 20
5.647776E+002
 11
5.7726986E+002
 21
5.647776E+002
  0
LINE
  5
5d9
100
AcDbEntity
  8
1
100
AcDbLine
  6
CONTINUOUS
 62
1
 10
6.5843092E+002
 20
5.647776E+002
 11
6.1843092E+002
 21
5.647776E+002
  0
TEXT
  5
5da
100
AcDbEntity
  8
1
100
AcDbText
  6
CONTINUOUS
 62
1
 10
5.8026986E+002
 20
5.677796E+002
 40
1.0E+001
  1
24
 41
8.0E-001
100
AcDbText
  0
INSERT
  5
5db
100
AcDbEntity
100
AcDbBlockReference
  2
_AH13
  8
1
 62
1
 10
6.1843092E+002
 20
5.647776E+002
 41
8.0
 42
8.0
 43
8.0
 50
1.8E+002
  0
INSERT
  5
5dc
100
AcDbEntity
100
AcDbBlockReference
  2
_AH13
  8
1
 62
1
 10
6.4243092E+002
 20
5.647776E+002
 41
8.0
 42
8.0
 43
8.0
 50
3.6E+002
  0
ENDBLK
  5
5dd
100
AcDbEntity
100
AcDbBlockEnd
  0
BLOCK
  5
5de
100
AcDbEntity
100
AcDbBlockBegin
  2
*D1474
  3
*D
 10
0.0
 20
0.0
 70
65
  0
LINE
  5
5df
100
AcDbEntity
  8
1
100
AcDbLine
  6
CONTINUOUS
 62
1
 10
6.4693092E+002
 20
7.5872485E+002
 11
7.0676473E+002
 21
7.5872485E+002
  0
LINE
  5
5e0
100
AcDbEntity
  8
1
100
AcDbLine
  6
CONTINUOUS
 62
1
 10
6.4693092E+002
 20
6.1372485E+002
 11
7.0676473E+002
 21
6.1372485E+002
  0
LINE
  5
5e1
100
AcDbEntity
  8
1
100
AcDbLine
  6
CONTINUOUS
 62
1
 10
7.0376473E+002
 20
7.5872485E+002
 11
7.0376473E+002
 21
6.9108244E+002
  0
LINE
  5
5e2
100
AcDbEntity
  8
1
100
AcDbLine
  6
CONTINUOUS
 62
1
 10
7.0376473E+002
 20
6.1372485E+002
 11
7.0376473E+002
 21
6.9108244E+002
  0
TEXT
  5
5e3
100
AcDbEntity
  8
1
100
AcDbText
  6
CONTINUOUS
 62
1
 10
7.0076273E+002
 20
6.7908244E+002
 40
1.0E+001
  1
145
 41
8.0E-001
 50
9.0E+001
100
AcDbText
  0
INSERT
  5
5e4
100
AcDbEntity
100
AcDbBlockReference
  2
_AH13
  8
1
 62
1
 10
7.0376473E+002
 20
7.5872485E+002
 41
8.0
 42
8.0
 43
8.0
 50
2.7E+002
  0
INSERT
  5
5e5
100
AcDbEntity
100
AcDbBlockReference
  2
_AH13
  8
1
 62
1
 10
7.0376473E+002
 20
6.1372485E+002
 41
8.0
 42
8.0
 43
8.0
 50
4.5E+002
  0
ENDBLK
  5
5e6
100
AcDbEntity
100
AcDbBlockEnd
  0
BLOCK
  5
5e7
100
AcDbEntity
100
AcDbBlockBegin
  2
*D1479
  3
*D
 10
0.0
 20
0.0
 70
65
  0
LINE
  5
5e8
100
AcDbEntity
  8
1
100
AcDbLine
  6
CONTINUOUS
 62
1
 10
6.4893092E+002
 20
7.5672485E+002
 11
6.4893092E+002
 21
7.8860114E+002
  0
LINE
  5
5e9
100
AcDbEntity
  8
1
100
AcDbLine
  6
CONTINUOUS
 62
1
 10
6.1193092E+002
 20
7.5672485E+002
 11
6.1193092E+002
 21
7.8860114E+002
  0
LINE
  5
5ea
100
AcDbEntity
  8
1
100
AcDbLine
  6
CONTINUOUS
 62
1
 10
6.4893092E+002
 20
7.8560114E+002
 11
6.3160799E+002
 21
7.8560114E+002
  0
LINE
  5
5eb
100
AcDbEntity
  8
1
100
AcDbLine
  6
CONTINUOUS
 62
1
 10
6.1193092E+002
 20
7.8560114E+002
 11
6.3160799E+002
 21
7.8560114E+002
  0
TEXT
  5
5ec
100
AcDbEntity
  8
1
100
AcDbText
  6
CONTINUOUS
 62
1
 10
6.2360799E+002
 20
7.8860314E+002
 40
1.0E+001
  1
37
 41
8.0E-001
 50
3.6E+002
100
AcDbText
  0
INSERT
  5
5ed
100
AcDbEntity
100
AcDbBlockReference
  2
_AH13
  8
1
 62
1
 10
6.4893092E+002
 20
7.8560114E+002
 41
8.0
 42
8.0
 43
8.0
 50
1.8E+002
  0
INSERT
  5
5ee
100
AcDbEntity
100
AcDbBlockReference
  2
_AH13
  8
1
 62
1
 10
6.1193092E+002
 20
7.8560114E+002
 41
8.0
 42
8.0
 43
8.0
 50
3.6E+002
  0
ENDBLK
  5
5ef
100
AcDbEntity
100
AcDbBlockEnd
  0
BLOCK
  5
5f0
100
AcDbEntity
100
AcDbBlockBegin
  2
*D1480
  3
*D
 10
0.0
 20
0.0
 70
65
  0
LINE
  5
5f1
100
AcDbEntity
  8
1
100
AcDbLine
  6
CONTINUOUS
 62
1
 10
6.1393073E+002
 20
3.2205234E+002
 11
5.4941325E+002
 21
3.2205362E+002
  0
LINE
  5
5f2
100
AcDbEntity
  8
1
100
AcDbLine
  6
CONTINUOUS
 62
1
 10
6.1393362E+002
 20
4.6705234E+002
 11
5.4941614E+002
 21
4.6705362E+002
  0
LINE
  5
5f3
100
AcDbEntity
  8
1
100
AcDbLine
  6
CONTINUOUS
 62
1
 10
5.5241325E+002
 20
3.2205356E+002
 11
5.5241471E+002
 21
3.9542864E+002
  0
LINE
  5
5f4
100
AcDbEntity
  8
1
100
AcDbLine
  6
CONTINUOUS
 62
1
 10
5.5241614E+002
 20
4.6705356E+002
 11
5.5241471E+002
 21
3.9542864E+002
  0
TEXT
  5
5f5
100
AcDbEntity
  8
1
100
AcDbText
  6
CONTINUOUS
 62
1
 10
5.4941248E+002
 20
3.834287E+002
 40
1.0E+001
  1
145
 41
8.0E-001
 50
8.9998859E+001
100
AcDbText
  0
INSERT
  5
5f6
100
AcDbEntity
100
AcDbBlockReference
  2
_AH13
  8
1
 62
1
 10
5.5241325E+002
 20
3.2205356E+002
 41
8.0
 42
8.0
 43
8.0
 50
8.9998859E+001
  0
INSERT
  5
5f7
100
AcDbEntity
100
AcDbBlockReference
  2
_AH13
  8
1
 62
1
 10
5.5241614E+002
 20
4.6705356E+002
 41
8.0
 42
8.0
 43
8.0
 50
2.6999886E+002
  0
ENDBLK
  5
5f8
100
AcDbEntity
100
AcDbBlockEnd
  0
BLOCK
  5
5f9
100
AcDbEntity
100
AcDbBlockBegin
  2
*D1481
  3
*D
 10
0.0
 20
0.0
 70
65
  0
LINE
  5
5fa
100
AcDbEntity
  8
1
100
AcDbLine
  6
CONTINUOUS
 62
1
 10
6.1628092E+002
 20
4.6705234E+002
 11
5.4941472E+002
 21
4.6705234E+002
  0
LINE
  5
5fb
100
AcDbEntity
  8
1
100
AcDbLine
  6
CONTINUOUS
 62
1
 10
6.1743092E+002
 20
7.5872485E+002
 11
5.4941472E+002
 21
7.5872485E+002
  0
LINE
  5
5fc
100
AcDbEntity
  8
1
100
AcDbLine
  6
CONTINUOUS
 62
1
 10
5.5241472E+002
 20
4.6705234E+002
 11
5.5241472E+002
 21
6.3499085E+002
  0
LINE
  5
5fd
100
AcDbEntity
  8
1
100
AcDbLine
  6
CONTINUOUS
 62
1
 10
5.5241472E+002
 20
7.5872485E+002
 11
5.5241472E+002
 21
6.3499085E+002
  0
TEXT
  5
5fe
100
AcDbEntity
  8
1
100
AcDbText
  6
CONTINUOUS
 62
1
 10
5.4941272E+002
 20
5.5499085E+002
 40
1.0E+001
  1
max.1142 7 max. 2272
 41
8.0E-001
 50
9.0E+001
100
AcDbText
  0
INSERT
  5
5ff
100
AcDbEntity
100
AcDbBlockReference
  2
_AH13
  8
1
 62
1
 10
5.5241472E+002
 20
4.6705234E+002
 41
8.0
 42
8.0
 43
8.0
 50
9.0E+001
  0
INSERT
  5
600
100
AcDbEntity
100
AcDbBlockReference
  2
_AH13
  8
1
 62
1
 10
5.5241472E+002
 20
7.5872485E+002
 41
8.0
 42
8.0
 43
8.0
 50
2.7E+002
  0
ENDBLK
  5
601
100
AcDbEntity
100
AcDbBlockEnd
  0
BLOCK
  5
602
100
AcDbEntity
100
AcDbBlockBegin
  2
*D1482
  3
*D
 10
0.0
 20
0.0
 70
65
  0
LINE
  5
603
100
AcDbEntity
  8
1
100
AcDbLine
  6
CONTINUOUS
 62
1
 10
6.1743092E+002
 20
3.5368833E+001
 11
5.4941015E+002
 21
3.5368833E+001
  0
LINE
  5
604
100
AcDbEntity
  8
1
100
AcDbLine
  6
CONTINUOUS
 62
1
 10
6.1393362E+002
 20
3.2205234E+002
 11
5.4941015E+002
 21
3.2205234E+002
  0
LINE
  5
605
100
AcDbEntity
  8
1
100
AcDbLine
  6
CONTINUOUS
 62
1
 10
5.5241015E+002
 20
3.5368833E+001
 11
5.5241015E+002
 21
1.6606849E+002
  0
LINE
  5
606
100
AcDbEntity
  8
1
100
AcDbLine
  6
CONTINUOUS
 62
1
 10
5.5241015E+002
 20
3.2205234E+002
 11
5.5241015E+002
 21
1.6606849E+002
  0
TEXT
  5
607
100
AcDbEntity
  8
1
100
AcDbText
  6
CONTINUOUS
 62
1
 10
5.4940815E+002
 20
1.5406849E+002
 40
1.0E+001
  1
958
 41
8.0E-001
 50
9.0E+001
100
AcDbText
  0
INSERT
  5
608
100
AcDbEntity
100
AcDbBlockReference
  2
_AH13
  8
1
 62
1
 10
5.5241015E+002
 20
3.5368833E+001
 41
8.0
 42
8.0
 43
8.0
 50
9.0E+001
  0
INSERT
  5
609
100
AcDbEntity
100
AcDbBlockReference
  2
_AH13
  8
1
 62
1
 10
5.5241015E+002
 20
3.2205234E+002
 41
8.0
 42
8.0
 43
8.0
 50
2.7E+002
  0
ENDBLK
  5
60a
100
AcDbEntity
100
AcDbBlockEnd
  0
BLOCK
  5
60b
100
AcDbEntity
100
AcDbBlockBegin
  2
*D1483
  3
*D
 10
0.0
 20
0.0
 70
65
  0
LINE
  5
60c
100
AcDbEntity
  8
1
100
AcDbLine
  6
CONTINUOUS
 62
1
 10
6.1743092E+002
 20
3.5368833E+001
 11
5.1786516E+002
 21
3.5368833E+001
  0
LINE
  5
60d
100
AcDbEntity
  8
1
100
AcDbLine
  6
CONTINUOUS
 62
1
 10
6.1743092E+002
 20
7.5872485E+002
 11
5.1786516E+002
 21
7.5872485E+002
  0
LINE
  5
60e
100
AcDbEntity
  8
1
100
AcDbLine
  6
CONTINUOUS
 62
1
 10
5.2086516E+002
 20
3.5368833E+001
 11
5.2086516E+002
 21
4.0733576E+002
  0
LINE
  5
60f
100
AcDbEntity
  8
1
100
AcDbLine
  6
CONTINUOUS
 62
1
 10
5.2086516E+002
 20
7.5872485E+002
 11
5.2086516E+002
 21
4.0733576E+002
  0
TEXT
  5
610
100
AcDbEntity
  8
1
100
AcDbText
  6
CONTINUOUS
 62
1
 10
5.1786316E+002
 20
3.2333576E+002
 40
1.0E+001
  1
max. 2245 / max. 3375
 41
8.0E-001
 50
9.0E+001
100
AcDbText
  0
INSERT
  5
611
100
AcDbEntity
100
AcDbBlockReference
  2
_AH13
  8
1
 62
1
 10
5.2086516E+002
 20
3.5368833E+001
 41
8.0
 42
8.0
 43
8.0
 50
9.0E+001
  0
INSERT
  5
612
100
AcDbEntity
100
AcDbBlockReference
  2
_AH13
  8
1
 62
1
 10
5.2086516E+002
 20
7.5872485E+002
 41
8.0
 42
8.0
 43
8.0
 50
2.7E+002
  0
ENDBLK
  5
613
100
AcDbEntity
100
AcDbBlockEnd
  0
BLOCK
  5
614
100
AcDbEntity
100
AcDbBlockBegin
  2
*D1485
  3
*D
 10
0.0
 20
0.0
 70
65
  0
LINE
  5
615
100
AcDbEntity
  8
1
100
AcDbLine
  6
CONTINUOUS
 62
1
 10
8.1256098E+002
 20
6.4672485E+002
 11
8.1256098E+002
 21
5.7641812E+002
  0
LINE
  5
616
100
AcDbEntity
  8
1
100
AcDbLine
  6
CONTINUOUS
 62
1
 10
8.3656098E+002
 20
6.1405998E+002
 11
8.3656098E+002
 21
5.7641812E+002
  0
LINE
  5
617
100
AcDbEntity
  8
1
100
AcDbLine
  6
CONTINUOUS
 62
1
 10
7.9656098E+002
 20
5.7941812E+002
 11
8.3656098E+002
 21
5.7941812E+002
  0
LINE
  5
618
100
AcDbEntity
  8
1
100
AcDbLine
  6
CONTINUOUS
 62
1
 10
8.3656098E+002
 20
5.7941812E+002
 11
8.8448082E+002
 21
5.7941812E+002
  0
TEXT
  5
619
100
AcDbEntity
  8
1
100
AcDbText
  6
CONTINUOUS
 62
1
 10
8.6548082E+002
 20
5.8242012E+002
 40
1.0E+001
  1
24
 41
8.0E-001
100
AcDbText
  0
INSERT
  5
61a
100
AcDbEntity
100
AcDbBlockReference
  2
_AH13
  8
1
 62
1
 10
8.1256098E+002
 20
5.7941812E+002
 41
8.0
 42
8.0
 43
8.0
 50
1.8E+002
  0
INSERT
  5
61b
100
AcDbEntity
100
AcDbBlockReference
  2
_AH13
  8
1
 62
1
 10
8.3656098E+002
 20
5.7941812E+002
 41
8.0
 42
8.0
 43
8.0
 50
3.6E+002
  0
ENDBLK
  5
61c
100
AcDbEntity
100
AcDbBlockEnd
  0
BLOCK
  5
61d
100
AcDbEntity
100
AcDbBlockBegin
  2
*D1760
  3
*D
 10
0.0
 20
0.0
 70
65
  0
LINE
  5
61e
100
AcDbEntity
  8
1
100
AcDbLine
  6
CONTINUOUS
 62
1
 10
6.4468092E+002
 20
7.4272485E+002
 11
6.7678994E+002
 21
7.4272485E+002
  0
LINE
  5
61f
100
AcDbEntity
  8
1
100
AcDbLine
  6
CONTINUOUS
 62
1
 10
6.4468092E+002
 20
6.2972485E+002
 11
6.7678994E+002
 21
6.2972485E+002
  0
LINE
  5
620
100
AcDbEntity
  8
1
100
AcDbLine
  6
CONTINUOUS
 62
1
 10
6.7378994E+002
 20
7.4272485E+002
 11
6.7378994E+002
 21
6.8856355E+002
  0
LINE
  5
621
100
AcDbEntity
  8
1
100
AcDbLine
  6
CONTINUOUS
 62
1
 10
6.7378994E+002
 20
6.2972485E+002
 11
6.7378994E+002
 21
6.8856355E+002
  0
TEXT
  5
622
100
AcDbEntity
  8
1
100
AcDbText
  6
CONTINUOUS
 62
1
 10
6.7078794E+002
 20
6.7656355E+002
 40
1.0E+001
  1
113
 41
8.0E-001
 50
9.0E+001
100
AcDbText
  0
INSERT
  5
623
100
AcDbEntity
100
AcDbBlockReference
  2
_AH13
  8
1
 62
1
 10
6.7378994E+002
 20
7.4272485E+002
 41
8.0
 42
8.0
 43
8.0
 50
2.7E+002
  0
INSERT
  5
624
100
AcDbEntity
100
AcDbBlockReference
  2
_AH13
  8
1
 62
1
 10
6.7378994E+002
 20
6.2972485E+002
 41
8.0
 42
8.0
 43
8.0
 50
4.5E+002
  0
ENDBLK
  5
625
100
AcDbEntity
100
AcDbBlockEnd
  0
BLOCK
  5
626
100
AcDbEntity
100
AcDbBlockBegin
  2
*D1761
  3
*D
 10
0.0
 20
0.0
 70
65
  0
LINE
  5
627
100
AcDbEntity
  8
1
100
AcDbLine
  6
CONTINUOUS
 62
1
 10
6.4468092E+002
 20
7.4272485E+002
 11
6.7678994E+002
 21
7.4272485E+002
  0
LINE
  5
628
100
AcDbEntity
  8
1
100
AcDbLine
  6
CONTINUOUS
 62
1
 10
6.4693092E+002
 20
7.5872485E+002
 11
6.7678994E+002
 21
7.5872485E+002
  0
LINE
  5
629
100
AcDbEntity
  8
1
100
AcDbLine
  6
CONTINUOUS
 62
1
 10
6.7378994E+002
 20
7.2672485E+002
 11
6.7378994E+002
 21
7.5872485E+002
  0
LINE
  5
62a
100
AcDbEntity
  8
1
100
AcDbLine
  6
CONTINUOUS
 62
1
 10
6.7378994E+002
 20
7.5872485E+002
 11
6.7378994E+002
 21
7.8621336E+002
  0
TEXT
  5
62b
100
AcDbEntity
  8
1
100
AcDbText
  6
CONTINUOUS
 62
1
 10
6.7078794E+002
 20
7.6721336E+002
 40
1.0E+001
  1
16
 41
8.0E-001
 50
9.0E+001
100
AcDbText
  0
INSERT
  5
62c
100
AcDbEntity
100
AcDbBlockReference
  2
_AH13
  8
1
 62
1
 10
6.7378994E+002
 20
7.4272485E+002
 41
8.0
 42
8.0
 43
8.0
 50
2.7E+002
  0
INSERT
  5
62d
100
AcDbEntity
100
AcDbBlockReference
  2
_AH13
  8
1
 62
1
 10
6.7378994E+002
 20
7.5872485E+002
 41
8.0
 42
8.0
 43
8.0
 50
4.5E+002
  0
ENDBLK
  5
62e
100
AcDbEntity
100
AcDbBlockEnd
  0
BLOCK
  5
62f
100
AcDbEntity
100
AcDbBlockBegin
  2
*D1862
  3
*D
 10
0.0
 20
0.0
 70
65
  0
LINE
  5
630
100
AcDbEntity
  8
1
100
AcDbLine
  6
CONTINUOUS
 62
1
 10
1.6952365E+002
 20
6.5672485E+002
 11
1.6952365E+002
 21
6.1832805E+002
  0
LINE
  5
631
100
AcDbEntity
  8
1
100
AcDbLine
  6
CONTINUOUS
 62
1
 10
1.8802365E+002
 20
6.5672485E+002
 11
1.8802365E+002
 21
6.1832805E+002
  0
LINE
  5
632
100
AcDbEntity
  8
1
100
AcDbLine
  6
CONTINUOUS
 62
1
 10
1.6952365E+002
 20
6.2132805E+002
 11
1.2254499E+002
 21
6.2132805E+002
  0
LINE
  5
633
100
AcDbEntity
  8
1
100
AcDbLine
  6
CONTINUOUS
 62
1
 10
2.0402365E+002
 20
6.2132805E+002
 11
1.6952365E+002
 21
6.2132805E+002
  0
TEXT
  5
634
100
AcDbEntity
  8
1
100
AcDbText
  6
CONTINUOUS
 62
1
 10
1.2554499E+002
 20
6.2433005E+002
 40
1.0E+001
  1
18,5
 41
8.0E-001
100
AcDbText
  0
INSERT
  5
635
100
AcDbEntity
100
AcDbBlockReference
  2
_AH13
  8
1
 62
1
 10
1.6952365E+002
 20
6.2132805E+002
 41
8.0
 42
8.0
 43
8.0
 50
1.8E+002
  0
INSERT
  5
636
100
AcDbEntity
100
AcDbBlockReference
  2
_AH13
  8
1
 62
1
 10
1.8802365E+002
 20
6.2132805E+002
 41
8.0
 42
8.0
 43
8.0
 50
3.6E+002
  0
ENDBLK
  5
637
100
AcDbEntity
100
AcDbBlockEnd
  0
BLOCK
  5
638
100
AcDbEntity
100
AcDbBlockBegin
  2
*D1863
  3
*D
 10
0.0
 20
0.0
 70
65
  0
LINE
  5
639
100
AcDbEntity
  8
1
100
AcDbLine
  6
CONTINUOUS
 62
1
 10
6.2118092E+002
 20
6.2472485E+002
 11
6.2118092E+002
 21
5.8408973E+002
  0
LINE
  5
63a
100
AcDbEntity
  8
1
100
AcDbLine
  6
CONTINUOUS
 62
1
 10
6.3968092E+002
 20
6.2472485E+002
 11
6.3968092E+002
 21
5.8408973E+002
  0
LINE
  5
63b
100
AcDbEntity
  8
1
100
AcDbLine
  6
CONTINUOUS
 62
1
 10
6.2118092E+002
 20
5.8708973E+002
 11
5.715841E+002
 21
5.8708973E+002
  0
LINE
  5
63c
100
AcDbEntity
  8
1
100
AcDbLine
  6
CONTINUOUS
 62
1
 10
6.5568092E+002
 20
5.8708973E+002
 11
6.2118092E+002
 21
5.8708973E+002
  0
TEXT
  5
63d
100
AcDbEntity
  8
1
100
AcDbText
  6
CONTINUOUS
 62
1
 10
5.745841E+002
 20
5.9009173E+002
 40
1.0E+001
  1
18,5
 41
8.0E-001
100
AcDbText
  0
INSERT
  5
63e
100
AcDbEntity
100
AcDbBlockReference
  2
_AH13
  8
1
 62
1
 10
6.2118092E+002
 20
5.8708973E+002
 41
8.0
 42
8.0
 43
8.0
 50
1.8E+002
  0
INSERT
  5
63f
100
AcDbEntity
100
AcDbBlockReference
  2
_AH13
  8
1
 62
1
 10
6.3968092E+002
 20
5.8708973E+002
 41
8.0
 42
8.0
 43
8.0
 50
3.6E+002
  0
ENDBLK
  5
640
100
AcDbEntity
100
AcDbBlockEnd
  0
BLOCK
  5
641
100
AcDbEntity
100
AcDbBlockBegin
  2
*D1867
  3
*D
 10
0.0
 20
0.0
 70
65
  0
LINE
  5
642
100
AcDbEntity
  8
1
100
AcDbLine
  6
CONTINUOUS
 62
1
 10
5.9643092E+002
 20
6.9922485E+002
 11
5.7990503E+002
 21
6.9922485E+002
  0
LINE
  5
643
100
AcDbEntity
  8
1
100
AcDbLine
  6
CONTINUOUS
 62
1
 10
5.9643092E+002
 20
6.7322485E+002
 11
5.7990503E+002
 21
6.7322485E+002
  0
LINE
  5
644
100
AcDbEntity
  8
1
100
AcDbLine
  6
CONTINUOUS
 62
1
 10
5.8290503E+002
 20
6.9922485E+002
 11
5.8290503E+002
 21
6.8534822E+002
  0
LINE
  5
645
100
AcDbEntity
  8
1
100
AcDbLine
  6
CONTINUOUS
 62
1
 10
5.8290503E+002
 20
6.7322485E+002
 11
5.8290503E+002
 21
6.8534822E+002
  0
TEXT
  5
646
100
AcDbEntity
  8
1
100
AcDbText
  6
CONTINUOUS
 62
1
 10
5.7990303E+002
 20
6.7734822E+002
 40
1.0E+001
  1
26
 41
8.0E-001
 50
9.0E+001
100
AcDbText
  0
INSERT
  5
647
100
AcDbEntity
100
AcDbBlockReference
  2
_AH13
  8
1
 62
1
 10
5.8290503E+002
 20
6.9922485E+002
 41
8.0
 42
8.0
 43
8.0
 50
2.7E+002
  0
INSERT
  5
648
100
AcDbEntity
100
AcDbBlockReference
  2
_AH13
  8
1
 62
1
 10
5.8290503E+002
 20
6.7322485E+002
 41
8.0
 42
8.0
 43
8.0
 50
4.5E+002
  0
ENDBLK
  5
649
100
AcDbEntity
100
AcDbBlockEnd
  0
BLOCK
  5
64a
100
AcDbEntity
100
AcDbBlockBegin
  2
*D1868
  3
*D
 10
0.0
 20
0.0
 70
65
  0
LINE
  5
64b
100
AcDbEntity
  8
1
100
AcDbLine
  6
CONTINUOUS
 62
1
 10
6.1193092E+002
 20
6.9922485E+002
 11
5.7990503E+002
 21
6.9922485E+002
  0
LINE
  5
64c
100
AcDbEntity
  8
1
100
AcDbLine
  6
CONTINUOUS
 62
1
 10
6.1393092E+002
 20
7.5872485E+002
 11
5.7990503E+002
 21
7.5872485E+002
  0
LINE
  5
64d
100
AcDbEntity
  8
1
100
AcDbLine
  6
CONTINUOUS
 62
1
 10
5.8290503E+002
 20
6.9922485E+002
 11
5.8290503E+002
 21
7.3174319E+002
  0
LINE
  5
64e
100
AcDbEntity
  8
1
100
AcDbLine
  6
CONTINUOUS
 62
1
 10
5.8290503E+002
 20
7.5872485E+002
 11
5.8290503E+002
 21
7.3174319E+002
  0
TEXT
  5
64f
100
AcDbEntity
  8
1
100
AcDbText
  6
CONTINUOUS
 62
1
 10
5.7990303E+002
 20
7.1574319E+002
 40
1.0E+001
  1
59,5
 41
8.0E-001
 50
9.0E+001
100
AcDbText
  0
INSERT
  5
650
100
AcDbEntity
100
AcDbBlockReference
  2
_AH13
  8
1
 62
1
 10
5.8290503E+002
 20
6.9922485E+002
 41
8.0
 42
8.0
 43
8.0
 50
9.0E+001
  0
INSERT
  5
651
100
AcDbEntity
100
AcDbBlockReference
  2
_AH13
  8
1
 62
1
 10
5.8290503E+002
 20
7.5872485E+002
 41
8.0
 42
8.0
 43
8.0
 50
2.7E+002
  0
ENDBLK
  5
652
100
AcDbEntity
100
AcDbBlockEnd
  0
BLOCK
  5
653
100
AcDbEntity
100
AcDbBlockBegin
  2
*D1870
  3
*D
 10
0.0
 20
0.0
 70
65
  0
LINE
  5
654
100
AcDbEntity
  8
1
100
AcDbLine
  6
CONTINUOUS
 62
1
 10
8.6556098E+002
 20
6.8682108E+002
 11
8.6556098E+002
 21
7.8639186E+002
  0
LINE
  5
655
100
AcDbEntity
  8
1
100
AcDbLine
  6
CONTINUOUS
 62
1
 10
8.1256098E+002
 20
5.9220144E+002
 11
8.1256098E+002
 21
7.8639186E+002
  0
LINE
  5
656
100
AcDbEntity
  8
1
100
AcDbLine
  6
CONTINUOUS
 62
1
 10
8.6556098E+002
 20
7.8339186E+002
 11
8.370714E+002
 21
7.8339186E+002
  0
LINE
  5
657
100
AcDbEntity
  8
1
100
AcDbLine
  6
CONTINUOUS
 62
1
 10
8.1256098E+002
 20
7.8339186E+002
 11
8.370714E+002
 21
7.8339186E+002
  0
TEXT
  5
658
100
AcDbEntity
  8
1
100
AcDbText
  6
CONTINUOUS
 62
1
 10
8.290714E+002
 20
7.8639386E+002
 40
1.0E+001
  1
53
 41
8.0E-001
 50
3.6E+002
100
AcDbText
  0
INSERT
  5
659
100
AcDbEntity
100
AcDbBlockReference
  2
_AH13
  8
1
 62
1
 10
8.6556098E+002
 20
7.8339186E+002
 41
8.0
 42
8.0
 43
8.0
 50
1.8E+002
  0
INSERT
  5
65a
100
AcDbEntity
100
AcDbBlockReference
  2
_AH13
  8
1
 62
1
 10
8.1256098E+002
 20
7.8339186E+002
 41
8.0
 42
8.0
 43
8.0
 50
3.6E+002
  0
ENDBLK
  5
65b
100
AcDbEntity
100
AcDbBlockEnd
  0
ENDSEC
  0
SECTION
  2
ENTITIES
  0
LINE
  5
65c
100
AcDbEntity
  8
1
100
AcDbLine
  6
CONTINUOUS
 62
40
 10
1.1832612E+001
 20
8.282828
 11
1.1798326E+003
 21
8.282828
  0
LINE
  5
65d
100
AcDbEntity
  8
1
100
AcDbLine
  6
CONTINUOUS
 62
40
 10
1.1798326E+003
 20
8.282828
 11
1.1798326E+003
 21
8.2828283E+002
  0
LINE
  5
65e
100
AcDbEntity
  8
1
100
AcDbLine
  6
CONTINUOUS
 62
40
 10
1.1798326E+003
 20
8.2828283E+002
 11
1.1832612E+001
 21
8.2828283E+002
  0
LINE
  5
65f
100
AcDbEntity
  8
1
100
AcDbLine
  6
CONTINUOUS
 62
40
 10
1.1832612E+001
 20
8.2828283E+002
 11
1.1832612E+001
 21
8.282828
  0
TEXT
  5
660
100
AcDbEntity
  8
1
100
AcDbText
  6
CONTINUOUS
 62
40
 10
1.0836963E+003
 20
4.5480716E+001
 40
1.0E+001
  1
p200814.she
 41
6.5454545E-001
 72
1
 11
1.1196963E+003
 21
5.0480716E+001
100
AcDbText
 73
2
  0
TEXT
  5
661
100
AcDbEntity
  8
1
100
AcDbText
  6
CONTINUOUS
 62
150
 10
1.0443343E+003
 20
2.6707138E+001
 40
7.0
  1
Maßstab:
 41
6.4687502E-001
 72
1
 11
1.0624468E+003
 21
3.0207138E+001
100
AcDbText
 73
2
  0
LINE
  5
662
100
AcDbEntity
  8
1
100
AcDbLine
  6
CONTINUOUS
 62
3
 10
9.4062742E+002
 20
6.0789235E+001
 11
9.4062742E+002
 21
9.6402435E+001
  0
LINE
  5
663
100
AcDbEntity
  8
1
100
AcDbLine
  6
CONTINUOUS
 62
3
 10
9.4062742E+002
 20
9.6402435E+001
 11
1.1673414E+003
 21
9.6402435E+001
  0
LINE
  5
664
100
AcDbEntity
  8
1
100
AcDbLine
  6
CONTINUOUS
 62
3
 10
1.1673414E+003
 20
9.6402435E+001
 11
1.1673414E+003
 21
6.0789235E+001
  0
TEXT
  5
665
100
AcDbEntity
  8
1
100
AcDbText
  6
CONTINUOUS
 62
40
 10
9.9536407E+002
 20
7.9957897E+001
 40
1.0E+001
  1
PHA 2000 3-Punkt
 41
6.6176471E-001
100
AcDbText
  0
TEXT
  5
666
100
AcDbEntity
  8
1
100
AcDbText
  6
CONTINUOUS
 62
150
 10
1.0431848E+003
 20
4.5905437E+001
 40
7.0
  1
Zng.Nr.
 41
6.4285716E-001
 72
1
 11
1.0589348E+003
 21
4.9405437E+001
100
AcDbText
 73
2
  0
TEXT
  5
667
100
AcDbEntity
  8
1
100
AcDbText
  6
CONTINUOUS
 62
40
 10
9.8073636E+002
 20
4.5658695E+001
 40
1.0E+001
  1
M.Schell
 41
6.46875E-001
 72
1
 11
1.0066114E+003
 21
5.0658695E+001
100
AcDbText
 73
2
  0
TEXT
  5
668
100
AcDbEntity
  8
1
100
AcDbText
  6
CONTINUOUS
 62
150
 10
9.4625209E+002
 20
4.6218753E+001
 40
7.0
  1
gez.
 41
6.1875002E-001
 72
1
 11
9.5491459E+002
 21
4.9718753E+001
100
AcDbText
 73
2
  0
TEXT
  5
669
100
AcDbEntity
  8
1
100
AcDbText
  6
CONTINUOUS
 62
150
 10
9.4451623E+002
 20
2.7419929E+001
 40
7.0
  1
Datum
 41
6.3000002E-001
 72
1
 11
9.5554123E+002
 21
3.0919929E+001
100
AcDbText
 73
2
  0
TEXT
  5
66a
100
AcDbEntity
  8
1
100
AcDbText
  6
CONTINUOUS
 62
40
 10
1.0853512E+003
 20
2.5820709E+001
 40
1.0E+001
  1
1:2
 41
6.0E-001
 72
1
 11
1.0943512E+003
 21
3.0820709E+001
100
AcDbText
 73
2
  0
LINE
  5
66b
100
AcDbEntity
  8
1
100
AcDbLine
  6
CONTINUOUS
 62
3
 10
1.1199414E+003
 20
4.0789235E+001
 11
1.1199414E+003
 21
2.0789235E+001
  0
TEXT
  5
66c
100
AcDbEntity
  8
1
100
AcDbText
  6
CONTINUOUS
 62
40
 10
1.133777E+003
 20
2.6231933E+001
 40
1.0E+001
  1
A 2
 41
6.0E-001
 72
1
 11
1.142777E+003
 21
3.1231933E+001
100
AcDbText
 73
2
  0
LINE
  5
66d
100
AcDbEntity
  8
1
100
AcDbLine
  6
CONTINUOUS
 62
3
 10
9.4062742E+002
 20
6.0789235E+001
 11
1.1673414E+003
 21
6.0789235E+001
  0
LINE
  5
66e
100
AcDbEntity
  8
1
100
AcDbLine
  6
CONTINUOUS
 62
3
 10
1.1673414E+003
 20
6.0789235E+001
 11
1.1673414E+003
 21
2.0789235E+001
  0
LINE
  5
66f
100
AcDbEntity
  8
1
100
AcDbLine
  6
CONTINUOUS
 62
3
 10
1.1673414E+003
 20
2.0789235E+001
 11
9.4062742E+002
 21
2.0789235E+001
  0
LINE
  5
670
100
AcDbEntity
  8
1
100
AcDbLine
  6
CONTINUOUS
 62
3
 10
9.4062742E+002
 20
2.0789235E+001
 11
9.4062742E+002
 21
6.0789235E+001
  0
LINE
  5
671
100
AcDbEntity
  8
1
100
AcDbLine
  6
CONTINUOUS
 62
3
 10
1.0402474E+003
 20
6.0789235E+001
 11
1.0402474E+003
 21
2.0789235E+001
  0
LINE
  5
672
100
AcDbEntity
  8
1
100
AcDbLine
  6
CONTINUOUS
 62
3
 10
9.4062742E+002
 20
4.0789235E+001
 11
1.1673414E+003
 21
4.0789235E+001
  0
TEXT
  5
673
100
AcDbEntity
  8
1
100
AcDbText
  6
CONTINUOUS
 62
150
 10
1.0443343E+003
 20
2.6707138E+001
 40
7.0
  1
Maßstab:
 41
6.4687502E-001
 72
1
 11
1.0624468E+003
 21
3.0207138E+001
100
AcDbText
 73
2
  0
LINE
  5
674
100
AcDbEntity
  8
1
100
AcDbLine
  6
CONTINUOUS
 62
3
 10
9.4062742E+002
 20
6.0789235E+001
 11
9.4062742E+002
 21
9.6402435E+001
  0
LINE
  5
675
100
AcDbEntity
  8
1
100
AcDbLine
  6
CONTINUOUS
 62
3
 10
9.4062742E+002
 20
9.6402435E+001
 11
1.1673414E+003
 21
9.6402435E+001
  0
LINE
  5
676
100
AcDbEntity
  8
1
100
AcDbLine
  6
CONTINUOUS
 62
3
 10
1.1673414E+003
 20
9.6402435E+001
 11
1.1673414E+003
 21
6.0789235E+001
  0
TEXT
  5
677
100
AcDbEntity
  8
1
100
AcDbText
  6
CONTINUOUS
 62
150
 10
9.4571888E+002
 20
6.5017581E+001
 40
7.0
  1
Benennung
 41
6.5000002E-001
 72
1
 11
9.6619388E+002
 21
6.8517581E+001
100
AcDbText
 73
2
  0
TEXT
  5
678
100
AcDbEntity
  8
1
100
AcDbText
  6
CONTINUOUS
 62
150
 10
1.0431848E+003
 20
4.5905437E+001
 40
7.0
  1
Zng.Nr.
 41
6.4285716E-001
 72
1
 11
1.0589348E+003
 21
4.9405437E+001
100
AcDbText
 73
2
  0
TEXT
  5
679
100
AcDbEntity
  8
1
100
AcDbText
  6
CONTINUOUS
 62
150
 10
9.4625209E+002
 20
4.6218753E+001
 40
7.0
  1
gez.
 41
6.1875002E-001
 72
1
 11
9.5491459E+002
 21
4.9718753E+001
100
AcDbText
 73
2
  0
TEXT
  5
67a
100
AcDbEntity
  8
1
100
AcDbText
  6
CONTINUOUS
 62
150
 10
9.4451623E+002
 20
2.7419929E+001
 40
7.0
  1
Datum
 41
6.3000002E-001
 72
1
 11
9.5554123E+002
 21
3.0919929E+001
100
AcDbText
 73
2
  0
LINE
  5
67b
100
AcDbEntity
  8
1
100
AcDbLine
  6
CONTINUOUS
 62
3
 10
1.1199414E+003
 20
4.0789235E+001
 11
1.1199414E+003
 21
2.0789235E+001
  0
LINE
  5
67c
100
AcDbEntity
  8
1
100
AcDbLine
  6
CONTINUOUS
 62
3
 10
9.4062742E+002
 20
6.0789235E+001
 11
1.1673414E+003
 21
6.0789235E+001
  0
LINE
  5
67d
100
AcDbEntity
  8
1
100
AcDbLine
  6
CONTINUOUS
 62
3
 10
1.1673414E+003
 20
6.0789235E+001
 11
1.1673414E+003
 21
2.0789235E+001
  0
LINE
  5
67e
100
AcDbEntity
  8
1
100
AcDbLine
  6
CONTINUOUS
 62
3
 10
1.1673414E+003
 20
2.0789235E+001
 11
9.4062742E+002
 21
2.0789235E+001
  0
LINE
  5
67f
100
AcDbEntity
  8
1
100
AcDbLine
  6
CONTINUOUS
 62
3
 10
9.4062742E+002
 20
2.0789235E+001
 11
9.4062742E+002
 21
6.0789235E+001
  0
LINE
  5
680
100
AcDbEntity
  8
1
100
AcDbLine
  6
CONTINUOUS
 62
3
 10
1.0402474E+003
 20
6.0789235E+001
 11
1.0402474E+003
 21
2.0789235E+001
  0
LINE
  5
681
100
AcDbEntity
  8
1
100
AcDbLine
  6
CONTINUOUS
 62
3
 10
9.4062742E+002
 20
4.0789235E+001
 11
1.1673414E+003
 21
4.0789235E+001
  0
INSERT
  5
682
100
AcDbEntity
100
AcDbBlockReference
  2
*TX89
  8
1
 10
1.0058218E+003
 20
4.5374988E+001
  0
TEXT
  5
683
100
AcDbEntity
  8
1
100
AcDbText
  6
CONTINUOUS
 62
1
 10
1.0952031E+003
 20
6.6516443E+001
 40
7.0
  1
New Design
 41
8.0E-001
100
AcDbText
  0
INSERT
  5
684
100
AcDbEntity
100
AcDbBlockReference
  2
HHN
  8
1
 10
3.6090371E+002
 20
1.4736883E+002
  0
INSERT
  5
685
100
AcDbEntity
100
AcDbBlockReference
  2
JJNMKNEW00
  8
1
 10
8.2006098E+002
 20
3.9455234E+002
  0
INSERT
  5
686
100
AcDbEntity
100
AcDbBlockReference
  2
JJNMKNEW00
  8
1
 10
3.6840371E+002
 20
3.9455234E+002
  0
LINE
  5
687
100
AcDbEntity
  8
1
100
AcDbLine
  6
CONTINUOUS
 62
40
 10
3.6090371E+002
 20
6.4672485E+002
 11
3.6090371E+002
 21
5.6435049E+002
  0
INSERT
  5
688
100
AcDbEntity
100
AcDbBlockReference
  2
HHN
  8
1
 10
3.6090371E+002
 20
6.4672485E+002
 41
1.0
 43
1.0
 42
-1.0
  0
LINE
  5
689
100
AcDbEntity
  8
1
100
AcDbLine
  6
CONTINUOUS
 62
40
 10
3.8490371E+002
 20
6.4672485E+002
 11
3.8490371E+002
 21
5.6435049E+002
  0
LINE
  5
68a
100
AcDbEntity
  8
1
100
AcDbLine
  6
CENTERLINE
 62
1
 10
3.5118386E+002
 20
5.6435049E+002
 11
3.9496192E+002
 21
5.6435049E+002
  0
LINE
  5
68b
100
AcDbEntity
  8
1
100
AcDbLine
  6
CENTERLINE
 62
1
 10
3.5118386E+002
 20
5.6035049E+002
 11
3.9496192E+002
 21
5.6035049E+002
  0
LINE
  5
68c
100
AcDbEntity
  8
1
100
AcDbLine
  6
CENTERLINE
 62
1
 10
3.5118386E+002
 20
2.1887596E+002
 11
3.9496192E+002
 21
2.1887596E+002
  0
LINE
  5
68d
100
AcDbEntity
  8
1
100
AcDbLine
  6
CENTERLINE
 62
1
 10
3.5118386E+002
 20
2.1487596E+002
 11
3.9496192E+002
 21
2.1487596E+002
  0
LINE
  5
68e
100
AcDbEntity
  8
1
100
AcDbLine
  6
CONTINUOUS
 62
40
 10
3.8490371E+002
 20
2.1487596E+002
 11
3.8490371E+002
 21
1.4736883E+002
  0
LINE
  5
68f
100
AcDbEntity
  8
1
100
AcDbLine
  6
CONTINUOUS
 62
40
 10
3.8490371E+002
 20
3.2205234E+002
 11
3.8490371E+002
 21
2.1487596E+002
  0
LINE
  5
690
100
AcDbEntity
  8
1
100
AcDbLine
  6
CONTINUOUS
 62
40
 10
3.6090371E+002
 20
2.1487596E+002
 11
3.6090371E+002
 21
1.4736883E+002
  0
LINE
  5
691
100
AcDbEntity
  8
1
100
AcDbLine
  6
CONTINUOUS
 62
40
 10
3.6090371E+002
 20
3.2205234E+002
 11
3.6090371E+002
 21
2.1887596E+002
  0
LINE
  5
692
100
AcDbEntity
  8
1
100
AcDbLine
  6
CONTINUOUS
 62
40
 10
3.8490371E+002
 20
5.6035049E+002
 11
3.8490371E+002
 21
4.6705234E+002
  0
LINE
  5
693
100
AcDbEntity
  8
1
100
AcDbLine
  6
CONTINUOUS
 62
40
 10
3.6090371E+002
 20
5.6035049E+002
 11
3.6090371E+002
 21
4.6705234E+002
  0
LINE
  5
694
100
AcDbEntity
  8
1
100
AcDbLine
  6
CONTINUOUS
 62
40
 10
3.6090371E+002
 20
4.6705234E+002
 11
3.6090371E+002
 21
3.2205234E+002
  0
INSERT
  5
695
100
AcDbEntity
100
AcDbBlockReference
  2
UUI
  8
1
 10
1.7877365E+002
 20
6.4672485E+002
  0
INSERT
  5
696
100
AcDbEntity
100
AcDbBlockReference
  2
UUI
  8
1
 10
1.7877365E+002
 20
1.4736883E+002
 41
1.0
 43
1.0
 42
-1.0
  0
LINE
  5
697
100
AcDbEntity
  8
1
100
AcDbLine
  6
CONTINUOUS
 62
40
 10
1.6677365E+002
 20
6.4672485E+002
 11
1.6677365E+002
 21
5.6435049E+002
  0
LINE
  5
698
100
AcDbEntity
  8
1
100
AcDbLine
  6
CONTINUOUS
 62
40
 10
1.9077365E+002
 20
6.4672485E+002
 11
1.9077365E+002
 21
5.6435049E+002
  0
LINE
  5
699
100
AcDbEntity
  8
1
100
AcDbLine
  6
CENTERLINE
 62
1
 10
1.5705381E+002
 20
2.1887596E+002
 11
2.0083187E+002
 21
2.1887596E+002
  0
LINE
  5
69a
100
AcDbEntity
  8
1
100
AcDbLine
  6
CENTERLINE
 62
1
 10
1.5705381E+002
 20
2.1487596E+002
 11
2.0083187E+002
 21
2.1487596E+002
  0
LINE
  5
69b
100
AcDbEntity
  8
1
100
AcDbLine
  6
CENTERLINE
 62
1
 10
1.5705381E+002
 20
5.6435049E+002
 11
2.0083187E+002
 21
5.6435049E+002
  0
LINE
  5
69c
100
AcDbEntity
  8
1
100
AcDbLine
  6
CENTERLINE
 62
1
 10
1.5705381E+002
 20
5.6035049E+002
 11
2.0083187E+002
 21
5.6035049E+002
  0
LINE
  5
69d
100
AcDbEntity
  8
1
100
AcDbLine
  6
CONTINUOUS
 62
40
 10
1.9077365E+002
 20
2.1487596E+002
 11
1.9077365E+002
 21
1.4736883E+002
  0
LINE
  5
69e
100
AcDbEntity
  8
1
100
AcDbLine
  6
CONTINUOUS
 62
40
 10
1.6677365E+002
 20
2.1487596E+002
 11
1.6677365E+002
 21
1.4736883E+002
  0
LINE
  5
69f
100
AcDbEntity
  8
1
100
AcDbLine
  6
CONTINUOUS
 62
40
 10
1.9077365E+002
 20
3.2205234E+002
 11
1.9077365E+002
 21
2.1887596E+002
  0
LINE
  5
6a0
100
AcDbEntity
  8
1
100
AcDbLine
  6
CONTINUOUS
 62
40
 10
1.6677365E+002
 20
3.2240143E+002
 11
1.6677365E+002
 21
2.1887596E+002
  0
LINE
  5
6a1
100
AcDbEntity
  8
1
100
AcDbLine
  6
CONTINUOUS
 62
40
 10
1.9077365E+002
 20
5.6035049E+002
 11
1.9077365E+002
 21
4.6705234E+002
  0
LINE
  5
6a2
100
AcDbEntity
  8
1
100
AcDbLine
  6
CONTINUOUS
 62
40
 10
1.6677365E+002
 20
5.6035049E+002
 11
1.6677365E+002
 21
4.6705234E+002
  0
DIMENSION
  5
6a3
100
AcDbEntity
  8
1
100
AcDbDimension
  6
CONTINUOUS
 62
1
  2
*D614
  3
DSTYLE2
 10
1.9077365E+002
 20
5.9235156E+002
 11
1.4308842E+002
 21
6.0035356E+002
 70
128
100
AcDbAlignedDimension
 13
1.6677365E+002
 23
5.6435049E+002
 14
1.9077365E+002
 24
5.6435049E+002
 40
1.0E+001
 50
0.0
100
AcDbRotatedDimension
1001
ACAD
1000
DSTYLE
1002
{
1070
173
1070
0
1070
5
1000
_AH13
1002
}
  0
DIMENSION
  5
6a4
100
AcDbEntity
  8
1
100
AcDbDimension
  6
CONTINUOUS
 62
1
  2
*D615
  3
DSTYLE2
 10
2.3504483E+002
 20
6.4672485E+002
 11
2.2704283E+002
 21
7.0749963E+002
 70
129
100
AcDbAlignedDimension
 13
1.9527365E+002
 23
7.5872485E+002
 14
1.9527365E+002
 24
6.4672485E+002
 40
1.0E+001
1001
ACAD
1000
DSTYLE
1002
{
1070
173
1070
0
1070
5
1000
_AH13
1002
}
  0
DIMENSION
  5
6a5
100
AcDbEntity
  8
1
100
AcDbDimension
  6
CONTINUOUS
 62
1
  2
*D616
  3
DSTYLE2
 10
2.3504483E+002
 20
7.5872485E+002
 11
2.2704283E+002
 21
7.8505596E+002
 70
129
100
AcDbAlignedDimension
 13
1.9177365E+002
 23
7.7372485E+002
 14
1.9177365E+002
 24
7.5872485E+002
 40
1.0E+001
1001
ACAD
1000
DSTYLE
1002
{
1070
173
1070
0
1070
5
1000
_AH13
1002
}
  0
DIMENSION
  5
6a6
100
AcDbEntity
  8
1
100
AcDbDimension
  6
CONTINUOUS
 62
1
  2
*D617
  3
DSTYLE2
 10
1.3665327E+002
 20
6.6172485E+002
 11
1.2865127E+002
 21
7.0465178E+002
 70
128
100
AcDbAlignedDimension
 13
1.6652365E+002
 23
7.3872485E+002
 14
1.6452365E+002
 24
6.6172485E+002
 40
1.0E+001
 50
9.0E+001
100
AcDbRotatedDimension
1001
ACAD
1000
DSTYLE
1002
{
1070
173
1070
0
1070
5
1000
_AH13
1002
}
  0
DIMENSION
  5
6a7
100
AcDbEntity
  8
1
100
AcDbDimension
  6
CONTINUOUS
 62
1
  2
*D618
  3
DSTYLE2
 10
1.3665327E+002
 20
7.5872485E+002
 11
1.2865127E+002
 21
7.7491398E+002
 70
128
100
AcDbAlignedDimension
 13
1.6652365E+002
 23
7.3872485E+002
 14
1.6227365E+002
 24
7.5872485E+002
 40
1.0E+001
 50
9.0E+001
100
AcDbRotatedDimension
1001
ACAD
1000
DSTYLE
1002
{
1070
173
1070
0
1070
5
1000
_AH13
1002
}
  0
DIMENSION
  5
6a8
100
AcDbEntity
  8
1
100
AcDbDimension
  6
CONTINUOUS
 62
1
  2
*D619
  3
DSTYLE2
 10
1.9177365E+002
 20
7.8667282E+002
 11
1.7987915E+002
 21
7.9467482E+002
 70
129
100
AcDbAlignedDimension
 13
1.6577365E+002
 23
7.7372485E+002
 14
1.9177365E+002
 24
7.7372485E+002
 40
1.0E+001
1001
ACAD
1000
DSTYLE
1002
{
1070
173
1070
0
1070
5
1000
_AH13
1002
}
  0
DIMENSION
  5
6a9
100
AcDbEntity
  8
1
100
AcDbDimension
  6
CONTINUOUS
 62
1
  2
*D620
  3
DSTYLE2
 10
1.6027365E+002
 20
8.0452775E+002
 11
1.8012043E+002
 21
8.1252975E+002
 70
129
100
AcDbAlignedDimension
 13
1.9727365E+002
 23
7.5672485E+002
 14
1.6027365E+002
 24
7.5672485E+002
 40
1.0E+001
1001
ACAD
1000
DSTYLE
1002
{
1070
173
1070
0
1070
5
1000
_AH13
1002
}
  0
DIMENSION
  5
6aa
100
AcDbEntity
  8
1
100
AcDbDimension
  6
CONTINUOUS
 62
1
  2
*D622
  3
DSTYLE2
 10
1.0075887E+002
 20
4.6705356E+002
 11
9.2755443E+001
 21
3.954288E+002
 70
129
100
AcDbAlignedDimension
 13
1.6227346E+002
 23
3.2205234E+002
 14
1.6227635E+002
 24
4.6705234E+002
 40
1.0E+001
1001
ACAD
1000
DSTYLE
1002
{
1070
173
1070
0
1070
5
1000
_AH13
1002
}
  0
DIMENSION
  5
6ab
100
AcDbEntity
  8
1
100
AcDbDimension
  6
CONTINUOUS
 62
1
  1
max.1142 7 max. 2272
  2
*D624
  3
DSTYLE2
 10
1.0075744E+002
 20
7.5872485E+002
 11
9.2755443E+001
 21
6.3499085E+002
 70
128
100
AcDbAlignedDimension
 13
1.6462365E+002
 23
4.6705234E+002
 14
1.6577365E+002
 24
7.5872485E+002
 40
1.0E+001
 50
9.0E+001
100
AcDbRotatedDimension
1001
ACAD
1000
DSTYLE
1002
{
1070
173
1070
0
1070
5
1000
_AH13
1002
}
  0
DIMENSION
  5
6ac
100
AcDbEntity
  8
1
100
AcDbDimension
  6
CONTINUOUS
 62
1
  1
958
  2
*D625
  3
DSTYLE2
 10
1.0075287E+002
 20
3.2205234E+002
 11
9.2750874E+001
 21
1.6606849E+002
 70
128
100
AcDbAlignedDimension
 13
1.6577365E+002
 23
3.5368833E+001
 14
1.6227635E+002
 24
3.2205234E+002
 40
1.0E+001
 50
9.0E+001
100
AcDbRotatedDimension
1001
ACAD
1000
DSTYLE
1002
{
1070
173
1070
0
1070
5
1000
_AH13
1002
}
  0
DIMENSION
  5
6ad
100
AcDbEntity
  8
1
100
AcDbDimension
  6
CONTINUOUS
 62
1
  1
max. 2245 / max. 3375
  2
*D626
  3
DSTYLE2
 10
6.9207892E+001
 20
7.5872485E+002
 11
6.1205892E+001
 21
4.0733576E+002
 70
128
100
AcDbAlignedDimension
 13
1.6577365E+002
 23
3.5368833E+001
 14
1.6577365E+002
 24
7.5872485E+002
 40
1.0E+001
 50
9.0E+001
100
AcDbRotatedDimension
1001
ACAD
1000
DSTYLE
1002
{
1070
173
1070
0
1070
5
1000
_AH13
1002
}
  0
INSERT
  5
6ae
100
AcDbEntity
100
AcDbBlockReference
  2
UUIR
  8
1
 10
6.3043092E+002
 20
7.5872485E+002
  0
INSERT
  5
6af
100
AcDbEntity
100
AcDbBlockReference
  2
UUIR
  8
1
 10
6.3043092E+002
 20
3.5368833E+001
 41
1.0
 43
1.0
 42
-1.0
  0
INSERT
  5
6b0
100
AcDbEntity
100
AcDbBlockReference
  2
BBNM
  8
1
 10
6.2891242E+002
 20
3.9455234E+002
  0
INSERT
  5
6b1
100
AcDbEntity
100
AcDbBlockReference
  2
HH
  8
1
 10
6.451259E+002
 20
3.9455234E+002
  0
DIMENSION
  5
6b2
100
AcDbEntity
  8
1
100
AcDbDimension
  6
CONTINUOUS
 62
1
  2
*D1290
  3
DSTYLE3
 10
4.0789695E+002
 20
7.9822734E+002
 11
3.8728556E+002
 21
8.0622934E+002
 70
128
100
AcDbAlignedDimension
 13
3.6090371E+002
 23
7.5872485E+002
 14
4.0789695E+002
 24
7.5671143E+002
 40
1.0E+001
 50
0.0
100
AcDbRotatedDimension
1001
ACAD
1000
DSTYLE
1002
{
1070
173
1070
0
1070
5
1000
_AH13
1002
}
  0
DIMENSION
  5
6b3
100
AcDbEntity
  8
1
100
AcDbDimension
  6
CONTINUOUS
 62
1
  2
*D1291
  3
DSTYLE2
 10
3.8490371E+002
 20
5.9975446E+002
 11
4.1306905E+002
 21
6.0775646E+002
 70
128
100
AcDbAlignedDimension
 13
3.6090371E+002
 23
6.4672485E+002
 14
3.8490371E+002
 24
6.4672485E+002
 40
1.0E+001
 50
0.0
100
AcDbRotatedDimension
1001
ACAD
1000
DSTYLE
1002
{
1070
173
1070
0
1070
5
1000
_AH13
1002
}
  0
LINE
  5
6b4
100
AcDbEntity
  8
1
100
AcDbLine
  6
CONTINUOUS
 62
40
 10
8.1256098E+002
 20
6.4672485E+002
 11
8.1256098E+002
 21
5.3767802E+002
  0
LINE
  5
6b5
100
AcDbEntity
  8
1
100
AcDbLine
  6
CONTINUOUS
 62
40
 10
8.3656098E+002
 20
6.1405998E+002
 11
8.3656098E+002
 21
5.3767802E+002
  0
LINE
  5
6b6
100
AcDbEntity
  8
1
100
AcDbLine
  6
CENTERLINE
 62
1
 10
8.0284113E+002
 20
5.3767802E+002
 11
8.466192E+002
 21
5.3767802E+002
  0
LINE
  5
6b7
100
AcDbEntity
  8
1
100
AcDbLine
  6
CENTERLINE
 62
1
 10
8.0284113E+002
 20
5.3367802E+002
 11
8.466192E+002
 21
5.3367802E+002
  0
LINE
  5
6b8
100
AcDbEntity
  8
1
100
AcDbLine
  6
CENTERLINE
 62
1
 10
8.0284113E+002
 20
2.5683294E+002
 11
8.466192E+002
 21
2.5683294E+002
  0
LINE
  5
6b9
100
AcDbEntity
  8
1
100
AcDbLine
  6
CENTERLINE
 62
1
 10
8.0284113E+002
 20
2.5283294E+002
 11
8.466192E+002
 21
2.5283294E+002
  0
LINE
  5
6ba
100
AcDbEntity
  8
1
100
AcDbLine
  6
CONTINUOUS
 62
40
 10
8.3656098E+002
 20
2.5283294E+002
 11
8.3656098E+002
 21
1.800337E+002
  0
LINE
  5
6bb
100
AcDbEntity
  8
1
100
AcDbLine
  6
CONTINUOUS
 62
40
 10
8.3656098E+002
 20
3.2205234E+002
 11
8.3656098E+002
 21
2.5283294E+002
  0
LINE
  5
6bc
100
AcDbEntity
  8
1
100
AcDbLine
  6
CONTINUOUS
 62
40
 10
8.1256098E+002
 20
2.5283294E+002
 11
8.1256098E+002
 21
1.4736883E+002
  0
LINE
  5
6bd
100
AcDbEntity
  8
1
100
AcDbLine
  6
CONTINUOUS
 62
40
 10
8.1256098E+002
 20
3.2205234E+002
 11
8.1256098E+002
 21
2.5683294E+002
  0
LINE
  5
6be
100
AcDbEntity
  8
1
100
AcDbLine
  6
CONTINUOUS
 62
40
 10
8.3656098E+002
 20
5.3367802E+002
 11
8.3656098E+002
 21
4.6705234E+002
  0
LINE
  5
6bf
100
AcDbEntity
  8
1
100
AcDbLine
  6
CONTINUOUS
 62
40
 10
8.1256098E+002
 20
5.3367802E+002
 11
8.1256098E+002
 21
4.6705234E+002
  0
LINE
  5
6c0
100
AcDbEntity
  8
1
100
AcDbLine
  6
CONTINUOUS
 62
40
 10
8.1256098E+002
 20
4.6705234E+002
 11
8.1256098E+002
 21
3.2205234E+002
  0
LINE
  5
6c1
100
AcDbEntity
  8
1
100
AcDbLine
  6
CONTINUOUS
 62
40
 10
6.1843092E+002
 20
6.1372485E+002
 11
6.1843092E+002
 21
5.3767802E+002
  0
LINE
  5
6c2
100
AcDbEntity
  8
1
100
AcDbLine
  6
CONTINUOUS
 62
40
 10
6.4243092E+002
 20
6.1372485E+002
 11
6.4243092E+002
 21
5.3767802E+002
  0
LINE
  5
6c3
100
AcDbEntity
  8
1
100
AcDbLine
  6
CENTERLINE
 62
1
 10
6.0871108E+002
 20
2.5683294E+002
 11
6.5248914E+002
 21
2.5683294E+002
  0
LINE
  5
6c4
100
AcDbEntity
  8
1
100
AcDbLine
  6
CENTERLINE
 62
1
 10
6.0871108E+002
 20
2.5283294E+002
 11
6.5248914E+002
 21
2.5283294E+002
  0
LINE
  5
6c5
100
AcDbEntity
  8
1
100
AcDbLine
  6
CENTERLINE
 62
1
 10
6.0871108E+002
 20
5.3767802E+002
 11
6.5248914E+002
 21
5.3767802E+002
  0
LINE
  5
6c6
100
AcDbEntity
  8
1
100
AcDbLine
  6
CENTERLINE
 62
1
 10
6.0871108E+002
 20
5.3367802E+002
 11
6.5248914E+002
 21
5.3367802E+002
  0
LINE
  5
6c7
100
AcDbEntity
  8
1
100
AcDbLine
  6
CONTINUOUS
 62
40
 10
6.4243092E+002
 20
2.5283294E+002
 11
6.4243092E+002
 21
1.8036883E+002
  0
LINE
  5
6c8
100
AcDbEntity
  8
1
100
AcDbLine
  6
CONTINUOUS
 62
40
 10
6.1843092E+002
 20
2.5283294E+002
 11
6.1843092E+002
 21
1.8036883E+002
  0
LINE
  5
6c9
100
AcDbEntity
  8
1
100
AcDbLine
  6
CONTINUOUS
 62
40
 10
6.4243092E+002
 20
3.2205234E+002
 11
6.4243092E+002
 21
2.5683294E+002
  0
LINE
  5
6ca
100
AcDbEntity
  8
1
100
AcDbLine
  6
CONTINUOUS
 62
40
 10
6.1843092E+002
 20
3.2240143E+002
 11
6.1843092E+002
 21
2.5683294E+002
  0
LINE
  5
6cb
100
AcDbEntity
  8
1
100
AcDbLine
  6
CONTINUOUS
 62
40
 10
6.4243092E+002
 20
5.3367802E+002
 11
6.4243092E+002
 21
4.6705234E+002
  0
LINE
  5
6cc
100
AcDbEntity
  8
1
100
AcDbLine
  6
CONTINUOUS
 62
40
 10
6.1843092E+002
 20
5.3367802E+002
 11
6.1843092E+002
 21
4.6705234E+002
  0
DIMENSION
  5
6cd
100
AcDbEntity
  8
1
100
AcDbDimension
  6
CONTINUOUS
 62
1
  2
*D1473
  3
DSTYLE2
 10
6.4243092E+002
 20
5.647776E+002
 11
5.8826986E+002
 21
5.727796E+002
 70
128
100
AcDbAlignedDimension
 13
6.1843092E+002
 23
5.6435049E+002
 14
6.4243092E+002
 24
5.6435049E+002
 40
1.0E+001
 50
0.0
100
AcDbRotatedDimension
1001
ACAD
1000
DSTYLE
1002
{
1070
173
1070
0
1070
5
1000
_AH13
1002
}
  0
DIMENSION
  5
6ce
100
AcDbEntity
  8
1
100
AcDbDimension
  6
CONTINUOUS
 62
1
  2
*D1474
  3
DSTYLE2
 10
7.0376473E+002
 20
6.1372485E+002
 11
6.9576273E+002
 21
6.9108244E+002
 70
129
100
AcDbAlignedDimension
 13
6.4693092E+002
 23
7.5872485E+002
 14
6.4693092E+002
 24
6.1372485E+002
 40
1.0E+001
1001
ACAD
1000
DSTYLE
1002
{
1070
173
1070
0
1070
5
1000
_AH13
1002
}
  0
DIMENSION
  5
6cf
100
AcDbEntity
  8
1
100
AcDbDimension
  6
CONTINUOUS
 62
1
  2
*D1479
  3
DSTYLE2
 10
6.1193092E+002
 20
7.8560114E+002
 11
6.3160799E+002
 21
7.9360314E+002
 70
129
100
AcDbAlignedDimension
 13
6.4893092E+002
 23
7.5672485E+002
 14
6.1193092E+002
 24
7.5672485E+002
 40
1.0E+001
1001
ACAD
1000
DSTYLE
1002
{
1070
173
1070
0
1070
5
1000
_AH13
1002
}
  0
DIMENSION
  5
6d0
100
AcDbEntity
  8
1
100
AcDbDimension
  6
CONTINUOUS
 62
1
  2
*D1480
  3
DSTYLE2
 10
5.5241614E+002
 20
4.6705356E+002
 11
5.4441272E+002
 21
3.954288E+002
 70
129
100
AcDbAlignedDimension
 13
6.1393073E+002
 23
3.2205234E+002
 14
6.1393362E+002
 24
4.6705234E+002
 40
1.0E+001
1001
ACAD
1000
DSTYLE
1002
{
1070
173
1070
0
1070
5
1000
_AH13
1002
}
  0
DIMENSION
  5
6d1
100
AcDbEntity
  8
1
100
AcDbDimension
  6
CONTINUOUS
 62
1
  1
max.1142 7 max. 2272
  2
*D1481
  3
DSTYLE2
 10
5.5241472E+002
 20
7.5872485E+002
 11
5.4441272E+002
 21
6.3499085E+002
 70
128
100
AcDbAlignedDimension
 13
6.1628092E+002
 23
4.6705234E+002
 14
6.1743092E+002
 24
7.5872485E+002
 40
1.0E+001
 50
9.0E+001
100
AcDbRotatedDimension
1001
ACAD
1000
DSTYLE
1002
{
1070
173
1070
0
1070
5
1000
_AH13
1002
}
  0
DIMENSION
  5
6d2
100
AcDbEntity
  8
1
100
AcDbDimension
  6
CONTINUOUS
 62
1
  1
958
  2
*D1482
  3
DSTYLE2
 10
5.5241015E+002
 20
3.2205234E+002
 11
5.4440815E+002
 21
1.6606849E+002
 70
128
100
AcDbAlignedDimension
 13
6.1743092E+002
 23
3.5368833E+001
 14
6.1393362E+002
 24
3.2205234E+002
 40
1.0E+001
 50
9.0E+001
100
AcDbRotatedDimension
1001
ACAD
1000
DSTYLE
1002
{
1070
173
1070
0
1070
5
1000
_AH13
1002
}
  0
DIMENSION
  5
6d3
100
AcDbEntity
  8
1
100
AcDbDimension
  6
CONTINUOUS
 62
1
  1
max. 2245 / max. 3375
  2
*D1483
  3
DSTYLE2
 10
5.2086516E+002
 20
7.5872485E+002
 11
5.1286316E+002
 21
4.0733576E+002
 70
128
100
AcDbAlignedDimension
 13
6.1743092E+002
 23
3.5368833E+001
 14
6.1743092E+002
 24
7.5872485E+002
 40
1.0E+001
 50
9.0E+001
100
AcDbRotatedDimension
1001
ACAD
1000
DSTYLE
1002
{
1070
173
1070
0
1070
5
1000
_AH13
1002
}
  0
DIMENSION
  5
6d4
100
AcDbEntity
  8
1
100
AcDbDimension
  6
CONTINUOUS
 62
1
  2
*D1485
  3
DSTYLE2
 10
8.3656098E+002
 20
5.7941812E+002
 11
8.7348082E+002
 21
5.8742012E+002
 70
128
100
AcDbAlignedDimension
 13
8.1256098E+002
 23
6.4672485E+002
 14
8.3656098E+002
 24
6.1405998E+002
 40
1.0E+001
 50
0.0
100
AcDbRotatedDimension
1001
ACAD
1000
DSTYLE
1002
{
1070
173
1070
0
1070
5
1000
_AH13
1002
}
  0
INSERT
  5
6d5
100
AcDbEntity
100
AcDbBlockReference
  2
HHJK
  8
1
 10
8.1256098E+002
 20
3.5368833E+001
  0
INSERT
  5
6d6
100
AcDbEntity
100
AcDbBlockReference
  2
HHJK
  8
1
 10
8.1256098E+002
 20
6.1372486E+002
  0
DIMENSION
  5
6d7
100
AcDbEntity
  8
1
100
AcDbDimension
  6
CONTINUOUS
 62
1
  2
*D1760
  3
DSTYLE2
 10
6.7378994E+002
 20
6.2972485E+002
 11
6.6578794E+002
 21
6.8856355E+002
 70
128
100
AcDbAlignedDimension
 13
6.4468092E+002
 23
7.4272485E+002
 14
6.4468092E+002
 24
6.2972485E+002
 40
1.0E+001
 50
9.0E+001
100
AcDbRotatedDimension
1001
ACAD
1000
DSTYLE
1002
{
1070
173
1070
0
1070
5
1000
_AH13
1002
}
  0
DIMENSION
  5
6d8
100
AcDbEntity
  8
1
100
AcDbDimension
  6
CONTINUOUS
 62
1
  2
*D1761
  3
DSTYLE2
 10
6.7378994E+002
 20
7.5872485E+002
 11
6.6578794E+002
 21
7.7521336E+002
 70
128
100
AcDbAlignedDimension
 13
6.4468092E+002
 23
7.4272485E+002
 14
6.4693092E+002
 24
7.5872485E+002
 40
1.0E+001
 50
9.0E+001
100
AcDbRotatedDimension
1001
ACAD
1000
DSTYLE
1002
{
1070
173
1070
0
1070
5
1000
_AH13
1002
}
  0
INSERT
  5
6d9
100
AcDbEntity
100
AcDbBlockReference
  2
BBNM
  8
1
 10
1.7725515E+002
 20
3.9455234E+002
  0
INSERT
  5
6da
100
AcDbEntity
100
AcDbBlockReference
  2
HH
  8
1
 10
1.9346863E+002
 20
3.9455234E+002
  0
DIMENSION
  5
6db
100
AcDbEntity
  8
1
100
AcDbDimension
  6
CONTINUOUS
 62
1
  2
*D1862
  3
DSTYLE2
 10
1.8802365E+002
 20
6.2132805E+002
 11
1.4154499E+002
 21
6.2933005E+002
 70
129
100
AcDbAlignedDimension
 13
1.6952365E+002
 23
6.5672485E+002
 14
1.8802365E+002
 24
6.5672485E+002
 40
1.0E+001
1001
ACAD
1000
DSTYLE
1002
{
1070
173
1070
0
1070
5
1000
_AH13
1002
}
  0
DIMENSION
  5
6dc
100
AcDbEntity
  8
1
100
AcDbDimension
  6
CONTINUOUS
 62
1
  2
*D1863
  3
DSTYLE2
 10
6.3968092E+002
 20
5.8708973E+002
 11
5.905841E+002
 21
5.9509173E+002
 70
128
100
AcDbAlignedDimension
 13
6.2118092E+002
 23
6.2472485E+002
 14
6.3968092E+002
 24
6.2472485E+002
 40
1.0E+001
 50
0.0
100
AcDbRotatedDimension
1001
ACAD
1000
DSTYLE
1002
{
1070
173
1070
0
1070
5
1000
_AH13
1002
}
  0
DIMENSION
  5
6dd
100
AcDbEntity
  8
1
100
AcDbDimension
  6
CONTINUOUS
 62
1
  2
*D1867
  3
DSTYLE2
 10
5.8290503E+002
 20
6.7322485E+002
 11
5.7490303E+002
 21
6.8534822E+002
 70
128
100
AcDbAlignedDimension
 13
5.9643092E+002
 23
6.9922485E+002
 14
5.9643092E+002
 24
6.7322485E+002
 40
1.0E+001
 50
9.0E+001
100
AcDbRotatedDimension
1001
ACAD
1000
DSTYLE
1002
{
1070
173
1070
0
1070
5
1000
_AH13
1002
}
  0
DIMENSION
  5
6de
100
AcDbEntity
  8
1
100
AcDbDimension
  6
CONTINUOUS
 62
1
  2
*D1868
  3
DSTYLE2
 10
5.8290503E+002
 20
7.5872485E+002
 11
5.7490303E+002
 21
7.3174319E+002
 70
128
100
AcDbAlignedDimension
 13
6.1193092E+002
 23
6.9922485E+002
 14
6.1393092E+002
 24
7.5872485E+002
 40
1.0E+001
 50
9.0E+001
100
AcDbRotatedDimension
1001
ACAD
1000
DSTYLE
1002
{
1070
173
1070
0
1070
5
1000
_AH13
1002
}
  0
DIMENSION
  5
6df
100
AcDbEntity
  8
1
100
AcDbDimension
  6
CONTINUOUS
 62
1
  2
*D1870
  3
DSTYLE2
 10
8.1256098E+002
 20
7.8339186E+002
 11
8.370714E+002
 21
7.9139386E+002
 70
128
100
AcDbAlignedDimension
 13
8.6556098E+002
 23
6.8682108E+002
 14
8.1256098E+002
 24
5.9220144E+002
 40
1.0E+001
 50
0.0
100
AcDbRotatedDimension
1001
ACAD
1000
DSTYLE
1002
{
1070
173
1070
0
1070
5
1000
_AH13
1002
}
  0
VIEWPORT
  5
6e0
100
AcDbEntity
 67
1
  8
0
  6
CONTINUOUS
 62
3
100
AcDbViewport
 10
2.97E+002
 20
2.1E+002
 30
0.0
 40
4.2E+002
 41
4.2E+002
 68
1
 69
1
1001
ACAD
1000
MVIEW
1002
{
1070
16
1010
0.0
1020
0.0
1030
0.0
1010
0.0
1020
0.0
1030
1.0
1040
0.0
1040
4.2E+002
1040
1.6335E+002
1040
2.1E+002
1040
5.0E+001
1040
0.0
1040
0.0
1070
0
1070
1000
1070
1
1070
0
1070
0
1070
0
1070
0
1070
0
1040
0.0
1040
0.0
1040
0.0
1040
5.0E-001
1040
5.0E-001
1040
5.0E-001
1040
5.0E-001
1070
0
1002
{
1002
}
1002
}
  0
VIEWPORT
  5
6e1
100
AcDbEntity
 67
1
  8
0
  6
CONTINUOUS
 62
3
100
AcDbViewport
 10
2.97E+002
 20
2.1E+002
 30
0.0
 40
5.94E+002
 41
4.2E+002
 68
2
 69
2
1001
ACAD
1000
MVIEW
1002
{
1070
16
1010
0.0
1020
0.0
1030
0.0
1010
0.0
1020
0.0
1030
1.0
1040
0.0
1040
8.4E+002
1040
5.94E+002
1040
4.2E+002
1040
5.0E+001
1040
0.0
1040
0.0
1070
0
1070
1000
1070
1
1070
0
1070
0
1070
0
1070
0
1070
0
1040
0.0
1040
0.0
1040
0.0
1040
5.0E-001
1040
5.0E-001
1040
5.0E-001
1040
5.0E-001
1070
0
1002
{
1002
}
1002
}
  0
ENDSEC
  0
SECTION
  2
OBJECTS
  0
DICTIONARY
  5
6e2
100
AcDbDictionary
  3
ACAD_GROUP
350
6e3
  3
ACAD_MLINESTYLE
350
6e4
  0
DICTIONARY
  5
6e3
102
{ACAD_REACTORS
330
6e2
102
}
100
AcDbDictionary
  0
DICTIONARY
  5
6e4
102
{ACAD_REACTORS
330
6e2
102
}
100
AcDbDictionary
  3
STANDARD
350
6e5
  0
MLINESTYLE
  5
6e5
102
{ACAD_REACTORS
330
6e4
102
}
100
AcDbMlineStyle
  2
STANDARD
 70
0
  3

 62
256
 51
9.0E+001
 52
9.0E+001
 71
2
 49
5.0E-001
 62
256
  6
BYLAYER
 49
-5.0E-001
 62
256
  6
BYLAYER
  0
ENDSEC
  0
EOF
