  0
SECTION
  2
HEADER
  9
$ACADVER
  1
AC1009
999
I-DEAS 11 NX Not Encoded
  9
$EXTMIN
 10
0.0
 20
0.0
  9
$EXTMAX
 10
4.2E+002
 20
2.97E+002
  9
$TEXTSIZE
 40
1.25E-001
  9
$LTSCALE
 40
1.0
  9
$CLAYER
  8
104
  9
$CECOLOR
 62
40
  9
$DIMASZ
 40
1.25E-001
  9
$DIMEXO
 40
6.25E-002
  9
$DIMDLI
 40
2.5E-001
  9
$DIMEXE
 40
1.25E-001
  9
$DIMTP
 40
5.0E-003
  9
$DIMTM
 40
-5.0E-003
  9
$DIMTXT
 40
3.0
  9
$DIMLIM
 70
0
  9
$DIMTIH
 70
1
  9
$DIMTOH
 70
1
  9
$DIMSE1
 70
0
  9
$DIMSE2
 70
0
  9
$DIMTAD
 70
0
  9
$DIMASO
 70
1
  9
$DIMALT
 70
0
  9
$DIMALTD
 70
0
  9
$DIMTOFL
 70
1
  9
$DIMTIX
 70
0
  9
$DIMSAH
 70
0
  9
$DIMTFAC
 40
1.0
  9
$DIMGAP
 40
6.25E-002
  9
$LUNITS
 70
2
  9
$LUPREC
 70
3
  9
$FILLETRAD
 40
2.0
  9
$AUNITS
 70
0
  9
$AUPREC
 70
1
  9
$CHAMFERA
 40
1.0E+001
  9
$CHAMFERB
 40
1.0E+001
  9
$ANGBASE
 50
0.0
  9
$ANGDIR
 70
0
  9
$PEXTMIN
 10
0.0
 20
0.0
 30
0.0
  9
$PEXTMAX
 10
4.2E+002
 20
2.97E+002
 30
0.0
  9
$PLIMMIN
 10
0.0
 20
0.0
  9
$PLIMMAX
 10
4.2E+002
 20
2.97E+002
  9
$PDMODE
 70
2
  9
$PDSIZE
 40
-1.0E-002
  9
$SPLINETYPE
 70
6
  9
$TILEMODE
 70
0
  0
ENDSEC
  0
SECTION
  2
TABLES
  0
TABLE
  2
VPORT
 70
2
  0
VPORT
  2
*Active
 70
0
 10
0.0
 20
0.0
 11
4.2E+002
 21
2.97E+002
 12
2.1E+002
 22
1.485E+002
 13
0.0
 23
0.0
 14
1.0
 24
1.0
 15
0.0
 25
0.0
 16
0.0
 26
0.0
 36
1.0
 17
0.0
 27
0.0
 37
0.0
 40
2.97E+002
 41
1.4141414
 42
5.0E+001
 43
0.0
 44
0.0
 50
0.0
 51
0.0
 71
0
 72
100
 73
1
 74
3
 75
0
 76
0
 77
0
 78
0
  0
ENDTAB
  0
TABLE
  2
LTYPE
 70
7
  0
LTYPE
  2
HIDDENNEW0
  3
_ 
 70
64
 72
65
 73
3
 40
4.5
 49
1.5
 49
-1.5
 49
1.5
  0
LTYPE
  2
HIDDENNEW1
  3
_ 
 70
64
 72
65
 73
3
 40
4.5
 49
1.5
 49
-1.5
 49
1.5
  0
LTYPE
  2
HIDDEN
  3
_ 
 70
64
 72
65
 73
3
 40
4.5
 49
1.5
 49
-1.5
 49
1.5
  0
LTYPE
  2
CENTERLINE
  3
_ 
 70
64
 72
65
 73
5
 40
3.0E+001
 49
1.2E+001
 49
-1.5
 49
3.0
 49
-1.5
 49
1.2E+001
  0
LTYPE
  2
PHANTOM
  3
_ 
 70
64
 72
65
 73
7
 40
2.95E+001
 49
9.5
 49
-1.5
 49
3.0
 49
-1.5
 49
3.0
 49
-1.5
 49
9.5
  0
LTYPE
  2
SHORT_DASH
  3
_ 
 70
64
 72
65
 73
3
 40
3.0
 49
7.5E-001
 49
-1.5
 49
7.5E-001
  0
LTYPE
  2
LONG_DASH
  3
_ 
 70
64
 72
65
 73
3
 40
9.0
 49
2.25
 49
-4.5
 49
2.25
  0
ENDTAB
  0
TABLE
  2
LAYER
 70
258
  0
LAYER
  2
0
 70
0
 62
7
  6
CONTINUOUS
  0
LAYER
  2
1
 70
0
 62
7
  6
CONTINUOUS
  0
LAYER
  2
Drafting_Hidden_Entities
 70
1
 62
7
  6
CONTINUOUS
  0
ENDTAB
  0
TABLE
  2
STYLE
 70
1
  0
STYLE
  2
STANDARD
 70
64
 40
0.0
 41
1.0
 50
0.0
 71
0
 42
1.0
  3
monotxt.shx
  4

  0
ENDTAB
  0
TABLE
  2
VIEW
 70
0
  0
ENDTAB
  0
TABLE
  2
DIMSTYLE
 70
4
  0
DIMSTYLE
  2
DSTYLE1
 70
0
  3

  4

  5

  6

  7

 40
1.0
 41
8.0
 42
0.0
 43
3.8E-001
 44
3.0
 45
0.0
 46
0.0
 47
1.0E-001
 48
1.0E-001
 71
0
 72
0
 73
0
 74
0
 75
0
 76
0
 77
1
 78
11
140
7.0
141
9.0E-002
142
0.0
143
3.9370079E-002
144
1.0
145
0.0
146
1.0
147
3.0
170
0
171
2
172
0
173
0
174
0
175
0
176
0
177
0
178
0
  0
DIMSTYLE
  2
DSTYLE2
 70
0
  3

  4

  5

  6

  7

 40
1.0
 41
8.0
 42
0.0
 43
3.8E-001
 44
3.0
 45
1.0E-003
 46
0.0
 47
1.0E-001
 48
1.0E-001
 71
0
 72
0
 73
0
 74
0
 75
0
 76
0
 77
1
 78
11
140
7.0
141
9.0E-002
142
0.0
143
3.9370079E-002
144
1.0
145
0.0
146
1.0
147
3.0
170
0
171
2
172
0
173
0
174
0
175
0
176
0
177
0
178
0
  0
DIMSTYLE
  2
DSTYLE3
 70
0
  3

  4

  5

  6

  7

 40
1.0
 41
8.0
 42
0.0
 43
3.8E-001
 44
1.5
 45
0.0
 46
0.0
 47
1.0E-001
 48
1.0E-001
 71
0
 72
0
 73
0
 74
0
 75
0
 76
0
 77
1
 78
11
140
7.0
141
9.0E-002
142
0.0
143
3.9370079E-002
144
1.0
145
0.0
146
1.0
147
1.5
170
0
171
2
172
0
173
0
174
0
175
0
176
0
177
0
178
0
  0
DIMSTYLE
  2
DSTYLE4
 70
0
  3

  4

  5

  6

  7

 40
1.0
 41
8.0
 42
0.0
 43
3.8E-001
 44
1.5
 45
1.0E-003
 46
0.0
 47
1.0E-001
 48
1.0E-001
 71
0
 72
0
 73
0
 74
0
 75
0
 76
0
 77
1
 78
11
140
7.0
141
9.0E-002
142
0.0
143
3.9370079E-002
144
1.0
145
0.0
146
1.0
147
1.5
170
0
171
2
172
0
173
0
174
0
175
0
176
0
177
0
178
0
  0
ENDTAB
  0
ENDSEC
  0
SECTION
  2
BLOCKS
  0
BLOCK
  2
_AH12
  3
_AH
 10
0.0
 20
0.0
 70
64
  0
LINE
  8
0
  6
CONTINUOUS
 62
0
 10
0.0
 20
0.0
 11
1.0
 21
0.0
  0
LINE
  8
0
  6
CONTINUOUS
 62
0
 10
0.0
 20
0.0
 11
-1.0
 21
0.0
  0
ENDBLK
  0
BLOCK
  2
_AH13
  3
_AH
 10
0.0
 20
0.0
 70
64
  0
SOLID
  8
0
  6
CONTINUOUS
 62
0
 10
0.0
 20
0.0
 11
1.0
 21
-1.66667E-001
 12
1.0
 22
1.66667E-001
 13
0.0
 23
0.0
  0
ENDBLK
  0
BLOCK
  2
_AH14
  3
_AH
 10
0.0
 20
0.0
 70
64
  0
ENDBLK
  0
BLOCK
  2
_AH15
  3
_AH
 10
0.0
 20
0.0
 70
64
  0
CIRCLE
  8
0
  6
CONTINUOUS
 62
0
 10
0.0
 20
0.0
 40
1.66667E-001
  0
LINE
  8
0
  6
CONTINUOUS
 62
0
 10
0.0
 20
0.0
 11
-1.0
 21
0.0
  0
ENDBLK
  0
BLOCK
  2
_AH16
  3
_AH
 10
0.0
 20
0.0
 70
64
  0
POLYLINE
  8
0
  6
CONTINUOUS
 62
0
 66
1
 40
0.0
 41
0.0
 70
0
  0
VERTEX
  8
0
 42
1.0
 10
8.3335E-002
 20
0.0
 70
0
  0
VERTEX
  8
0
 42
1.0
 10
-8.3335E-002
 20
0.0
 70
0
  0
VERTEX
  8
0
 42
0.0
 10
8.3335E-002
 20
0.0
 70
0
  0
SEQEND
  0
LINE
  8
0
  6
CONTINUOUS
 62
0
 10
0.0
 20
0.0
 11
-1.0
 21
0.0
  0
ENDBLK
  0
BLOCK
  2
_AH17
  3
_AH
 10
0.0
 20
0.0
 70
64
  0
LINE
  8
0
  6
CONTINUOUS
 62
0
 10
-1.66667E-001
 20
-1.66667E-001
 11
1.66667E-001
 21
-1.66667E-001
  0
LINE
  8
0
  6
CONTINUOUS
 62
0
 10
1.66667E-001
 20
-1.66667E-001
 11
1.66667E-001
 21
1.66667E-001
  0
LINE
  8
0
  6
CONTINUOUS
 62
0
 10
1.66667E-001
 20
1.66667E-001
 11
-1.66667E-001
 21
1.66667E-001
  0
LINE
  8
0
  6
CONTINUOUS
 62
0
 10
-1.66667E-001
 20
1.66667E-001
 11
-1.66667E-001
 21
-1.66667E-001
  0
LINE
  8
0
  6
CONTINUOUS
 62
0
 10
0.0
 20
0.0
 11
-1.0
 21
0.0
  0
ENDBLK
  0
BLOCK
  2
_AH18
  3
_AH
 10
0.0
 20
0.0
 70
64
  0
SOLID
  8
0
  6
CONTINUOUS
 62
0
 10
-1.66667E-001
 20
-1.66667E-001
 11
1.66667E-001
 21
-1.66667E-001
 12
-1.66667E-001
 22
1.66667E-001
 13
1.66667E-001
 23
1.66667E-001
  0
LINE
  8
0
  6
CONTINUOUS
 62
0
 10
0.0
 20
0.0
 11
-1.0
 21
0.0
  0
ENDBLK
  0
BLOCK
  2
_AH19
  3
_AH
 10
0.0
 20
0.0
 70
64
  0
LINE
  8
0
  6
CONTINUOUS
 62
0
 10
-5.0E-001
 20
-5.0E-001
 11
5.0E-001
 21
5.0E-001
  0
LINE
  8
0
  6
CONTINUOUS
 62
0
 10
0.0
 20
0.0
 11
-1.0
 21
0.0
  0
ENDBLK
  0
BLOCK
  2
_AH20
  3
_AH
 10
0.0
 20
0.0
 70
64
  0
POLYLINE
  8
0
  6
CONTINUOUS
 62
0
 66
1
 40
5.0E-001
 41
5.0E-001
 70
0
  0
VERTEX
  8
0
 42
4.1421356E-001
 10
-1.66667E-001
 20
-1.66667E-001
 70
0
  0
VERTEX
  8
0
 42
0.0
 10
0.0
 20
0.0
 70
0
  0
SEQEND
  0
POLYLINE
  8
0
  6
CONTINUOUS
 62
0
 66
1
 40
5.0E-001
 41
5.0E-001
 70
0
  0
VERTEX
  8
0
 42
4.1421356E-001
 10
1.66667E-001
 20
1.66667E-001
 70
0
  0
VERTEX
  8
0
 42
0.0
 10
0.0
 20
0.0
 70
0
  0
SEQEND
  0
LINE
  8
0
  6
CONTINUOUS
 62
0
 10
0.0
 20
0.0
 11
-1.0
 21
0.0
  0
ENDBLK
  0
BLOCK
  2
_AH21
  3
_AH
 10
0.0
 20
0.0
 70
64
  0
LINE
  8
0
  6
CONTINUOUS
 62
0
 10
0.0
 20
0.0
 11
-1.0
 21
-1.66667E-001
  0
LINE
  8
0
  6
CONTINUOUS
 62
0
 10
-1.0
 20
-1.66667E-001
 11
-1.0
 21
1.66667E-001
  0
LINE
  8
0
  6
CONTINUOUS
 62
0
 10
-1.0
 20
1.66667E-001
 11
0.0
 21
0.0
  0
ENDBLK
  0
BLOCK
  2
555
 10
0.0
 20
0.0
 70
0
  0
CIRCLE
  8
109
  6
CONTINUOUS
 62
1
 10
1.86E+001
 20
3.54E+001
 40
1.5
  0
CIRCLE
  8
109
  6
CONTINUOUS
 62
1
 10
9.3
 20
3.54E+001
 40
1.5
  0
CIRCLE
  8
109
  6
CONTINUOUS
 62
1
 10
0.0
 20
3.54E+001
 40
1.5
  0
CIRCLE
  8
109
  6
CONTINUOUS
 62
1
 10
0.0
 20
2.61E+001
 40
1.5
  0
CIRCLE
  8
109
  6
CONTINUOUS
 62
1
 10
-9.3
 20
3.54E+001
 40
1.5
  0
CIRCLE
  8
109
  6
CONTINUOUS
 62
1
 10
-9.3
 20
2.61E+001
 40
1.5
  0
CIRCLE
  8
109
  6
CONTINUOUS
 62
1
 10
-1.86E+001
 20
3.54E+001
 40
1.5
  0
CIRCLE
  8
109
  6
CONTINUOUS
 62
1
 10
-1.86E+001
 20
2.61E+001
 40
1.5
  0
CIRCLE
  8
109
  6
CONTINUOUS
 62
1
 10
-1.86E+001
 20
1.68E+001
 40
1.5
  0
CIRCLE
  8
109
  6
CONTINUOUS
 62
1
 10
-1.86E+001
 20
7.5
 40
1.5
  0
CIRCLE
  8
109
  6
CONTINUOUS
 62
1
 10
-9.3
 20
1.68E+001
 40
1.5
  0
CIRCLE
  8
109
  6
CONTINUOUS
 62
1
 10
0.0
 20
1.68E+001
 40
1.5
  0
CIRCLE
  8
109
  6
CONTINUOUS
 62
1
 10
0.0
 20
7.5
 40
1.5
  0
CIRCLE
  8
109
  6
CONTINUOUS
 62
1
 10
-9.3
 20
7.5
 40
1.5
  0
CIRCLE
  8
109
  6
CONTINUOUS
 62
1
 10
9.3
 20
7.5
 40
1.5
  0
CIRCLE
  8
109
  6
CONTINUOUS
 62
1
 10
9.3
 20
1.68E+001
 40
1.5
  0
CIRCLE
  8
109
  6
CONTINUOUS
 62
1
 10
9.3
 20
2.61E+001
 40
1.5
  0
CIRCLE
  8
109
  6
CONTINUOUS
 62
1
 10
1.86E+001
 20
2.61E+001
 40
1.5
  0
CIRCLE
  8
109
  6
CONTINUOUS
 62
1
 10
1.86E+001
 20
1.68E+001
 40
1.5
  0
CIRCLE
  8
109
  6
CONTINUOUS
 62
1
 10
1.86E+001
 20
7.5
 40
1.5
  0
POINT
  8
Drafting_Hidden_Entities
  6
CONTINUOUS
 62
1
 10
0.0
 20
0.0
  0
ENDBLK
  0
BLOCK
  2
3
 10
0.0
 20
0.0
 70
0
  0
TEXT
  8
103
  6
CONTINUOUS
 62
40
 10
2.1506884E+002
 20
3.4691481E+001
 40
1.0E+001
  1
p439101.she
 41
6.5454545E-001
 72
1
 11
1.7906884E+002
 21
2.9691481E+001
 73
2
  0
TEXT
  8
103
  6
CONTINUOUS
 62
150
 10
1.3993183E+002
 20
1.2917903E+001
 40
7.0
  1
Maßstab:
 41
6.4687502E-001
 72
1
 11
1.2181933E+002
 21
9.4179026
 73
2
  0
LINE
  8
1
  6
CONTINUOUS
 62
3
 10
0.0
 20
4.0E+001
 11
0.0
 21
7.56132E+001
  0
LINE
  8
1
  6
CONTINUOUS
 62
3
 10
0.0
 20
7.56132E+001
 11
2.26714E+002
 21
7.56132E+001
  0
LINE
  8
1
  6
CONTINUOUS
 62
3
 10
2.26714E+002
 20
7.56132E+001
 11
2.26714E+002
 21
4.0E+001
  0
TEXT
  8
103
  6
CONTINUOUS
 62
150
 10
4.6041464E+001
 20
5.1228346E+001
 40
7.0
  1
Benennung
 41
6.5000002E-001
 72
1
 11
2.5566463E+001
 21
4.7728346E+001
 73
2
  0
TEXT
  8
103
  6
CONTINUOUS
 62
40
 10
2.1063639E+001
 20
5.8891194E+001
 40
1.0E+001
  1
Montage Bandseite
 41
6.6176471E-001
  0
TEXT
  8
103
  6
CONTINUOUS
 62
150
 10
1.7089744E+002
 20
5.2493312E+001
 40
7.0
  1
verstellb. Gleitschiene
 41
6.6521741E-001
 72
1
 11
1.1734744E+002
 21
4.8993312E+001
 73
2
  0
TEXT
  8
103
  6
CONTINUOUS
 62
150
 10
1.3405737E+002
 20
3.2116202E+001
 40
7.0
  1
Zng.Nr.
 41
6.4285716E-001
 72
1
 11
1.1830737E+002
 21
2.8616202E+001
 73
2
  0
TEXT
  8
103
  6
CONTINUOUS
 62
40
 10
9.1858944E+001
 20
3.486946E+001
 40
1.0E+001
  1
M.Schell
 41
6.46875E-001
 72
1
 11
6.5983944E+001
 21
2.986946E+001
 73
2
  0
TEXT
  8
103
  6
CONTINUOUS
 62
40
 10
9.1069393E+001
 20
1.572172E+001
 40
1.0E+001
  1
01.10.97
 41
6.46875E-001
 72
1
 11
6.5194393E+001
 21
1.072172E+001
 73
2
  0
TEXT
  8
103
  6
CONTINUOUS
 62
150
 10
2.2949667E+001
 20
3.2429518E+001
 40
7.0
  1
gez.
 41
6.1875002E-001
 72
1
 11
1.4287167E+001
 21
2.8929518E+001
 73
2
  0
TEXT
  8
103
  6
CONTINUOUS
 62
150
 10
2.5938815E+001
 20
1.3630694E+001
 40
7.0
  1
Datum
 41
6.3000002E-001
 72
1
 11
1.4913814E+001
 21
1.0130694E+001
 73
2
  0
TEXT
  8
103
  6
CONTINUOUS
 62
40
 10
1.6272375E+002
 20
1.5031474E+001
 40
1.0E+001
  1
1:2
 41
6.0E-001
 72
1
 11
1.5372375E+002
 21
1.0031474E+001
 73
2
  0
LINE
  8
1
  6
CONTINUOUS
 62
3
 10
1.79314E+002
 20
2.0E+001
 11
1.79314E+002
 21
0.0
  0
TEXT
  8
103
  6
CONTINUOUS
 62
40
 10
2.1114953E+002
 20
1.5442698E+001
 40
1.0E+001
  1
A 3
 41
6.0E-001
 72
1
 11
2.0214953E+002
 21
1.0442698E+001
 73
2
  0
LINE
  8
1
  6
CONTINUOUS
 62
3
 10
0.0
 20
4.0E+001
 11
2.26714E+002
 21
4.0E+001
  0
LINE
  8
1
  6
CONTINUOUS
 62
3
 10
2.26714E+002
 20
4.0E+001
 11
2.26714E+002
 21
0.0
  0
LINE
  8
1
  6
CONTINUOUS
 62
3
 10
2.26714E+002
 20
0.0
 11
0.0
 21
0.0
  0
LINE
  8
1
  6
CONTINUOUS
 62
3
 10
0.0
 20
0.0
 11
0.0
 21
4.0E+001
  0
LINE
  8
1
  6
CONTINUOUS
 62
3
 10
9.962E+001
 20
4.0E+001
 11
9.962E+001
 21
0.0
  0
LINE
  8
1
  6
CONTINUOUS
 62
3
 10
0.0
 20
2.0E+001
 11
2.26714E+002
 21
2.0E+001
  0
POINT
  8
Drafting_Hidden_Entities
  6
CONTINUOUS
 62
1
 10
0.0
 20
0.0
  0
ENDBLK
  0
BLOCK
  2
1
 10
0.0
 20
0.0
 70
0
  0
LINE
  8
104
  6
CONTINUOUS
 62
40
 10
3.9949997E+002
 20
5.4999954E+001
 11
3.9949997E+002
 21
5.2699997E+001
  0
LINE
  8
104
  6
CONTINUOUS
 62
40
 10
3.9949997E+002
 20
5.2699997E+001
 11
4.1649997E+002
 21
5.2699997E+001
  0
LINE
  8
104
  6
CONTINUOUS
 62
40
 10
4.1649997E+002
 20
5.2699997E+001
 11
4.1649997E+002
 21
5.4999954E+001
  0
LINE
  8
104
  6
CONTINUOUS
 62
40
 10
4.1402496E+002
 20
5.2699997E+001
 11
4.1402496E+002
 21
5.2249985E+001
  0
LINE
  8
104
  6
CONTINUOUS
 62
40
 10
4.1402496E+002
 20
5.2249985E+001
 11
4.0197495E+002
 21
5.2249985E+001
  0
LINE
  8
104
  6
CONTINUOUS
 62
40
 10
4.0197495E+002
 20
5.2249985E+001
 11
4.0197495E+002
 21
5.2699997E+001
  0
LINE
  8
104
  6
CONTINUOUS
 62
40
 10
4.0302496E+002
 20
5.2249985E+001
 11
4.0302496E+002
 21
5.1249985E+001
  0
LINE
  8
104
  6
CONTINUOUS
 62
40
 10
4.1297491E+002
 20
5.2249985E+001
 11
4.1297491E+002
 21
5.1249985E+001
  0
LINE
  8
104
  6
CONTINUOUS
 62
40
 10
2.799999E+001
 20
5.1249985E+001
 11
2.799999E+001
 21
5.1749985E+001
  0
ARC
  8
104
  6
CONTINUOUS
 62
40
 10
2.849999E+001
 20
5.1749984E+001
 40
5.0000028E-001
 50
9.0E+001
 51
1.8E+002
  0
LINE
  8
104
  6
CONTINUOUS
 62
40
 10
2.849999E+001
 20
5.2249985E+001
 11
3.749999E+001
 21
5.2249985E+001
  0
ARC
  8
104
  6
CONTINUOUS
 62
40
 10
3.7500001E+001
 20
5.1749996E+001
 40
4.9998907E-001
 50
3.5999875E+002
 51
4.5000125E+002
  0
LINE
  8
104
  6
CONTINUOUS
 62
40
 10
3.799999E+001
 20
5.1749985E+001
 11
3.799999E+001
 21
5.1249985E+001
  0
LINE
  8
104
  6
CONTINUOUS
 62
40
 10
2.2E+001
 20
4.6249985E+001
 11
4.4E+001
 21
4.6249985E+001
  0
LINE
  8
104
  6
CONTINUOUS
 62
40
 10
4.4E+001
 20
4.6249985E+001
 11
4.4E+001
 21
3.825E+001
  0
LINE
  8
104
  6
CONTINUOUS
 62
40
 10
4.1899994E+002
 20
4.6249985E+001
 11
4.1899994E+002
 21
5.1249985E+001
  0
LINE
  8
104
  6
CONTINUOUS
 62
40
 10
2.2E+001
 20
5.1249985E+001
 11
4.1899994E+002
 21
5.1249985E+001
  0
LINE
  8
104
  6
CONTINUOUS
 62
40
 10
2.2E+001
 20
3.825E+001
 11
2.2E+001
 21
5.1249985E+001
  0
LINE
  8
104
  6
CONTINUOUS
 62
40
 10
2.2E+001
 20
4.6249985E+001
 11
4.1899994E+002
 21
4.6249985E+001
  0
LINE
  8
104
  6
CONTINUOUS
 62
40
 10
4.0151495E+002
 20
4.6249985E+001
 11
4.0151495E+002
 21
4.5749954E+001
  0
ARC
  8
104
  6
CONTINUOUS
 62
40
 10
4.0201495E+002
 20
4.5749948E+001
 40
4.9999411E-001
 50
1.7999933E+002
 51
2.7000067E+002
  0
LINE
  8
104
  6
CONTINUOUS
 62
40
 10
4.0201495E+002
 20
4.5249954E+001
 11
4.1398492E+002
 21
4.5249954E+001
  0
ARC
  8
104
  6
CONTINUOUS
 62
40
 10
4.1398494E+002
 20
4.5749935E+001
 40
4.9998037E-001
 50
2.6999775E+002
 51
3.6000225E+002
  0
LINE
  8
104
  6
CONTINUOUS
 62
40
 10
4.1448492E+002
 20
4.5749954E+001
 11
4.1448492E+002
 21
4.6249985E+001
  0
LINE
  8
106
  6
CENTERLINE
 62
1
 10
3.3E+001
 20
5.4296097E+001
 11
3.3E+001
 21
3.0957826E+001
  0
CIRCLE
  8
105
  6
HIDDEN
 62
1
 10
0.0
 20
2.7E+001
 40
5.0
  0
CIRCLE
  8
105
  6
HIDDEN
 62
1
 10
1.0799999E+002
 20
1.9E+001
 40
5.0
  0
LINE
  8
106
  6
CENTERLINE
 62
1
 10
1.0799998E+002
 20
2.6166641E+001
 11
1.0799998E+002
 21
1.173114E+001
  0
LINE
  8
106
  6
CENTERLINE
 62
1
 10
1.1499251E+002
 20
1.9E+001
 11
1.0075749E+002
 21
1.9E+001
  0
LINE
  8
106
  6
CENTERLINE
 62
1
 10
5.2E+001
 20
2.6166641E+001
 11
5.2E+001
 21
1.173114E+001
  0
LINE
  8
106
  6
CENTERLINE
 62
1
 10
5.8992523E+001
 20
1.9E+001
 11
4.4757507E+001
 21
1.9E+001
  0
CIRCLE
  8
105
  6
HIDDEN
 62
1
 10
5.2E+001
 20
1.9E+001
 40
5.0
  0
CIRCLE
  8
105
  6
HIDDEN
 62
1
 10
1.5999998E+002
 20
-1.6E+001
 40
5.0
  0
LINE
  8
99
  6
CONTINUOUS
 62
1
 10
0.0
 20
-2.3502838E+001
 11
0.0
 21
3.4773895E+001
  0
LINE
  8
106
  6
CENTERLINE
 62
1
 10
-6.059021
 20
2.7E+001
 11
7.6042175
 21
2.7E+001
  0
LINE
  8
106
  6
CENTERLINE
 62
1
 10
1.66059E+002
 20
-1.6E+001
 11
1.5239576E+002
 21
-1.6E+001
  0
LINE
  8
106
  6
CENTERLINE
 62
1
 10
1.5999997E+002
 20
-2.3502838E+001
 11
1.5999997E+002
 21
3.4489731E+001
  0
LINE
  8
106
  6
CENTERLINE
 62
1
 10
1.66059E+002
 20
0.0
 11
1.5239576E+002
 21
0.0
  0
LINE
  8
106
  6
CENTERLINE
 62
1
 10
1.66059E+002
 20
1.1E+001
 11
1.5239576E+002
 21
1.1E+001
  0
LINE
  8
106
  6
CENTERLINE
 62
1
 10
1.66059E+002
 20
2.7E+001
 11
1.5239576E+002
 21
2.7E+001
  0
LINE
  8
106
  6
CENTERLINE
 62
1
 10
-6.059021
 20
-1.6E+001
 11
7.6042175
 21
-1.6E+001
  0
LINE
  8
106
  6
CENTERLINE
 62
1
 10
-6.059021
 20
0.0
 11
7.6042175
 21
0.0
  0
LINE
  8
106
  6
CENTERLINE
 62
1
 10
-6.059021
 20
1.1E+001
 11
7.6042175
 21
1.1E+001
  0
CIRCLE
  8
105
  6
HIDDEN
 62
1
 10
1.5999998E+002
 20
0.0
 40
5.0
  0
CIRCLE
  8
105
  6
HIDDEN
 62
1
 10
1.5999998E+002
 20
1.1E+001
 40
5.0
  0
CIRCLE
  8
105
  6
HIDDEN
 62
1
 10
1.5999998E+002
 20
2.7E+001
 40
5.0
  0
CIRCLE
  8
105
  6
HIDDEN
 62
1
 10
0.0
 20
-1.6E+001
 40
5.0
  0
CIRCLE
  8
105
  6
HIDDEN
 62
1
 10
0.0
 20
0.0
 40
5.0
  0
CIRCLE
  8
105
  6
HIDDEN
 62
1
 10
0.0
 20
1.1E+001
 40
5.0
  0
LINE
  8
104
  6
CONTINUOUS
 62
40
 10
-5.2E+001
 20
3.825E+001
 11
2.21E+002
 21
3.825E+001
  0
LINE
  8
106
  6
CENTERLINE
 62
1
 10
1.5999998E+002
 20
-2.3502838E+001
 11
1.5999998E+002
 21
3.1755005E+001
  0
LINE
  8
105
  6
HIDDEN
 62
1
 10
1.0999985E+001
 20
6.7499985E+001
 11
1.0999985E+001
 21
6.2499985E+001
  0
ARC
  8
105
  6
HIDDEN
 62
1
 10
7.9999847
 20
6.2499969E+001
 40
3.0
 50
1.8E+002
 51
3.6000029E+002
  0
LINE
  8
105
  6
HIDDEN
 62
1
 10
4.9999847
 20
6.2499969E+001
 11
4.9999847
 21
6.7499985E+001
  0
ARC
  8
105
  6
HIDDEN
 62
1
 10
7.9999847
 20
6.7499985E+001
 40
3.0
 50
0.0
 51
1.8E+002
  0
LINE
  8
106
  6
CENTERLINE
 62
1
 10
4.3601175E+002
 20
7.2074231E+001
 11
4.3599799E+002
 21
5.7675157E+001
  0
LINE
  8
106
  6
CENTERLINE
 62
1
 10
4.4124997E+002
 20
6.4999985E+001
 11
4.3099997E+002
 21
6.4999985E+001
  0
LINE
  8
106
  6
CENTERLINE
 62
1
 10
8.0
 20
5.7835068E+001
 11
7.9999695
 21
7.200174E+001
  0
LINE
  8
105
  6
HIDDEN
 62
1
 10
4.3900498E+002
 20
6.7499985E+001
 11
4.3900498E+002
 21
6.2499985E+001
  0
ARC
  8
105
  6
HIDDEN
 62
1
 10
4.3600498E+002
 20
6.2499969E+001
 40
3.0
 50
1.8E+002
 51
3.6000029E+002
  0
LINE
  8
105
  6
HIDDEN
 62
1
 10
4.3300498E+002
 20
6.2499969E+001
 11
4.3300498E+002
 21
6.7499985E+001
  0
ARC
  8
105
  6
HIDDEN
 62
1
 10
4.3600498E+002
 20
6.7499985E+001
 40
3.0
 50
0.0
 51
1.8E+002
  0
LINE
  8
106
  6
CENTERLINE
 62
1
 10
1.3E+001
 20
6.4999985E+001
 11
2.75
 21
6.4999985E+001
  0
ARC
  8
104
  6
CONTINUOUS
 62
40
 10
4.417538E+002
 20
7.3999965E+001
 40
9.9998906E-001
 50
3.5999937E+002
 51
4.5000063E+002
  0
LINE
  8
104
  6
CONTINUOUS
 62
40
 10
4.4275378E+002
 20
7.3999954E+001
 11
4.4275378E+002
 21
5.5999954E+001
  0
ARC
  8
104
  6
CONTINUOUS
 62
40
 10
4.4175379E+002
 20
5.5999948E+001
 40
9.999935E-001
 50
2.6999963E+002
 51
3.6000037E+002
  0
LINE
  8
104
  6
CONTINUOUS
 62
40
 10
4.4175378E+002
 20
5.4999954E+001
 11
2.2462006
 21
5.4999954E+001
  0
ARC
  8
104
  6
CONTINUOUS
 62
40
 10
2.2462007
 20
5.5999954E+001
 40
1.0000001
 50
1.8E+002
 51
2.7E+002
  0
LINE
  8
104
  6
CONTINUOUS
 62
40
 10
1.2462006
 20
5.5999954E+001
 11
1.2462006
 21
7.4999954E+001
  0
LINE
  8
104
  6
CONTINUOUS
 62
40
 10
1.2462006
 20
7.4999954E+001
 11
4.4175378E+002
 21
7.4999954E+001
  0
LINE
  8
104
  6
CONTINUOUS
 62
40
 10
1.3246185E+001
 20
7.4999954E+001
 11
1.3246185E+001
 21
5.4999985E+001
  0
LINE
  8
104
  6
CONTINUOUS
 62
40
 10
4.3075375E+002
 20
7.4999954E+001
 11
4.3075375E+002
 21
5.4999954E+001
  0
LINE
  8
104
  6
CONTINUOUS
 62
40
 10
2.975E+001
 20
4.625E+001
 11
3.6249992E+001
 21
4.625E+001
  0
LINE
  8
106
  6
CENTERLINE
 62
1
 10
4.0799994E+002
 20
4.4457382E+001
 11
4.0799994E+002
 21
5.8200241E+001
  0
LINE
  8
104
  6
CONTINUOUS
 62
40
 10
2.7099998E+001
 20
4.625E+001
 11
3.8899994E+001
 21
4.625E+001
  0
LINE
  8
104
  6
CONTINUOUS
 62
40
 10
-5.2E+001
 20
-2.675E+001
 11
2.21E+002
 21
-2.675E+001
  0
LINE
  8
104
  6
CONTINUOUS
 62
40
 10
-5.5E+001
 20
3.525E+001
 11
-5.5E+001
 21
-2.375E+001
  0
LINE
  8
104
  6
CONTINUOUS
 62
40
 10
2.24E+002
 20
3.525E+001
 11
2.24E+002
 21
-2.375E+001
  0
LINE
  8
104
  6
CONTINUOUS
 62
40
 10
-4.45E+001
 20
3.825E+001
 11
-4.45E+001
 21
-2.675E+001
  0
LINE
  8
104
  6
CONTINUOUS
 62
40
 10
2.135E+002
 20
3.825E+001
 11
2.135E+002
 21
-2.675E+001
  0
ARC
  8
104
  6
CONTINUOUS
 62
40
 10
2.21E+002
 20
3.525E+001
 40
3.0
 50
0.0
 51
9.0E+001
  0
ARC
  8
104
  6
CONTINUOUS
 62
40
 10
2.21E+002
 20
-2.375E+001
 40
3.0
 50
2.7E+002
 51
3.6E+002
  0
ARC
  8
104
  6
CONTINUOUS
 62
40
 10
-5.2E+001
 20
-2.375E+001
 40
3.0
 50
1.8E+002
 51
2.7E+002
  0
ARC
  8
104
  6
CONTINUOUS
 62
40
 10
-5.2E+001
 20
3.525E+001
 40
3.0
 50
9.0E+001
 51
1.8E+002
  0
POINT
  8
Drafting_Hidden_Entities
  6
CONTINUOUS
 62
1
 10
0.0
 20
0.0
  0
ENDBLK
  0
BLOCK
  2
TTZU
 10
0.0
 20
0.0
 70
0
  0
ARC
  8
1
  6
CONTINUOUS
 62
40
 10
2.8E+001
 20
7.0
 40
3.0
 50
3.5999999E+002
 51
4.5000001E+002
  0
ARC
  8
1
  6
CONTINUOUS
 62
40
 10
2.8E+001
 20
-7.0
 40
3.0
 50
2.6999999E+002
 51
3.6000001E+002
  0
LINE
  8
1
  6
CONTINUOUS
 62
40
 10
2.8E+001
 20
-1.0E+001
 11
0.0
 21
-1.0E+001
  0
LINE
  8
1
  6
CONTINUOUS
 62
40
 10
3.1E+001
 20
7.0
 11
3.1E+001
 21
-7.0
  0
LINE
  8
1
  6
CONTINUOUS
 62
40
 10
0.0
 20
1.0E+001
 11
2.8E+001
 21
1.0E+001
  0
LINE
  8
1
  6
CONTINUOUS
 62
1
 10
2.8E+001
 20
7.5
 11
0.0
 21
7.5
  0
ARC
  8
1
  6
CONTINUOUS
 62
1
 10
2.8E+001
 20
7.0
 40
5.0E-001
 50
0.0
 51
9.0E+001
  0
LINE
  8
1
  6
CONTINUOUS
 62
1
 10
2.85E+001
 20
-7.0
 11
2.85E+001
 21
7.0
  0
ARC
  8
1
  6
CONTINUOUS
 62
1
 10
2.8E+001
 20
-7.0
 40
5.0E-001
 50
2.7E+002
 51
3.6E+002
  0
LINE
  8
1
  6
CONTINUOUS
 62
1
 10
0.0
 20
-7.5
 11
2.8E+001
 21
-7.5
  0
LINE
  8
1
  6
CONTINUOUS
 62
1
 10
2.8E+001
 20
-8.5
 11
0.0
 21
-8.5
  0
ARC
  8
1
  6
CONTINUOUS
 62
1
 10
2.8E+001
 20
-7.0
 40
1.5
 50
2.7E+002
 51
3.6E+002
  0
LINE
  8
1
  6
CONTINUOUS
 62
1
 10
2.95E+001
 20
7.0
 11
2.95E+001
 21
-7.0
  0
ARC
  8
1
  6
CONTINUOUS
 62
1
 10
2.8E+001
 20
7.0
 40
1.5
 50
0.0
 51
9.0E+001
  0
LINE
  8
1
  6
CONTINUOUS
 62
1
 10
0.0
 20
8.5
 11
2.8E+001
 21
8.5
  0
LINE
  8
1
  6
CONTINUOUS
 62
40
 10
0.0
 20
9.7
 11
0.0
 21
1.0E+001
  0
LINE
  8
1
  6
CONTINUOUS
 62
40
 10
0.0
 20
-1.0E+001
 11
0.0
 21
-9.7
  0
LINE
  8
1
  6
CONTINUOUS
 62
40
 10
0.0
 20
-9.7
 11
0.0
 21
-8.5
  0
LINE
  8
1
  6
CONTINUOUS
 62
1
 10
0.0
 20
-8.5
 11
0.0
 21
-7.5
  0
LINE
  8
1
  6
CONTINUOUS
 62
40
 10
0.0
 20
-7.5
 11
0.0
 21
7.5
  0
LINE
  8
1
  6
CONTINUOUS
 62
1
 10
0.0
 20
7.5
 11
0.0
 21
8.5
  0
LINE
  8
1
  6
CONTINUOUS
 62
40
 10
0.0
 20
8.5
 11
0.0
 21
9.7
  0
POINT
  8
Drafting_Hidden_Entities
  6
CONTINUOUS
 62
1
 10
0.0
 20
0.0
  0
ENDBLK
  0
BLOCK
  2
UU
 10
0.0
 20
0.0
 70
0
  0
TEXT
  8
1
  6
CONTINUOUS
 62
1
 10
-1.4380094E+001
 20
1.4994001
 40
1.8000001
  1
"Weitergabe sowie Vervielfältigung dieser Unterlage,
 41
6.7067308E-001
 50
9.0E+001
 11
-1.4380094E+001
 21
5.9940003E-001
 73
2
  0
TEXT
  8
1
  6
CONTINUOUS
 62
1
 10
-1.1380094E+001
 20
1.4994001
 40
1.8000001
  1
Verwertung und Mitteilung ihres Inhalts nicht gestattet,
 41
6.7098214E-001
 50
9.0E+001
 11
-1.1380094E+001
 21
5.9940003E-001
 73
2
  0
TEXT
  8
1
  6
CONTINUOUS
 62
1
 10
-8.3800941
 20
1.4994001
 40
1.8000001
  1
soweit nicht ausdrücklich zugestanden. Zuwiederhandlungen
 41
6.7105263E-001
 50
9.0E+001
 11
-8.3800941
 21
5.9940003E-001
 73
2
  0
TEXT
  8
1
  6
CONTINUOUS
 62
1
 10
-5.3800941
 20
1.4994001
 40
1.8000001
  1
verpflichten zu Schadenersatz. Alle Rechte für den Fall
 41
6.7090909E-001
 50
9.0E+001
 11
-5.3800941
 21
5.9940003E-001
 73
2
  0
TEXT
  8
1
  6
CONTINUOUS
 62
1
 10
-2.3800941
 20
1.4994001
 40
1.8000001
  1
der Patenterteilung oder Gebrauchsmuster-Eintragung vorbehalten."
 41
6.7153846E-001
 50
9.0E+001
 11
-2.3800941
 21
5.9940003E-001
 73
2
  0
POINT
  8
Drafting_Hidden_Entities
  6
CONTINUOUS
 62
1
 10
0.0
 20
0.0
  0
ENDBLK
  0
BLOCK
  2
44
 10
0.0
 20
0.0
 70
0
  0
ARC
  8
104
  6
CONTINUOUS
 62
40
 10
0.0
 20
-6.7008E+001
 40
1.5001402E+001
 50
2.4000309E+002
 51
2.9999691E+002
  0
ARC
  8
104
  6
CONTINUOUS
 62
40
 10
0.0
 20
-1.299E+001
 40
1.499967E+001
 50
5.9999272E+001
 51
1.2000073E+002
  0
LINE
  8
104
  6
CONTINUOUS
 62
40
 10
7.5
 20
-8.0E+001
 11
-7.5
 21
-8.0E+001
  0
LINE
  8
104
  6
CONTINUOUS
 62
40
 10
-7.5
 20
-8.0E+001
 11
-7.5
 21
-4.0E+001
  0
LINE
  8
104
  6
CONTINUOUS
 62
40
 10
-7.5
 20
-4.0E+001
 11
7.5
 21
-4.0E+001
  0
LINE
  8
104
  6
CONTINUOUS
 62
40
 10
7.5
 20
-4.0E+001
 11
7.5
 21
-8.0E+001
  0
LINE
  8
104
  6
CONTINUOUS
 62
40
 10
7.5
 20
-4.0E+001
 11
-7.5
 21
-4.0E+001
  0
LINE
  8
104
  6
CONTINUOUS
 62
40
 10
-7.5
 20
-4.0E+001
 11
-7.5
 21
0.0
  0
LINE
  8
104
  6
CONTINUOUS
 62
40
 10
-7.5
 20
0.0
 11
7.5
 21
0.0
  0
LINE
  8
104
  6
CONTINUOUS
 62
40
 10
7.5
 20
0.0
 11
7.5
 21
-4.0E+001
  0
LINE
  8
106
  6
CENTERLINE
 62
1
 10
0.0
 20
-8.9134E+001
 11
0.0
 21
7.166
  0
POINT
  8
Drafting_Hidden_Entities
  6
CONTINUOUS
 62
1
 10
0.0
 20
0.0
  0
ENDBLK
  0
BLOCK
  2
Z
 10
0.0
 20
0.0
 70
0
  0
LINE
  8
1
  6
CONTINUOUS
 62
40
 10
1.78E+002
 20
0.0
 11
1.78E+002
 21
-6.5E+001
  0
LINE
  8
1
  6
CENTERLINE
 62
1
 10
-8.0E+001
 20
-1.5347652E+001
 11
-8.0E+001
 21
-5.0685612E+001
  0
LINE
  8
1
  6
CENTERLINE
 62
1
 10
1.69E+002
 20
-1.4802805E+001
 11
1.69E+002
 21
-5.040529E+001
  0
CIRCLE
  8
1
  6
HIDDEN
 62
1
 10
-8.0E+001
 20
-2.3250015E+001
 40
5.0
  0
LINE
  8
1
  6
CENTERLINE
 62
1
 10
1.7545674E+002
 20
-2.3250015E+001
 11
1.6164893E+002
 21
-2.3250015E+001
  0
LINE
  8
1
  6
CENTERLINE
 62
1
 10
1.7545674E+002
 20
-4.2250015E+001
 11
1.6164893E+002
 21
-4.2250015E+001
  0
CIRCLE
  8
1
  6
CENTERLINE
 62
1
 10
1.69E+002
 20
-4.2250015E+001
 40
5.0
  0
LINE
  8
1
  6
CENTERLINE
 62
1
 10
-7.2295443E+001
 20
-4.2250015E+001
 11
-8.6965609E+001
 21
-4.2250015E+001
  0
LINE
  8
1
  6
CENTERLINE
 62
1
 10
-7.2295443E+001
 20
-2.3250015E+001
 11
-8.6965609E+001
 21
-2.3250015E+001
  0
CIRCLE
  8
1
  6
HIDDEN
 62
1
 10
1.69E+002
 20
-2.3250015E+001
 40
5.0
  0
CIRCLE
  8
1
  6
HIDDEN
 62
1
 10
-8.0E+001
 20
-4.2250015E+001
 40
5.0
  0
LINE
  8
1
  6
CONTINUOUS
 62
40
 10
-8.9E+001
 20
0.0
 11
1.78E+002
 21
0.0
  0
LINE
  8
1
  6
CONTINUOUS
 62
40
 10
-8.9E+001
 20
-6.5E+001
 11
1.78E+002
 21
-6.5E+001
  0
LINE
  8
1
  6
CONTINUOUS
 62
40
 10
-8.9E+001
 20
0.0
 11
-8.9E+001
 21
-6.5E+001
  0
POINT
  8
Drafting_Hidden_Entities
  6
CONTINUOUS
 62
1
 10
0.0
 20
0.0
  0
ENDBLK
  0
BLOCK
  2
77
 10
0.0
 20
0.0
 70
0
  0
LINE
  8
104
  6
CONTINUOUS
 62
40
 10
4.0025591E+001
 20
1.5512818E+002
 11
4.0025591E+001
 21
1.5282823E+002
  0
LINE
  8
104
  6
CONTINUOUS
 62
40
 10
4.0025591E+001
 20
1.5282823E+002
 11
5.7025591E+001
 21
1.5282823E+002
  0
LINE
  8
104
  6
CONTINUOUS
 62
40
 10
5.7025591E+001
 20
1.5282823E+002
 11
5.7025591E+001
 21
1.5512818E+002
  0
LINE
  8
104
  6
CONTINUOUS
 62
40
 10
5.4550585E+001
 20
1.5282823E+002
 11
5.4550585E+001
 21
1.5237821E+002
  0
LINE
  8
104
  6
CONTINUOUS
 62
40
 10
5.4550585E+001
 20
1.5237821E+002
 11
4.2500567E+001
 21
1.5237821E+002
  0
LINE
  8
104
  6
CONTINUOUS
 62
40
 10
4.2500567E+001
 20
1.5237821E+002
 11
4.2500567E+001
 21
1.5282823E+002
  0
LINE
  8
104
  6
CONTINUOUS
 62
40
 10
4.3550585E+001
 20
1.5237821E+002
 11
4.3550585E+001
 21
1.5137821E+002
  0
LINE
  8
104
  6
CONTINUOUS
 62
40
 10
5.3500536E+001
 20
1.5237821E+002
 11
5.3500536E+001
 21
1.5137821E+002
  0
LINE
  8
104
  6
CONTINUOUS
 62
40
 10
-3.3147439E+002
 20
1.5137821E+002
 11
-3.3147439E+002
 21
1.5187821E+002
  0
ARC
  8
104
  6
CONTINUOUS
 62
40
 10
-3.3097439E+002
 20
1.5187821E+002
 40
5.0000028E-001
 50
9.0E+001
 51
1.8E+002
  0
LINE
  8
104
  6
CONTINUOUS
 62
40
 10
-3.3097439E+002
 20
1.5237821E+002
 11
-3.2197439E+002
 21
1.5237821E+002
  0
ARC
  8
104
  6
CONTINUOUS
 62
40
 10
-3.2197438E+002
 20
1.5187823E+002
 40
4.9998907E-001
 50
3.5999875E+002
 51
4.5000125E+002
  0
LINE
  8
104
  6
CONTINUOUS
 62
40
 10
-3.2147439E+002
 20
1.5187821E+002
 11
-3.2147439E+002
 21
1.5137821E+002
  0
LINE
  8
104
  6
CONTINUOUS
 62
40
 10
-3.3747438E+002
 20
1.4637821E+002
 11
-3.1547438E+002
 21
1.4637821E+002
  0
LINE
  8
104
  6
CONTINUOUS
 62
40
 10
-3.1547438E+002
 20
1.4637821E+002
 11
-3.1547438E+002
 21
1.3837823E+002
  0
LINE
  8
104
  6
CONTINUOUS
 62
40
 10
5.9525561E+001
 20
1.4637821E+002
 11
5.9525561E+001
 21
1.5137821E+002
  0
LINE
  8
104
  6
CONTINUOUS
 62
40
 10
-3.3747438E+002
 20
1.5137821E+002
 11
5.9525561E+001
 21
1.5137821E+002
  0
LINE
  8
104
  6
CONTINUOUS
 62
40
 10
-3.3747438E+002
 20
1.3837823E+002
 11
-3.3747438E+002
 21
1.5137821E+002
  0
LINE
  8
104
  6
CONTINUOUS
 62
40
 10
-3.3747438E+002
 20
1.4637821E+002
 11
5.9525561E+001
 21
1.4637821E+002
  0
LINE
  8
104
  6
CONTINUOUS
 62
40
 10
4.2040576E+001
 20
1.4637821E+002
 11
4.2040576E+001
 21
1.4587818E+002
  0
ARC
  8
104
  6
CONTINUOUS
 62
40
 10
4.254057E+001
 20
1.4587818E+002
 40
4.9999411E-001
 50
1.7999933E+002
 51
2.7000067E+002
  0
LINE
  8
104
  6
CONTINUOUS
 62
40
 10
4.2540576E+001
 20
1.4537818E+002
 11
5.4510546E+001
 21
1.4537818E+002
  0
ARC
  8
104
  6
CONTINUOUS
 62
40
 10
5.4510566E+001
 20
1.4587816E+002
 40
4.9998037E-001
 50
2.6999775E+002
 51
3.6000225E+002
  0
LINE
  8
104
  6
CONTINUOUS
 62
40
 10
5.5010546E+001
 20
1.4587818E+002
 11
5.5010546E+001
 21
1.4637821E+002
  0
LINE
  8
106
  6
CENTERLINE
 62
1
 10
-3.2647438E+002
 20
1.5442433E+002
 11
-3.2647438E+002
 21
1.3108606E+002
  0
CIRCLE
  8
105
  6
HIDDEN
 62
1
 10
-3.5947438E+002
 20
1.2712823E+002
 40
5.0
  0
CIRCLE
  8
105
  6
HIDDEN
 62
1
 10
-2.5147439E+002
 20
1.1912823E+002
 40
5.0
  0
LINE
  8
106
  6
CENTERLINE
 62
1
 10
-2.5147439E+002
 20
1.2629487E+002
 11
-2.5147439E+002
 21
1.1185937E+002
  0
LINE
  8
106
  6
CENTERLINE
 62
1
 10
-2.4448187E+002
 20
1.1912823E+002
 11
-2.5871689E+002
 21
1.1912823E+002
  0
LINE
  8
106
  6
CENTERLINE
 62
1
 10
-3.0747438E+002
 20
1.2629487E+002
 11
-3.0747438E+002
 21
1.1185937E+002
  0
LINE
  8
106
  6
CENTERLINE
 62
1
 10
-3.0048185E+002
 20
1.1912823E+002
 11
-3.1471687E+002
 21
1.1912823E+002
  0
CIRCLE
  8
105
  6
HIDDEN
 62
1
 10
-3.0747438E+002
 20
1.1912823E+002
 40
5.0
  0
CIRCLE
  8
105
  6
HIDDEN
 62
1
 10
-1.994744E+002
 20
8.412823E+001
 40
5.0
  0
LINE
  8
99
  6
CONTINUOUS
 62
1
 10
-3.5947438E+002
 20
7.6625392E+001
 11
-3.5947438E+002
 21
1.3490213E+002
  0
LINE
  8
106
  6
CENTERLINE
 62
1
 10
-3.655334E+002
 20
1.2712823E+002
 11
-3.5187016E+002
 21
1.2712823E+002
  0
LINE
  8
106
  6
CENTERLINE
 62
1
 10
-1.9341538E+002
 20
8.412823E+001
 11
-2.0707862E+002
 21
8.412823E+001
  0
LINE
  8
106
  6
CENTERLINE
 62
1
 10
-1.9947441E+002
 20
7.6625392E+001
 11
-1.9947441E+002
 21
1.3461796E+002
  0
LINE
  8
106
  6
CENTERLINE
 62
1
 10
-1.9341538E+002
 20
1.0012823E+002
 11
-2.0707862E+002
 21
1.0012823E+002
  0
LINE
  8
106
  6
CENTERLINE
 62
1
 10
-1.9341538E+002
 20
1.1112823E+002
 11
-2.0707862E+002
 21
1.1112823E+002
  0
LINE
  8
106
  6
CENTERLINE
 62
1
 10
-1.9341538E+002
 20
1.2712823E+002
 11
-2.0707862E+002
 21
1.2712823E+002
  0
LINE
  8
106
  6
CENTERLINE
 62
1
 10
-3.655334E+002
 20
8.412823E+001
 11
-3.5187016E+002
 21
8.412823E+001
  0
LINE
  8
106
  6
CENTERLINE
 62
1
 10
-3.655334E+002
 20
1.0012823E+002
 11
-3.5187016E+002
 21
1.0012823E+002
  0
LINE
  8
106
  6
CENTERLINE
 62
1
 10
-3.655334E+002
 20
1.1112823E+002
 11
-3.5187016E+002
 21
1.1112823E+002
  0
CIRCLE
  8
105
  6
HIDDEN
 62
1
 10
-1.994744E+002
 20
1.0012823E+002
 40
5.0
  0
CIRCLE
  8
105
  6
HIDDEN
 62
1
 10
-1.994744E+002
 20
1.1112823E+002
 40
5.0
  0
CIRCLE
  8
105
  6
HIDDEN
 62
1
 10
-1.994744E+002
 20
1.2712823E+002
 40
5.0
  0
CIRCLE
  8
105
  6
HIDDEN
 62
1
 10
-3.5947438E+002
 20
8.412823E+001
 40
5.0
  0
CIRCLE
  8
105
  6
HIDDEN
 62
1
 10
-3.5947438E+002
 20
1.0012823E+002
 40
5.0
  0
CIRCLE
  8
105
  6
HIDDEN
 62
1
 10
-3.5947438E+002
 20
1.1112823E+002
 40
5.0
  0
LINE
  8
104
  6
CONTINUOUS
 62
40
 10
-4.1147438E+002
 20
1.3837823E+002
 11
-1.3847438E+002
 21
1.3837823E+002
  0
LINE
  8
106
  6
CENTERLINE
 62
1
 10
-1.994744E+002
 20
7.6625392E+001
 11
-1.994744E+002
 21
1.3188323E+002
  0
LINE
  8
105
  6
HIDDEN
 62
1
 10
-3.4847439E+002
 20
1.6762821E+002
 11
-3.4847439E+002
 21
1.6262821E+002
  0
ARC
  8
105
  6
HIDDEN
 62
1
 10
-3.5147439E+002
 20
1.626282E+002
 40
3.0
 50
1.8E+002
 51
3.6000029E+002
  0
LINE
  8
105
  6
HIDDEN
 62
1
 10
-3.5447439E+002
 20
1.626282E+002
 11
-3.5447439E+002
 21
1.6762821E+002
  0
ARC
  8
105
  6
HIDDEN
 62
1
 10
-3.5147439E+002
 20
1.6762821E+002
 40
3.0
 50
0.0
 51
1.8E+002
  0
LINE
  8
106
  6
CENTERLINE
 62
1
 10
7.6537376E+001
 20
1.7220246E+002
 11
7.6523607E+001
 21
1.5780339E+002
  0
LINE
  8
106
  6
CENTERLINE
 62
1
 10
8.1775591E+001
 20
1.6512821E+002
 11
7.1525591E+001
 21
1.6512821E+002
  0
LINE
  8
106
  6
CENTERLINE
 62
1
 10
-3.5147438E+002
 20
1.579633E+002
 11
-3.5147441E+002
 21
1.7212997E+002
  0
LINE
  8
105
  6
HIDDEN
 62
1
 10
7.9530604E+001
 20
1.6762821E+002
 11
7.9530604E+001
 21
1.6262821E+002
  0
ARC
  8
105
  6
HIDDEN
 62
1
 10
7.6530604E+001
 20
1.626282E+002
 40
3.0
 50
1.8E+002
 51
3.6000029E+002
  0
LINE
  8
105
  6
HIDDEN
 62
1
 10
7.3530604E+001
 20
1.626282E+002
 11
7.3530604E+001
 21
1.6762821E+002
  0
ARC
  8
105
  6
HIDDEN
 62
1
 10
7.6530604E+001
 20
1.6762821E+002
 40
3.0
 50
0.0
 51
1.8E+002
  0
LINE
  8
106
  6
CENTERLINE
 62
1
 10
-3.4647438E+002
 20
1.6512821E+002
 11
-3.5672438E+002
 21
1.6512821E+002
  0
ARC
  8
104
  6
CONTINUOUS
 62
40
 10
8.2279417E+001
 20
1.741282E+002
 40
9.9998906E-001
 50
3.5999937E+002
 51
4.5000063E+002
  0
LINE
  8
104
  6
CONTINUOUS
 62
40
 10
8.3279406E+001
 20
1.7412818E+002
 11
8.3279406E+001
 21
1.5612818E+002
  0
ARC
  8
104
  6
CONTINUOUS
 62
40
 10
8.2279413E+001
 20
1.5612818E+002
 40
9.999935E-001
 50
2.6999963E+002
 51
3.6000037E+002
  0
LINE
  8
104
  6
CONTINUOUS
 62
40
 10
8.2279406E+001
 20
1.5512818E+002
 11
-3.5722818E+002
 21
1.5512818E+002
  0
ARC
  8
104
  6
CONTINUOUS
 62
40
 10
-3.5722818E+002
 20
1.5612818E+002
 40
1.0000001
 50
1.8E+002
 51
2.7E+002
  0
LINE
  8
104
  6
CONTINUOUS
 62
40
 10
-3.5822818E+002
 20
1.5612818E+002
 11
-3.5822818E+002
 21
1.7512818E+002
  0
LINE
  8
104
  6
CONTINUOUS
 62
40
 10
-3.5822818E+002
 20
1.7512818E+002
 11
8.2279406E+001
 21
1.7512818E+002
  0
LINE
  8
104
  6
CONTINUOUS
 62
40
 10
-3.4622819E+002
 20
1.7512818E+002
 11
-3.4622819E+002
 21
1.5512821E+002
  0
LINE
  8
104
  6
CONTINUOUS
 62
40
 10
7.1279376E+001
 20
1.7512818E+002
 11
7.1279376E+001
 21
1.5512818E+002
  0
LINE
  8
104
  6
CONTINUOUS
 62
40
 10
-3.2972438E+002
 20
1.4637823E+002
 11
-3.2322439E+002
 21
1.4637823E+002
  0
LINE
  8
106
  6
CENTERLINE
 62
1
 10
4.8525561E+001
 20
1.4458561E+002
 11
4.8525561E+001
 21
1.5832847E+002
  0
LINE
  8
104
  6
CONTINUOUS
 62
40
 10
-3.3237438E+002
 20
1.4637823E+002
 11
-3.2057438E+002
 21
1.4637823E+002
  0
LINE
  8
104
  6
CONTINUOUS
 62
40
 10
-4.1147438E+002
 20
7.337823E+001
 11
-1.3847438E+002
 21
7.337823E+001
  0
LINE
  8
104
  6
CONTINUOUS
 62
40
 10
-4.1447438E+002
 20
1.3537823E+002
 11
-4.1447438E+002
 21
7.637823E+001
  0
LINE
  8
104
  6
CONTINUOUS
 62
40
 10
-1.3547438E+002
 20
1.3537823E+002
 11
-1.3547438E+002
 21
7.637823E+001
  0
LINE
  8
104
  6
CONTINUOUS
 62
40
 10
-4.0397438E+002
 20
1.3837823E+002
 11
-4.0397438E+002
 21
7.337823E+001
  0
LINE
  8
104
  6
CONTINUOUS
 62
40
 10
-1.4597438E+002
 20
1.3837823E+002
 11
-1.4597438E+002
 21
7.337823E+001
  0
ARC
  8
104
  6
CONTINUOUS
 62
40
 10
-1.3847438E+002
 20
1.3537823E+002
 40
3.0
 50
0.0
 51
9.0E+001
  0
ARC
  8
104
  6
CONTINUOUS
 62
40
 10
-1.3847438E+002
 20
7.637823E+001
 40
3.0
 50
2.7E+002
 51
3.6E+002
  0
ARC
  8
104
  6
CONTINUOUS
 62
40
 10
-4.1147438E+002
 20
7.637823E+001
 40
3.0
 50
1.8E+002
 51
2.7E+002
  0
ARC
  8
104
  6
CONTINUOUS
 62
40
 10
-4.1147438E+002
 20
1.3537823E+002
 40
3.0
 50
9.0E+001
 51
1.8E+002
  0
LINE
  8
106
  6
CENTERLINE
 62
1
 10
-5.4697649E+002
 20
1.0037823E+002
 11
-5.367467E+002
 21
1.0037823E+002
  0
LINE
  8
106
  6
CENTERLINE
 62
1
 10
-5.469765E+002
 20
8.4378219E+001
 11
-5.3929876E+002
 21
8.4378219E+001
  0
LINE
  8
104
  6
CONTINUOUS
 62
40
 10
-5.7579876E+002
 20
1.3837823E+002
 11
-5.7579876E+002
 21
1.5137819E+002
  0
LINE
  8
104
  6
CONTINUOUS
 62
40
 10
-5.5379876E+002
 20
1.4637819E+002
 11
-5.5379876E+002
 21
1.3837823E+002
  0
ARC
  8
105
  6
HIDDEN
 62
1
 10
-5.3979874E+002
 20
1.3637821E+002
 40
4.999816E-001
 50
3.5999789E+002
 51
4.5000211E+002
  0
LINE
  8
105
  6
HIDDEN
 62
1
 10
-5.3979876E+002
 20
1.3687819E+002
 11
-5.4139166E+002
 21
1.3687819E+002
  0
ARC
  8
105
  6
HIDDEN
 62
1
 10
-5.4139162E+002
 20
1.3737821E+002
 40
5.0002333E-001
 50
2.2500241E+002
 51
2.6999548E+002
  0
LINE
  8
105
  6
HIDDEN
 62
1
 10
-5.4174517E+002
 20
1.3702463E+002
 11
-5.4245233E+002
 21
1.3773173E+002
  0
ARC
  8
105
  6
HIDDEN
 62
1
 10
-5.4280583E+002
 20
1.3737832E+002
 40
4.998634E-001
 50
4.499234E+001
 51
9.0001327E+001
  0
LINE
  8
105
  6
HIDDEN
 62
1
 10
-5.4280584E+002
 20
1.3787819E+002
 11
-5.4299163E+002
 21
1.3787819E+002
  0
ARC
  8
105
  6
HIDDEN
 62
1
 10
-5.4299171E+002
 20
1.3737833E+002
 40
4.9985856E-001
 50
8.9991448E+001
 51
1.3500789E+002
  0
LINE
  8
105
  6
HIDDEN
 62
1
 10
-5.4334521E+002
 20
1.3773173E+002
 11
-5.4415228E+002
 21
1.3692465E+002
  0
ARC
  8
105
  6
HIDDEN
 62
1
 10
-5.4379891E+002
 20
1.3657112E+002
 40
4.9985012E-001
 50
1.3498676E+002
 51
1.8000371E+002
  0
LINE
  8
105
  6
HIDDEN
 62
1
 10
-5.4429876E+002
 20
1.3657109E+002
 11
-5.4429876E+002
 21
7.5185312E+001
  0
ARC
  8
105
  6
HIDDEN
 62
1
 10
-5.437988E+002
 20
7.51853E+001
 40
4.9995942E-001
 50
1.8000148E+002
 51
2.2500805E+002
  0
LINE
  8
105
  6
HIDDEN
 62
1
 10
-5.4415228E+002
 20
7.4831725E+001
 11
-5.4334521E+002
 21
7.4024642E+001
  0
ARC
  8
105
  6
HIDDEN
 62
1
 10
-5.4299163E+002
 20
7.4378229E+001
 40
5.0004068E-001
 50
2.2500076E+002
 51
2.6999991E+002
  0
ARC
  8
105
  6
HIDDEN
 62
1
 10
-5.4280586E+002
 20
7.4378118E+001
 40
4.9992995E-001
 50
2.7000183E+002
 51
3.150045E+002
  0
LINE
  8
105
  6
HIDDEN
 62
1
 10
-5.4245233E+002
 20
7.4024642E+001
 11
-5.4174517E+002
 21
7.473175E+001
  0
ARC
  8
105
  6
HIDDEN
 62
1
 10
-5.4139163E+002
 20
7.4378189E+001
 40
4.9999931E-001
 50
9.0003377E+001
 51
1.3499873E+002
  0
LINE
  8
105
  6
HIDDEN
 62
1
 10
-5.4139166E+002
 20
7.4878188E+001
 11
-5.3979876E+002
 21
7.4878188E+001
  0
ARC
  8
105
  6
HIDDEN
 62
1
 10
-5.3979876E+002
 20
7.5378187E+001
 40
4.9999906E-001
 50
2.6999989E+002
 51
3.6000011E+002
  0
LINE
  8
106
  6
CENTERLINE
 62
1
 10
-5.4683978E+002
 20
1.2737823E+002
 11
-5.3634795E+002
 21
1.2737823E+002
  0
LINE
  8
106
  6
CENTERLINE
 62
1
 10
-5.4656634E+002
 20
1.1137823E+002
 11
-5.3653649E+002
 21
1.1137823E+002
  0
LINE
  8
106
  6
CENTERLINE
 62
1
 10
-5.4697649E+002
 20
8.437823E+001
 11
-5.3657806E+002
 21
8.4378215E+001
  0
LINE
  8
105
  6
HIDDEN
 62
1
 10
-5.4429876E+002
 20
8.9878215E+001
 11
-5.4129876E+002
 21
8.6878215E+001
  0
LINE
  8
105
  6
HIDDEN
 62
1
 10
-5.4129876E+002
 20
8.6878215E+001
 11
-5.4129876E+002
 21
8.1878215E+001
  0
LINE
  8
105
  6
HIDDEN
 62
1
 10
-5.4129876E+002
 20
8.1878215E+001
 11
-5.4429876E+002
 21
7.887813E+001
  0
LINE
  8
105
  6
HIDDEN
 62
1
 10
-5.4429876E+002
 20
1.0587823E+002
 11
-5.4129876E+002
 21
1.0287823E+002
  0
LINE
  8
105
  6
HIDDEN
 62
1
 10
-5.4129876E+002
 20
1.0287823E+002
 11
-5.4129876E+002
 21
9.787823E+001
  0
LINE
  8
105
  6
HIDDEN
 62
1
 10
-5.4129876E+002
 20
9.787823E+001
 11
-5.4429876E+002
 21
9.487823E+001
  0
LINE
  8
105
  6
HIDDEN
 62
1
 10
-5.4129876E+002
 20
9.787823E+001
 11
-5.3929876E+002
 21
9.787823E+001
  0
LINE
  8
105
  6
HIDDEN
 62
1
 10
-5.3929876E+002
 20
1.0287823E+002
 11
-5.4129876E+002
 21
1.0287823E+002
  0
LINE
  8
105
  6
HIDDEN
 62
1
 10
-5.4129876E+002
 20
8.687823E+001
 11
-5.3929876E+002
 21
8.687823E+001
  0
LINE
  8
105
  6
HIDDEN
 62
1
 10
-5.3929876E+002
 20
8.187823E+001
 11
-5.4129876E+002
 21
8.187823E+001
  0
LINE
  8
105
  6
HIDDEN
 62
1
 10
-5.4429876E+002
 20
1.3287823E+002
 11
-5.4129876E+002
 21
1.2987823E+002
  0
LINE
  8
105
  6
HIDDEN
 62
1
 10
-5.4129876E+002
 20
1.2987823E+002
 11
-5.4129876E+002
 21
1.2487823E+002
  0
LINE
  8
105
  6
HIDDEN
 62
1
 10
-5.4129876E+002
 20
1.2487823E+002
 11
-5.4429876E+002
 21
1.2187823E+002
  0
LINE
  8
105
  6
HIDDEN
 62
1
 10
-5.4129876E+002
 20
1.2987823E+002
 11
-5.3929876E+002
 21
1.2987823E+002
  0
LINE
  8
105
  6
HIDDEN
 62
1
 10
-5.3929876E+002
 20
1.2487823E+002
 11
-5.4129876E+002
 21
1.2487823E+002
  0
LINE
  8
105
  6
HIDDEN
 62
1
 10
-5.4429876E+002
 20
1.1687823E+002
 11
-5.4129876E+002
 21
1.1387823E+002
  0
LINE
  8
105
  6
HIDDEN
 62
1
 10
-5.4129876E+002
 20
1.1387823E+002
 11
-5.4129876E+002
 21
1.0887823E+002
  0
LINE
  8
105
  6
HIDDEN
 62
1
 10
-5.4129876E+002
 20
1.0887823E+002
 11
-5.4429876E+002
 21
1.0587823E+002
  0
LINE
  8
105
  6
HIDDEN
 62
1
 10
-5.4129876E+002
 20
1.1387823E+002
 11
-5.3929876E+002
 21
1.1387823E+002
  0
LINE
  8
105
  6
HIDDEN
 62
1
 10
-5.3929876E+002
 20
1.0887823E+002
 11
-5.4129876E+002
 21
1.0887823E+002
  0
LINE
  8
104
  6
CONTINUOUS
 62
40
 10
-5.3929876E+002
 20
7.3378215E+001
 11
-5.3929876E+002
 21
1.3837823E+002
  0
LINE
  8
104
  6
CONTINUOUS
 62
40
 10
-5.3929876E+002
 20
1.3837823E+002
 11
-5.8329876E+002
 21
1.3837823E+002
  0
LINE
  8
104
  6
CONTINUOUS
 62
40
 10
-5.8329876E+002
 20
7.3378201E+001
 11
-5.3929876E+002
 21
7.3378215E+001
  0
LINE
  8
104
  6
CONTINUOUS
 62
40
 10
-5.7579876E+002
 20
1.5137819E+002
 11
-5.4379876E+002
 21
1.5137819E+002
  0
LINE
  8
104
  6
CONTINUOUS
 62
40
 10
-5.4379876E+002
 20
1.5137819E+002
 11
-5.4379876E+002
 21
1.4637818E+002
  0
LINE
  8
104
  6
CONTINUOUS
 62
40
 10
-5.7579876E+002
 20
1.4637818E+002
 11
-5.4379876E+002
 21
1.4637818E+002
  0
LINE
  8
104
  6
CONTINUOUS
 62
40
 10
-5.4629883E+002
 20
1.5537823E+002
 11
-5.4629883E+002
 21
1.5387818E+002
  0
LINE
  8
104
  6
CONTINUOUS
 62
40
 10
-5.4629883E+002
 20
1.5387818E+002
 11
-5.6329883E+002
 21
1.5387818E+002
  0
LINE
  8
104
  6
CONTINUOUS
 62
40
 10
-5.6329883E+002
 20
1.5387818E+002
 11
-5.6329883E+002
 21
1.5537823E+002
  0
LINE
  8
104
  6
CONTINUOUS
 62
40
 10
-5.597738E+002
 20
1.5282824E+002
 11
-5.597738E+002
 21
1.5337818E+002
  0
LINE
  8
104
  6
CONTINUOUS
 62
40
 10
-5.597738E+002
 20
1.5387818E+002
 11
-5.597738E+002
 21
1.5137819E+002
  0
LINE
  8
104
  6
CONTINUOUS
 62
40
 10
-5.4982373E+002
 20
1.5282824E+002
 11
-5.4982373E+002
 21
1.5337818E+002
  0
LINE
  8
104
  6
CONTINUOUS
 62
40
 10
-5.4982371E+002
 20
1.5387818E+002
 11
-5.4982379E+002
 21
1.5137819E+002
  0
ARC
  8
104
  6
CONTINUOUS
 62
40
 10
-5.6829876E+002
 20
1.5737823E+002
 40
1.999998
 50
1.7999994E+002
 51
2.7000006E+002
  0
LINE
  8
104
  6
CONTINUOUS
 62
40
 10
-5.7029876E+002
 20
1.5737823E+002
 11
-5.7029876E+002
 21
1.7337823E+002
  0
ARC
  8
104
  6
CONTINUOUS
 62
40
 10
-5.6829878E+002
 20
1.7337824E+002
 40
1.9999862
 50
8.9999605E+001
 51
1.8000039E+002
  0
LINE
  8
104
  6
CONTINUOUS
 62
40
 10
-5.6829876E+002
 20
1.7537823E+002
 11
-5.3929876E+002
 21
1.7537823E+002
  0
LINE
  8
104
  6
CONTINUOUS
 62
40
 10
-5.3929876E+002
 20
1.7537823E+002
 11
-5.3929876E+002
 21
1.5537823E+002
  0
LINE
  8
104
  6
CONTINUOUS
 62
40
 10
-5.3929876E+002
 20
1.5537823E+002
 11
-5.6829876E+002
 21
1.5537823E+002
  0
LINE
  8
104
  6
CONTINUOUS
 62
40
 10
-5.8629876E+002
 20
7.6378201E+001
 11
-5.8629876E+002
 21
1.3537823E+002
  0
ARC
  8
104
  6
CONTINUOUS
 62
40
 10
-5.8329876E+002
 20
1.3537823E+002
 40
3.0
 50
9.0E+001
 51
1.8E+002
  0
ARC
  8
104
  6
CONTINUOUS
 62
40
 10
-5.8329876E+002
 20
7.6378201E+001
 40
3.0
 50
1.8E+002
 51
2.7000002E+002
  0
DIMENSION
  8
100
  6
CONTINUOUS
 62
1
  2
*D967
  3
DSTYLE1
 10
7.6537307E+001
 20
2.0431519E+002
 11
-1.1031111E+002
 21
2.1081679E+002
 70
128
 13
-3.5147441E+002
 23
1.7212997E+002
 14
7.6537376E+001
 24
1.7220246E+002
 40
1.0E+001
 50
1.234254E-004
1001
ACAD
1000
DSTYLE
1002
{
1070
173
1070
0
1070
5
1000
_AH13
1002
}
  0
DIMENSION
  8
100
  6
CONTINUOUS
 62
1
  2
*D968
  3
DSTYLE1
 10
-4.1447438E+002
 20
2.3699956E+002
 11
-1.3564181E+002
 21
2.4350156E+002
 70
128
 13
8.3279406E+001
 23
1.7412818E+002
 14
-4.1447438E+002
 24
1.3537823E+002
 40
1.0E+001
 50
0.0
1001
ACAD
1000
DSTYLE
1002
{
1070
173
1070
0
1070
5
1000
_AH13
1002
}
  0
DIMENSION
  8
100
  6
CONTINUOUS
 62
1
  2
*D969
  3
DSTYLE2
 10
-2.5147439E+002
 20
1.0188706E+002
 11
-2.781617E+002
 21
1.0838906E+002
 70
128
 13
-3.0747438E+002
 23
1.1185937E+002
 14
-2.5147439E+002
 24
1.1185937E+002
 40
1.0E+001
 50
0.0
1001
ACAD
1000
DSTYLE
1002
{
1070
173
1070
0
1070
5
1000
_AH13
1002
}
  0
DIMENSION
  8
100
  6
CONTINUOUS
 62
1
  2
*D970
  3
DSTYLE2
 10
-1.994744E+002
 20
4.9940792E+001
 11
-2.701224E+002
 21
5.6442792E+001
 70
128
 13
-3.5947438E+002
 23
7.6625392E+001
 14
-1.994744E+002
 24
7.6625392E+001
 40
1.0E+001
 50
0.0
1001
ACAD
1000
DSTYLE
1002
{
1070
173
1070
0
1070
5
1000
_AH13
1002
}
  0
DIMENSION
  8
100
  6
CONTINUOUS
 62
1
  2
*D971
  3
DSTYLE2
 10
-4.1447438E+002
 20
2.5204472E+001
 11
-3.6164678E+002
 21
3.1706472E+001
 70
128
 13
-3.2647438E+002
 23
1.3108606E+002
 14
-4.1447438E+002
 24
7.637823E+001
 40
1.0E+001
 50
0.0
1001
ACAD
1000
DSTYLE
1002
{
1070
173
1070
0
1070
5
1000
_AH13
1002
}
  0
DIMENSION
  8
100
  6
CONTINUOUS
 62
1
  2
*D972
  3
DSTYLE2
 10
-4.1447438E+002
 20
4.9940792E+001
 11
-3.8205425E+002
 21
5.6442792E+001
 70
128
 13
-3.5947438E+002
 23
7.6625392E+001
 14
-4.1447438E+002
 24
7.637823E+001
 40
1.0E+001
 50
0.0
1001
ACAD
1000
DSTYLE
1002
{
1070
173
1070
0
1070
5
1000
_AH13
1002
}
  0
DIMENSION
  8
100
  6
CONTINUOUS
 62
1
  2
*D973
  3
DSTYLE2
 10
-4.1447438E+002
 20
4.797008
 11
-2.8372737E+002
 21
1.1299008E+001
 70
128
 13
-1.3547438E+002
 23
7.637823E+001
 14
-4.1447438E+002
 24
7.637823E+001
 40
1.0E+001
 50
0.0
1001
ACAD
1000
DSTYLE
1002
{
1070
173
1070
0
1070
5
1000
_AH13
1002
}
  0
DIMENSION
  8
100
  6
CONTINUOUS
 62
1
  2
*D974
  3
DSTYLE2
 10
-5.8629876E+002
 20
4.9940792E+001
 11
-5.633075E+002
 21
5.6442792E+001
 70
128
 13
-5.3929876E+002
 23
7.3378215E+001
 14
-5.8629876E+002
 24
7.6378201E+001
 40
1.0E+001
 50
0.0
1001
ACAD
1000
DSTYLE
1002
{
1070
173
1070
0
1070
5
1000
_AH13
1002
}
  0
DIMENSION
  8
100
  6
CONTINUOUS
 62
1
  2
*D975
  3
DSTYLE2
 10
-5.7029876E+002
 20
2.0431386E+002
 11
-5.5041163E+002
 21
2.1081586E+002
 70
128
 13
-5.3929876E+002
 23
1.7537823E+002
 14
-5.7029876E+002
 24
1.7337823E+002
 40
1.0E+001
 50
0.0
1001
ACAD
1000
DSTYLE
1002
{
1070
173
1070
0
1070
5
1000
_AH13
1002
}
  0
DIMENSION
  8
100
  6
CONTINUOUS
 62
1
  2
*D976
  3
DSTYLE2
 10
-4.4173428E+002
 20
7.337823E+001
 11
-4.4823628E+002
 21
1.0651333E+002
 70
128
 13
-4.1147438E+002
 23
1.3837823E+002
 14
-4.1147438E+002
 24
7.337823E+001
 40
1.0E+001
 50
9.0E+001
1001
ACAD
1000
DSTYLE
1002
{
1070
173
1070
0
1070
5
1000
_AH13
1002
}
  0
DIMENSION
  8
100
  6
CONTINUOUS
 62
1
  2
*D977
  3
DSTYLE2
 10
-4.4173428E+002
 20
1.5512818E+002
 11
-4.4823628E+002
 21
1.9132876E+002
 70
128
 13
-3.5822818E+002
 23
1.7512818E+002
 14
-3.5722818E+002
 24
1.5512818E+002
 40
1.0E+001
 50
9.0E+001
1001
ACAD
1000
DSTYLE
1002
{
1070
173
1070
0
1070
5
1000
_AH13
1002
}
  0
DIMENSION
  8
100
  6
CONTINUOUS
 62
1
  2
*D978
  3
DSTYLE1
 10
-4.680221E+002
 20
7.337823E+001
 11
-4.745241E+002
 21
1.2288122E+002
 70
128
 13
-3.5822818E+002
 23
1.7512818E+002
 14
-4.1147438E+002
 24
7.337823E+001
 40
1.0E+001
 50
9.0E+001
1001
ACAD
1000
DSTYLE
1002
{
1070
173
1070
0
1070
5
1000
_AH13
1002
}
  0
DIMENSION
  8
100
  6
CONTINUOUS
 62
1
  2
*D979
  3
DSTYLE2
 10
-1.0020452E+002
 20
1.1112823E+002
 11
-1.0670652E+002
 21
1.3629182E+002
 70
128
 13
-1.9341538E+002
 23
1.2712823E+002
 14
-1.9341538E+002
 24
1.1112823E+002
 40
1.0E+001
 50
9.0E+001
1001
ACAD
1000
DSTYLE
1002
{
1070
173
1070
0
1070
5
1000
_AH13
1002
}
  0
DIMENSION
  8
100
  6
CONTINUOUS
 62
1
  2
*D980
  3
DSTYLE2
 10
-1.0020452E+002
 20
8.412823E+001
 11
-1.0670652E+002
 21
7.4168542E+001
 70
128
 13
-1.9341538E+002
 23
1.0012823E+002
 14
-1.9341538E+002
 24
8.412823E+001
 40
1.0E+001
 50
9.0E+001
1001
ACAD
1000
DSTYLE
1002
{
1070
173
1070
0
1070
5
1000
_AH13
1002
}
  0
DIMENSION
  8
100
  6
CONTINUOUS
 62
1
  2
*D981
  3
DSTYLE2
 10
-6.2257297E+001
 20
8.412823E+001
 11
-6.8759297E+001
 21
1.0691332E+002
 70
128
 13
-1.9341538E+002
 23
1.2712823E+002
 14
-1.9341538E+002
 24
8.412823E+001
 40
1.0E+001
 50
9.0E+001
1001
ACAD
1000
DSTYLE
1002
{
1070
173
1070
0
1070
5
1000
_AH13
1002
}
  0
DIMENSION
  8
100
  6
CONTINUOUS
 62
1
  2
*D982
  3
DSTYLE2
 10
-1.0020452E+002
 20
1.0012823E+002
 11
-1.0670652E+002
 21
1.0568922E+002
 70
128
 13
-1.9341538E+002
 23
1.1112823E+002
 14
-1.9341538E+002
 24
1.0012823E+002
 40
1.0E+001
 50
9.0E+001
1001
ACAD
1000
DSTYLE
1002
{
1070
173
1070
0
1070
5
1000
_AH13
1002
}
  0
DIMENSION
  8
100
  6
CONTINUOUS
 62
1
  2
*D983
  3
DSTYLE2
 10
1.2089871E+002
 20
1.2712823E+002
 11
1.1439671E+002
 21
1.4708148E+002
 70
128
 13
8.1775591E+001
 23
1.6512821E+002
 14
-1.9341538E+002
 24
1.2712823E+002
 40
1.0E+001
 50
9.0E+001
1001
ACAD
1000
DSTYLE
1002
{
1070
173
1070
0
1070
5
1000
_AH13
1002
}
  0
TEXT
  8
103
  6
CONTINUOUS
 62
40
 10
1.2845419E+002
 20
-1.802109E+002
 40
1.0E+001
  1
p430101.she
 41
6.5454545E-001
 72
1
 11
9.2454195E+001
 21
-1.852109E+002
 73
2
  0
TEXT
  8
103
  6
CONTINUOUS
 62
150
 10
5.3317184E+001
 20
-2.0198448E+002
 40
7.0
  1
Maßstab:
 41
6.4687502E-001
 72
1
 11
3.5204683E+001
 21
-2.0548448E+002
 73
2
  0
LINE
  8
1
  6
CONTINUOUS
 62
3
 10
-8.6614649E+001
 20
-1.7490238E+002
 11
-8.6614649E+001
 21
-1.3928918E+002
  0
LINE
  8
1
  6
CONTINUOUS
 62
3
 10
-8.6614649E+001
 20
-1.3928918E+002
 11
1.4009935E+002
 21
-1.3928918E+002
  0
LINE
  8
1
  6
CONTINUOUS
 62
3
 10
1.4009935E+002
 20
-1.3928918E+002
 11
1.4009935E+002
 21
-1.7490238E+002
  0
TEXT
  8
103
  6
CONTINUOUS
 62
150
 10
-4.0573185E+001
 20
-1.6367404E+002
 40
7.0
  1
Benennung
 41
6.5000002E-001
 72
1
 11
-6.1048186E+001
 21
-1.6717404E+002
 73
2
  0
TEXT
  8
103
  6
CONTINUOUS
 62
40
 10
-6.555101E+001
 20
-1.5601119E+002
 40
1.0E+001
  1
Ansicht TS 92 EN 2-4
 41
6.6176471E-001
  0
TEXT
  8
103
  6
CONTINUOUS
 62
150
 10
4.7442721E+001
 20
-1.8278618E+002
 40
7.0
  1
Zng.Nr.
 41
6.4285716E-001
 72
1
 11
3.169272E+001
 21
-1.8628618E+002
 73
2
  0
TEXT
  8
103
  6
CONTINUOUS
 62
40
 10
5.2442948
 20
-1.8003292E+002
 40
1.0E+001
  1
M.Schell
 41
6.46875E-001
 72
1
 11
-2.0630705E+001
 21
-1.8503292E+002
 73
2
  0
TEXT
  8
103
  6
CONTINUOUS
 62
40
 10
4.4547441
 20
-1.9918066E+002
 40
1.0E+001
  1
03.12.01
 41
6.46875E-001
 72
1
 11
-2.1420256E+001
 21
-2.0418066E+002
 73
2
  0
TEXT
  8
103
  6
CONTINUOUS
 62
150
 10
-6.3664982E+001
 20
-1.8247287E+002
 40
7.0
  1
gez.
 41
6.1875002E-001
 72
1
 11
-7.2327482E+001
 21
-1.8597287E+002
 73
2
  0
TEXT
  8
103
  6
CONTINUOUS
 62
150
 10
-6.0675834E+001
 20
-2.0127169E+002
 40
7.0
  1
Datum
 41
6.3000002E-001
 72
1
 11
-7.1700835E+001
 21
-2.0477169E+002
 73
2
  0
TEXT
  8
103
  6
CONTINUOUS
 62
40
 10
7.6109102E+001
 20
-1.9987091E+002
 40
1.0E+001
  1
1:2
 41
6.0E-001
 72
1
 11
6.7109102E+001
 21
-2.0487091E+002
 73
2
  0
LINE
  8
1
  6
CONTINUOUS
 62
3
 10
9.2699351E+001
 20
-1.9490238E+002
 11
9.2699351E+001
 21
-2.1490238E+002
  0
TEXT
  8
103
  6
CONTINUOUS
 62
40
 10
1.2453488E+002
 20
-1.9945969E+002
 40
1.0E+001
  1
A 3
 41
6.0E-001
 72
1
 11
1.1553488E+002
 21
-2.0445969E+002
 73
2
  0
LINE
  8
1
  6
CONTINUOUS
 62
3
 10
-8.6614649E+001
 20
-1.7490238E+002
 11
1.4009935E+002
 21
-1.7490238E+002
  0
LINE
  8
1
  6
CONTINUOUS
 62
3
 10
1.4009935E+002
 20
-1.7490238E+002
 11
1.4009935E+002
 21
-2.1490238E+002
  0
LINE
  8
1
  6
CONTINUOUS
 62
3
 10
1.4009935E+002
 20
-2.1490238E+002
 11
-8.6614649E+001
 21
-2.1490238E+002
  0
LINE
  8
1
  6
CONTINUOUS
 62
3
 10
-8.6614649E+001
 20
-2.1490238E+002
 11
-8.6614649E+001
 21
-1.7490238E+002
  0
LINE
  8
1
  6
CONTINUOUS
 62
3
 10
1.3005351E+001
 20
-1.7490238E+002
 11
1.3005351E+001
 21
-2.1490238E+002
  0
LINE
  8
1
  6
CONTINUOUS
 62
3
 10
-8.6614649E+001
 20
-1.9490238E+002
 11
1.4009935E+002
 21
-1.9490238E+002
  0
POINT
  8
Drafting_Hidden_Entities
  6
CONTINUOUS
 62
1
 10
0.0
 20
0.0
  0
ENDBLK
  0
BLOCK
  2
U
 10
0.0
 20
0.0
 70
0
  0
INSERT
  2
555
  8
1
 10
0.0
 20
-3.2500008E+001
 50
9.0E+001
  0
LINE
  8
1
  6
HIDDEN
 62
1
 10
0.0
 20
-1.2750015E+001
 11
-6.0000014
 21
-1.2750015E+001
  0
LINE
  8
1
  6
HIDDEN
 62
1
 10
0.0
 20
-5.2750015E+001
 11
-6.0000014
 21
-5.2750015E+001
  0
LINE
  8
1
  6
CENTERLINE
 62
1
 10
-8.6777344
 20
-4.2250015E+001
 11
1.5520554
 21
-4.2250015E+001
  0
LINE
  8
1
  6
HIDDEN
 62
1
 10
-6.0000014
 20
-1.2750015E+001
 11
-6.0000014
 21
-5.2750015E+001
  0
LINE
  8
1
  6
CENTERLINE
 62
1
 10
-8.2675781
 20
-2.3250015E+001
 11
1.7622681
 21
-2.3250015E+001
  0
LINE
  8
1
  6
HIDDEN
 62
1
 10
-6.0
 20
-3.6750015E+001
 11
-3.0
 21
-3.9750015E+001
  0
LINE
  8
1
  6
HIDDEN
 62
1
 10
-3.0
 20
-3.9750015E+001
 11
-3.0
 21
-4.4750015E+001
  0
LINE
  8
1
  6
HIDDEN
 62
1
 10
-3.0
 20
-4.4750015E+001
 11
-6.0
 21
-4.7750015E+001
  0
LINE
  8
1
  6
HIDDEN
 62
1
 10
-3.0
 20
-4.4750015E+001
 11
0.0
 21
-4.4750015E+001
  0
LINE
  8
1
  6
HIDDEN
 62
1
 10
0.0
 20
-3.9750015E+001
 11
-3.0
 21
-3.9750015E+001
  0
LINE
  8
1
  6
HIDDEN
 62
1
 10
-6.0
 20
-1.7750015E+001
 11
-3.0
 21
-2.0750015E+001
  0
LINE
  8
1
  6
HIDDEN
 62
1
 10
-3.0
 20
-2.0750015E+001
 11
-3.0
 21
-2.5750015E+001
  0
LINE
  8
1
  6
HIDDEN
 62
1
 10
-3.0
 20
-2.5750015E+001
 11
-6.0
 21
-2.8750015E+001
  0
LINE
  8
1
  6
HIDDEN
 62
1
 10
-3.0
 20
-2.0750015E+001
 11
0.0
 21
-2.0750015E+001
  0
LINE
  8
1
  6
HIDDEN
 62
1
 10
0.0
 20
-2.5750015E+001
 11
-3.0
 21
-2.5750015E+001
  0
LINE
  8
1
  6
CONTINUOUS
 62
40
 10
0.0
 20
-6.5000015E+001
 11
0.0
 21
0.0
  0
LINE
  8
1
  6
CONTINUOUS
 62
40
 10
0.0
 20
0.0
 11
-4.4E+001
 21
0.0
  0
LINE
  8
1
  6
CONTINUOUS
 62
40
 10
-4.3999999E+001
 20
-6.5000029E+001
 11
0.0
 21
-6.5000015E+001
  0
LINE
  8
1
  6
CONTINUOUS
 62
40
 10
-4.7E+001
 20
-6.2000029E+001
 11
-4.7E+001
 21
-3.0
  0
ARC
  8
1
  6
CONTINUOUS
 62
40
 10
-4.4E+001
 20
-3.0
 40
3.0
 50
9.0E+001
 51
1.8E+002
  0
ARC
  8
1
  6
CONTINUOUS
 62
40
 10
-4.4E+001
 20
-6.2000029E+001
 40
3.0
 50
1.8E+002
 51
2.7000002E+002
  0
POINT
  8
Drafting_Hidden_Entities
  6
CONTINUOUS
 62
1
 10
0.0
 20
0.0
  0
ENDBLK
  0
BLOCK
  2
ZNEW00
 10
0.0
 20
0.0
 70
0
  0
LINE
  8
104
  6
CONTINUOUS
 62
40
 10
1.78E+002
 20
0.0
 11
1.78E+002
 21
-6.5E+001
  0
LINE
  8
106
  6
CENTERLINE
 62
1
 10
-8.0E+001
 20
-1.5347652E+001
 11
-8.0E+001
 21
-5.0685612E+001
  0
LINE
  8
106
  6
CENTERLINE
 62
1
 10
1.69E+002
 20
-1.4802805E+001
 11
1.69E+002
 21
-5.040529E+001
  0
CIRCLE
  8
105
  6
HIDDEN
 62
1
 10
-8.0E+001
 20
-2.3250015E+001
 40
5.0
  0
LINE
  8
106
  6
CENTERLINE
 62
1
 10
1.7545674E+002
 20
-2.3250015E+001
 11
1.6164893E+002
 21
-2.3250015E+001
  0
LINE
  8
106
  6
CENTERLINE
 62
1
 10
1.7545674E+002
 20
-4.2250015E+001
 11
1.6164893E+002
 21
-4.2250015E+001
  0
CIRCLE
  8
106
  6
CENTERLINE
 62
1
 10
1.69E+002
 20
-4.2250015E+001
 40
5.0
  0
LINE
  8
106
  6
CENTERLINE
 62
1
 10
-7.2295443E+001
 20
-4.2250015E+001
 11
-8.6965609E+001
 21
-4.2250015E+001
  0
LINE
  8
106
  6
CENTERLINE
 62
1
 10
-7.2295443E+001
 20
-2.3250015E+001
 11
-8.6965609E+001
 21
-2.3250015E+001
  0
CIRCLE
  8
105
  6
HIDDEN
 62
1
 10
1.69E+002
 20
-2.3250015E+001
 40
5.0
  0
CIRCLE
  8
105
  6
HIDDEN
 62
1
 10
-8.0E+001
 20
-4.2250015E+001
 40
5.0
  0
LINE
  8
104
  6
CONTINUOUS
 62
40
 10
-8.9E+001
 20
0.0
 11
1.78E+002
 21
0.0
  0
LINE
  8
104
  6
CONTINUOUS
 62
40
 10
-8.9E+001
 20
-6.5E+001
 11
1.78E+002
 21
-6.5E+001
  0
LINE
  8
104
  6
CONTINUOUS
 62
40
 10
-8.9E+001
 20
0.0
 11
-8.9E+001
 21
-6.5E+001
  0
POINT
  8
Drafting_Hidden_Entities
  6
CONTINUOUS
 62
1
 10
0.0
 20
0.0
  0
ENDBLK
  0
BLOCK
  2
555NEW00
 10
0.0
 20
0.0
 70
0
  0
CIRCLE
  8
109
  6
CONTINUOUS
 62
1
 10
1.86E+001
 20
3.54E+001
 40
1.5
  0
CIRCLE
  8
109
  6
CONTINUOUS
 62
1
 10
9.3
 20
3.54E+001
 40
1.5
  0
CIRCLE
  8
109
  6
CONTINUOUS
 62
1
 10
0.0
 20
3.54E+001
 40
1.5
  0
CIRCLE
  8
109
  6
CONTINUOUS
 62
1
 10
0.0
 20
2.61E+001
 40
1.5
  0
CIRCLE
  8
109
  6
CONTINUOUS
 62
1
 10
-9.3
 20
3.54E+001
 40
1.5
  0
CIRCLE
  8
109
  6
CONTINUOUS
 62
1
 10
-9.3
 20
2.61E+001
 40
1.5
  0
CIRCLE
  8
109
  6
CONTINUOUS
 62
1
 10
-1.86E+001
 20
3.54E+001
 40
1.5
  0
CIRCLE
  8
109
  6
CONTINUOUS
 62
1
 10
-1.86E+001
 20
2.61E+001
 40
1.5
  0
CIRCLE
  8
109
  6
CONTINUOUS
 62
1
 10
-1.86E+001
 20
1.68E+001
 40
1.5
  0
CIRCLE
  8
109
  6
CONTINUOUS
 62
1
 10
-1.86E+001
 20
7.5
 40
1.5
  0
CIRCLE
  8
109
  6
CONTINUOUS
 62
1
 10
-9.3
 20
1.68E+001
 40
1.5
  0
CIRCLE
  8
109
  6
CONTINUOUS
 62
1
 10
0.0
 20
1.68E+001
 40
1.5
  0
CIRCLE
  8
109
  6
CONTINUOUS
 62
1
 10
0.0
 20
7.5
 40
1.5
  0
CIRCLE
  8
109
  6
CONTINUOUS
 62
1
 10
-9.3
 20
7.5
 40
1.5
  0
CIRCLE
  8
109
  6
CONTINUOUS
 62
1
 10
9.3
 20
7.5
 40
1.5
  0
CIRCLE
  8
109
  6
CONTINUOUS
 62
1
 10
9.3
 20
1.68E+001
 40
1.5
  0
CIRCLE
  8
109
  6
CONTINUOUS
 62
1
 10
9.3
 20
2.61E+001
 40
1.5
  0
CIRCLE
  8
109
  6
CONTINUOUS
 62
1
 10
1.86E+001
 20
2.61E+001
 40
1.5
  0
CIRCLE
  8
109
  6
CONTINUOUS
 62
1
 10
1.86E+001
 20
1.68E+001
 40
1.5
  0
CIRCLE
  8
109
  6
CONTINUOUS
 62
1
 10
1.86E+001
 20
7.5
 40
1.5
  0
POINT
  8
Drafting_Hidden_Entities
  6
CONTINUOUS
 62
1
 10
0.0
 20
0.0
  0
ENDBLK
  0
BLOCK
  2
UNEW00
 10
0.0
 20
0.0
 70
0
  0
INSERT
  2
555NEW00
  8
109
 10
0.0
 20
-3.2500008E+001
 50
9.0E+001
  0
LINE
  8
105
  6
HIDDEN
 62
1
 10
0.0
 20
-1.2750015E+001
 11
-6.0000014
 21
-1.2750015E+001
  0
LINE
  8
105
  6
HIDDEN
 62
1
 10
0.0
 20
-5.2750015E+001
 11
-6.0000014
 21
-5.2750015E+001
  0
LINE
  8
106
  6
CENTERLINE
 62
1
 10
-8.6777344
 20
-4.2250015E+001
 11
1.5520554
 21
-4.2250015E+001
  0
LINE
  8
105
  6
HIDDEN
 62
1
 10
-6.0000014
 20
-1.2750015E+001
 11
-6.0000014
 21
-5.2750015E+001
  0
LINE
  8
106
  6
CENTERLINE
 62
1
 10
-8.2675781
 20
-2.3250015E+001
 11
1.7622681
 21
-2.3250015E+001
  0
LINE
  8
105
  6
HIDDEN
 62
1
 10
-6.0
 20
-3.6750015E+001
 11
-3.0
 21
-3.9750015E+001
  0
LINE
  8
105
  6
HIDDEN
 62
1
 10
-3.0
 20
-3.9750015E+001
 11
-3.0
 21
-4.4750015E+001
  0
LINE
  8
105
  6
HIDDEN
 62
1
 10
-3.0
 20
-4.4750015E+001
 11
-6.0
 21
-4.7750015E+001
  0
LINE
  8
105
  6
HIDDEN
 62
1
 10
-3.0
 20
-4.4750015E+001
 11
0.0
 21
-4.4750015E+001
  0
LINE
  8
105
  6
HIDDEN
 62
1
 10
0.0
 20
-3.9750015E+001
 11
-3.0
 21
-3.9750015E+001
  0
LINE
  8
105
  6
HIDDEN
 62
1
 10
-6.0
 20
-1.7750015E+001
 11
-3.0
 21
-2.0750015E+001
  0
LINE
  8
105
  6
HIDDEN
 62
1
 10
-3.0
 20
-2.0750015E+001
 11
-3.0
 21
-2.5750015E+001
  0
LINE
  8
105
  6
HIDDEN
 62
1
 10
-3.0
 20
-2.5750015E+001
 11
-6.0
 21
-2.8750015E+001
  0
LINE
  8
105
  6
HIDDEN
 62
1
 10
-3.0
 20
-2.0750015E+001
 11
0.0
 21
-2.0750015E+001
  0
LINE
  8
105
  6
HIDDEN
 62
1
 10
0.0
 20
-2.5750015E+001
 11
-3.0
 21
-2.5750015E+001
  0
LINE
  8
104
  6
CONTINUOUS
 62
40
 10
0.0
 20
-6.5000015E+001
 11
0.0
 21
0.0
  0
LINE
  8
104
  6
CONTINUOUS
 62
40
 10
0.0
 20
0.0
 11
-4.4E+001
 21
0.0
  0
LINE
  8
104
  6
CONTINUOUS
 62
40
 10
-4.3999999E+001
 20
-6.5000029E+001
 11
0.0
 21
-6.5000015E+001
  0
LINE
  8
104
  6
CONTINUOUS
 62
40
 10
-4.7E+001
 20
-6.2000029E+001
 11
-4.7E+001
 21
-3.0
  0
ARC
  8
104
  6
CONTINUOUS
 62
40
 10
-4.4E+001
 20
-3.0
 40
3.0
 50
9.0E+001
 51
1.8E+002
  0
ARC
  8
104
  6
CONTINUOUS
 62
40
 10
-4.4E+001
 20
-6.2000029E+001
 40
3.0
 50
1.8E+002
 51
2.7000002E+002
  0
POINT
  8
Drafting_Hidden_Entities
  6
CONTINUOUS
 62
1
 10
0.0
 20
0.0
  0
ENDBLK
  0
BLOCK
  2
_AH1
 70
0
 10
0.0
 20
0.0
  3
_AH1
  0
LINE
  8
0
  6
CONTINUOUS
 62
0
 10
-1.0
 20
1.66667E-001
 11
0.0
 21
0.0
  0
LINE
  8
0
  6
CONTINUOUS
 62
0
 10
0.0
 20
0.0
 11
-1.0
 21
-1.66667E-001
  0
LINE
  8
0
  6
CONTINUOUS
 62
0
 10
-1.0
 20
1.66667E-001
 11
-1.0
 21
-1.66667E-001
  0
LINE
  8
0
  6
CONTINUOUS
 62
0
 10
0.0
 20
0.0
 11
-1.0
 21
0.0
  0
ENDBLK
  0
BLOCK
  2
_AH2
 70
0
 10
0.0
 20
0.0
  3
_AH2
  0
LINE
  8
0
  6
CONTINUOUS
 62
0
 10
-1.0
 20
1.66667E-001
 11
0.0
 21
0.0
  0
LINE
  8
0
  6
CONTINUOUS
 62
0
 10
0.0
 20
0.0
 11
-1.0
 21
-1.66667E-001
  0
LINE
  8
0
  6
CONTINUOUS
 62
0
 10
0.0
 20
0.0
 11
-1.0
 21
0.0
  0
ENDBLK
  0
BLOCK
  2
*D967
  3
*D
 10
0.0
 20
0.0
 70
65
  0
LINE
  8
100
  6
CONTINUOUS
 62
1
 10
-3.5147441E+002
 20
1.7212997E+002
 11
-3.5147448E+002
 21
2.0731427E+002
  0
LINE
  8
100
  6
CONTINUOUS
 62
1
 10
7.6537376E+001
 20
1.7220246E+002
 11
7.65373E+001
 21
2.0731519E+002
  0
LINE
  8
100
  6
CONTINUOUS
 62
1
 10
-3.5147448E+002
 20
2.0431427E+002
 11
-1.103111E+002
 21
2.0431479E+002
  0
LINE
  8
100
  6
CONTINUOUS
 62
1
 10
7.6537307E+001
 20
2.0431519E+002
 11
-1.103111E+002
 21
2.0431479E+002
  0
TEXT
  8
100
  6
CONTINUOUS
 62
1
 10
-1.187111E+002
 20
2.0731677E+002
 40
7.0
  1
428
 41
8.0E-001
 50
1.234254E-004
  0
INSERT
  2
_AH13
  8
100
 62
1
 10
-3.5147448E+002
 20
2.0431427E+002
 41
8.0
 42
8.0
 43
8.0
 50
1.234254E-004
  0
INSERT
  2
_AH13
  8
100
 62
1
 10
7.6537307E+001
 20
2.0431519E+002
 41
8.0
 42
8.0
 43
8.0
 50
1.8000012E+002
  0
ENDBLK
  0
BLOCK
  2
*D968
  3
*D
 10
0.0
 20
0.0
 70
65
  0
LINE
  8
100
  6
CONTINUOUS
 62
1
 10
8.3279406E+001
 20
1.7412818E+002
 11
8.3279406E+001
 21
2.3999956E+002
  0
LINE
  8
100
  6
CONTINUOUS
 62
1
 10
-4.1447438E+002
 20
1.3537823E+002
 11
-4.1447438E+002
 21
2.3999956E+002
  0
LINE
  8
100
  6
CONTINUOUS
 62
1
 10
8.3279406E+001
 20
2.3699956E+002
 11
-1.3564181E+002
 21
2.3699956E+002
  0
LINE
  8
100
  6
CONTINUOUS
 62
1
 10
-4.1447438E+002
 20
2.3699956E+002
 11
-1.3564181E+002
 21
2.3699956E+002
  0
TEXT
  8
100
  6
CONTINUOUS
 62
1
 10
-1.4404181E+002
 20
2.4000156E+002
 40
7.0
  1
498
 41
8.0E-001
 50
3.6E+002
  0
INSERT
  2
_AH13
  8
100
 62
1
 10
8.3279406E+001
 20
2.3699956E+002
 41
8.0
 42
8.0
 43
8.0
 50
1.8E+002
  0
INSERT
  2
_AH13
  8
100
 62
1
 10
-4.1447438E+002
 20
2.3699956E+002
 41
8.0
 42
8.0
 43
8.0
 50
3.6E+002
  0
ENDBLK
  0
BLOCK
  2
*D969
  3
*D
 10
0.0
 20
0.0
 70
65
  0
LINE
  8
100
  6
CONTINUOUS
 62
1
 10
-3.0747438E+002
 20
1.1185937E+002
 11
-3.0747438E+002
 21
9.8887064E+001
  0
LINE
  8
100
  6
CONTINUOUS
 62
1
 10
-2.5147439E+002
 20
1.1185937E+002
 11
-2.5147439E+002
 21
9.8887064E+001
  0
LINE
  8
100
  6
CONTINUOUS
 62
1
 10
-3.0747438E+002
 20
1.0188706E+002
 11
-2.781617E+002
 21
1.0188706E+002
  0
LINE
  8
100
  6
CONTINUOUS
 62
1
 10
-2.5147439E+002
 20
1.0188706E+002
 11
-2.781617E+002
 21
1.0188706E+002
  0
TEXT
  8
100
  6
CONTINUOUS
 62
1
 10
-2.837617E+002
 20
1.0488906E+002
 40
7.0
  1
56
 41
8.0E-001
  0
INSERT
  2
_AH13
  8
100
 62
1
 10
-3.0747438E+002
 20
1.0188706E+002
 41
8.0
 42
8.0
 43
8.0
 50
0.0
  0
INSERT
  2
_AH13
  8
100
 62
1
 10
-2.5147439E+002
 20
1.0188706E+002
 41
8.0
 42
8.0
 43
8.0
 50
1.8E+002
  0
ENDBLK
  0
BLOCK
  2
*D970
  3
*D
 10
0.0
 20
0.0
 70
65
  0
LINE
  8
100
  6
CONTINUOUS
 62
1
 10
-3.5947438E+002
 20
7.6625392E+001
 11
-3.5947438E+002
 21
4.6940792E+001
  0
LINE
  8
100
  6
CONTINUOUS
 62
1
 10
-1.994744E+002
 20
7.6625392E+001
 11
-1.994744E+002
 21
4.6940792E+001
  0
LINE
  8
100
  6
CONTINUOUS
 62
1
 10
-3.5947438E+002
 20
4.9940792E+001
 11
-2.701224E+002
 21
4.9940792E+001
  0
LINE
  8
100
  6
CONTINUOUS
 62
1
 10
-1.994744E+002
 20
4.9940792E+001
 11
-2.701224E+002
 21
4.9940792E+001
  0
TEXT
  8
100
  6
CONTINUOUS
 62
1
 10
-2.785224E+002
 20
5.2942792E+001
 40
7.0
  1
160
 41
8.0E-001
  0
INSERT
  2
_AH13
  8
100
 62
1
 10
-3.5947438E+002
 20
4.9940792E+001
 41
8.0
 42
8.0
 43
8.0
 50
0.0
  0
INSERT
  2
_AH13
  8
100
 62
1
 10
-1.994744E+002
 20
4.9940792E+001
 41
8.0
 42
8.0
 43
8.0
 50
1.8E+002
  0
ENDBLK
  0
BLOCK
  2
*D971
  3
*D
 10
0.0
 20
0.0
 70
65
  0
LINE
  8
100
  6
CONTINUOUS
 62
1
 10
-3.2647438E+002
 20
1.3108606E+002
 11
-3.2647438E+002
 21
6.1390056E+001
  0
LINE
  8
100
  6
CONTINUOUS
 62
1
 10
-3.2647438E+002
 20
4.0982592E+001
 11
-3.2647438E+002
 21
2.2204472E+001
  0
LINE
  8
100
  6
CONTINUOUS
 62
1
 10
-4.1447438E+002
 20
7.637823E+001
 11
-4.1447438E+002
 21
2.2204472E+001
  0
LINE
  8
100
  6
CONTINUOUS
 62
1
 10
-3.2647438E+002
 20
2.5204472E+001
 11
-3.6164678E+002
 21
2.5204472E+001
  0
LINE
  8
100
  6
CONTINUOUS
 62
1
 10
-4.1447438E+002
 20
2.5204472E+001
 11
-3.6164678E+002
 21
2.5204472E+001
  0
TEXT
  8
100
  6
CONTINUOUS
 62
1
 10
-3.6724678E+002
 20
2.8206472E+001
 40
7.0
  1
88
 41
8.0E-001
 50
3.6E+002
  0
INSERT
  2
_AH13
  8
100
 62
1
 10
-3.2647438E+002
 20
2.5204472E+001
 41
8.0
 42
8.0
 43
8.0
 50
1.8E+002
  0
INSERT
  2
_AH13
  8
100
 62
1
 10
-4.1447438E+002
 20
2.5204472E+001
 41
8.0
 42
8.0
 43
8.0
 50
3.6E+002
  0
ENDBLK
  0
BLOCK
  2
*D972
  3
*D
 10
0.0
 20
0.0
 70
65
  0
LINE
  8
100
  6
CONTINUOUS
 62
1
 10
-3.5947438E+002
 20
7.6625392E+001
 11
-3.5947438E+002
 21
4.6940792E+001
  0
LINE
  8
100
  6
CONTINUOUS
 62
1
 10
-4.1447438E+002
 20
7.637823E+001
 11
-4.1447438E+002
 21
4.6940792E+001
  0
LINE
  8
100
  6
CONTINUOUS
 62
1
 10
-3.5947438E+002
 20
4.9940792E+001
 11
-3.8205425E+002
 21
4.9940792E+001
  0
LINE
  8
100
  6
CONTINUOUS
 62
1
 10
-4.1447438E+002
 20
4.9940792E+001
 11
-3.8205425E+002
 21
4.9940792E+001
  0
TEXT
  8
100
  6
CONTINUOUS
 62
1
 10
-3.8765425E+002
 20
5.2942792E+001
 40
7.0
  1
55
 41
8.0E-001
 50
3.6E+002
  0
INSERT
  2
_AH13
  8
100
 62
1
 10
-3.5947438E+002
 20
4.9940792E+001
 41
8.0
 42
8.0
 43
8.0
 50
1.8E+002
  0
INSERT
  2
_AH13
  8
100
 62
1
 10
-4.1447438E+002
 20
4.9940792E+001
 41
8.0
 42
8.0
 43
8.0
 50
3.6E+002
  0
ENDBLK
  0
BLOCK
  2
*D973
  3
*D
 10
0.0
 20
0.0
 70
65
  0
LINE
  8
100
  6
CONTINUOUS
 62
1
 10
-1.3547438E+002
 20
7.637823E+001
 11
-1.3547438E+002
 21
1.797008
  0
LINE
  8
100
  6
CONTINUOUS
 62
1
 10
-4.1447438E+002
 20
7.637823E+001
 11
-4.1447438E+002
 21
1.797008
  0
LINE
  8
100
  6
CONTINUOUS
 62
1
 10
-1.3547438E+002
 20
4.797008
 11
-2.8372737E+002
 21
4.797008
  0
LINE
  8
100
  6
CONTINUOUS
 62
1
 10
-4.1447438E+002
 20
4.797008
 11
-2.8372737E+002
 21
4.797008
  0
TEXT
  8
100
  6
CONTINUOUS
 62
1
 10
-2.9212737E+002
 20
7.799008
 40
7.0
  1
279
 41
8.0E-001
 50
3.6E+002
  0
INSERT
  2
_AH13
  8
100
 62
1
 10
-1.3547438E+002
 20
4.797008
 41
8.0
 42
8.0
 43
8.0
 50
1.8E+002
  0
INSERT
  2
_AH13
  8
100
 62
1
 10
-4.1447438E+002
 20
4.797008
 41
8.0
 42
8.0
 43
8.0
 50
3.6E+002
  0
ENDBLK
  0
BLOCK
  2
*D974
  3
*D
 10
0.0
 20
0.0
 70
65
  0
LINE
  8
100
  6
CONTINUOUS
 62
1
 10
-5.3929876E+002
 20
7.3378215E+001
 11
-5.3929876E+002
 21
4.6940792E+001
  0
LINE
  8
100
  6
CONTINUOUS
 62
1
 10
-5.8629876E+002
 20
7.6378201E+001
 11
-5.8629876E+002
 21
4.6940792E+001
  0
LINE
  8
100
  6
CONTINUOUS
 62
1
 10
-5.3929876E+002
 20
4.9940792E+001
 11
-5.633075E+002
 21
4.9940792E+001
  0
LINE
  8
100
  6
CONTINUOUS
 62
1
 10
-5.8629876E+002
 20
4.9940792E+001
 11
-5.633075E+002
 21
4.9940792E+001
  0
TEXT
  8
100
  6
CONTINUOUS
 62
1
 10
-5.6890751E+002
 20
5.2942792E+001
 40
7.0
  1
47
 41
8.0E-001
 50
3.6E+002
  0
INSERT
  2
_AH13
  8
100
 62
1
 10
-5.3929876E+002
 20
4.9940792E+001
 41
8.0
 42
8.0
 43
8.0
 50
1.8E+002
  0
INSERT
  2
_AH13
  8
100
 62
1
 10
-5.8629876E+002
 20
4.9940792E+001
 41
8.0
 42
8.0
 43
8.0
 50
3.6E+002
  0
ENDBLK
  0
BLOCK
  2
*D975
  3
*D
 10
0.0
 20
0.0
 70
65
  0
LINE
  8
100
  6
CONTINUOUS
 62
1
 10
-5.3929876E+002
 20
1.7537823E+002
 11
-5.3929876E+002
 21
2.0731386E+002
  0
LINE
  8
100
  6
CONTINUOUS
 62
1
 10
-5.7029876E+002
 20
1.7337823E+002
 11
-5.7029876E+002
 21
2.0731386E+002
  0
LINE
  8
100
  6
CONTINUOUS
 62
1
 10
-5.3929876E+002
 20
2.0431386E+002
 11
-5.5041163E+002
 21
2.0431386E+002
  0
LINE
  8
100
  6
CONTINUOUS
 62
1
 10
-5.7029876E+002
 20
2.0431386E+002
 11
-5.5041163E+002
 21
2.0431386E+002
  0
TEXT
  8
100
  6
CONTINUOUS
 62
1
 10
-5.5601163E+002
 20
2.0731586E+002
 40
7.0
  1
31
 41
8.0E-001
 50
3.6E+002
  0
INSERT
  2
_AH13
  8
100
 62
1
 10
-5.3929876E+002
 20
2.0431386E+002
 41
8.0
 42
8.0
 43
8.0
 50
1.8E+002
  0
INSERT
  2
_AH13
  8
100
 62
1
 10
-5.7029876E+002
 20
2.0431386E+002
 41
8.0
 42
8.0
 43
8.0
 50
3.6E+002
  0
ENDBLK
  0
BLOCK
  2
*D976
  3
*D
 10
0.0
 20
0.0
 70
65
  0
LINE
  8
100
  6
CONTINUOUS
 62
1
 10
-4.1147438E+002
 20
1.3837823E+002
 11
-4.4473428E+002
 21
1.3837823E+002
  0
LINE
  8
100
  6
CONTINUOUS
 62
1
 10
-4.1147438E+002
 20
7.337823E+001
 11
-4.4473428E+002
 21
7.337823E+001
  0
LINE
  8
100
  6
CONTINUOUS
 62
1
 10
-4.4173428E+002
 20
1.3837823E+002
 11
-4.4173428E+002
 21
1.0651333E+002
  0
LINE
  8
100
  6
CONTINUOUS
 62
1
 10
-4.4173428E+002
 20
7.337823E+001
 11
-4.4173428E+002
 21
1.0651333E+002
  0
TEXT
  8
100
  6
CONTINUOUS
 62
1
 10
-4.4473628E+002
 20
1.0091333E+002
 40
7.0
  1
65
 41
8.0E-001
 50
9.0E+001
  0
INSERT
  2
_AH13
  8
100
 62
1
 10
-4.4173428E+002
 20
1.3837823E+002
 41
8.0
 42
8.0
 43
8.0
 50
2.7E+002
  0
INSERT
  2
_AH13
  8
100
 62
1
 10
-4.4173428E+002
 20
7.337823E+001
 41
8.0
 42
8.0
 43
8.0
 50
4.5E+002
  0
ENDBLK
  0
BLOCK
  2
*D977
  3
*D
 10
0.0
 20
0.0
 70
65
  0
LINE
  8
100
  6
CONTINUOUS
 62
1
 10
-3.5822818E+002
 20
1.7512818E+002
 11
-4.4473428E+002
 21
1.7512818E+002
  0
LINE
  8
100
  6
CONTINUOUS
 62
1
 10
-3.5722818E+002
 20
1.5512818E+002
 11
-4.4473428E+002
 21
1.5512818E+002
  0
LINE
  8
100
  6
CONTINUOUS
 62
1
 10
-4.4173428E+002
 20
1.7512818E+002
 11
-4.4173428E+002
 21
1.9992876E+002
  0
LINE
  8
100
  6
CONTINUOUS
 62
1
 10
-4.4173428E+002
 20
1.3912818E+002
 11
-4.4173428E+002
 21
1.7512818E+002
  0
TEXT
  8
100
  6
CONTINUOUS
 62
1
 10
-4.4473628E+002
 20
1.8572876E+002
 40
7.0
  1
20
 41
8.0E-001
 50
9.0E+001
  0
INSERT
  2
_AH13
  8
100
 62
1
 10
-4.4173428E+002
 20
1.7512818E+002
 41
8.0
 42
8.0
 43
8.0
 50
4.5E+002
  0
INSERT
  2
_AH13
  8
100
 62
1
 10
-4.4173428E+002
 20
1.5512818E+002
 41
8.0
 42
8.0
 43
8.0
 50
6.3E+002
  0
ENDBLK
  0
BLOCK
  2
*D978
  3
*D
 10
0.0
 20
0.0
 70
65
  0
LINE
  8
100
  6
CONTINUOUS
 62
1
 10
-3.5822818E+002
 20
1.7512818E+002
 11
-4.710221E+002
 21
1.7512818E+002
  0
LINE
  8
100
  6
CONTINUOUS
 62
1
 10
-4.1147438E+002
 20
7.337823E+001
 11
-4.710221E+002
 21
7.337823E+001
  0
LINE
  8
100
  6
CONTINUOUS
 62
1
 10
-4.680221E+002
 20
1.7512818E+002
 11
-4.680221E+002
 21
1.2288122E+002
  0
LINE
  8
100
  6
CONTINUOUS
 62
1
 10
-4.680221E+002
 20
7.337823E+001
 11
-4.680221E+002
 21
1.2288122E+002
  0
TEXT
  8
100
  6
CONTINUOUS
 62
1
 10
-4.710241E+002
 20
1.1448122E+002
 40
7.0
  1
102
 41
8.0E-001
 50
9.0E+001
  0
INSERT
  2
_AH13
  8
100
 62
1
 10
-4.680221E+002
 20
1.7512818E+002
 41
8.0
 42
8.0
 43
8.0
 50
2.7E+002
  0
INSERT
  2
_AH13
  8
100
 62
1
 10
-4.680221E+002
 20
7.337823E+001
 41
8.0
 42
8.0
 43
8.0
 50
4.5E+002
  0
ENDBLK
  0
BLOCK
  2
*D979
  3
*D
 10
0.0
 20
0.0
 70
65
  0
LINE
  8
100
  6
CONTINUOUS
 62
1
 10
-1.9341538E+002
 20
1.2712823E+002
 11
-9.7204521E+001
 21
1.2712823E+002
  0
LINE
  8
100
  6
CONTINUOUS
 62
1
 10
-1.9341538E+002
 20
1.1112823E+002
 11
-9.7204521E+001
 21
1.1112823E+002
  0
LINE
  8
100
  6
CONTINUOUS
 62
1
 10
-1.0020452E+002
 20
1.2712823E+002
 11
-1.0020452E+002
 21
1.4489182E+002
  0
LINE
  8
100
  6
CONTINUOUS
 62
1
 10
-1.0020452E+002
 20
9.512823E+001
 11
-1.0020452E+002
 21
1.2712823E+002
  0
TEXT
  8
100
  6
CONTINUOUS
 62
1
 10
-1.0320652E+002
 20
1.3069182E+002
 40
7.0
  1
16
 41
8.0E-001
 50
9.0E+001
  0
INSERT
  2
_AH13
  8
100
 62
1
 10
-1.0020452E+002
 20
1.2712823E+002
 41
8.0
 42
8.0
 43
8.0
 50
4.5E+002
  0
INSERT
  2
_AH13
  8
100
 62
1
 10
-1.0020452E+002
 20
1.1112823E+002
 41
8.0
 42
8.0
 43
8.0
 50
6.3E+002
  0
ENDBLK
  0
BLOCK
  2
*D980
  3
*D
 10
0.0
 20
0.0
 70
65
  0
LINE
  8
100
  6
CONTINUOUS
 62
1
 10
-1.9341538E+002
 20
1.0012823E+002
 11
-9.7204521E+001
 21
1.0012823E+002
  0
LINE
  8
100
  6
CONTINUOUS
 62
1
 10
-1.9341538E+002
 20
8.412823E+001
 11
-9.7204521E+001
 21
8.412823E+001
  0
LINE
  8
100
  6
CONTINUOUS
 62
1
 10
-1.0020452E+002
 20
1.1612823E+002
 11
-1.0020452E+002
 21
8.412823E+001
  0
LINE
  8
100
  6
CONTINUOUS
 62
1
 10
-1.0020452E+002
 20
8.412823E+001
 11
-1.0020452E+002
 21
6.5568542E+001
  0
TEXT
  8
100
  6
CONTINUOUS
 62
1
 10
-1.0320652E+002
 20
6.8568542E+001
 40
7.0
  1
16
 41
8.0E-001
 50
9.0E+001
  0
INSERT
  2
_AH13
  8
100
 62
1
 10
-1.0020452E+002
 20
1.0012823E+002
 41
8.0
 42
8.0
 43
8.0
 50
4.5E+002
  0
INSERT
  2
_AH13
  8
100
 62
1
 10
-1.0020452E+002
 20
8.412823E+001
 41
8.0
 42
8.0
 43
8.0
 50
6.3E+002
  0
ENDBLK
  0
BLOCK
  2
*D981
  3
*D
 10
0.0
 20
0.0
 70
65
  0
LINE
  8
100
  6
CONTINUOUS
 62
1
 10
-1.9341538E+002
 20
1.2712823E+002
 11
-5.9257297E+001
 21
1.2712823E+002
  0
LINE
  8
100
  6
CONTINUOUS
 62
1
 10
-1.9341538E+002
 20
8.412823E+001
 11
-5.9257297E+001
 21
8.412823E+001
  0
LINE
  8
100
  6
CONTINUOUS
 62
1
 10
-6.2257297E+001
 20
1.2712823E+002
 11
-6.2257297E+001
 21
1.0691332E+002
  0
LINE
  8
100
  6
CONTINUOUS
 62
1
 10
-6.2257297E+001
 20
8.412823E+001
 11
-6.2257297E+001
 21
1.0691332E+002
  0
TEXT
  8
100
  6
CONTINUOUS
 62
1
 10
-6.5259297E+001
 20
1.0131332E+002
 40
7.0
  1
43
 41
8.0E-001
 50
9.0E+001
  0
INSERT
  2
_AH13
  8
100
 62
1
 10
-6.2257297E+001
 20
1.2712823E+002
 41
8.0
 42
8.0
 43
8.0
 50
2.7E+002
  0
INSERT
  2
_AH13
  8
100
 62
1
 10
-6.2257297E+001
 20
8.412823E+001
 41
8.0
 42
8.0
 43
8.0
 50
4.5E+002
  0
ENDBLK
  0
BLOCK
  2
*D982
  3
*D
 10
0.0
 20
0.0
 70
65
  0
LINE
  8
100
  6
CONTINUOUS
 62
1
 10
-1.9341538E+002
 20
1.1112823E+002
 11
-9.7204521E+001
 21
1.1112823E+002
  0
LINE
  8
100
  6
CONTINUOUS
 62
1
 10
-1.9341538E+002
 20
1.0012823E+002
 11
-9.7204521E+001
 21
1.0012823E+002
  0
LINE
  8
100
  6
CONTINUOUS
 62
1
 10
-1.0020452E+002
 20
1.1112823E+002
 11
-1.0020452E+002
 21
1.0568922E+002
  0
LINE
  8
100
  6
CONTINUOUS
 62
1
 10
-1.0020452E+002
 20
1.0012823E+002
 11
-1.0020452E+002
 21
1.0568922E+002
  0
TEXT
  8
100
  6
CONTINUOUS
 62
1
 10
-1.0320652E+002
 20
1.0008922E+002
 40
7.0
  1
11
 41
8.0E-001
 50
9.0E+001
  0
INSERT
  2
_AH13
  8
100
 62
1
 10
-1.0020452E+002
 20
1.1112823E+002
 41
8.0
 42
8.0
 43
8.0
 50
2.7E+002
  0
INSERT
  2
_AH13
  8
100
 62
1
 10
-1.0020452E+002
 20
1.0012823E+002
 41
8.0
 42
8.0
 43
8.0
 50
4.5E+002
  0
ENDBLK
  0
BLOCK
  2
*D983
  3
*D
 10
0.0
 20
0.0
 70
65
  0
LINE
  8
100
  6
CONTINUOUS
 62
1
 10
8.1775591E+001
 20
1.6512821E+002
 11
1.2389871E+002
 21
1.6512821E+002
  0
LINE
  8
100
  6
CONTINUOUS
 62
1
 10
-1.9341538E+002
 20
1.2712823E+002
 11
1.2389871E+002
 21
1.2712823E+002
  0
LINE
  8
100
  6
CONTINUOUS
 62
1
 10
1.2089871E+002
 20
1.6512821E+002
 11
1.2089871E+002
 21
1.4708148E+002
  0
LINE
  8
100
  6
CONTINUOUS
 62
1
 10
1.2089871E+002
 20
1.2712823E+002
 11
1.2089871E+002
 21
1.4708148E+002
  0
TEXT
  8
100
  6
CONTINUOUS
 62
1
 10
1.1789671E+002
 20
1.4148148E+002
 40
7.0
  1
38
 41
8.0E-001
 50
9.0E+001
  0
INSERT
  2
_AH13
  8
100
 62
1
 10
1.2089871E+002
 20
1.6512821E+002
 41
8.0
 42
8.0
 43
8.0
 50
2.7E+002
  0
INSERT
  2
_AH13
  8
100
 62
1
 10
1.2089871E+002
 20
1.2712823E+002
 41
8.0
 42
8.0
 43
8.0
 50
4.5E+002
  0
ENDBLK
  0
BLOCK
  2
*D1158
  3
*D
 10
0.0
 20
0.0
 70
65
  0
LINE
  8
1
  6
CONTINUOUS
 62
1
 10
2.6708493E+002
 20
4.7854972E+002
 11
2.6708485E+002
 21
5.1373402E+002
  0
LINE
  8
1
  6
CONTINUOUS
 62
1
 10
6.9509671E+002
 20
4.7862221E+002
 11
6.9509664E+002
 21
5.1373494E+002
  0
LINE
  8
1
  6
CONTINUOUS
 62
1
 10
2.6708486E+002
 20
5.1073402E+002
 11
5.0824824E+002
 21
5.1073454E+002
  0
LINE
  8
1
  6
CONTINUOUS
 62
1
 10
6.9509664E+002
 20
5.1073494E+002
 11
5.0824824E+002
 21
5.1073454E+002
  0
TEXT
  8
1
  6
CONTINUOUS
 62
1
 10
4.9984823E+002
 20
5.1373652E+002
 40
7.0
  1
428
 41
8.0E-001
 50
1.234254E-004
  0
INSERT
  2
_AH13
  8
1
 62
1
 10
2.6708486E+002
 20
5.1073402E+002
 41
8.0
 42
8.0
 43
8.0
 50
1.234254E-004
  0
INSERT
  2
_AH13
  8
1
 62
1
 10
6.9509664E+002
 20
5.1073494E+002
 41
8.0
 42
8.0
 43
8.0
 50
1.8000012E+002
  0
ENDBLK
  0
BLOCK
  2
*D1159
  3
*D
 10
0.0
 20
0.0
 70
65
  0
LINE
  8
1
  6
CONTINUOUS
 62
1
 10
7.0183874E+002
 20
4.8054793E+002
 11
7.0183874E+002
 21
5.4641931E+002
  0
LINE
  8
1
  6
CONTINUOUS
 62
1
 10
2.0308496E+002
 20
4.4479798E+002
 11
2.0308496E+002
 21
5.4641931E+002
  0
LINE
  8
1
  6
CONTINUOUS
 62
1
 10
7.0183874E+002
 20
5.4341931E+002
 11
4.8291753E+002
 21
5.4341931E+002
  0
LINE
  8
1
  6
CONTINUOUS
 62
1
 10
2.0308496E+002
 20
5.4341931E+002
 11
4.8291753E+002
 21
5.4341931E+002
  0
TEXT
  8
1
  6
CONTINUOUS
 62
1
 10
4.7451753E+002
 20
5.4642131E+002
 40
7.0
  1
499
 41
8.0E-001
 50
3.6E+002
  0
INSERT
  2
_AH13
  8
1
 62
1
 10
7.0183874E+002
 20
5.4341931E+002
 41
8.0
 42
8.0
 43
8.0
 50
1.8E+002
  0
INSERT
  2
_AH13
  8
1
 62
1
 10
2.0308496E+002
 20
5.4341931E+002
 41
8.0
 42
8.0
 43
8.0
 50
3.6E+002
  0
ENDBLK
  0
BLOCK
  2
*D1161
  3
*D
 10
0.0
 20
0.0
 70
65
  0
LINE
  8
1
  6
CONTINUOUS
 62
1
 10
2.1208496E+002
 20
3.9411237E+002
 11
2.1208496E+002
 21
3.461564E+002
  0
LINE
  8
1
  6
CONTINUOUS
 62
1
 10
4.6108496E+002
 20
3.9439269E+002
 11
4.6108496E+002
 21
3.461564E+002
  0
LINE
  8
1
  6
CONTINUOUS
 62
1
 10
2.1208496E+002
 20
3.491564E+002
 11
3.4529501E+002
 21
3.491564E+002
  0
LINE
  8
1
  6
CONTINUOUS
 62
1
 10
4.6108496E+002
 20
3.491564E+002
 11
3.4529501E+002
 21
3.491564E+002
  0
TEXT
  8
1
  6
CONTINUOUS
 62
1
 10
3.3689501E+002
 20
3.521584E+002
 40
7.0
  1
249
 41
8.0E-001
  0
INSERT
  2
_AH13
  8
1
 62
1
 10
2.1208496E+002
 20
3.491564E+002
 41
8.0
 42
8.0
 43
8.0
 50
0.0
  0
INSERT
  2
_AH13
  8
1
 62
1
 10
4.6108496E+002
 20
3.491564E+002
 41
8.0
 42
8.0
 43
8.0
 50
1.8E+002
  0
ENDBLK
  0
BLOCK
  2
*D1162
  3
*D
 10
0.0
 20
0.0
 70
65
  0
LINE
  8
1
  6
CONTINUOUS
 62
1
 10
2.9208496E+002
 20
4.375058E+002
 11
2.9208496E+002
 21
3.2862422E+002
  0
LINE
  8
1
  6
CONTINUOUS
 62
1
 10
2.0308496E+002
 20
3.7979798E+002
 11
2.0308496E+002
 21
3.2862422E+002
  0
LINE
  8
1
  6
CONTINUOUS
 62
1
 10
2.9208496E+002
 20
3.3162422E+002
 11
2.5691255E+002
 21
3.3162422E+002
  0
LINE
  8
1
  6
CONTINUOUS
 62
1
 10
2.0308496E+002
 20
3.3162422E+002
 11
2.5691255E+002
 21
3.3162422E+002
  0
TEXT
  8
1
  6
CONTINUOUS
 62
1
 10
2.5131255E+002
 20
3.3462622E+002
 40
7.0
  1
89
 41
8.0E-001
 50
3.6E+002
  0
INSERT
  2
_AH13
  8
1
 62
1
 10
2.9208496E+002
 20
3.3162422E+002
 41
8.0
 42
8.0
 43
8.0
 50
1.8E+002
  0
INSERT
  2
_AH13
  8
1
 62
1
 10
2.0308496E+002
 20
3.3162422E+002
 41
8.0
 42
8.0
 43
8.0
 50
3.6E+002
  0
ENDBLK
  0
BLOCK
  2
*D1164
  3
*D
 10
0.0
 20
0.0
 70
65
  0
LINE
  8
1
  6
CONTINUOUS
 62
1
 10
4.7008496E+002
 20
3.7979798E+002
 11
4.7008496E+002
 21
3.0821676E+002
  0
LINE
  8
1
  6
CONTINUOUS
 62
1
 10
2.0308496E+002
 20
3.7979798E+002
 11
2.0308496E+002
 21
3.0821676E+002
  0
LINE
  8
1
  6
CONTINUOUS
 62
1
 10
4.7008496E+002
 20
3.1121676E+002
 11
3.3483196E+002
 21
3.1121676E+002
  0
LINE
  8
1
  6
CONTINUOUS
 62
1
 10
2.0308496E+002
 20
3.1121676E+002
 11
3.3483196E+002
 21
3.1121676E+002
  0
TEXT
  8
1
  6
CONTINUOUS
 62
1
 10
3.2643196E+002
 20
3.1421876E+002
 40
7.0
  1
267
 41
8.0E-001
 50
3.6E+002
  0
INSERT
  2
_AH13
  8
1
 62
1
 10
4.7008496E+002
 20
3.1121676E+002
 41
8.0
 42
8.0
 43
8.0
 50
1.8E+002
  0
INSERT
  2
_AH13
  8
1
 62
1
 10
2.0308496E+002
 20
3.1121676E+002
 41
8.0
 42
8.0
 43
8.0
 50
3.6E+002
  0
ENDBLK
  0
BLOCK
  2
*D1165
  3
*D
 10
0.0
 20
0.0
 70
65
  0
LINE
  8
1
  6
CONTINUOUS
 62
1
 10
7.9260575E+001
 20
3.7979796E+002
 11
7.9260575E+001
 21
3.5336054E+002
  0
LINE
  8
1
  6
CONTINUOUS
 62
1
 10
3.2260575E+001
 20
3.8279795E+002
 11
3.2260575E+001
 21
3.5336054E+002
  0
LINE
  8
1
  6
CONTINUOUS
 62
1
 10
7.9260575E+001
 20
3.5636054E+002
 11
5.525183E+001
 21
3.5636054E+002
  0
LINE
  8
1
  6
CONTINUOUS
 62
1
 10
3.2260575E+001
 20
3.5636054E+002
 11
5.525183E+001
 21
3.5636054E+002
  0
TEXT
  8
1
  6
CONTINUOUS
 62
1
 10
4.965183E+001
 20
3.5936254E+002
 40
7.0
  1
47
 41
8.0E-001
 50
3.6E+002
  0
INSERT
  2
_AH13
  8
1
 62
1
 10
7.9260575E+001
 20
3.5636054E+002
 41
8.0
 42
8.0
 43
8.0
 50
1.8E+002
  0
INSERT
  2
_AH13
  8
1
 62
1
 10
3.2260575E+001
 20
3.5636054E+002
 41
8.0
 42
8.0
 43
8.0
 50
3.6E+002
  0
ENDBLK
  0
BLOCK
  2
*D1166
  3
*D
 10
0.0
 20
0.0
 70
65
  0
LINE
  8
1
  6
CONTINUOUS
 62
1
 10
7.9260574E+001
 20
4.8179798E+002
 11
7.9260574E+001
 21
5.1373361E+002
  0
LINE
  8
1
  6
CONTINUOUS
 62
1
 10
4.8260574E+001
 20
4.7979798E+002
 11
4.8260574E+001
 21
5.1373361E+002
  0
LINE
  8
1
  6
CONTINUOUS
 62
1
 10
7.9260574E+001
 20
5.1073361E+002
 11
6.8147705E+001
 21
5.1073361E+002
  0
LINE
  8
1
  6
CONTINUOUS
 62
1
 10
4.8260574E+001
 20
5.1073361E+002
 11
6.8147705E+001
 21
5.1073361E+002
  0
TEXT
  8
1
  6
CONTINUOUS
 62
1
 10
6.2547705E+001
 20
5.1373561E+002
 40
7.0
  1
31
 41
8.0E-001
 50
3.6E+002
  0
INSERT
  2
_AH13
  8
1
 62
1
 10
7.9260574E+001
 20
5.1073361E+002
 41
8.0
 42
8.0
 43
8.0
 50
1.8E+002
  0
INSERT
  2
_AH13
  8
1
 62
1
 10
4.8260574E+001
 20
5.1073361E+002
 41
8.0
 42
8.0
 43
8.0
 50
3.6E+002
  0
ENDBLK
  0
BLOCK
  2
*D1167
  3
*D
 10
0.0
 20
0.0
 70
65
  0
LINE
  8
1
  6
CONTINUOUS
 62
1
 10
2.0708496E+002
 20
4.4479798E+002
 11
1.7382506E+002
 21
4.4479798E+002
  0
LINE
  8
1
  6
CONTINUOUS
 62
1
 10
2.0708496E+002
 20
3.7979798E+002
 11
1.7382506E+002
 21
3.7979798E+002
  0
LINE
  8
1
  6
CONTINUOUS
 62
1
 10
1.7682506E+002
 20
4.4479798E+002
 11
1.7682506E+002
 21
4.1293307E+002
  0
LINE
  8
1
  6
CONTINUOUS
 62
1
 10
1.7682506E+002
 20
3.7979798E+002
 11
1.7682506E+002
 21
4.1293307E+002
  0
TEXT
  8
1
  6
CONTINUOUS
 62
1
 10
1.7382306E+002
 20
4.0733308E+002
 40
7.0
  1
65
 41
8.0E-001
 50
9.0E+001
  0
INSERT
  2
_AH13
  8
1
 62
1
 10
1.7682506E+002
 20
4.4479798E+002
 41
8.0
 42
8.0
 43
8.0
 50
2.7E+002
  0
INSERT
  2
_AH13
  8
1
 62
1
 10
1.7682506E+002
 20
3.7979798E+002
 41
8.0
 42
8.0
 43
8.0
 50
4.5E+002
  0
ENDBLK
  0
BLOCK
  2
*D1168
  3
*D
 10
0.0
 20
0.0
 70
65
  0
LINE
  8
1
  6
CONTINUOUS
 62
1
 10
2.6033116E+002
 20
4.8154793E+002
 11
1.7382506E+002
 21
4.8154793E+002
  0
LINE
  8
1
  6
CONTINUOUS
 62
1
 10
2.6133116E+002
 20
4.6154793E+002
 11
1.7382506E+002
 21
4.6154793E+002
  0
LINE
  8
1
  6
CONTINUOUS
 62
1
 10
1.7682506E+002
 20
4.8154793E+002
 11
1.7682506E+002
 21
5.063485E+002
  0
LINE
  8
1
  6
CONTINUOUS
 62
1
 10
1.7682506E+002
 20
4.4554793E+002
 11
1.7682506E+002
 21
4.8154793E+002
  0
TEXT
  8
1
  6
CONTINUOUS
 62
1
 10
1.7382306E+002
 20
4.9214851E+002
 40
7.0
  1
20
 41
8.0E-001
 50
9.0E+001
  0
INSERT
  2
_AH13
  8
1
 62
1
 10
1.7682506E+002
 20
4.8154793E+002
 41
8.0
 42
8.0
 43
8.0
 50
4.5E+002
  0
INSERT
  2
_AH13
  8
1
 62
1
 10
1.7682506E+002
 20
4.6154793E+002
 41
8.0
 42
8.0
 43
8.0
 50
6.3E+002
  0
ENDBLK
  0
BLOCK
  2
*D1169
  3
*D
 10
0.0
 20
0.0
 70
65
  0
LINE
  8
1
  6
CONTINUOUS
 62
1
 10
2.6033116E+002
 20
4.8154793E+002
 11
1.4753723E+002
 21
4.8154793E+002
  0
LINE
  8
1
  6
CONTINUOUS
 62
1
 10
2.0708496E+002
 20
3.7979798E+002
 11
1.4753723E+002
 21
3.7979798E+002
  0
LINE
  8
1
  6
CONTINUOUS
 62
1
 10
1.5053723E+002
 20
4.8154793E+002
 11
1.5053723E+002
 21
4.2930097E+002
  0
LINE
  8
1
  6
CONTINUOUS
 62
1
 10
1.5053723E+002
 20
3.7979798E+002
 11
1.5053723E+002
 21
4.2930097E+002
  0
TEXT
  8
1
  6
CONTINUOUS
 62
1
 10
1.4753523E+002
 20
4.2090096E+002
 40
7.0
  1
102
 41
8.0E-001
 50
9.0E+001
  0
INSERT
  2
_AH13
  8
1
 62
1
 10
1.5053723E+002
 20
4.8154793E+002
 41
8.0
 42
8.0
 43
8.0
 50
2.7E+002
  0
INSERT
  2
_AH13
  8
1
 62
1
 10
1.5053723E+002
 20
3.7979798E+002
 41
8.0
 42
8.0
 43
8.0
 50
4.5E+002
  0
ENDBLK
  0
BLOCK
  2
*D1172
  3
*D
 10
0.0
 20
0.0
 70
65
  0
LINE
  8
1
  6
CONTINUOUS
 62
1
 10
4.675417E+002
 20
4.2154796E+002
 11
4.9594951E+002
 21
4.2154796E+002
  0
LINE
  8
1
  6
CONTINUOUS
 62
1
 10
4.675417E+002
 20
4.0254796E+002
 11
4.9594951E+002
 21
4.0254796E+002
  0
LINE
  8
1
  6
CONTINUOUS
 62
1
 10
4.9294951E+002
 20
4.2154796E+002
 11
4.9294951E+002
 21
4.4321324E+002
  0
LINE
  8
1
  6
CONTINUOUS
 62
1
 10
4.9294951E+002
 20
3.8654796E+002
 11
4.9294951E+002
 21
4.2154796E+002
  0
TEXT
  8
1
  6
CONTINUOUS
 62
1
 10
4.8994751E+002
 20
4.2901324E+002
 40
7.0
  1
19
 41
8.0E-001
 50
9.0E+001
  0
INSERT
  2
_AH13
  8
1
 62
1
 10
4.9294951E+002
 20
4.2154796E+002
 41
8.0
 42
8.0
 43
8.0
 50
4.5E+002
  0
INSERT
  2
_AH13
  8
1
 62
1
 10
4.9294951E+002
 20
4.0254796E+002
 41
8.0
 42
8.0
 43
8.0
 50
6.3E+002
  0
ENDBLK
  0
BLOCK
  2
*D1174
  3
*D
 10
0.0
 20
0.0
 70
65
  0
LINE
  8
1
  6
CONTINUOUS
 62
1
 10
7.0033493E+002
 20
4.7154796E+002
 11
7.4245804E+002
 21
4.7154796E+002
  0
LINE
  8
1
  6
CONTINUOUS
 62
1
 10
4.675417E+002
 20
4.2154796E+002
 11
7.4245804E+002
 21
4.2154796E+002
  0
LINE
  8
1
  6
CONTINUOUS
 62
1
 10
7.3945804E+002
 20
4.7154796E+002
 11
7.3945804E+002
 21
4.5350123E+002
  0
LINE
  8
1
  6
CONTINUOUS
 62
1
 10
7.3945804E+002
 20
4.2154796E+002
 11
7.3945804E+002
 21
4.5350123E+002
  0
TEXT
  8
1
  6
CONTINUOUS
 62
1
 10
7.3645604E+002
 20
4.4790123E+002
 40
7.0
  1
50
 41
8.0E-001
 50
9.0E+001
  0
INSERT
  2
_AH13
  8
1
 62
1
 10
7.3945804E+002
 20
4.7154796E+002
 41
8.0
 42
8.0
 43
8.0
 50
2.7E+002
  0
INSERT
  2
_AH13
  8
1
 62
1
 10
7.3945804E+002
 20
4.2154796E+002
 41
8.0
 42
8.0
 43
8.0
 50
4.5E+002
  0
ENDBLK
  0
ENDSEC
  0
SECTION
  2
ENTITIES
  0
INSERT
  2
UU
  8
1
 10
1.6390173E+001
 20
1.802919E+001
 41
2.0
 43
2.0
 42
2.0
 50
2.7E+002
  0
INSERT
  2
Z
  8
1
 10
2.9208496E+002
 20
4.4479798E+002
  0
INSERT
  2
TTZU
  8
1
 10
7.9260575E+001
 20
4.7154796E+002
 41
1.0
 43
1.0
 42
-1.0
 50
1.8E+002
  0
LINE
  8
1
  6
CENTERLINE
 62
1
 10
8.2211381E+001
 20
4.7146638E+002
 11
4.8260575E+001
 21
4.7146638E+002
  0
LINE
  8
1
  6
CONTINUOUS
 62
1
 10
0.0
 20
0.0
 11
8.4E+002
 21
0.0
  0
LINE
  8
1
  6
CONTINUOUS
 62
1
 10
8.4E+002
 20
0.0
 11
8.4E+002
 21
5.94E+002
  0
LINE
  8
1
  6
CONTINUOUS
 62
1
 10
8.4E+002
 20
5.94E+002
 11
0.0
 21
5.94E+002
  0
LINE
  8
1
  6
CONTINUOUS
 62
1
 10
0.0
 20
5.94E+002
 11
0.0
 21
0.0
  0
LINE
  8
1
  6
CONTINUOUS
 62
40
 10
1.0E+001
 20
1.0E+001
 11
8.3E+002
 21
1.0E+001
  0
LINE
  8
1
  6
CONTINUOUS
 62
40
 10
8.3E+002
 20
1.0E+001
 11
8.3E+002
 21
5.84E+002
  0
LINE
  8
1
  6
CONTINUOUS
 62
40
 10
8.3E+002
 20
5.84E+002
 11
1.0E+001
 21
5.84E+002
  0
LINE
  8
1
  6
CONTINUOUS
 62
40
 10
1.0E+001
 20
5.84E+002
 11
1.0E+001
 21
1.0E+001
  0
INSERT
  2
U
  8
1
 10
7.9260575E+001
 20
4.4479798E+002
  0
LINE
  8
1
  6
CONTINUOUS
 62
40
 10
6.5858493E+002
 20
4.6154793E+002
 11
6.5858493E+002
 21
4.5924798E+002
  0
LINE
  8
1
  6
CONTINUOUS
 62
40
 10
6.5858493E+002
 20
4.5924798E+002
 11
6.7558493E+002
 21
4.5924798E+002
  0
LINE
  8
1
  6
CONTINUOUS
 62
40
 10
6.7558493E+002
 20
4.5924798E+002
 11
6.7558493E+002
 21
4.6154793E+002
  0
LINE
  8
1
  6
CONTINUOUS
 62
40
 10
6.7310992E+002
 20
4.5924798E+002
 11
6.7310992E+002
 21
4.5879796E+002
  0
LINE
  8
1
  6
CONTINUOUS
 62
40
 10
6.7310992E+002
 20
4.5879796E+002
 11
6.610599E+002
 21
4.5879796E+002
  0
LINE
  8
1
  6
CONTINUOUS
 62
40
 10
6.610599E+002
 20
4.5879796E+002
 11
6.610599E+002
 21
4.5924798E+002
  0
LINE
  8
1
  6
CONTINUOUS
 62
40
 10
6.6210992E+002
 20
4.5879796E+002
 11
6.6210992E+002
 21
4.5779796E+002
  0
LINE
  8
1
  6
CONTINUOUS
 62
40
 10
6.7205987E+002
 20
4.5879796E+002
 11
6.7205987E+002
 21
4.5779796E+002
  0
LINE
  8
1
  6
CONTINUOUS
 62
40
 10
2.8708495E+002
 20
4.5779796E+002
 11
2.8708495E+002
 21
4.5829796E+002
  0
ARC
  8
1
  6
CONTINUOUS
 62
40
 10
2.8758495E+002
 20
4.5829796E+002
 40
5.0000028E-001
 50
9.0E+001
 51
1.8E+002
  0
LINE
  8
1
  6
CONTINUOUS
 62
40
 10
2.8758495E+002
 20
4.5879796E+002
 11
2.9658495E+002
 21
4.5879796E+002
  0
ARC
  8
1
  6
CONTINUOUS
 62
40
 10
2.9658496E+002
 20
4.5829797E+002
 40
4.9998907E-001
 50
3.5999875E+002
 51
4.5000125E+002
  0
LINE
  8
1
  6
CONTINUOUS
 62
40
 10
2.9708495E+002
 20
4.5829796E+002
 11
2.9708495E+002
 21
4.5779796E+002
  0
LINE
  8
1
  6
CONTINUOUS
 62
40
 10
2.8108496E+002
 20
4.5279796E+002
 11
3.0308496E+002
 21
4.5279796E+002
  0
LINE
  8
1
  6
CONTINUOUS
 62
40
 10
3.0308496E+002
 20
4.5279796E+002
 11
3.0308496E+002
 21
4.4479798E+002
  0
LINE
  8
1
  6
CONTINUOUS
 62
40
 10
6.780849E+002
 20
4.5279796E+002
 11
6.780849E+002
 21
4.5779796E+002
  0
LINE
  8
1
  6
CONTINUOUS
 62
40
 10
2.8108496E+002
 20
4.5779796E+002
 11
6.780849E+002
 21
4.5779796E+002
  0
LINE
  8
1
  6
CONTINUOUS
 62
40
 10
2.8108496E+002
 20
4.4479798E+002
 11
2.8108496E+002
 21
4.5779796E+002
  0
LINE
  8
1
  6
CONTINUOUS
 62
40
 10
2.8108496E+002
 20
4.5279796E+002
 11
6.780849E+002
 21
4.5279796E+002
  0
LINE
  8
1
  6
CONTINUOUS
 62
40
 10
6.6059991E+002
 20
4.5279796E+002
 11
6.6059991E+002
 21
4.5229793E+002
  0
ARC
  8
1
  6
CONTINUOUS
 62
40
 10
6.610999E+002
 20
4.5229793E+002
 40
4.9999411E-001
 50
1.7999933E+002
 51
2.7000067E+002
  0
LINE
  8
1
  6
CONTINUOUS
 62
40
 10
6.6109991E+002
 20
4.5179793E+002
 11
6.7306988E+002
 21
4.5179793E+002
  0
ARC
  8
1
  6
CONTINUOUS
 62
40
 10
6.730699E+002
 20
4.5229791E+002
 40
4.9998037E-001
 50
2.6999775E+002
 51
3.6000225E+002
  0
LINE
  8
1
  6
CONTINUOUS
 62
40
 10
6.7356988E+002
 20
4.5229793E+002
 11
6.7356988E+002
 21
4.5279796E+002
  0
LINE
  8
1
  6
CENTERLINE
 62
1
 10
2.9208496E+002
 20
4.6084408E+002
 11
2.9208496E+002
 21
4.375058E+002
  0
LINE
  8
1
  6
HIDDEN
 62
1
 10
2.7008494E+002
 20
4.7404796E+002
 11
2.7008494E+002
 21
4.6904796E+002
  0
ARC
  8
1
  6
HIDDEN
 62
1
 10
2.6708494E+002
 20
4.6904795E+002
 40
3.0
 50
1.8E+002
 51
3.6000029E+002
  0
LINE
  8
1
  6
HIDDEN
 62
1
 10
2.6408494E+002
 20
4.6904795E+002
 11
2.6408494E+002
 21
4.7404796E+002
  0
ARC
  8
1
  6
HIDDEN
 62
1
 10
2.6708494E+002
 20
4.7404796E+002
 40
3.0
 50
0.0
 51
1.8E+002
  0
LINE
  8
1
  6
CENTERLINE
 62
1
 10
6.9509671E+002
 20
4.7862221E+002
 11
6.9508294E+002
 21
4.6422314E+002
  0
LINE
  8
1
  6
CENTERLINE
 62
1
 10
7.0033493E+002
 20
4.7154796E+002
 11
6.9008493E+002
 21
4.7154796E+002
  0
LINE
  8
1
  6
CENTERLINE
 62
1
 10
2.6708496E+002
 20
4.6438305E+002
 11
2.6708493E+002
 21
4.7854972E+002
  0
LINE
  8
1
  6
HIDDEN
 62
1
 10
6.9808994E+002
 20
4.7404796E+002
 11
6.9808994E+002
 21
4.6904796E+002
  0
ARC
  8
1
  6
HIDDEN
 62
1
 10
6.9508994E+002
 20
4.6904795E+002
 40
3.0
 50
1.8E+002
 51
3.6000029E+002
  0
LINE
  8
1
  6
HIDDEN
 62
1
 10
6.9208994E+002
 20
4.6904795E+002
 11
6.9208994E+002
 21
4.7404796E+002
  0
ARC
  8
1
  6
HIDDEN
 62
1
 10
6.9508994E+002
 20
4.7404796E+002
 40
3.0
 50
0.0
 51
1.8E+002
  0
LINE
  8
1
  6
CENTERLINE
 62
1
 10
2.7208496E+002
 20
4.7154796E+002
 11
2.6183496E+002
 21
4.7154796E+002
  0
ARC
  8
1
  6
CONTINUOUS
 62
40
 10
7.0083875E+002
 20
4.8054794E+002
 40
9.9998906E-001
 50
3.5999937E+002
 51
4.5000063E+002
  0
LINE
  8
1
  6
CONTINUOUS
 62
40
 10
7.0183874E+002
 20
4.8054793E+002
 11
7.0183874E+002
 21
4.6254793E+002
  0
ARC
  8
1
  6
CONTINUOUS
 62
40
 10
7.0083875E+002
 20
4.6254793E+002
 40
9.999935E-001
 50
2.6999963E+002
 51
3.6000037E+002
  0
LINE
  8
1
  6
CONTINUOUS
 62
40
 10
7.0083874E+002
 20
4.6154793E+002
 11
2.6133116E+002
 21
4.6154793E+002
  0
ARC
  8
1
  6
CONTINUOUS
 62
40
 10
2.6133116E+002
 20
4.6254793E+002
 40
1.0000001
 50
1.8E+002
 51
2.7E+002
  0
LINE
  8
1
  6
CONTINUOUS
 62
40
 10
2.6033116E+002
 20
4.6254793E+002
 11
2.6033116E+002
 21
4.8154793E+002
  0
LINE
  8
1
  6
CONTINUOUS
 62
40
 10
2.6033116E+002
 20
4.8154793E+002
 11
7.0083874E+002
 21
4.8154793E+002
  0
LINE
  8
1
  6
CONTINUOUS
 62
40
 10
2.8883496E+002
 20
4.5279798E+002
 11
2.9533495E+002
 21
4.5279798E+002
  0
LINE
  8
1
  6
CENTERLINE
 62
1
 10
6.670849E+002
 20
4.5100536E+002
 11
6.670849E+002
 21
4.6474822E+002
  0
LINE
  8
1
  6
CONTINUOUS
 62
40
 10
2.8618496E+002
 20
4.5279798E+002
 11
2.9798495E+002
 21
4.5279798E+002
  0
LINE
  8
1
  6
CONTINUOUS
 62
40
 10
4.276057E+001
 20
4.4479798E+002
 11
4.276057E+001
 21
4.5779794E+002
  0
LINE
  8
1
  6
CONTINUOUS
 62
40
 10
6.4760574E+001
 20
4.5279794E+002
 11
6.4760574E+001
 21
4.4479798E+002
  0
LINE
  8
1
  6
CONTINUOUS
 62
40
 10
4.276057E+001
 20
4.5779794E+002
 11
7.4760574E+001
 21
4.5779794E+002
  0
LINE
  8
1
  6
CONTINUOUS
 62
40
 10
7.4760574E+001
 20
4.5779794E+002
 11
7.4760574E+001
 21
4.5279793E+002
  0
LINE
  8
1
  6
CONTINUOUS
 62
40
 10
4.276057E+001
 20
4.5279793E+002
 11
7.4760574E+001
 21
4.5279793E+002
  0
LINE
  8
1
  6
CONTINUOUS
 62
40
 10
7.2260509E+001
 20
4.6179798E+002
 11
7.2260509E+001
 21
4.6029793E+002
  0
LINE
  8
1
  6
CONTINUOUS
 62
40
 10
7.2260509E+001
 20
4.6029793E+002
 11
5.5260509E+001
 21
4.6029793E+002
  0
LINE
  8
1
  6
CONTINUOUS
 62
40
 10
5.5260509E+001
 20
4.6029793E+002
 11
5.5260509E+001
 21
4.6179798E+002
  0
LINE
  8
1
  6
CONTINUOUS
 62
40
 10
5.8785533E+001
 20
4.5924799E+002
 11
5.8785533E+001
 21
4.5979793E+002
  0
LINE
  8
1
  6
CONTINUOUS
 62
40
 10
5.8785533E+001
 20
4.6029793E+002
 11
5.8785533E+001
 21
4.5779794E+002
  0
LINE
  8
1
  6
CONTINUOUS
 62
40
 10
6.8735606E+001
 20
4.5924799E+002
 11
6.8735606E+001
 21
4.5979793E+002
  0
LINE
  8
1
  6
CONTINUOUS
 62
40
 10
6.8735622E+001
 20
4.6029793E+002
 11
6.8735542E+001
 21
4.5779794E+002
  0
DIMENSION
  8
1
  6
CONTINUOUS
 62
1
  2
*D1158
  3
DSTYLE3
 10
6.9509664E+002
 20
5.1073494E+002
 11
5.0824822E+002
 21
5.1723654E+002
 70
128
 13
2.6708493E+002
 23
4.7854972E+002
 14
6.9509671E+002
 24
4.7862221E+002
 40
1.0E+001
 50
1.234254E-004
1001
ACAD
1000
DSTYLE
1002
{
1070
173
1070
0
1070
5
1000
_AH13
1002
}
  0
DIMENSION
  8
1
  6
CONTINUOUS
 62
1
  2
*D1159
  3
DSTYLE3
 10
2.0308496E+002
 20
5.4341931E+002
 11
4.8291753E+002
 21
5.4992131E+002
 70
128
 13
7.0183874E+002
 23
4.8054793E+002
 14
2.0308496E+002
 24
4.4479798E+002
 40
1.0E+001
 50
0.0
1001
ACAD
1000
DSTYLE
1002
{
1070
173
1070
0
1070
5
1000
_AH13
1002
}
  0
DIMENSION
  8
1
  6
CONTINUOUS
 62
1
  2
*D1161
  3
DSTYLE4
 10
4.6108496E+002
 20
3.491564E+002
 11
3.4529501E+002
 21
3.556584E+002
 70
128
 13
2.1208496E+002
 23
3.9411237E+002
 14
4.6108496E+002
 24
3.9439269E+002
 40
1.0E+001
 50
0.0
1001
ACAD
1000
DSTYLE
1002
{
1070
173
1070
0
1070
5
1000
_AH13
1002
}
  0
DIMENSION
  8
1
  6
CONTINUOUS
 62
1
  2
*D1162
  3
DSTYLE4
 10
2.0308496E+002
 20
3.3162422E+002
 11
2.5691255E+002
 21
3.3812622E+002
 70
128
 13
2.9208496E+002
 23
4.375058E+002
 14
2.0308496E+002
 24
3.7979798E+002
 40
1.0E+001
 50
0.0
1001
ACAD
1000
DSTYLE
1002
{
1070
173
1070
0
1070
5
1000
_AH13
1002
}
  0
DIMENSION
  8
1
  6
CONTINUOUS
 62
1
  2
*D1164
  3
DSTYLE4
 10
2.0308496E+002
 20
3.1121676E+002
 11
3.3483196E+002
 21
3.1771876E+002
 70
128
 13
4.7008496E+002
 23
3.7979798E+002
 14
2.0308496E+002
 24
3.7979798E+002
 40
1.0E+001
 50
0.0
1001
ACAD
1000
DSTYLE
1002
{
1070
173
1070
0
1070
5
1000
_AH13
1002
}
  0
DIMENSION
  8
1
  6
CONTINUOUS
 62
1
  2
*D1165
  3
DSTYLE4
 10
3.2260575E+001
 20
3.5636054E+002
 11
5.525183E+001
 21
3.6286254E+002
 70
128
 13
7.9260575E+001
 23
3.7979796E+002
 14
3.2260575E+001
 24
3.8279795E+002
 40
1.0E+001
 50
0.0
1001
ACAD
1000
DSTYLE
1002
{
1070
173
1070
0
1070
5
1000
_AH13
1002
}
  0
DIMENSION
  8
1
  6
CONTINUOUS
 62
1
  2
*D1166
  3
DSTYLE4
 10
4.8260574E+001
 20
5.1073361E+002
 11
6.8147705E+001
 21
5.1723561E+002
 70
128
 13
7.9260574E+001
 23
4.8179798E+002
 14
4.8260574E+001
 24
4.7979798E+002
 40
1.0E+001
 50
0.0
1001
ACAD
1000
DSTYLE
1002
{
1070
173
1070
0
1070
5
1000
_AH13
1002
}
  0
DIMENSION
  8
1
  6
CONTINUOUS
 62
1
  2
*D1167
  3
DSTYLE4
 10
1.7682506E+002
 20
3.7979798E+002
 11
1.7032306E+002
 21
4.1293307E+002
 70
128
 13
2.0708496E+002
 23
4.4479798E+002
 14
2.0708496E+002
 24
3.7979798E+002
 40
1.0E+001
 50
9.0E+001
1001
ACAD
1000
DSTYLE
1002
{
1070
173
1070
0
1070
5
1000
_AH13
1002
}
  0
DIMENSION
  8
1
  6
CONTINUOUS
 62
1
  2
*D1168
  3
DSTYLE4
 10
1.7682506E+002
 20
4.6154793E+002
 11
1.7032306E+002
 21
4.9774851E+002
 70
128
 13
2.6033116E+002
 23
4.8154793E+002
 14
2.6133116E+002
 24
4.6154793E+002
 40
1.0E+001
 50
9.0E+001
1001
ACAD
1000
DSTYLE
1002
{
1070
173
1070
0
1070
5
1000
_AH13
1002
}
  0
DIMENSION
  8
1
  6
CONTINUOUS
 62
1
  2
*D1169
  3
DSTYLE3
 10
1.5053723E+002
 20
3.7979798E+002
 11
1.4403523E+002
 21
4.2930097E+002
 70
128
 13
2.6033116E+002
 23
4.8154793E+002
 14
2.0708496E+002
 24
3.7979798E+002
 40
1.0E+001
 50
9.0E+001
1001
ACAD
1000
DSTYLE
1002
{
1070
173
1070
0
1070
5
1000
_AH13
1002
}
  0
DIMENSION
  8
1
  6
CONTINUOUS
 62
1
  2
*D1172
  3
DSTYLE4
 10
4.9294951E+002
 20
4.0254796E+002
 11
4.8644751E+002
 21
4.3461324E+002
 70
128
 13
4.675417E+002
 23
4.2154796E+002
 14
4.675417E+002
 24
4.0254796E+002
 40
1.0E+001
 50
9.0E+001
1001
ACAD
1000
DSTYLE
1002
{
1070
173
1070
0
1070
5
1000
_AH13
1002
}
  0
DIMENSION
  8
1
  6
CONTINUOUS
 62
1
  2
*D1174
  3
DSTYLE4
 10
7.3945804E+002
 20
4.2154796E+002
 11
7.3295604E+002
 21
4.5350123E+002
 70
128
 13
7.0033493E+002
 23
4.7154796E+002
 14
4.675417E+002
 24
4.2154796E+002
 40
1.0E+001
 50
9.0E+001
1001
ACAD
1000
DSTYLE
1002
{
1070
173
1070
0
1070
5
1000
_AH13
1002
}
  0
LINE
  8
1
  6
CONTINUOUS
 62
3
 10
5.8541909E+002
 20
6.7863295E+001
 11
5.8541909E+002
 21
1.034765E+002
  0
LINE
  8
1
  6
CONTINUOUS
 62
3
 10
5.8541909E+002
 20
1.034765E+002
 11
8.1213309E+002
 21
1.034765E+002
  0
LINE
  8
1
  6
CONTINUOUS
 62
3
 10
8.1213309E+002
 20
1.034765E+002
 11
8.1213309E+002
 21
6.7863295E+001
  0
TEXT
  8
1
  6
CONTINUOUS
 62
150
 10
6.3146055E+002
 20
7.9091641E+001
 40
7.0
  1
Benennung
 41
6.5000002E-001
 72
1
 11
6.1098555E+002
 21
7.5591641E+001
 73
2
  0
TEXT
  8
1
  6
CONTINUOUS
 62
40
 10
6.0648273E+002
 20
8.6754489E+001
 40
1.0E+001
  1
Ansicht TS 91 EN 3
 41
6.6176471E-001
  0
LINE
  8
1
  6
CONTINUOUS
 62
3
 10
5.8541909E+002
 20
6.7863295E+001
 11
8.1213309E+002
 21
6.7863295E+001
  0
VIEWPORT
 67
1
  8
0
  6
CONTINUOUS
 62
3
100
AcDbViewport
 10
2.1E+002
 20
1.485E+002
 30
0.0
 40
2.97E+002
 41
2.97E+002
 68
1
 69
1
1001
ACAD
1000
MVIEW
1002
{
1070
16
1010
0.0
1020
0.0
1030
0.0
1010
0.0
1020
0.0
1030
1.0
1040
0.0
1040
2.97E+002
1040
1.155E+002
1040
1.485E+002
1040
5.0E+001
1040
0.0
1040
0.0
1070
0
1070
100
1070
1
1070
0
1070
0
1070
0
1070
0
1070
0
1040
0.0
1040
0.0
1040
0.0
1040
5.0E-001
1040
5.0E-001
1040
5.0E-001
1040
5.0E-001
1070
0
1002
{
1002
}
1002
}
  0
VIEWPORT
 67
1
  8
0
  6
CONTINUOUS
 62
3
100
AcDbViewport
 10
2.1E+002
 20
1.485E+002
 30
0.0
 40
4.2E+002
 41
2.97E+002
 68
2
 69
2
1001
ACAD
1000
MVIEW
1002
{
1070
16
1010
0.0
1020
0.0
1030
0.0
1010
0.0
1020
0.0
1030
1.0
1040
0.0
1040
5.94E+002
1040
4.2E+002
1040
2.97E+002
1040
5.0E+001
1040
0.0
1040
0.0
1070
0
1070
100
1070
1
1070
0
1070
0
1070
0
1070
0
1070
0
1040
0.0
1040
0.0
1040
0.0
1040
5.0E-001
1040
5.0E-001
1040
5.0E-001
1040
5.0E-001
1070
0
1002
{
1002
}
1002
}
  0
ENDSEC
  0
EOF
