  0
SECTION
  2
HEADER
  9
$ACADVER
  1
AC1018
  9
$ACADMAINTVER
 70
   104
  9
$DWGCODEPAGE
  3
ANSI_1252
  9
$LASTSAVEDBY
  1
wenzelth
  9
$INSBASE
 10
0.0
 20
0.0
 30
0.0
  9
$EXTMIN
 10
2026.014329864022
 20
-1621.846462250839
 30
-0.0015258207003583
  9
$EXTMAX
 10
2707.714973939319
 20
-946.4951696322101
 30
0.0000000349246037
  9
$LIMMIN
 10
0.0
 20
0.0
  9
$LIMMAX
 10
12.0
 20
9.0
  9
$ORTHOMODE
 70
     0
  9
$REGENMODE
 70
     1
  9
$FILLMODE
 70
     1
  9
$QTEXTMODE
 70
     0
  9
$MIRRTEXT
 70
     1
  9
$LTSCALE
 40
1.0
  9
$ATTMODE
 70
     1
  9
$TEXTSIZE
 40
1.0
  9
$TRACEWID
 40
0.05
  9
$TEXTSTYLE
  7
STANDARD
  9
$CLAYER
  8
01_ZRAHMEN
  9
$CELTYPE
  6
BYLAYER
  9
$CECOLOR
 62
   256
  9
$CELTSCALE
 40
1.0
  9
$DISPSILH
 70
     0
  9
$DIMSCALE
 40
1.0
  9
$DIMASZ
 40
3.5
  9
$DIMEXO
 40
1.0
  9
$DIMDLI
 40
0.3
  9
$DIMRND
 40
0.0
  9
$DIMDLE
 40
0.0
  9
$DIMEXE
 40
1.0
  9
$DIMTP
 40
0.1
  9
$DIMTM
 40
0.1
  9
$DIMTXT
 40
4.0
  9
$DIMCEN
 40
0.09
  9
$DIMTSZ
 40
0.0
  9
$DIMTOL
 70
     0
  9
$DIMLIM
 70
     0
  9
$DIMTIH
 70
     0
  9
$DIMTOH
 70
     0
  9
$DIMSE1
 70
     0
  9
$DIMSE2
 70
     0
  9
$DIMTAD
 70
     1
  9
$DIMZIN
 70
     9
  9
$DIMBLK
  1

  9
$DIMASO
 70
     1
  9
$DIMSHO
 70
     1
  9
$DIMPOST
  1

  9
$DIMAPOST
  1

  9
$DIMALT
 70
     0
  9
$DIMALTD
 70
     2
  9
$DIMALTF
 40
1.0
  9
$DIMLFAC
 40
1.0
  9
$DIMTOFL
 70
     1
  9
$DIMTVP
 40
0.0
  9
$DIMTIX
 70
     0
  9
$DIMSOXD
 70
     0
  9
$DIMSAH
 70
     0
  9
$DIMBLK1
  1

  9
$DIMBLK2
  1

  9
$DIMSTYLE
  2
DORMA
  9
$DIMCLRD
 70
     4
  9
$DIMCLRE
 70
     4
  9
$DIMCLRT
 70
     4
  9
$DIMTFAC
 40
1.0
  9
$DIMGAP
 40
1.5
  9
$DIMJUST
 70
     0
  9
$DIMSD1
 70
     0
  9
$DIMSD2
 70
     0
  9
$DIMTOLJ
 70
     1
  9
$DIMTZIN
 70
     0
  9
$DIMALTZ
 70
     0
  9
$DIMALTTZ
 70
     0
  9
$DIMUPT
 70
     1
  9
$DIMDEC
 70
     2
  9
$DIMTDEC
 70
     2
  9
$DIMALTU
 70
     2
  9
$DIMALTTD
 70
     2
  9
$DIMTXSTY
  7
STANDARD
  9
$DIMAUNIT
 70
     0
  9
$DIMADEC
 70
     0
  9
$DIMALTRND
 40
0.0
  9
$DIMAZIN
 70
     0
  9
$DIMDSEP
 70
    46
  9
$DIMATFIT
 70
     3
  9
$DIMFRAC
 70
     0
  9
$DIMLDRBLK
  1

  9
$DIMLUNIT
 70
     2
  9
$DIMLWD
 70
    -2
  9
$DIMLWE
 70
    -2
  9
$DIMTMOVE
 70
     0
  9
$LUNITS
 70
     2
  9
$LUPREC
 70
     3
  9
$SKETCHINC
 40
0.1
  9
$FILLETRAD
 40
0.0
  9
$AUNITS
 70
     0
  9
$AUPREC
 70
     1
  9
$MENU
  1
.
  9
$ELEVATION
 40
0.0
  9
$PELEVATION
 40
0.0
  9
$THICKNESS
 40
0.0
  9
$LIMCHECK
 70
     0
  9
$CHAMFERA
 40
10.0
  9
$CHAMFERB
 40
10.0
  9
$CHAMFERC
 40
0.0
  9
$CHAMFERD
 40
0.0
  9
$SKPOLY
 70
     0
  9
$TDCREATE
 40
2452617.507230753
  9
$TDUCREATE
 40
2452617.465564086
  9
$TDUPDATE
 40
2456300.418401331
  9
$TDUUPDATE
 40
2456300.376734664
  9
$TDINDWG
 40
3.3332919560
  9
$TDUSRTIMER
 40
3.3332919560
  9
$USRTIMER
 70
     1
  9
$ANGBASE
 50
0.0
  9
$ANGDIR
 70
     0
  9
$PDMODE
 70
    35
  9
$PDSIZE
 40
3.0
  9
$PLINEWID
 40
0.0
  9
$SPLFRAME
 70
     0
  9
$SPLINETYPE
 70
     6
  9
$SPLINESEGS
 70
     8
  9
$HANDSEED
  5
4222D
  9
$SURFTAB1
 70
     6
  9
$SURFTAB2
 70
     6
  9
$SURFTYPE
 70
     6
  9
$SURFU
 70
     6
  9
$SURFV
 70
     6
  9
$UCSBASE
  2

  9
$UCSNAME
  2

  9
$UCSORG
 10
0.0
 20
0.0
 30
0.0
  9
$UCSXDIR
 10
1.0
 20
0.0
 30
0.0
  9
$UCSYDIR
 10
0.0
 20
1.0
 30
0.0
  9
$UCSORTHOREF
  2

  9
$UCSORTHOVIEW
 70
     0
  9
$UCSORGTOP
 10
0.0
 20
0.0
 30
0.0
  9
$UCSORGBOTTOM
 10
0.0
 20
0.0
 30
0.0
  9
$UCSORGLEFT
 10
0.0
 20
0.0
 30
0.0
  9
$UCSORGRIGHT
 10
0.0
 20
0.0
 30
0.0
  9
$UCSORGFRONT
 10
0.0
 20
0.0
 30
0.0
  9
$UCSORGBACK
 10
0.0
 20
0.0
 30
0.0
  9
$PUCSBASE
  2

  9
$PUCSNAME
  2

  9
$PUCSORG
 10
0.0
 20
0.0
 30
0.0
  9
$PUCSXDIR
 10
1.0
 20
0.0
 30
0.0
  9
$PUCSYDIR
 10
0.0
 20
1.0
 30
0.0
  9
$PUCSORTHOREF
  2

  9
$PUCSORTHOVIEW
 70
     0
  9
$PUCSORGTOP
 10
0.0
 20
0.0
 30
0.0
  9
$PUCSORGBOTTOM
 10
0.0
 20
0.0
 30
0.0
  9
$PUCSORGLEFT
 10
0.0
 20
0.0
 30
0.0
  9
$PUCSORGRIGHT
 10
0.0
 20
0.0
 30
0.0
  9
$PUCSORGFRONT
 10
0.0
 20
0.0
 30
0.0
  9
$PUCSORGBACK
 10
0.0
 20
0.0
 30
0.0
  9
$USERI1
 70
     0
  9
$USERI2
 70
     0
  9
$USERI3
 70
     0
  9
$USERI4
 70
     0
  9
$USERI5
 70
     0
  9
$USERR1
 40
0.0
  9
$USERR2
 40
0.0
  9
$USERR3
 40
0.0
  9
$USERR4
 40
0.0
  9
$USERR5
 40
0.0
  9
$WORLDVIEW
 70
     1
  9
$SHADEDGE
 70
     3
  9
$SHADEDIF
 70
    70
  9
$TILEMODE
 70
     1
  9
$MAXACTVP
 70
    48
  9
$PINSBASE
 10
0.0
 20
0.0
 30
0.0
  9
$PLIMCHECK
 70
     0
  9
$PEXTMIN
 10
117.4
 20
80.10000000000003
 30
0.0
  9
$PEXTMAX
 10
1056.599999999999
 20
720.8999999999998
 30
0.0
  9
$PLIMMIN
 10
-7.5
 20
-20.0
  9
$PLIMMAX
 10
1181.499999999999
 20
821.0
  9
$UNITMODE
 70
     0
  9
$VISRETAIN
 70
     1
  9
$PLINEGEN
 70
     0
  9
$PSLTSCALE
 70
     1
  9
$TREEDEPTH
 70
  3020
  9
$CMLSTYLE
  2
STANDARD
  9
$CMLJUST
 70
     0
  9
$CMLSCALE
 40
1.0
  9
$PROXYGRAPHICS
 70
     1
  9
$MEASUREMENT
 70
     0
  9
$CELWEIGHT
370
    -1
  9
$ENDCAPS
280
     0
  9
$JOINSTYLE
280
     0
  9
$LWDISPLAY
290
     0
  9
$INSUNITS
 70
     0
  9
$HYPERLINKBASE
  1

  9
$STYLESHEET
  1
Haarlinie.ctb
  9
$XEDIT
290
     1
  9
$CEPSNTYPE
380
     0
  9
$PSTYLEMODE
290
     1
  9
$FINGERPRINTGUID
  2
{E302CF78-11BB-492E-A747-0E6427FBB7A6}
  9
$VERSIONGUID
  2
{425CF112-D81E-4CC3-9FFD-C51EFE0C50DB}
  9
$EXTNAMES
290
     1
  9
$PSVPSCALE
 40
0.0
  9
$OLESTARTUP
290
     0
  9
$SORTENTS
280
   127
  9
$INDEXCTL
280
     0
  9
$HIDETEXT
280
     0
  9
$XCLIPFRAME
290
     0
  9
$HALOGAP
280
     0
  9
$OBSCOLOR
 70
   257
  9
$OBSLTYPE
280
     0
  9
$INTERSECTIONDISPLAY
280
     0
  9
$INTERSECTIONCOLOR
 70
   257
  9
$DIMASSOC
280
     1
  9
$PROJECTNAME
  1

  0
ENDSEC
  0
SECTION
  2
CLASSES
  0
CLASS
  1
ACDBDICTIONARYWDFLT
  2
AcDbDictionaryWithDefault
  3
ObjectDBX Classes
 90
        0
 91
        1
280
     0
281
     0
  0
CLASS
  1
DICTIONARYVAR
  2
AcDbDictionaryVar
  3
ObjectDBX Classes
 90
        0
 91
        6
280
     0
281
     0
  0
CLASS
  1
PLOTSETTINGS
  2
AcDbPlotSettings
  3
ObjectDBX Classes
 90
        0
 91
        1
280
     0
281
     0
  0
CLASS
  1
MATERIAL
  2
AcDbMaterial
  3
ObjectDBX Classes
 90
     1153
 91
        3
280
     0
281
     0
  0
CLASS
  1
VISUALSTYLE
  2
AcDbVisualStyle
  3
ObjectDBX Classes
 90
     4095
 91
       19
280
     0
281
     0
  0
CLASS
  1
TABLESTYLE
  2
AcDbTableStyle
  3
ObjectDBX Classes
 90
     4095
 91
        1
280
     0
281
     0
  0
CLASS
  1
SORTENTSTABLE
  2
AcDbSortentsTable
  3
ObjectDBX Classes
 90
        0
 91
        1
280
     0
281
     0
  0
CLASS
  1
SCALE
  2
AcDbScale
  3
ObjectDBX Classes
 90
     1153
 91
       33
280
     0
281
     0
  0
CLASS
  1
MLEADERSTYLE
  2
AcDbMLeaderStyle
  3
ACDB_MLEADERSTYLE_CLASS
 90
     4095
 91
        1
280
     0
281
     0
  0
CLASS
  1
CELLSTYLEMAP
  2
AcDbCellStyleMap
  3
ObjectDBX Classes
 90
     1152
 91
        3
280
     0
281
     0
  0
CLASS
  1
MULTILEADER
  2
AcDbMLeader
  3
ACDB_MLEADER_CLASS
 90
     1025
 91
        0
280
     0
281
     1
  0
CLASS
  1
BREAKDATA
  2
AcDbBreakData
  3
ObjectDBX Classes
 90
     1024
 91
        0
280
     0
281
     0
  0
CLASS
  1
AEC_REFEDIT_STATUS_TRACKER
  2
AecDbRefEditStatusTracker
  3
AecArchBase60|Product Desc: Autodesk Architectural Desktop 2007 |Company: Autodesk,Inc. |WEB Address: www.autodesk.com
 90
      129
 91
        0
280
     0
281
     0
  0
CLASS
  1
NPOCOLLECTION
  2
AcDbImpNonPersistentObjectsCollection
  3
ObjectDBX Classes
 90
     1153
 91
        0
280
     0
281
     0
  0
CLASS
  1
ACAD_EVALUATION_GRAPH
  2
AcDbEvalGraph
  3
ObjectDBX Classes
 90
     1153
 91
        0
280
     0
281
     0
  0
CLASS
  1
ACAECUSTOBJ
  2
AcAeEditorObj
  3
AcAeEditorObj
 90
     1024
 91
        0
280
     0
281
     0
  0
CLASS
  1
BLOCKPROPERTIESTABLE
  2
AcDbBlockPropertiesTable
  3
ObjectDBX Classes
 90
     1153
 91
        0
280
     0
281
     0
  0
CLASS
  1
BLOCKLOOKUPPARAMETER
  2
AcDbBlockLookupParameter
  3
ObjectDBX Classes
 90
     1153
 91
        0
280
     0
281
     0
  0
CLASS
  1
BLOCKVISIBILITYPARAMETER
  2
AcDbBlockVisibilityParameter
  3
ObjectDBX Classes
 90
     1153
 91
        0
280
     0
281
     0
  0
CLASS
  1
ACDB_DYNAMICBLOCKPURGEPREVENTER_VERSION
  2
AcDbDynamicBlockPurgePreventer
  3
ObjectDBX Classes
 90
     1153
 91
        0
280
     0
281
     0
  0
ENDSEC
  0
SECTION
  2
TABLES
  0
TABLE
  2
VPORT
  5
8
102
{ACAD_XDICTIONARY
360
2E1FE
102
}
330
0
100
AcDbSymbolTable
 70
     1
  0
VPORT
  5
2E15E
330
8
100
AcDbSymbolTableRecord
100
AcDbViewportTableRecord
  2
*Active
 70
     0
 10
0.0
 20
0.0
 11
1.0
 21
1.0
 12
2366.86465190167
 22
-1284.170815941525
 13
0.0
 23
0.0
 14
1.0
 24
1.0
 15
0.0
 25
0.0
 16
0.0
 26
0.0
 36
1.0
 17
0.0
 27
0.0
 37
0.0
 40
680.3849668493272
 41
2.3818407960199
 42
50.0
 43
0.0
 44
0.0
 50
0.0
 51
0.0
 71
     0
 72
   100
 73
     1
 74
     1
 75
     0
 76
     0
 77
     0
 78
     0
281
     0
 65
     1
110
0.0
120
0.0
130
0.0
111
1.0
121
0.0
131
0.0
112
0.0
122
1.0
132
0.0
 79
     0
146
0.0
  0
ENDTAB
  0
TABLE
  2
LTYPE
  5
5
330
0
100
AcDbSymbolTable
 70
     2
  0
LTYPE
  5
13
330
5
100
AcDbSymbolTableRecord
100
AcDbLinetypeTableRecord
  2
BYBLOCK
 70
     0
  3

 72
    65
 73
     0
 40
0.0
  0
LTYPE
  5
14
330
5
100
AcDbSymbolTableRecord
100
AcDbLinetypeTableRecord
  2
BYLAYER
 70
     0
  3

 72
    65
 73
     0
 40
0.0
  0
LTYPE
  5
15
330
5
100
AcDbSymbolTableRecord
100
AcDbLinetypeTableRecord
  2
CONTINUOUS
 70
     0
  3
Solid line
 72
    65
 73
     0
 40
0.0
  0
LTYPE
  5
1E7BB
330
5
100
AcDbSymbolTableRecord
100
AcDbLinetypeTableRecord
  2
MITTEX2
 70
     0
  3
Mitte (2x) ________  __  ________  __  _____
 72
    65
 73
     4
 40
4.0
 49
2.5
 74
     0
 49
-0.5
 74
     0
 49
0.5
 74
     0
 49
-0.5
 74
     0
  0
ENDTAB
  0
TABLE
  2
LAYER
  5
2
102
{ACAD_XDICTIONARY
360
30C4D
102
}
330
0
100
AcDbSymbolTable
 70
    13
  0
LAYER
  5
10
102
{ACAD_XDICTIONARY
360
2F0A4
102
}
330
2
100
AcDbSymbolTableRecord
100
AcDbLayerTableRecord
  2
0
 70
     0
 62
     7
  6
CONTINUOUS
370
    -3
390
2E075
  0
LAYER
  5
1E7BE
102
{ACAD_XDICTIONARY
360
2F0A6
102
}
330
2
100
AcDbSymbolTableRecord
100
AcDbLayerTableRecord
  2
03_MITTELLINIE
 70
     0
 62
     1
  6
MITTEX2
370
    -3
390
2E075
  0
LAYER
  5
1E7C0
102
{ACAD_XDICTIONARY
360
2F0AA
102
}
330
2
100
AcDbSymbolTableRecord
100
AcDbLayerTableRecord
  2
05_SCHRAFFUR
 70
     0
 62
     1
  6
CONTINUOUS
370
    -3
390
2E075
  0
LAYER
  5
1E7C1
102
{ACAD_XDICTIONARY
360
2F0AC
102
}
330
2
100
AcDbSymbolTableRecord
100
AcDbLayerTableRecord
  2
02_BEMASSUNG
 70
     0
 62
     4
  6
CONTINUOUS
370
    -3
390
2E075
  0
LAYER
  5
1E7C4
102
{ACAD_XDICTIONARY
360
2F0B0
102
}
330
2
100
AcDbSymbolTableRecord
100
AcDbLayerTableRecord
  2
01_ZRAHMEN
 70
     0
 62
     7
  6
CONTINUOUS
370
    -3
390
2E075
  0
LAYER
  5
1E860
330
2
100
AcDbSymbolTableRecord
100
AcDbLayerTableRecord
  2
DEFPOINTS
 70
     0
 62
     7
  6
CONTINUOUS
290
     0
370
    -3
390
2E075
  0
LAYER
  5
1E9D6
102
{ACAD_XDICTIONARY
360
2F0B2
102
}
330
2
100
AcDbSymbolTableRecord
100
AcDbLayerTableRecord
  2
09_BAU
 70
     0
 62
     7
  6
CONTINUOUS
370
    -3
390
2E075
  0
LAYER
  5
1F292
102
{ACAD_XDICTIONARY
360
2F0B4
102
}
330
2
100
AcDbSymbolTableRecord
100
AcDbLayerTableRecord
  2
11_GLAS
 70
     0
 62
     7
  6
CONTINUOUS
370
    -3
390
2E075
  0
LAYER
  5
2A185
102
{ACAD_XDICTIONARY
360
2F0EE
102
}
330
2
100
AcDbSymbolTableRecord
100
AcDbLayerTableRecord
  2
06_BESCHRIFTUNG
 70
     0
 62
     2
  6
CONTINUOUS
370
    -3
390
2E075
  0
LAYER
  5
30C46
330
2
100
AcDbSymbolTableRecord
100
AcDbLayerTableRecord
  2
325415_Anschlagprofil
 70
     0
 62
     3
  6
CONTINUOUS
370
    -3
390
2E075
  0
LAYER
  5
30F9D
330
2
100
AcDbSymbolTableRecord
100
AcDbLayerTableRecord
  2
AluVierkantrohr_60x40x2
 70
     0
 62
     3
  6
CONTINUOUS
370
    -3
390
2E075
  0
LAYER
  5
3B4B7
102
{ACAD_XDICTIONARY
360
3B4B8
102
}
330
2
100
AcDbSymbolTableRecord
100
AcDbLayerTableRecord
  2
04_Beschriftung_Tabelle
 70
     0
 62
     2
  6
CONTINUOUS
370
    15
390
2E075
  0
LAYER
  5
4135F
102
{ACAD_XDICTIONARY
360
41360
102
}
330
2
100
AcDbSymbolTableRecord
100
AcDbLayerTableRecord
  2
AluVierkantrohr_60x20x2
 70
     0
 62
     3
  6
CONTINUOUS
370
    -3
390
2E075
  0
ENDTAB
  0
TABLE
  2
STYLE
  5
3
330
0
100
AcDbSymbolTable
 70
     1
  0
STYLE
  5
11
330
3
100
AcDbSymbolTableRecord
100
AcDbTextStyleTableRecord
  2
STANDARD
 70
     0
 40
0.0
 41
0.8
 50
0.0
 71
     0
 42
1.0
  3
txt.shx
  4

  0
ENDTAB
  0
TABLE
  2
VIEW
  5
6
330
0
100
AcDbSymbolTable
 70
     1
  0
ENDTAB
  0
TABLE
  2
UCS
  5
7
330
0
100
AcDbSymbolTable
 70
     0
  0
ENDTAB
  0
TABLE
  2
APPID
  5
9
330
0
100
AcDbSymbolTable
 70
    18
  0
APPID
  5
12
330
9
100
AcDbSymbolTableRecord
100
AcDbRegAppTableRecord
  2
ACAD
 70
     0
  0
APPID
  5
1EC68
330
9
100
AcDbSymbolTableRecord
100
AcDbRegAppTableRecord
  2
CONTENTBLOCKICON
 70
     0
  0
APPID
  5
2EC5E
330
9
100
AcDbSymbolTableRecord
100
AcDbRegAppTableRecord
  2
ACAD_PSEXT
 70
     0
  0
APPID
  5
2EFB8
330
9
100
AcDbSymbolTableRecord
100
AcDbRegAppTableRecord
  2
ACAD_EXEMPT_FROM_CAD_STANDARDS
 70
     0
  0
APPID
  5
2F031
330
9
100
AcDbSymbolTableRecord
100
AcDbRegAppTableRecord
  2
ACAD_MLEADERVER
 70
     0
  0
APPID
  5
30C48
330
9
100
AcDbSymbolTableRecord
100
AcDbRegAppTableRecord
  2
GENIUS_GENODEF_13
 70
     0
  0
APPID
  5
30C49
330
9
100
AcDbSymbolTableRecord
100
AcDbRegAppTableRecord
  2
ACAD_DSTYLE_DIMJOGGED_JOGANGLE_SYMBOL
 70
     0
  0
APPID
  5
30C4A
330
9
100
AcDbSymbolTableRecord
100
AcDbRegAppTableRecord
  2
GENIUS_GENOBJ-N-HTC_13
 70
     0
  0
APPID
  5
30C4B
330
9
100
AcDbSymbolTableRecord
100
AcDbRegAppTableRecord
  2
GENIUS_GENHATCH_13
 70
     0
  0
APPID
  5
30C4C
330
9
100
AcDbSymbolTableRecord
100
AcDbRegAppTableRecord
  2
AcAecLayerStandard
 70
     0
  0
APPID
  5
38627
330
9
100
AcDbSymbolTableRecord
100
AcDbRegAppTableRecord
  2
ACAUTHENVIRON
 70
     0
  0
APPID
  5
3AA33
330
9
100
AcDbSymbolTableRecord
100
AcDbRegAppTableRecord
  2
AcadBPTGraphNodeId
 70
     0
  0
APPID
  5
3AA36
330
9
100
AcDbSymbolTableRecord
100
AcDbRegAppTableRecord
  2
AcDbDynamicBlockTrueName
 70
     0
  0
APPID
  5
3AA37
330
9
100
AcDbSymbolTableRecord
100
AcDbRegAppTableRecord
  2
AcDbDynamicBlockGUID
 70
     0
  0
APPID
  5
3B4BA
330
9
100
AcDbSymbolTableRecord
100
AcDbRegAppTableRecord
  2
ACAD_DSTYLE_DIMJAG
 70
     0
  0
APPID
  5
3B4BB
330
9
100
AcDbSymbolTableRecord
100
AcDbRegAppTableRecord
  2
ACAD_DSTYLE_DIMTALN
 70
     0
  0
APPID
  5
3B90D
330
9
100
AcDbSymbolTableRecord
100
AcDbRegAppTableRecord
  2
ACAD_DSTYLE_DIMRADIAL_EXTENSION
 70
     0
  0
APPID
  5
3B97D
330
9
100
AcDbSymbolTableRecord
100
AcDbRegAppTableRecord
  2
AcadAnnoPO
 70
     0
  0
ENDTAB
  0
TABLE
  2
DIMSTYLE
  5
A
330
0
100
AcDbSymbolTable
 70
     2
100
AcDbDimStyleTable
 71
     1
340
1E7C6
  0
DIMSTYLE
105
1E7C5
330
A
100
AcDbSymbolTableRecord
100
AcDbDimStyleTableRecord
  2
STANDARD
 70
     0
340
11
  0
DIMSTYLE
105
1E7C6
102
{ACAD_REACTORS
330
416D9
330
416DA
330
416DB
330
41C8A
330
41C8B
330
41CB3
330
4211F
330
42120
330
42121
102
}
330
A
100
AcDbSymbolTableRecord
100
AcDbDimStyleTableRecord
  2
DORMA
 70
     0
 41
3.5
 42
1.0
 43
0.3
 44
1.0
 47
0.1
 48
0.1
 73
     0
 74
     0
 77
     1
 78
     9
140
4.0
143
1.0
147
1.5
172
     1
176
     4
177
     4
178
     4
271
     2
272
     2
288
     1
340
11
  0
ENDTAB
  0
TABLE
  2
BLOCK_RECORD
  5
1
330
0
100
AcDbSymbolTable
 70
    18
  0
BLOCK_RECORD
  5
1E
102
{ACAD_XDICTIONARY
360
1EC0A
102
}
330
1
100
AcDbSymbolTableRecord
100
AcDbBlockTableRecord
  2
*MODEL_SPACE
340
2E076
  0
BLOCK_RECORD
  5
28F30
102
{ACAD_XDICTIONARY
360
290AB
102
}
330
1
100
AcDbSymbolTableRecord
100
AcDbBlockTableRecord
  2
*PAPER_SPACE
340
2E077
  0
BLOCK_RECORD
  5
3B56E
330
1
100
AcDbSymbolTableRecord
100
AcDbBlockTableRecord
  2
DORMA
340
0
310
2800000020000000200000000100080000000000000400000000000000000000000000000000000000000000000080000080000000808000800000008000800080800000C0C0C000C0DCC000F0CAA6000020400000206000002080000020A0000020C0000020E00000400000004020000040400000406000004080000040A0
310
000040C0000040E00000600000006020000060400000606000006080000060A0000060C0000060E00000800000008020000080400000806000008080000080A0000080C0000080E00000A0000000A0200000A0400000A0600000A0800000A0A00000A0C00000A0E00000C0000000C0200000C0400000C0600000C0800000C0
310
A00000C0C00000C0E00000E0000000E0200000E0400000E0600000E0800000E0A00000E0C00000E0E00040000000400020004000400040006000400080004000A0004000C0004000E00040200000402020004020400040206000402080004020A0004020C0004020E000404000004040200040404000404060004040800040
310
40A0004040C0004040E00040600000406020004060400040606000406080004060A0004060C0004060E00040800000408020004080400040806000408080004080A0004080C0004080E00040A0000040A0200040A0400040A0600040A0800040A0A00040A0C00040A0E00040C0000040C0200040C0400040C0600040C08000
310
40C0A00040C0C00040C0E00040E0000040E0200040E0400040E0600040E0800040E0A00040E0C00040E0E00080000000800020008000400080006000800080008000A0008000C0008000E00080200000802020008020400080206000802080008020A0008020C0008020E00080400000804020008040400080406000804080
310
008040A0008040C0008040E00080600000806020008060400080606000806080008060A0008060C0008060E00080800000808020008080400080806000808080008080A0008080C0008080E00080A0000080A0200080A0400080A0600080A0800080A0A00080A0C00080A0E00080C0000080C0200080C0400080C0600080C0
310
800080C0A00080C0C00080C0E00080E0000080E0200080E0400080E0600080E0800080E0A00080E0C00080E0E000C0000000C0002000C0004000C0006000C0008000C000A000C000C000C000E000C0200000C0202000C0204000C0206000C0208000C020A000C020C000C020E000C0400000C0402000C0404000C0406000C0
310
408000C040A000C040C000C040E000C0600000C0602000C0604000C0606000C0608000C060A000C060C000C060E000C0800000C0802000C0804000C0806000C0808000C080A000C080C000C080E000C0A00000C0A02000C0A04000C0A06000C0A08000C0A0A000C0A0C000C0A0E000C0C00000C0C02000C0C04000C0C06000
310
C0C08000C0C0A000F0FBFF00A4A0A000808080000000FF0000FF000000FFFF00FF000000FF00FF00FFFF0000FFFFFF0000000000000000000000000000000000000000000000000000000000000000000000000000000000000000000000000000000000000000000000000000000000000000000000000000000000000000
310
00000000000000000000000000000000000000000000000000000000000000000000000000000000000000000000000000000000000000000000000000000000000000000000000000000000000000000000000000000000000000000000000000000000000000000000000000000000000000000000000000000000000000
310
000000000000000000000000000000000000000000000000000000000000000000000000000000000000000000000000000000000000FBFBFBFB0000FBFB00FBFB00FBFBFBFBFBFBFBFBFBFB00FBFB00000000000000FBFBFBFBFBFBFBFBFBFBFB00FBFBFBFBFBFBFBFBFBFBFBFBFB00000000000000FBFBFB00FB00FBFBFB
310
FBFBFBFB00FBFBFBFBFBFBFB00FBFBFB00000000000000FBFBFB00FB00FBFBFBFBFBFB00FBFBFBFBFBFBFB00FBFBFB0000000000000000FBFBFB00FBFBFBFBFBFBFBFB00FBFBFBFBFBFBFB00FBFBFB0000000000000000FBFBFBFB00FBFBFBFBFBFBFBFBFBFBFBFBFBFBFB00FBFBFB0000000000000000FBFBFB0000000000
310
00000000000000000000000000FBFBFB0000000000000000FB00FB000000000000FB00000000FBFB000000000000FBFB00000000000000FB00FB0000FBFBFBFBFB00FB000000FB00FBFBFB000000FB00FB000000000000FB00FBFBFB00000000FBFB00FB00FBFBFB000000FBFBFB00FBFB000000000000FBFBFB000000FBFB
310
FB0000FBFB00FBFB00FBFBFB000000FBFB00FB00000000FB000000FBFBFB0000000000FB00FBFB0000000000FBFBFB000000FB00000000FB00FBFB000000000000000000FB00FB0000000000000000FBFB00FB000000FBFBFB0000000000000000000000FB00FB00000000000000000000FBFBFB0000FB0000000000000000
310
000000000000FB00000000000000000000000000FB0000000000000000000000000000000000FB00000000000000000000000000000000000000000000000000000000000000000000000000000000000000000000000000000000000000000000000000000000000000000000000000000000000000000000000000000000
310
00000000000000000000000000000000000000000000000000000000000000000000000000000000000000000000000000000000000000000000000000000000000000000000000000000000000000000000000000000000000000000000000000000000000000000000000000000000000000000000000000000000000000
310
0000000000000000000000000000000000000000000000000000000000000000000000000000000000000000000000000000000000000000
102
{BLKREFS
331
40D58
102
}
  0
BLOCK_RECORD
  5
412E6
330
1
100
AcDbSymbolTableRecord
100
AcDbBlockTableRecord
  2
AluVierkantrohr_60x20x2
340
0
310
2800000020000000200000000100080000000000000400000000000000000000000000000000000000000000000080000080000000808000800000008000800080800000C0C0C000C0DCC000F0CAA6000020400000206000002080000020A0000020C0000020E00000400000004020000040400000406000004080000040A0
310
000040C0000040E00000600000006020000060400000606000006080000060A0000060C0000060E00000800000008020000080400000806000008080000080A0000080C0000080E00000A0000000A0200000A0400000A0600000A0800000A0A00000A0C00000A0E00000C0000000C0200000C0400000C0600000C0800000C0
310
A00000C0C00000C0E00000E0000000E0200000E0400000E0600000E0800000E0A00000E0C00000E0E00040000000400020004000400040006000400080004000A0004000C0004000E00040200000402020004020400040206000402080004020A0004020C0004020E000404000004040200040404000404060004040800040
310
40A0004040C0004040E00040600000406020004060400040606000406080004060A0004060C0004060E00040800000408020004080400040806000408080004080A0004080C0004080E00040A0000040A0200040A0400040A0600040A0800040A0A00040A0C00040A0E00040C0000040C0200040C0400040C0600040C08000
310
40C0A00040C0C00040C0E00040E0000040E0200040E0400040E0600040E0800040E0A00040E0C00040E0E00080000000800020008000400080006000800080008000A0008000C0008000E00080200000802020008020400080206000802080008020A0008020C0008020E00080400000804020008040400080406000804080
310
008040A0008040C0008040E00080600000806020008060400080606000806080008060A0008060C0008060E00080800000808020008080400080806000808080008080A0008080C0008080E00080A0000080A0200080A0400080A0600080A0800080A0A00080A0C00080A0E00080C0000080C0200080C0400080C0600080C0
310
800080C0A00080C0C00080C0E00080E0000080E0200080E0400080E0600080E0800080E0A00080E0C00080E0E000C0000000C0002000C0004000C0006000C0008000C000A000C000C000C000E000C0200000C0202000C0204000C0206000C0208000C020A000C020C000C020E000C0400000C0402000C0404000C0406000C0
310
408000C040A000C040C000C040E000C0600000C0602000C0604000C0606000C0608000C060A000C060C000C060E000C0800000C0802000C0804000C0806000C0808000C080A000C080C000C080E000C0A00000C0A02000C0A04000C0A06000C0A08000C0A0A000C0A0C000C0A0E000C0C00000C0C02000C0C04000C0C06000
310
C0C08000C0C0A000F0FBFF00A4A0A000808080000000FF0000FF000000FFFF00FF000000FF00FF00FFFF0000FFFFFF0000000000000000000000000000000000000000000000000000000000000000000000000000000000000000000000000000000000000000000000000000000000000000000000000000000000000000
310
00000000000000000000000000000000000000000000000000000000000000000000000000000000000000000000000000000000000000000000000000000000000000000000000000000000000000000000000000000000000000000000000000000000000000000000000000000000000000000000000000000000000000
310
00000000000000000000000000000000000000000000000000000000000000000000000000000000000000000000000000000000000000000000000000000000000000000000000000000000000000000000000000000000000000000000000000000000000000000000000000000000000000000000000000000000000000
310
0000000000000000000000000000000000000000FAFAFAFAFAFAFAFAFAFAFAFAFAFAFAFAFAFAFAFAFAFAFAFAFAFAFAFAFAFA0000FAFAFAFAFAFAFAFAFAFAFAFAFAFAFAFAFAFAFAFAFAFAFAFAFAFAFAFAFAFA0000FAFA0000000000000000000000000000000000000000000000000000FAFA0000FAFA000000000000000000
310
0000000000000000000000000000000000FAFA0000FAFA0000000000000000000000000000000000000000000000000000FAFA0000FAFA0000000000000000000000000000000000000000000000000000FAFA0000FAFA0000000000000000000000000000000000000000000000000000FAFA0000FAFA0000000000000000
310
000000000000000000000000000000000000FAFA0000FAFAFAFAFAFAFAFAFAFAFAFAFAFAFAFAFAFAFAFAFAFAFAFAFAFAFAFAFAFA0000FAFAFAFAFAFAFAFAFAFAFAFAFAFAFAFAFAFAFAFAFAFAFAFAFAFAFAFAFAFA00000000000000000000000000000000000000000000000000000000000000000000000000000000000000
310
00000000000000000000000000000000000000000000000000000000000000000000000000000000000000000000000000000000000000000000000000000000000000000000000000000000000000000000000000000000000000000000000000000000000000000000000000000000000000000000000000000000000000
310
00000000000000000000000000000000000000000000000000000000000000000000000000000000000000000000000000000000000000000000000000000000000000000000000000000000000000000000000000000000000000000000000000000000000000000000000000000000000000000000000000000000000000
310
0000000000000000000000000000000000000000000000000000000000000000000000000000000000000000000000000000000000000000
102
{BLKREFS
331
416DC
331
42122
102
}
1001
ACAD
1000
DesignCenter Data
1002
{
1070
     1
1070
     4
1002
}
  0
BLOCK_RECORD
  5
4131A
330
1
100
AcDbSymbolTableRecord
100
AcDbBlockTableRecord
  2
Glas_HS_kz
340
0
310
2800000020000000200000000100080000000000000400000000000000000000000000000000000000000000000080000080000000808000800000008000800080800000C0C0C000C0DCC000F0CAA6000020400000206000002080000020A0000020C0000020E00000400000004020000040400000406000004080000040A0
310
000040C0000040E00000600000006020000060400000606000006080000060A0000060C0000060E00000800000008020000080400000806000008080000080A0000080C0000080E00000A0000000A0200000A0400000A0600000A0800000A0A00000A0C00000A0E00000C0000000C0200000C0400000C0600000C0800000C0
310
A00000C0C00000C0E00000E0000000E0200000E0400000E0600000E0800000E0A00000E0C00000E0E00040000000400020004000400040006000400080004000A0004000C0004000E00040200000402020004020400040206000402080004020A0004020C0004020E000404000004040200040404000404060004040800040
310
40A0004040C0004040E00040600000406020004060400040606000406080004060A0004060C0004060E00040800000408020004080400040806000408080004080A0004080C0004080E00040A0000040A0200040A0400040A0600040A0800040A0A00040A0C00040A0E00040C0000040C0200040C0400040C0600040C08000
310
40C0A00040C0C00040C0E00040E0000040E0200040E0400040E0600040E0800040E0A00040E0C00040E0E00080000000800020008000400080006000800080008000A0008000C0008000E00080200000802020008020400080206000802080008020A0008020C0008020E00080400000804020008040400080406000804080
310
008040A0008040C0008040E00080600000806020008060400080606000806080008060A0008060C0008060E00080800000808020008080400080806000808080008080A0008080C0008080E00080A0000080A0200080A0400080A0600080A0800080A0A00080A0C00080A0E00080C0000080C0200080C0400080C0600080C0
310
800080C0A00080C0C00080C0E00080E0000080E0200080E0400080E0600080E0800080E0A00080E0C00080E0E000C0000000C0002000C0004000C0006000C0008000C000A000C000C000C000E000C0200000C0202000C0204000C0206000C0208000C020A000C020C000C020E000C0400000C0402000C0404000C0406000C0
310
408000C040A000C040C000C040E000C0600000C0602000C0604000C0606000C0608000C060A000C060C000C060E000C0800000C0802000C0804000C0806000C0808000C080A000C080C000C080E000C0A00000C0A02000C0A04000C0A06000C0A08000C0A0A000C0A0C000C0A0E000C0C00000C0C02000C0C04000C0C06000
310
C0C08000C0C0A000F0FBFF00A4A0A000808080000000FF0000FF000000FFFF00FF000000FF00FF00FFFF0000FFFFFF0000000000000000000000000000000000000000000000000000000000000000000000000000000000000000000000000000000000000000000000000000000000000000000000000000000000000000
310
00000000000000000000000000000000000000000000000000000000000000000000000000000000000000000000000000000000000000000000000000000000000000000000000000000000000000000000000000000000000000000000000000000000000000000000000000000000000000000000000000000000000000
310
00000000000000000000000000000000000000000000000000000000000000000000000000000000000000000000000000000000000000000000000000000000000000000000000000000000000000000000000000000000000000000000000000000000000000000000000000000000000000000000000000000000000000
310
0000000000000000000000000000000000000000000000000000000000000000000000000000000000000000000000000000000000000000000000000000000000000000000000000000000000000000000000000000000000000000000000000000000000000000000000000000000000000000FFFFFFFFFFFFFFFFFFFFFF
310
FFFFFFFFFFFFFFFFFFFFFFFFFFFFFFFFFFFFFF0000F9F9F9F9F9F9F9F9F9F9F9F9F9F9F9F9F9F9F9F9F9F9F9F9F9F9F9F9F9F90000F9F9F9F9F9F9F9F9F9F9F9F9F9F9F9F9F9F9F9F9F9F9F9F9F9F9F9F9F9F90000F9F9F9F9F9F9F9F9F9F9F9F9F9F9F9F9F9F9F9F9F9F9F9F9F9F9F9F9F9F9000000000000000000000000
310
00000000000000000000000000000000000000000000000000000000000000000000000000000000000000000000000000000000000000000000000000000000000000000000000000000000000000000000000000000000000000000000000000000000000000000000000000000000000000000000000000000000000000
310
00000000000000000000000000000000000000000000000000000000000000000000000000000000000000000000000000000000000000000000000000000000000000000000000000000000000000000000000000000000000000000000000000000000000000000000000000000000000000000000000000000000000000
310
00000000000000000000000000000000000000000000000000000000000000000000000000000000000000000000000000000000000000000000000000000000000000000000000000000000000000000000000000000000000000000000000000000000000000000000000000000000000000000000000000000000000000
310
0000000000000000000000000000000000000000000000000000000000000000000000000000000000000000000000000000000000000000
102
{BLKREFS
331
416CA
331
418B7
331
41F15
102
}
  0
BLOCK_RECORD
  5
416DE
330
1
100
AcDbSymbolTableRecord
100
AcDbBlockTableRecord
  2
*D3
340
0
  0
BLOCK_RECORD
  5
416EA
330
1
100
AcDbSymbolTableRecord
100
AcDbBlockTableRecord
  2
*D4
340
0
  0
BLOCK_RECORD
  5
416F4
330
1
100
AcDbSymbolTableRecord
100
AcDbBlockTableRecord
  2
*D5
340
0
  0
BLOCK_RECORD
  5
4171F
102
{ACAD_XDICTIONARY
360
416DD
102
}
330
1
100
AcDbSymbolTableRecord
100
AcDbBlockTableRecord
  2
ST Mant_Pure Anfahrpfosten Seitenwand LW max.
340
0
102
{BLKREFS
331
4175B
102
}
1001
AcDbDynamicBlockGUID
1000
{94A1DCD5-1244-4615-A4AE-1629EF5EEBBD}
  0
BLOCK_RECORD
  5
417FC
102
{ACAD_XDICTIONARY
360
42123
102
}
330
1
100
AcDbSymbolTableRecord
100
AcDbBlockTableRecord
  2
ST Mant_Pure Anfahrpfosten Seitenwand verschoben
340
0
102
{BLKREFS
331
4184D
102
}
1001
AcDbDynamicBlockGUID
1000
{E61B67E8-9F34-433A-8B72-7C5116E180FA}
  0
BLOCK_RECORD
  5
41C80
102
{ACAD_XDICTIONARY
360
41DBF
102
}
330
1
100
AcDbSymbolTableRecord
100
AcDbBlockTableRecord
  2
ST Manet_Pure Anfahrpfosten Querwand LW -60mm
340
0
102
{BLKREFS
331
41E69
102
}
1001
AcDbDynamicBlockGUID
1000
{A6B6CDEA-DBB1-43B8-BDFE-487376DE0D0F}
  0
BLOCK_RECORD
  5
41DCD
330
1
100
AcDbSymbolTableRecord
100
AcDbBlockTableRecord
  2
*D12
340
0
  0
BLOCK_RECORD
  5
41DD7
330
1
100
AcDbSymbolTableRecord
100
AcDbBlockTableRecord
  2
*D13
340
0
  0
BLOCK_RECORD
  5
41DE3
330
1
100
AcDbSymbolTableRecord
100
AcDbBlockTableRecord
  2
*D14
340
0
  0
BLOCK_RECORD
  5
42124
330
1
100
AcDbSymbolTableRecord
100
AcDbBlockTableRecord
  2
*D15
340
0
  0
BLOCK_RECORD
  5
42130
330
1
100
AcDbSymbolTableRecord
100
AcDbBlockTableRecord
  2
*D16
340
0
  0
BLOCK_RECORD
  5
4213A
330
1
100
AcDbSymbolTableRecord
100
AcDbBlockTableRecord
  2
*D17
340
0
  0
ENDTAB
  0
ENDSEC
  0
SECTION
  2
BLOCKS
  0
BLOCK
  5
1F
330
1E
100
AcDbEntity
  8
0
100
AcDbBlockBegin
  2
*MODEL_SPACE
 70
     0
 10
0.0
 20
0.0
 30
0.0
  3
*MODEL_SPACE
  1

  0
ENDBLK
  5
20
330
1E
100
AcDbEntity
  8
0
100
AcDbBlockEnd
  0
BLOCK
  5
28F32
330
28F30
100
AcDbEntity
 67
     1
  8
0
100
AcDbBlockBegin
  2
*PAPER_SPACE
 70
     0
 10
0.0
 20
0.0
 30
0.0
  3
*PAPER_SPACE
  1

  0
ENDBLK
  5
28F33
330
28F30
100
AcDbEntity
 67
     1
  8
0
100
AcDbBlockEnd
  0
BLOCK
  5
3B56F
330
3B56E
100
AcDbEntity
  8
0
100
AcDbBlockBegin
  2
DORMA
 70
     0
 10
0.0
 20
0.0
 30
0.0
  3
DORMA
  1

  0
LINE
  5
3B571
330
3B56E
100
AcDbEntity
  8
04_Beschriftung_Tabelle
100
AcDbLine
 10
-5.477010000000518
 20
7.557098399999858
 30
0.0
 11
-5.477010000000518
 21
0.0
 31
0.0
  0
LINE
  5
3B572
330
3B56E
100
AcDbEntity
  8
04_Beschriftung_Tabelle
100
AcDbLine
 10
-3.219049999999697
 20
0.0
 30
0.0
 11
-3.219049999999697
 21
3.133422800000062
 31
0.0
  0
LINE
  5
3B573
330
3B56E
100
AcDbEntity
  8
04_Beschriftung_Tabelle
100
AcDbLine
 10
-1.23457000000053
 20
0.0
 30
0.0
 11
-2.487929999999323
 21
3.133422800000062
 31
0.0
  0
LINE
  5
3B574
330
3B56E
100
AcDbEntity
  8
04_Beschriftung_Tabelle
100
AcDbLine
 10
1.23457000000053
 20
0.0
 30
0.0
 11
-0.3463699999992968
 21
3.027326599999923
 31
0.0
  0
LINE
  5
3B575
330
3B56E
100
AcDbEntity
  8
04_Beschriftung_Tabelle
100
AcDbLine
 10
-3.219049999999697
 20
6.146519200000057
 30
0.0
 11
-3.219049999999697
 21
4.453079399999978
 31
0.0
  0
ARC
  5
3B576
330
3B56E
100
AcDbEntity
  8
04_Beschriftung_Tabelle
100
AcDbCircle
 10
-1.042470000000321
 20
5.258686199999829
 30
0.0
 40
2.337416
100
AcDbArc
 50
287.3258399999791
 51
79.518360000017
  0
ARC
  5
3B577
330
3B56E
100
AcDbEntity
  8
04_Beschriftung_Tabelle
100
AcDbCircle
 10
-2.180549999999129
 20
5.220875199999909
 30
0.0
 40
0.7677959600000001
100
AcDbArc
 50
270.0
 51
0.0203300000039459
  0
ARC
  5
3B578
330
3B56E
100
AcDbEntity
  8
04_Beschriftung_Tabelle
100
AcDbCircle
 10
-2.180109999999331
 20
5.379199799999923
 30
0.0
 40
0.76731944
100
AcDbArc
 50
0.0203250899974522
 51
90.0
  0
LINE
  5
3B579
330
3B56E
100
AcDbEntity
  8
04_Beschriftung_Tabelle
100
AcDbLine
 10
2.199950000000171
 20
7.557098399999858
 30
0.0
 11
2.199950000000171
 21
0.0
 31
0.0
  0
LINE
  5
3B57A
330
3B56E
100
AcDbEntity
  8
04_Beschriftung_Tabelle
100
AcDbLine
 10
4.457850000000689
 20
0.0
 30
0.0
 11
4.457850000000689
 21
5.52960199999984
 31
0.0
  0
LINE
  5
3B57B
330
3B56E
100
AcDbEntity
  8
04_Beschriftung_Tabelle
100
AcDbLine
 10
5.899310000000696
 20
0.0
 30
0.0
 11
4.682769999999436
 21
5.52960199999984
 31
0.0
  0
LINE
  5
3B57C
330
3B56E
100
AcDbEntity
  8
04_Beschriftung_Tabelle
100
AcDbLine
 10
5.812789999999949
 20
7.557098399999858
 30
0.0
 11
6.826530000000275
 21
2.94912720000002
 31
0.0
  0
LINE
  5
3B57D
330
3B56E
100
AcDbEntity
  8
04_Beschriftung_Tabelle
100
AcDbLine
 10
7.05663000000095
 20
2.94912720000002
 30
0.0
 11
8.070370000001275
 21
7.557098399999858
 31
0.0
  0
LINE
  5
3B57E
330
3B56E
100
AcDbEntity
  8
04_Beschriftung_Tabelle
100
AcDbLine
 10
7.983830000001034
 20
0.0
 30
0.0
 11
9.200370000000475
 21
5.52960199999984
 31
0.0
  0
LINE
  5
3B57F
330
3B56E
100
AcDbEntity
  8
04_Beschriftung_Tabelle
100
AcDbLine
 10
9.425290000001041
 20
0.0
 30
0.0
 11
9.425290000001041
 21
5.52960199999984
 31
0.0
  0
LINE
  5
3B580
330
3B56E
100
AcDbEntity
  8
04_Beschriftung_Tabelle
100
AcDbLine
 10
11.68321000000105
 20
7.557098399999858
 30
0.0
 11
11.68321000000105
 21
0.0
 31
0.0
  0
LINE
  5
3B581
330
3B56E
100
AcDbEntity
  8
04_Beschriftung_Tabelle
100
AcDbLine
 10
12.16279000000031
 20
0.0
 30
0.0
 11
13.94096999999965
 21
7.557098399999858
 31
0.0
  0
LINE
  5
3B582
330
3B56E
100
AcDbEntity
  8
04_Beschriftung_Tabelle
100
AcDbLine
 10
14.86571000000003
 20
0.0
 30
0.0
 11
15.09797000000071
 21
1.290222200000016
 31
0.0
  0
LINE
  5
3B583
330
3B56E
100
AcDbEntity
  8
04_Beschriftung_Tabelle
100
AcDbLine
 10
17.30659000000014
 20
0.0
 30
0.0
 11
17.07432999999946
 21
1.290222200000016
 31
0.0
  0
LINE
  5
3B584
330
3B56E
100
AcDbEntity
  8
04_Beschriftung_Tabelle
100
AcDbLine
 10
15.33019000000058
 20
2.580474800000047
 30
0.0
 11
15.86104999999952
 21
5.52960199999984
 31
0.0
  0
LINE
  5
3B585
330
3B56E
100
AcDbEntity
  8
04_Beschriftung_Tabelle
100
AcDbLine
 10
16.31125000000065
 20
5.52960199999984
 30
0.0
 11
16.8420700000006
 21
2.580474800000047
 31
0.0
  0
LINE
  5
3B586
330
3B56E
100
AcDbEntity
  8
04_Beschriftung_Tabelle
100
AcDbLine
 10
18.23135000000002
 20
7.557098399999858
 30
0.0
 11
20.00950999999986
 21
0.0
 31
0.0
  0
LINE
  5
3B587
330
3B56E
100
AcDbEntity
  8
04_Beschriftung_Tabelle
100
AcDbLine
 10
-2.180109999999331
 20
6.146519200000057
 30
0.0
 11
-3.219049999999697
 21
6.146519200000057
 31
0.0
  0
LINE
  5
3B588
330
3B56E
100
AcDbEntity
  8
04_Beschriftung_Tabelle
100
AcDbLine
 10
-2.180549999999129
 20
4.453079399999978
 30
0.0
 11
-3.219049999999697
 21
4.453079399999978
 31
0.0
  0
LINE
  5
3B589
330
3B56E
100
AcDbEntity
  8
04_Beschriftung_Tabelle
100
AcDbLine
 10
-1.412769999998999
 20
5.220875199999909
 30
0.0
 11
-1.412790000000313
 21
5.379199799999923
 31
0.0
  0
ARC
  5
3B58A
330
3B56E
100
AcDbEntity
  8
04_Beschriftung_Tabelle
100
AcDbCircle
 10
-9.845709999999598
 20
2.22937139999999
 30
0.0
 40
0.76809692
100
AcDbArc
 50
180.0
 51
270.0
  0
ARC
  5
3B58B
330
3B56E
100
AcDbEntity
  8
04_Beschriftung_Tabelle
100
AcDbCircle
 10
-9.687630000000353
 20
2.22892139999999
 30
0.0
 40
0.7672727400000001
100
AcDbArc
 50
270.0
 51
0.0
  0
LINE
  5
3B58C
330
3B56E
100
AcDbEntity
  8
04_Beschriftung_Tabelle
100
AcDbLine
 10
-9.845709999999598
 20
1.461274600000024
 30
0.0
 11
-9.687630000000353
 21
1.461648599999989
 31
0.0
  0
LINE
  5
3B58D
330
3B56E
100
AcDbEntity
  8
04_Beschriftung_Tabelle
100
AcDbLine
 10
-16.99226999999882
 20
1.461274600000024
 30
0.0
 11
-18.12134999999944
 21
1.461274600000024
 31
0.0
  0
ARC
  5
3B58E
330
3B56E
100
AcDbEntity
  8
04_Beschriftung_Tabelle
100
AcDbCircle
 10
-16.99240999999893
 20
5.525744000000031
 30
0.0
 40
0.4516032400000001
100
AcDbArc
 50
0.0
 51
90.0
  0
LINE
  5
3B58F
330
3B56E
100
AcDbEntity
  8
04_Beschriftung_Tabelle
100
AcDbLine
 10
-16.99240999999893
 20
5.977347399999871
 30
0.0
 11
-18.12134999999944
 21
5.977347399999871
 31
0.0
  0
LINE
  5
3B590
330
3B56E
100
AcDbEntity
  8
04_Beschriftung_Tabelle
100
AcDbLine
 10
15.33019000000058
 20
2.580474800000047
 30
0.0
 11
16.8420700000006
 21
2.580474800000047
 31
0.0
  0
LINE
  5
3B591
330
3B56E
100
AcDbEntity
  8
04_Beschriftung_Tabelle
100
AcDbLine
 10
17.07432999999946
 20
1.290222200000016
 30
0.0
 11
15.09797000000071
 21
1.290222200000016
 31
0.0
  0
LINE
  5
3B592
330
3B56E
100
AcDbEntity
  8
04_Beschriftung_Tabelle
100
AcDbLine
 10
9.200370000000475
 20
5.52960199999984
 30
0.0
 11
9.425290000001041
 21
5.52960199999984
 31
0.0
  0
LINE
  5
3B593
330
3B56E
100
AcDbEntity
  8
04_Beschriftung_Tabelle
100
AcDbLine
 10
6.826530000000275
 20
2.94912720000002
 30
0.0
 11
7.05663000000095
 21
2.94912720000002
 31
0.0
  0
LINE
  5
3B594
330
3B56E
100
AcDbEntity
  8
04_Beschriftung_Tabelle
100
AcDbLine
 10
4.457850000000689
 20
5.52960199999984
 30
0.0
 11
4.682769999999436
 21
5.52960199999984
 31
0.0
  0
LINE
  5
3B595
330
3B56E
100
AcDbEntity
  8
04_Beschriftung_Tabelle
100
AcDbLine
 10
15.86104999999952
 20
5.52960199999984
 30
0.0
 11
16.31125000000065
 21
5.52960199999984
 31
0.0
  0
LINE
  5
3B596
330
3B56E
100
AcDbEntity
  8
04_Beschriftung_Tabelle
100
AcDbLine
 10
-2.487929999999323
 20
3.133422800000062
 30
0.0
 11
-3.219049999999697
 21
3.133422800000062
 31
0.0
  0
LINE
  5
3B597
330
3B56E
100
AcDbEntity
  8
04_Beschriftung_Tabelle
100
AcDbLine
 10
-6.380189999999856
 20
4.848267200000009
 30
0.0
 11
-6.380189999999856
 21
2.590290399999958
 31
0.0
  0
LINE
  5
3B598
330
3B56E
100
AcDbEntity
  8
04_Beschriftung_Tabelle
100
AcDbLine
 10
-13.15390999999908
 20
4.848463599999831
 30
0.0
 11
-13.15390999999908
 21
2.590297599999985
 31
0.0
  0
ARC
  5
3B599
330
3B56E
100
AcDbEntity
  8
04_Beschriftung_Tabelle
100
AcDbCircle
 10
-10.44455000000016
 20
4.848463599999831
 30
0.0
 40
2.7093064
100
AcDbArc
 50
91.31411399999786
 51
180.0
  0
ARC
  5
3B59A
330
3B56E
100
AcDbEntity
  8
04_Beschriftung_Tabelle
100
AcDbCircle
 10
-9.08972999999969
 20
4.848267200000009
 30
0.0
 40
2.709591
100
AcDbArc
 50
0.0
 51
88.6807799999797
  0
ARC
  5
3B59B
330
3B56E
100
AcDbEntity
  8
04_Beschriftung_Tabelle
100
AcDbCircle
 10
-9.089410000000498
 20
2.590290399999958
 30
0.0
 40
2.709236399999999
100
AcDbArc
 50
287.0457299999841
 51
0.0
  0
ARC
  5
3B59C
330
3B56E
100
AcDbEntity
  8
04_Beschriftung_Tabelle
100
AcDbCircle
 10
-10.44461000000046
 20
2.590297599999985
 30
0.0
 40
2.709276799999999
100
AcDbArc
 50
180.0
 51
252.9528900000125
  0
LINE
  5
3B59D
330
3B56E
100
AcDbEntity
  8
04_Beschriftung_Tabelle
100
AcDbLine
 10
-20.60502999999881
 20
0.0
 30
0.0
 11
-15.7809699999998
 21
0.0
 31
0.0
  0
LINE
  5
3B59E
330
3B56E
100
AcDbEntity
  8
04_Beschriftung_Tabelle
100
AcDbLine
 10
-11.23886999999922
 20
0.0
 30
0.0
 11
-8.295210000000224
 21
0.0
 31
0.0
  0
LINE
  5
3B59F
330
3B56E
100
AcDbEntity
  8
04_Beschriftung_Tabelle
100
AcDbLine
 10
-5.477010000000518
 20
0.0
 30
0.0
 11
-3.219049999999697
 21
0.0
 31
0.0
  0
LINE
  5
3B5A0
330
3B56E
100
AcDbEntity
  8
04_Beschriftung_Tabelle
100
AcDbLine
 10
-1.23457000000053
 20
0.0
 30
0.0
 11
1.23457000000053
 21
0.0
 31
0.0
  0
LINE
  5
3B5A1
330
3B56E
100
AcDbEntity
  8
04_Beschriftung_Tabelle
100
AcDbLine
 10
2.199950000000171
 20
0.0
 30
0.0
 11
4.457850000000689
 21
0.0
 31
0.0
  0
LINE
  5
3B5A2
330
3B56E
100
AcDbEntity
  8
04_Beschriftung_Tabelle
100
AcDbLine
 10
5.899310000000696
 20
0.0
 30
0.0
 11
7.983830000001034
 21
0.0
 31
0.0
  0
LINE
  5
3B5A3
330
3B56E
100
AcDbEntity
  8
04_Beschriftung_Tabelle
100
AcDbLine
 10
9.425290000001041
 20
0.0
 30
0.0
 11
11.68321000000105
 21
0.0
 31
0.0
  0
LINE
  5
3B5A4
330
3B56E
100
AcDbEntity
  8
04_Beschriftung_Tabelle
100
AcDbLine
 10
12.16279000000031
 20
0.0
 30
0.0
 11
14.86571000000003
 21
0.0
 31
0.0
  0
LINE
  5
3B5A5
330
3B56E
100
AcDbEntity
  8
04_Beschriftung_Tabelle
100
AcDbLine
 10
17.30659000000014
 20
0.0
 30
0.0
 11
20.00950999999986
 21
0.0
 31
0.0
  0
LINE
  5
3B5A6
330
3B56E
100
AcDbEntity
  8
04_Beschriftung_Tabelle
100
AcDbLine
 10
18.23135000000002
 20
7.557098399999858
 30
0.0
 11
13.94096999999965
 21
7.557098399999858
 31
0.0
  0
LINE
  5
3B5A7
330
3B56E
100
AcDbEntity
  8
04_Beschriftung_Tabelle
100
AcDbLine
 10
11.68321000000105
 20
7.557098399999858
 30
0.0
 11
8.070370000001275
 21
7.557098399999858
 31
0.0
  0
LINE
  5
3B5A8
330
3B56E
100
AcDbEntity
  8
04_Beschriftung_Tabelle
100
AcDbLine
 10
5.812789999999949
 20
7.557098399999858
 30
0.0
 11
2.199950000000171
 21
7.557098399999858
 31
0.0
  0
LINE
  5
3B5A9
330
3B56E
100
AcDbEntity
  8
04_Beschriftung_Tabelle
100
AcDbLine
 10
-0.6172299999998359
 20
7.557098399999858
 30
0.0
 11
-5.477010000000518
 21
7.557098399999858
 31
0.0
  0
LINE
  5
3B5AA
330
3B56E
100
AcDbEntity
  8
04_Beschriftung_Tabelle
100
AcDbLine
 10
-9.027350000000296
 20
7.557098399999858
 30
0.0
 11
-10.50669000000016
 21
7.557098399999858
 31
0.0
  0
LINE
  5
3B5AB
330
3B56E
100
AcDbEntity
  8
04_Beschriftung_Tabelle
100
AcDbLine
 10
-16.48100999999951
 20
7.557098399999858
 30
0.0
 11
-20.60502999999881
 21
7.557098399999858
 31
0.0
  0
ARC
  5
3B5AC
330
3B56E
100
AcDbEntity
  8
04_Beschriftung_Tabelle
100
AcDbCircle
 10
-1.379230000000461
 20
51.33394219999991
 30
0.0
 40
36.86412
100
AcDbArc
 50
230.8050999999715
 51
262.3128000000138
  0
LINE
  5
3B5AD
330
3B56E
100
AcDbEntity
  8
04_Beschriftung_Tabelle
100
AcDbLine
 10
-24.67589000000044
 20
22.76422019999996
 30
0.0
 11
-20.73286999999982
 21
8.940246599999909
 31
0.0
  0
LINE
  5
3B5AE
330
3B56E
100
AcDbEntity
  8
04_Beschriftung_Tabelle
100
AcDbLine
 10
-20.73286999999982
 20
8.940246599999909
 30
0.0
 11
-17.83568999999988
 21
8.940246599999909
 31
0.0
  0
LINE
  5
3B5AF
330
3B56E
100
AcDbEntity
  8
04_Beschriftung_Tabelle
100
AcDbLine
 10
-17.83568999999988
 20
8.940246599999909
 30
0.0
 11
-19.7785700000004
 21
15.71585019999998
 31
0.0
  0
ARC
  5
3B5B0
330
3B56E
100
AcDbEntity
  8
04_Beschriftung_Tabelle
100
AcDbCircle
 10
-1.379249999999956
 20
51.3339461999999
 30
0.0
 40
40.089694
100
AcDbArc
 50
242.6803799999756
 51
260.4332999999938
  0
ARC
  5
3B5B1
330
3B56E
100
AcDbEntity
  8
04_Beschriftung_Tabelle
100
AcDbCircle
 10
-1.378649999998742
 20
51.33419819999994
 30
0.0
 40
40.09004199999999
100
AcDbArc
 50
260.4325199999772
 51
264.7126999999735
  0
LINE
  5
3B5B2
330
3B56E
100
AcDbEntity
  8
04_Beschriftung_Tabelle
100
AcDbLine
 10
-5.072949999999764
 20
11.41473399999995
 30
0.0
 11
-1.379249999999956
 21
17.81240819999993
 31
0.0
  0
LINE
  5
3B5B3
330
3B56E
100
AcDbEntity
  8
04_Beschriftung_Tabelle
100
AcDbLine
 10
-1.379249999999956
 20
17.81240819999993
 30
0.0
 11
2.314449999999851
 21
11.41473399999995
 31
0.0
  0
ARC
  5
3B5B4
330
3B56E
100
AcDbEntity
  8
04_Beschriftung_Tabelle
100
AcDbCircle
 10
-1.379269999999451
 20
51.33388220000006
 30
0.0
 40
40.089674
100
AcDbArc
 50
275.2865199999785
 51
297.3196699999837
  0
LINE
  5
3B5B5
330
3B56E
100
AcDbEntity
  8
04_Beschriftung_Tabelle
100
AcDbLine
 10
17.02007000000049
 20
15.71582020000005
 30
0.0
 11
15.07718999999997
 21
8.940246599999909
 31
0.0
  0
LINE
  5
3B5B6
330
3B56E
100
AcDbEntity
  8
04_Beschriftung_Tabelle
100
AcDbLine
 10
15.07718999999997
 20
8.940246599999909
 30
0.0
 11
17.97436999999991
 21
8.940246599999909
 31
0.0
  0
LINE
  5
3B5B7
330
3B56E
100
AcDbEntity
  8
04_Beschriftung_Tabelle
100
AcDbLine
 10
17.97436999999991
 20
8.940246599999909
 30
0.0
 11
21.91737000000103
 21
22.76422019999996
 31
0.0
  0
ARC
  5
3B5B8
330
3B56E
100
AcDbEntity
  8
04_Beschriftung_Tabelle
100
AcDbCircle
 10
-1.379269999999451
 20
51.33390819999999
 30
0.0
 40
36.864086
100
AcDbArc
 50
277.6872199999983
 51
309.1949199999799
  0
LINE
  5
3B5B9
330
3B56E
100
AcDbEntity
  8
04_Beschriftung_Tabelle
100
AcDbLine
 10
3.551849999999831
 20
14.80111620000002
 30
0.0
 11
-1.379249999999956
 21
23.3420102
 31
0.0
  0
LINE
  5
3B5BA
330
3B56E
100
AcDbEntity
  8
04_Beschriftung_Tabelle
100
AcDbLine
 10
-1.379249999999956
 20
23.3420102
 30
0.0
 11
-6.310349999999743
 21
14.80111620000002
 31
0.0
  0
LINE
  5
3B5BB
330
3B56E
100
AcDbEntity
  8
04_Beschriftung_Tabelle
100
AcDbLine
 10
-20.60502999999881
 20
7.557098399999858
 30
0.0
 11
-20.60502999999881
 21
0.0
 31
0.0
  0
LINE
  5
3B5BC
330
3B56E
100
AcDbEntity
  8
04_Beschriftung_Tabelle
100
AcDbLine
 10
-18.12134999999944
 20
5.977347399999871
 30
0.0
 11
-18.12134999999944
 21
1.461274600000024
 31
0.0
  0
LINE
  5
3B5BD
330
3B56E
100
AcDbEntity
  8
04_Beschriftung_Tabelle
100
AcDbLine
 10
-14.05859000000055
 20
5.160949800000025
 30
0.0
 11
-14.05859000000055
 21
2.396148799999991
 31
0.0
  0
ARC
  5
3B5BE
330
3B56E
100
AcDbEntity
  8
04_Beschriftung_Tabelle
100
AcDbCircle
 10
-16.5398499999992
 20
5.074656000000004
 30
0.0
 40
2.482633599999999
100
AcDbArc
 50
1.991844000002924
 51
88.6422820000009
  0
ARC
  5
3B5BF
330
3B56E
100
AcDbEntity
  8
04_Beschriftung_Tabelle
100
AcDbCircle
 10
-16.54081000000042
 20
2.364626799999996
 30
0.0
 40
2.483746599999999
100
AcDbArc
 50
287.8141699999858
 51
0.7275600000006519
  0
LINE
  5
3B5C0
330
3B56E
100
AcDbEntity
  8
04_Beschriftung_Tabelle
100
AcDbLine
 10
-16.54076999999961
 20
5.525744000000031
 30
0.0
 11
-16.54076999999961
 21
1.912900799999988
 31
0.0
  0
ARC
  5
3B5C1
330
3B56E
100
AcDbEntity
  8
04_Beschriftung_Tabelle
100
AcDbCircle
 10
-16.99226999999882
 20
1.912900799999988
 30
0.0
 40
0.45143812
100
AcDbArc
 50
270.0
 51
0.0
  0
ARC
  5
3B5C2
330
3B56E
100
AcDbEntity
  8
04_Beschriftung_Tabelle
100
AcDbCircle
 10
-9.845769999999902
 20
5.209276599999839
 30
0.0
 40
0.76811602
100
AcDbArc
 50
90.0
 51
180.0
  0
ARC
  5
3B5C3
330
3B56E
100
AcDbEntity
  8
04_Beschriftung_Tabelle
100
AcDbCircle
 10
-9.687910000000556
 20
5.209728199999972
 30
0.0
 40
0.76755724
100
AcDbArc
 50
0.0
 51
90.0
  0
LINE
  5
3B5C4
330
3B56E
100
AcDbEntity
  8
04_Beschriftung_Tabelle
100
AcDbLine
 10
-8.920309999999517
 20
5.209728199999972
 30
0.0
 11
-8.920309999999517
 21
2.22892139999999
 31
0.0
  0
LINE
  5
3B5C5
330
3B56E
100
AcDbEntity
  8
04_Beschriftung_Tabelle
100
AcDbLine
 10
-10.61376999999993
 20
5.209276599999839
 30
0.0
 11
-10.61376999999993
 21
2.22937139999999
 31
0.0
  0
LINE
  5
3B5C6
330
3B56E
100
AcDbEntity
  8
04_Beschriftung_Tabelle
100
AcDbLine
 10
-9.845769999999902
 20
5.97739260000003
 30
0.0
 11
-9.687910000000556
 21
5.97739260000003
 31
0.0
  0
ENDBLK
  5
3B570
330
3B56E
100
AcDbEntity
  8
0
100
AcDbBlockEnd
  0
BLOCK
  5
412E7
330
412E6
100
AcDbEntity
  8
0
100
AcDbBlockBegin
  2
AluVierkantrohr_60x20x2
 70
     0
 10
0.0
 20
0.0
 30
0.0
  3
AluVierkantrohr_60x20x2
  1

  0
LWPOLYLINE
  5
412E8
330
412E6
100
AcDbEntity
  8
AluVierkantrohr_60x20x2
100
AcDbPolyline
 90
        6
 70
     0
 43
0.0
 10
60.0
 20
20.0
 10
60.0
 20
-0.0000000000000055
 10
0.0
 20
0.0
 10
-0.000000000000002
 20
20.0
 10
60.0
 20
20.0
 10
-0.000000000000002
 20
20.0
  0
LWPOLYLINE
  5
412E9
330
412E6
100
AcDbEntity
  8
AluVierkantrohr_60x20x2
100
AcDbPolyline
 90
        4
 70
     1
 43
0.0
 10
57.99999999999999
 20
18.0
 10
58.0
 20
1.999999999999994
 10
2.0
 20
1.999999999999999
 10
1.999999999999998
 20
18.0
  0
ENDBLK
  5
412EA
330
412E6
100
AcDbEntity
  8
0
100
AcDbBlockEnd
  0
BLOCK
  5
4131B
330
4131A
100
AcDbEntity
  8
0
100
AcDbBlockBegin
  2
Glas_HS_kz
 70
     0
 10
0.0
 20
0.0
 30
0.0
  3
Glas_HS_kz
  1

  0
LWPOLYLINE
  5
4131C
330
4131A
100
AcDbEntity
  8
11_GLAS
100
AcDbPolyline
 90
        6
 70
     0
 43
0.0
 10
0.0
 20
10.0
 10
-105.0
 20
9.999999999999971
 10
-106.0
 20
8.999999999999971
 10
-106.0
 20
0.9999999999999715
 10
-105.0
 20
-0.0000000000000284
 10
0.0
 20
0.0
  0
HATCH
  5
4131D
330
4131A
100
AcDbEntity
  8
05_SCHRAFFUR
100
AcDbHatch
 10
0.0
 20
0.0
 30
0.0
210
0.0
220
0.0
230
1.0
  2
ANSI31
 70
     0
 71
     0
 91
        1
 92
        1
 93
        6
 72
     1
 10
0.0
 20
9.999999999999971
 11
0.0
 21
0.0
 72
     1
 10
0.0
 20
0.0
 11
-105.0
 21
-0.0000000000000284
 72
     1
 10
-105.0
 20
-0.0000000000000284
 11
-106.0
 21
0.9999999999999715
 72
     1
 10
-106.0
 20
0.9999999999999715
 11
-106.0
 21
8.999999999999971
 72
     1
 10
-106.0
 20
8.999999999999971
 11
-105.0
 21
9.999999999999971
 72
     1
 10
-105.0
 20
9.999999999999971
 11
0.0
 21
10.0
 97
        0
 75
     0
 76
     1
 52
315.0
 41
15.35
 77
     0
 78
     1
 53
0.0
 43
-787.8912699999998
 44
-196.1864871269234
 45
0.0000000000000006
 46
1.918749999999999
 79
     0
 98
        1
 10
-787.8912699999998
 20
-196.1864871269234
  0
ENDBLK
  5
4131E
330
4131A
100
AcDbEntity
  8
0
100
AcDbBlockEnd
  0
BLOCK
  5
416DF
330
416DE
100
AcDbEntity
  8
0
100
AcDbBlockBegin
  2
*D3
 70
     1
 10
0.0
 20
0.0
 30
0.0
  3
*D3
  1

  0
LINE
  5
41704
330
416DE
100
AcDbEntity
  8
02_BEMASSUNG
 62
     4
370
    -2
100
AcDbLine
 10
-60.0
 20
22.99999999999999
 30
0.0
 11
-60.0
 21
2.198858342648229
 31
0.0
  0
LINE
  5
41705
330
416DE
100
AcDbEntity
  8
02_BEMASSUNG
 62
     4
370
    -2
100
AcDbLine
 10
-0.0000000000000001
 20
22.99999999999999
 30
0.0
 11
-0.0000000000000014
 21
2.198858342648229
 31
0.0
  0
LINE
  5
41706
330
416DE
100
AcDbEntity
  8
02_BEMASSUNG
 62
     4
370
    -2
100
AcDbLine
 10
-53.0
 20
4.198858342648229
 30
0.0
 11
-7.0
 21
4.198858342648229
 31
0.0
  0
SOLID
  5
41707
330
416DE
100
AcDbEntity
  8
02_BEMASSUNG
 62
     4
100
AcDbTrace
 10
-53.0
 20
5.365525009314896
 30
0.0
 11
-53.0
 21
3.032191675981562
 31
0.0
 12
-60.0
 22
4.198858342648229
 32
0.0
 13
-60.0
 23
4.198858342648229
 33
0.0
  0
SOLID
  5
41708
330
416DE
100
AcDbEntity
  8
02_BEMASSUNG
 62
     4
100
AcDbTrace
 10
-7.0
 20
5.365525009314896
 30
0.0
 11
-7.0
 21
3.032191675981562
 31
0.0
 12
-0.0000000000000013
 22
4.198858342648229
 32
0.0
 13
-0.0000000000000013
 23
4.198858342648229
 33
0.0
  0
MTEXT
  5
41709
330
416DE
100
AcDbEntity
  8
02_BEMASSUNG
 62
     4
100
AcDbMText
 10
-30.0
 20
11.19885834264823
 30
0.0
 40
8.0
 41
0.0
 71
     5
 72
     1
  1
\A1;60
 73
     1
 44
1.0
  0
POINT
  5
4170A
330
416DE
100
AcDbEntity
  8
DEFPOINTS
 62
     0
100
AcDbPoint
 10
-60.0
 20
24.99999999999999
 30
0.0
  0
POINT
  5
4170B
330
416DE
100
AcDbEntity
  8
DEFPOINTS
 62
     0
100
AcDbPoint
 10
0.0
 20
25.0
 30
0.0
  0
POINT
  5
4170C
330
416DE
100
AcDbEntity
  8
DEFPOINTS
 62
     0
100
AcDbPoint
 10
-0.0000000000000013
 20
4.198858342648229
 30
0.0
  0
ENDBLK
  5
416E0
330
416DE
100
AcDbEntity
  8
0
100
AcDbBlockEnd
  0
BLOCK
  5
416EB
330
416EA
100
AcDbEntity
  8
0
100
AcDbBlockBegin
  2
*D4
 70
     1
 10
0.0
 20
0.0
 30
0.0
  3
*D4
  1

  0
LINE
  5
4170D
330
416EA
100
AcDbEntity
  8
02_BEMASSUNG
 62
     4
370
    -2
100
AcDbLine
 10
0.0000000000000001
 20
88.70878030306812
 30
0.0
 11
0.0000000000000006
 21
96.2781428436822
 31
0.0
  0
LINE
  5
4170E
330
416EA
100
AcDbEntity
  8
02_BEMASSUNG
 62
     4
370
    -2
100
AcDbLine
 10
7.0
 20
94.27814284368219
 30
0.0
 11
65.92123489526002
 21
94.27814284368219
 31
0.0
  0
SOLID
  5
4170F
330
416EA
100
AcDbEntity
  8
02_BEMASSUNG
 62
     4
100
AcDbTrace
 10
7.0
 20
95.44480951034886
 30
0.0
 11
7.0
 21
93.11147617701552
 31
0.0
 12
0.0000000000000005
 22
94.27814284368219
 32
0.0
 13
0.0000000000000005
 23
94.27814284368219
 33
0.0
  0
MTEXT
  5
41710
330
416EA
100
AcDbEntity
  8
02_BEMASSUNG
 62
     4
100
AcDbMText
 10
56.52123489526002
 20
101.2781428436822
 30
0.0
 40
8.0
 41
0.0
 71
     5
 72
     1
  1
\A1;\C2;LW
 73
     1
 44
1.0
  0
POINT
  5
41711
330
416EA
100
AcDbEntity
  8
DEFPOINTS
 62
     0
100
AcDbPoint
 10
184.5999899999997
 20
74.13117000874786
 30
0.0
  0
POINT
  5
41712
330
416EA
100
AcDbEntity
  8
DEFPOINTS
 62
     0
100
AcDbPoint
 10
0.0
 20
86.70878030306813
 30
0.0
  0
POINT
  5
41713
330
416EA
100
AcDbEntity
  8
DEFPOINTS
 62
     0
100
AcDbPoint
 10
0.0000000000000005
 20
94.27814284368219
 30
0.0
  0
ENDBLK
  5
416EC
330
416EA
100
AcDbEntity
  8
0
100
AcDbBlockEnd
  0
BLOCK
  5
416F5
330
416F4
100
AcDbEntity
  8
0
100
AcDbBlockBegin
  2
*D5
 70
     1
 10
0.0
 20
0.0
 30
0.0
  3
*D5
  1

  0
LINE
  5
41714
330
416F4
100
AcDbEntity
  8
02_BEMASSUNG
 62
     4
370
    -2
100
AcDbLine
 10
-62.00000999999975
 20
44.99999000000002
 30
0.0
 11
-75.19532726212672
 21
44.99999000000002
 31
0.0
  0
LINE
  5
41715
330
416F4
100
AcDbEntity
  8
02_BEMASSUNG
 62
     4
370
    -2
100
AcDbLine
 10
-62.0
 20
25.0
 30
0.0
 11
-75.19532726212673
 21
25.0
 31
0.0
  0
LINE
  5
41716
330
416F4
100
AcDbEntity
  8
02_BEMASSUNG
 62
     4
370
    -2
100
AcDbLine
 10
-73.19532726212672
 20
51.99999000000002
 30
0.0
 11
-73.19532726212672
 21
58.99999000000002
 31
0.0
  0
LINE
  5
41717
330
416F4
100
AcDbEntity
  8
02_BEMASSUNG
 62
     4
370
    -2
100
AcDbLine
 10
-73.19532726212674
 20
18.0
 30
0.0
 11
-73.19532726212674
 21
11.0
 31
0.0
  0
LINE
  5
41718
330
416F4
100
AcDbEntity
  8
02_BEMASSUNG
 62
     4
370
    -2
100
AcDbLine
 10
-73.19532726212672
 20
44.99999000000002
 30
0.0
 11
-73.19532726212674
 21
25.0
 31
0.0
  0
SOLID
  5
41719
330
416F4
100
AcDbEntity
  8
02_BEMASSUNG
 62
     4
100
AcDbTrace
 10
-74.36199392879339
 20
51.99999000000002
 30
0.0
 11
-72.02866059546005
 21
51.99999000000002
 31
0.0
 12
-73.19532726212672
 22
44.99999000000002
 32
0.0
 13
-73.19532726212672
 23
44.99999000000002
 33
0.0
  0
SOLID
  5
4171A
330
416F4
100
AcDbEntity
  8
02_BEMASSUNG
 62
     4
100
AcDbTrace
 10
-74.36199392879341
 20
18.0
 30
0.0
 11
-72.02866059546007
 21
18.0
 31
0.0
 12
-73.19532726212674
 22
25.0
 32
0.0
 13
-73.19532726212674
 23
25.0
 33
0.0
  0
MTEXT
  5
4171B
330
416F4
100
AcDbEntity
  8
02_BEMASSUNG
 62
     4
100
AcDbMText
 10
-80.19532726212673
 20
34.99999500000001
 30
0.0
 40
8.0
 41
0.0
 71
     5
 72
     1
  1
\A1;20
 11
0.0000000000000001
 21
1.0
 31
0.0
 73
     1
 44
1.0
  0
POINT
  5
4171C
330
416F4
100
AcDbEntity
  8
DEFPOINTS
 62
     0
100
AcDbPoint
 10
-60.00000999999975
 20
44.99999000000002
 30
0.0
  0
POINT
  5
4171D
330
416F4
100
AcDbEntity
  8
DEFPOINTS
 62
     0
100
AcDbPoint
 10
-60.0
 20
25.0
 30
0.0
  0
POINT
  5
4171E
330
416F4
100
AcDbEntity
  8
DEFPOINTS
 62
     0
100
AcDbPoint
 10
-73.19532726212674
 20
25.0
 30
0.0
  0
ENDBLK
  5
416F6
330
416F4
100
AcDbEntity
  8
0
100
AcDbBlockEnd
  0
BLOCK
  5
41720
330
4171F
100
AcDbEntity
  8
0
100
AcDbBlockBegin
  2
ST Mant_Pure Anfahrpfosten Seitenwand LW max.
 70
     0
 10
0.0
 20
0.0
 30
0.0
  3
ST Mant_Pure Anfahrpfosten Seitenwand LW max.
  1

  0
LINE
  5
416CE
330
4171F
100
AcDbEntity
  8
09_BAU
100
AcDbLine
 10
0.0
 20
45.0
 30
0.0
 11
0.0
 21
128.4175606061362
 31
0.0
  0
HATCH
  5
416CF
330
4171F
100
AcDbEntity
  8
05_SCHRAFFUR
100
AcDbHatch
 10
0.0
 20
0.0
 30
0.0
210
0.0
220
0.0
230
1.0
  2
AR-CONC
 70
     0
 71
     0
 91
        1
 92
        1
 93
        9
 72
     1
 10
0.0
 20
132.4091844408735
 11
0.0
 21
45.0
 72
     1
 10
0.0
 20
45.0
 11
-60.0
 21
45.0
 72
     1
 10
-60.0
 20
45.0
 11
-48.60707293433552
 21
60.36536182551481
 72
     1
 10
-48.60707293433552
 20
60.36536182551481
 11
-36.2624761007728
 21
67.81460767516728
 72
     1
 10
-36.2624761007728
 20
67.81460767516728
 11
-27.7190512750858
 21
79.12355097805084
 72
     1
 10
-27.7190512750858
 20
79.12355097805084
 11
-29.3353761389908
 21
99.20269677602096
 72
     1
 10
-29.3353761389908
 20
99.20269677602096
 11
-24.48640374654587
 21
110.0500508411232
 72
     1
 10
-24.48640374654587
 20
110.0500508411232
 11
-15.48117181688485
 21
118.5894573218706
 72
     1
 10
-15.48117181688485
 20
118.5894573218706
 11
0.0
 21
132.4091844408735
 97
        0
 75
     0
 76
     1
 52
0.0
 41
0.1
 77
     0
 78
    13
 53
50.0
 43
-3559.913344633787
 44
-1644.9743663614
 45
18.2184668996004
 46
-1.593908553890308
 79
     2
 49
1.905
 49
-20.955
 53
355.0
 43
-3559.913344633787
 44
-1644.9743663614
 45
-3.524282597566699
 46
19.105664288218
 79
     2
 49
1.524
 49
-16.764
 53
100.451
 43
-3558.395144633787
 44
-1645.107191361399
 45
14.69425016659592
 46
17.51166878202919
 79
     2
 49
1.619
 49
-17.809
 53
46.1842
 43
-3559.913344633787
 44
-1639.8943663614
 45
27.107904089213
 46
-4.204232793272715
 79
     2
 49
2.857499999999999
 49
-31.4325
 53
96.63559999999998
 43
-3557.654354633786
 44
-1640.244716361399
 45
23.74042344662372
 46
24.74255558900492
 79
     2
 49
2.428499999999995
 49
-26.71349999999997
 53
351.184
 43
-3559.913344633787
 44
-1639.8943663614
 45
23.74046058139339
 46
24.74251178605977
 79
     2
 49
2.286
 49
-25.146
 53
21.0
 43
-3557.373344633787
 44
-1641.164366361399
 45
15.16148798353833
 46
-10.22655185167625
 79
     2
 49
1.905
 49
-20.955
 53
326.0
 43
-3557.373344633787
 44
-1641.164366361399
 45
6.180202834764707
 46
18.41879661223192
 79
     2
 49
1.524
 49
-16.764
 53
71.45140000000001
 43
-3556.109894633787
 44
-1642.016576361399
 45
21.34164907701245
 46
8.192285771605744
 79
     2
 49
1.619
 49
-17.809
 53
37.5
 43
-3559.913344633787
 44
-1644.9743663614
 45
0.3088603250591817
 46
8.455503887315311
 79
     6
 49
0.0
 49
-16.5608
 49
0.0
 49
-17.018
 49
0.0
 49
-16.8275
 53
7.499999999999999
 43
-3559.913344633787
 44
-1644.9743663614
 45
6.681966251030575
 46
10.01805748181195
 79
     6
 49
0.0
 49
-9.702799999999999
 49
0.0
 49
-16.1798
 49
0.0
 49
-6.4135
 53
327.5
 43
-3565.577544633787
 44
-1644.9743663614
 45
13.55905951668714
 46
-0.5728743992673459
 79
     6
 49
0.0
 49
-6.35
 49
0.0
 49
-19.812
 49
0.0
 49
-26.289
 53
317.5
 43
-3568.117544633787
 44
-1644.9743663614
 45
14.8129181386018
 46
2.542649103333301
 79
     6
 49
0.0
 49
-8.255
 49
0.0
 49
-13.1572
 49
0.0
 49
-18.669
 98
        2
 10
-3559.913344633787
 20
-1644.9743663614
 10
-3559.96223134189
 20
-1644.9743663614
1001
ACAD
1010
0.0
1020
0.0
1030
0.0
  0
LINE
  5
416D0
330
4171F
100
AcDbEntity
  8
09_BAU
100
AcDbLine
 10
0.0
 20
45.0
 30
0.0
 11
-52.50851845659963
 21
45.0
 31
0.0
  0
LINE
  5
416D1
330
4171F
100
AcDbEntity
  8
09_BAU
100
AcDbLine
 10
0.0
 20
132.4091844408735
 30
0.0
 11
0.0
 21
45.0
 31
0.0
  0
LINE
  5
416D2
330
4171F
100
AcDbEntity
  8
09_BAU
100
AcDbLine
 10
-60.0
 20
45.0
 30
0.0
 11
-48.60707293433552
 21
60.36536182551481
 31
0.0
  0
LINE
  5
416D3
330
4171F
100
AcDbEntity
  8
09_BAU
100
AcDbLine
 10
-48.60707293433552
 20
60.36536182551481
 30
0.0
 11
-36.2624761007728
 21
67.81460767516728
 31
0.0
  0
LINE
  5
416D4
330
4171F
100
AcDbEntity
  8
09_BAU
100
AcDbLine
 10
-36.2624761007728
 20
67.81460767516728
 30
0.0
 11
-27.7190512750858
 21
79.12355097805084
 31
0.0
  0
LINE
  5
416D5
330
4171F
100
AcDbEntity
  8
09_BAU
100
AcDbLine
 10
-27.7190512750858
 20
79.12355097805084
 30
0.0
 11
-29.3353761389908
 21
99.20269677602096
 31
0.0
  0
LINE
  5
416D6
330
4171F
100
AcDbEntity
  8
09_BAU
100
AcDbLine
 10
-29.3353761389908
 20
99.20269677602096
 30
0.0
 11
-24.48640374654587
 21
110.0500508411232
 31
0.0
  0
LINE
  5
416D7
330
4171F
100
AcDbEntity
  8
09_BAU
100
AcDbLine
 10
-24.48640374654587
 20
110.0500508411232
 30
0.0
 11
-15.48117181688485
 21
118.5894573218706
 31
0.0
  0
LINE
  5
416D8
330
4171F
100
AcDbEntity
  8
09_BAU
100
AcDbLine
 10
-15.48117181688485
 20
118.5894573218706
 30
0.0
 11
0.0
 21
132.4091844408735
 31
0.0
  0
DIMENSION
  5
416D9
330
4171F
100
AcDbEntity
  8
02_BEMASSUNG
100
AcDbDimension
  2
*D3
 10
-0.0000000000000013
 20
4.198858342648229
 30
0.0
 11
-30.0
 21
4.198858342648229
 31
0.0
 70
   160
 71
     5
 42
60.0
  3
DORMA
100
AcDbAlignedDimension
 13
-60.0
 23
24.99999999999999
 33
0.0
 14
0.0
 24
25.0
 34
0.0
100
AcDbRotatedDimension
1001
ACAD
1000
DSTYLE
1002
{
1070
    40
1040
2.0
1002
}
  0
DIMENSION
  5
416DA
330
4171F
100
AcDbEntity
  8
02_BEMASSUNG
100
AcDbDimension
  2
*D4
 10
0.0000000000000005
 20
94.27814284368219
 30
0.0
 11
56.52123489526002
 21
94.27814284368219
 31
0.0
 70
   160
  1
\C2;LW
 71
     5
 42
184.5999899999997
  3
DORMA
100
AcDbAlignedDimension
 13
184.5999899999997
 23
74.13117000874786
 33
0.0
 14
0.0
 24
86.70878030306813
 34
0.0
100
AcDbRotatedDimension
1001
ACAD
1000
DSTYLE
1002
{
1070
    40
1040
2.0
1070
    75
1070
     1
1070
   281
1070
     1
1070
   282
1070
     0
1002
}
  0
DIMENSION
  5
416DB
330
4171F
100
AcDbEntity
  8
02_BEMASSUNG
100
AcDbDimension
  2
*D5
 10
-73.19532726212674
 20
25.0
 30
0.0
 11
-73.19532726212674
 21
34.99999500000001
 31
0.0
 70
   160
 71
     5
 42
19.99999000000002
  3
DORMA
100
AcDbAlignedDimension
 13
-60.00000999999975
 23
44.99999000000002
 33
0.0
 14
-60.0
 24
25.0
 34
0.0
 50
90.0
100
AcDbRotatedDimension
1001
ACAD
1000
DSTYLE
1002
{
1070
    40
1040
2.0
1002
}
  0
INSERT
  5
416DC
330
4171F
100
AcDbEntity
  8
AluVierkantrohr_60x20x2
100
AcDbBlockReference
  2
AluVierkantrohr_60x20x2
 10
-60.0
 20
25.0
 30
0.0
  0
ENDBLK
  5
41721
330
4171F
100
AcDbEntity
  8
0
100
AcDbBlockEnd
  0
BLOCK
  5
417FD
330
417FC
100
AcDbEntity
  8
0
100
AcDbBlockBegin
  2
ST Mant_Pure Anfahrpfosten Seitenwand verschoben
 70
     0
 10
0.0
 20
0.0
 30
0.0
  3
ST Mant_Pure Anfahrpfosten Seitenwand verschoben
  1

  0
LINE
  5
42114
330
417FC
100
AcDbEntity
  8
09_BAU
100
AcDbLine
 10
0.0
 20
45.0
 30
0.0
 11
0.0
 21
128.4175606061362
 31
0.0
  0
HATCH
  5
42115
330
417FC
100
AcDbEntity
  8
05_SCHRAFFUR
100
AcDbHatch
 10
0.0
 20
0.0
 30
0.0
210
0.0
220
0.0
230
1.0
  2
AR-CONC
 70
     0
 71
     0
 91
        1
 92
        1
 93
        9
 72
     1
 10
0.0
 20
132.4091844408735
 11
0.0
 21
45.0
 72
     1
 10
0.0
 20
45.0
 11
-60.0
 21
45.0
 72
     1
 10
-60.0
 20
45.0
 11
-48.60707293433552
 21
60.36536182551481
 72
     1
 10
-48.60707293433552
 20
60.36536182551481
 11
-36.2624761007728
 21
67.81460767516728
 72
     1
 10
-36.2624761007728
 20
67.81460767516728
 11
-27.7190512750858
 21
79.12355097805084
 72
     1
 10
-27.7190512750858
 20
79.12355097805084
 11
-29.3353761389908
 21
99.20269677602096
 72
     1
 10
-29.3353761389908
 20
99.20269677602096
 11
-24.48640374654587
 21
110.0500508411232
 72
     1
 10
-24.48640374654587
 20
110.0500508411232
 11
-15.48117181688485
 21
118.5894573218706
 72
     1
 10
-15.48117181688485
 20
118.5894573218706
 11
0.0
 21
132.4091844408735
 97
        0
 75
     0
 76
     1
 52
0.0
 41
0.1
 77
     0
 78
    13
 53
50.0
 43
-3559.913344633787
 44
-1644.9743663614
 45
18.2184668996004
 46
-1.593908553890308
 79
     2
 49
1.905
 49
-20.955
 53
355.0
 43
-3559.913344633787
 44
-1644.9743663614
 45
-3.524282597566699
 46
19.105664288218
 79
     2
 49
1.524
 49
-16.764
 53
100.451
 43
-3558.395144633787
 44
-1645.107191361399
 45
14.69425016659592
 46
17.51166878202919
 79
     2
 49
1.619
 49
-17.809
 53
46.1842
 43
-3559.913344633787
 44
-1639.8943663614
 45
27.107904089213
 46
-4.204232793272715
 79
     2
 49
2.857499999999999
 49
-31.4325
 53
96.63559999999998
 43
-3557.654354633786
 44
-1640.244716361399
 45
23.74042344662372
 46
24.74255558900492
 79
     2
 49
2.428499999999995
 49
-26.71349999999997
 53
351.184
 43
-3559.913344633787
 44
-1639.8943663614
 45
23.74046058139339
 46
24.74251178605977
 79
     2
 49
2.286
 49
-25.146
 53
21.0
 43
-3557.373344633787
 44
-1641.164366361399
 45
15.16148798353833
 46
-10.22655185167625
 79
     2
 49
1.905
 49
-20.955
 53
326.0
 43
-3557.373344633787
 44
-1641.164366361399
 45
6.180202834764707
 46
18.41879661223192
 79
     2
 49
1.524
 49
-16.764
 53
71.45140000000001
 43
-3556.109894633787
 44
-1642.016576361399
 45
21.34164907701245
 46
8.192285771605744
 79
     2
 49
1.619
 49
-17.809
 53
37.5
 43
-3559.913344633787
 44
-1644.9743663614
 45
0.3088603250591817
 46
8.455503887315311
 79
     6
 49
0.0
 49
-16.5608
 49
0.0
 49
-17.018
 49
0.0
 49
-16.8275
 53
7.499999999999999
 43
-3559.913344633787
 44
-1644.9743663614
 45
6.681966251030575
 46
10.01805748181195
 79
     6
 49
0.0
 49
-9.702799999999999
 49
0.0
 49
-16.1798
 49
0.0
 49
-6.4135
 53
327.5
 43
-3565.577544633787
 44
-1644.9743663614
 45
13.55905951668714
 46
-0.5728743992673459
 79
     6
 49
0.0
 49
-6.35
 49
0.0
 49
-19.812
 49
0.0
 49
-26.289
 53
317.5
 43
-3568.117544633787
 44
-1644.9743663614
 45
14.8129181386018
 46
2.542649103333301
 79
     6
 49
0.0
 49
-8.255
 49
0.0
 49
-13.1572
 49
0.0
 49
-18.669
 98
        2
 10
-3559.913344633787
 20
-1644.9743663614
 10
-3559.96223134189
 20
-1644.9743663614
1001
ACAD
1010
0.0
1020
0.0
1030
0.0
  0
LINE
  5
42116
330
417FC
100
AcDbEntity
  8
09_BAU
100
AcDbLine
 10
0.0
 20
45.0
 30
0.0
 11
-60.0
 21
45.0
 31
0.0
  0
LINE
  5
42117
330
417FC
100
AcDbEntity
  8
09_BAU
100
AcDbLine
 10
0.0
 20
132.4091844408735
 30
0.0
 11
0.0
 21
45.0
 31
0.0
  0
LINE
  5
42118
330
417FC
100
AcDbEntity
  8
09_BAU
100
AcDbLine
 10
-60.0
 20
45.0
 30
0.0
 11
-48.60707293433552
 21
60.36536182551481
 31
0.0
  0
LINE
  5
42119
330
417FC
100
AcDbEntity
  8
09_BAU
100
AcDbLine
 10
-48.60707293433552
 20
60.36536182551481
 30
0.0
 11
-36.2624761007728
 21
67.81460767516728
 31
0.0
  0
LINE
  5
4211A
330
417FC
100
AcDbEntity
  8
09_BAU
100
AcDbLine
 10
-36.2624761007728
 20
67.81460767516728
 30
0.0
 11
-27.7190512750858
 21
79.12355097805084
 31
0.0
  0
LINE
  5
4211B
330
417FC
100
AcDbEntity
  8
09_BAU
100
AcDbLine
 10
-27.7190512750858
 20
79.12355097805084
 30
0.0
 11
-29.3353761389908
 21
99.20269677602096
 31
0.0
  0
LINE
  5
4211C
330
417FC
100
AcDbEntity
  8
09_BAU
100
AcDbLine
 10
-29.3353761389908
 20
99.20269677602096
 30
0.0
 11
-24.48640374654587
 21
110.0500508411232
 31
0.0
  0
LINE
  5
4211D
330
417FC
100
AcDbEntity
  8
09_BAU
100
AcDbLine
 10
-24.48640374654587
 20
110.0500508411232
 30
0.0
 11
-15.48117181688485
 21
118.5894573218706
 31
0.0
  0
LINE
  5
4211E
330
417FC
100
AcDbEntity
  8
09_BAU
100
AcDbLine
 10
-15.48117181688485
 20
118.5894573218706
 30
0.0
 11
0.0
 21
132.4091844408735
 31
0.0
  0
DIMENSION
  5
4211F
330
417FC
100
AcDbEntity
  8
02_BEMASSUNG
100
AcDbDimension
  2
*D15
 10
25.00000000000001
 20
4.198858342648229
 30
0.0
 11
-4.999999999999992
 21
4.198858342648229
 31
0.0
 70
   160
 71
     5
 42
60.0
  3
DORMA
100
AcDbAlignedDimension
 13
-35.0
 23
24.99999999999999
 33
0.0
 14
25.00000000000001
 24
25.0
 34
0.0
100
AcDbRotatedDimension
1001
ACAD
1000
DSTYLE
1002
{
1070
    40
1040
2.0
1002
}
  0
DIMENSION
  5
42120
330
417FC
100
AcDbEntity
  8
02_BEMASSUNG
100
AcDbDimension
  2
*D16
 10
25.0
 20
94.27814284368219
 30
0.0
 11
81.52123489526003
 21
94.27814284368219
 31
0.0
 70
   160
  1
\C2;LW
 71
     5
 42
184.5999899999997
  3
DORMA
100
AcDbAlignedDimension
 13
209.5999899999997
 23
74.13117000874786
 33
0.0
 14
25.0
 24
45.0
 34
0.0
100
AcDbRotatedDimension
1001
ACAD
1000
DSTYLE
1002
{
1070
    40
1040
2.0
1070
    75
1070
     1
1070
   281
1070
     1
1070
   282
1070
     0
1002
}
  0
DIMENSION
  5
42121
330
417FC
100
AcDbEntity
  8
02_BEMASSUNG
100
AcDbDimension
  2
*D17
 10
-48.19532726212672
 20
25.0
 30
0.0
 11
-48.19532726212673
 21
34.99999500000001
 31
0.0
 70
   160
 71
     5
 42
19.99999000000002
  3
DORMA
100
AcDbAlignedDimension
 13
-35.00000999999974
 23
44.99999000000002
 33
0.0
 14
-35.0
 24
25.0
 34
0.0
 50
90.0
100
AcDbRotatedDimension
1001
ACAD
1000
DSTYLE
1002
{
1070
    40
1040
2.0
1002
}
  0
INSERT
  5
42122
330
417FC
100
AcDbEntity
  8
AluVierkantrohr_60x20x2
100
AcDbBlockReference
  2
AluVierkantrohr_60x20x2
 10
-35.0
 20
25.0
 30
0.0
  0
ENDBLK
  5
417FE
330
417FC
100
AcDbEntity
  8
0
100
AcDbBlockEnd
  0
BLOCK
  5
41C81
330
41C80
100
AcDbEntity
  8
0
100
AcDbBlockBegin
  2
ST Manet_Pure Anfahrpfosten Querwand LW -60mm
 70
     0
 10
0.0
 20
0.0
 30
0.0
  3
ST Manet_Pure Anfahrpfosten Querwand LW -60mm
  1

  0
DIMENSION
  5
41C8A
330
41C80
100
AcDbEntity
  8
02_BEMASSUNG
100
AcDbDimension
  2
*D12
 10
0.00161596656471
 20
90.33227090193667
 30
0.0
 11
56.52123489526002
 21
90.33227090193667
 31
0.0
 70
   160
  1
\C2;LW
 71
     5
 42
184.5999899999997
  3
DORMA
100
AcDbAlignedDimension
 13
184.6016059665644
 23
73.99977811218241
 33
0.0
 14
0.0016159665647066
 24
34.99999000000002
 34
0.0
100
AcDbRotatedDimension
1001
ACAD
1000
DSTYLE
1002
{
1070
    75
1070
     1
1070
   281
1070
     1
1070
   282
1070
     0
1070
    40
1040
2.0
1002
}
  0
DIMENSION
  5
41C8B
330
41C80
100
AcDbEntity
  8
02_BEMASSUNG
100
AcDbDimension
  2
*D13
 10
-79.22082955661426
 20
-5.000009999999969
 30
0.0
 11
-79.22082955661426
 21
14.99999000000002
 31
0.0
 70
   160
 71
     5
 42
40.0
  3
DORMA
100
AcDbAlignedDimension
 13
-60.00000999999974
 23
34.99999000000002
 33
0.0
 14
-60.00000999999975
 24
-5.000009999999974
 34
0.0
 50
90.0
100
AcDbRotatedDimension
1001
ACAD
1000
DSTYLE
1002
{
1070
    40
1040
2.0
1002
}
  0
LINE
  5
41CB2
330
41C80
100
AcDbEntity
  8
09_BAU
100
AcDbLine
 10
-60.00000999999975
 20
-7.725857595866273
 30
0.0
 11
-60.00000999999975
 21
78.99910181621454
 31
0.0
  0
DIMENSION
  5
41CB3
330
41C80
100
AcDbEntity
  8
02_BEMASSUNG
100
AcDbDimension
  2
*D14
 10
-60.00000999999975
 20
-33.18779900824939
 30
0.0
 11
-30.00000999999975
 21
-33.18779900824939
 31
0.0
 70
   160
 71
     5
 42
60.0
  3
DORMA
100
AcDbAlignedDimension
 13
-0.0000099999997474
 23
-5.000009999999974
 33
0.0
 14
-60.00000999999975
 24
-15.00000999999997
 34
0.0
100
AcDbRotatedDimension
1001
ACAD
1000
DSTYLE
1002
{
1070
    40
1040
2.0
1002
}
  0
LINE
  5
41CB6
330
41C80
100
AcDbEntity
  8
05_SCHRAFFUR
100
AcDbLine
 10
-88.76445949541176
 20
82.39775548609214
 30
0.0
 11
-87.53994909895846
 21
83.85707015023376
 31
0.0
1001
ACAD
1010
0.0
1020
0.0
1030
0.0
  0
LINE
  5
41CB7
330
41C80
100
AcDbEntity
  8
05_SCHRAFFUR
100
AcDbLine
 10
-99.93424211068031
 20
45.78029499280205
 30
0.0
 11
-98.70973171422702
 21
47.23960965694368
 31
0.0
1001
ACAD
1010
0.0
1020
0.0
1030
0.0
  0
LINE
  5
41CB8
330
41C80
100
AcDbEntity
  8
05_SCHRAFFUR
100
AcDbLine
 10
-85.24011735324529
 20
63.29207096250184
 30
0.0
 11
-84.01560695679199
 21
64.75138562664347
 31
0.0
1001
ACAD
1010
0.0
1020
0.0
1030
0.0
  0
LINE
  5
41CB9
330
41C80
100
AcDbEntity
  8
05_SCHRAFFUR
100
AcDbLine
 10
-70.54599259581028
 20
80.80384693220162
 30
0.0
 11
-69.32148219935697
 21
82.26316159634325
 31
0.0
1001
ACAD
1010
0.0
1020
0.0
1030
0.0
  0
LINE
  5
41CBA
330
41C80
100
AcDbEntity
  8
05_SCHRAFFUR
100
AcDbLine
 10
-111.1040247259484
 20
9.162834499512428
 30
0.0
 11
-109.8795143294956
 21
10.62214916365405
 31
0.0
1001
ACAD
1010
0.0
1020
0.0
1030
0.0
  0
LINE
  5
41CBB
330
41C80
100
AcDbEntity
  8
05_SCHRAFFUR
100
AcDbLine
 10
-67.02165045364381
 20
61.69816240861178
 30
0.0
 11
-65.79714005719051
 21
63.15747707275341
 31
0.0
1001
ACAD
1010
0.0
1020
0.0
1030
0.0
  0
LINE
  5
41CBC
330
41C80
100
AcDbEntity
  8
05_SCHRAFFUR
100
AcDbLine
 10
-107.5796825837819
 20
-9.942850024077642
 30
0.0
 11
-106.3551721873291
 21
-8.483535359936013
 31
0.0
1001
ACAD
1010
0.0
1020
0.0
1030
0.0
  0
LINE
  5
41CBD
330
41C80
100
AcDbEntity
  8
05_SCHRAFFUR
100
AcDbLine
 10
-104.0553404416155
 20
-29.04853454766749
 30
0.0
 11
-102.8308300451626
 21
-27.58921988352586
 31
0.0
1001
ACAD
1010
0.0
1020
0.0
1030
0.0
  0
LINE
  5
41CBE
330
41C80
100
AcDbEntity
  8
05_SCHRAFFUR
100
AcDbLine
 10
-100.5309982994504
 20
-48.15421907125801
 30
0.0
 11
-99.30648790299711
 21
-46.69490440711638
 31
0.0
1001
ACAD
1010
0.0
1020
0.0
1030
0.0
  0
LINE
  5
41CBF
330
41C80
100
AcDbEntity
  8
05_SCHRAFFUR
100
AcDbLine
 10
-85.83687354201538
 20
-30.64244310155823
 30
0.0
 11
-84.61236314556208
 21
-29.1831284374166
 31
0.0
1001
ACAD
1010
0.0
1020
0.0
1030
0.0
  0
LINE
  5
41CC0
330
41C80
100
AcDbEntity
  8
05_SCHRAFFUR
100
AcDbLine
 10
-82.31253139984891
 20
-49.74812762514829
 30
0.0
 11
-81.08802100339563
 21
-48.28881296100667
 31
0.0
1001
ACAD
1010
0.0
1020
0.0
1030
0.0
  0
LINE
  5
41CC1
330
41C80
100
AcDbEntity
  8
05_SCHRAFFUR
100
AcDbLine
 10
-67.6184066424139
 20
-32.23635165544852
 30
0.0
 11
-66.3938962459606
 21
-30.77703699130689
 31
0.0
1001
ACAD
1010
0.0
1020
0.0
1030
0.0
  0
LINE
  5
41CC2
330
41C80
100
AcDbEntity
  8
05_SCHRAFFUR
100
AcDbLine
 10
-64.09406450024926
 20
-51.34203617903859
 30
0.0
 11
-62.86955410379596
 21
-49.88272151489695
 31
0.0
1001
ACAD
1010
0.0
1020
0.0
1030
0.0
  0
LINE
  5
41CC3
330
41C80
100
AcDbEntity
  8
05_SCHRAFFUR
100
AcDbLine
 10
-88.77038255657316
 20
82.39651994608335
 30
0.0
 11
-87.25218183668131
 21
82.2636945941358
 31
0.0
1001
ACAD
1010
0.0
1020
0.0
1030
0.0
  0
LINE
  5
41CC4
330
41C80
100
AcDbEntity
  8
05_SCHRAFFUR
100
AcDbLine
 10
-70.55197391787169
 20
80.8026157227141
 30
0.0
 11
-69.03377319797982
 21
80.66979037076658
 31
0.0
1001
ACAD
1010
0.0
1020
0.0
1030
0.0
  0
LINE
  5
41CC5
330
41C80
100
AcDbEntity
  8
05_SCHRAFFUR
100
AcDbLine
 10
-85.24609995900574
 20
63.29085565786499
 30
0.0
 11
-83.72789923911387
 21
63.15803030591746
 31
0.0
1001
ACAD
1010
0.0
1020
0.0
1030
0.0
  0
LINE
  5
41CC6
330
41C80
100
AcDbEntity
  8
05_SCHRAFFUR
100
AcDbLine
 10
-67.02769132030425
 20
61.69695143449576
 30
0.0
 11
-65.50949060041239
 21
61.56412608254822
 31
0.0
1001
ACAD
1010
0.0
1020
0.0
1030
0.0
  0
LINE
  5
41CC7
330
41C80
100
AcDbEntity
  8
05_SCHRAFFUR
100
AcDbLine
 10
-99.94022600014069
 20
45.77909559301611
 30
0.0
 11
-98.42202528024882
 21
45.64627024106857
 31
0.0
1001
ACAD
1010
0.0
1020
0.0
1030
0.0
  0
LINE
  5
41CC8
330
41C80
100
AcDbEntity
  8
05_SCHRAFFUR
100
AcDbLine
 10
-111.1100694437095
 20
9.161671239949555
 30
0.0
 11
-109.5918687238177
 21
9.028845888002024
 31
0.0
1001
ACAD
1010
0.0
1020
0.0
1030
0.0
  0
LINE
  5
41CC9
330
41C80
100
AcDbEntity
  8
05_SCHRAFFUR
100
AcDbLine
 10
-107.5857868461421
 20
-9.943993048268566
 30
0.0
 11
-106.0675861262502
 21
-10.0768184002161
 31
0.0
1001
ACAD
1010
0.0
1020
0.0
1030
0.0
  0
LINE
  5
41CCA
330
41C80
100
AcDbEntity
  8
05_SCHRAFFUR
100
AcDbLine
 10
-104.0615042485756
 20
-29.04965733648669
 30
0.0
 11
-102.5433035286837
 21
-29.18248268843422
 31
0.0
1001
ACAD
1010
0.0
1020
0.0
1030
0.0
  0
LINE
  5
41CCB
330
41C80
100
AcDbEntity
  8
05_SCHRAFFUR
100
AcDbLine
 10
-85.84309560987367
 20
-30.64356155985592
 30
0.0
 11
-84.3248948899818
 21
-30.77638691180346
 31
0.0
1001
ACAD
1010
0.0
1020
0.0
1030
0.0
  0
LINE
  5
41CCC
330
41C80
100
AcDbEntity
  8
05_SCHRAFFUR
100
AcDbLine
 10
-67.6246869711722
 20
-32.23746578322516
 30
0.0
 11
-66.10648625128033
 21
-32.37029113517269
 31
0.0
1001
ACAD
1010
0.0
1020
0.0
1030
0.0
  0
LINE
  5
41CCD
330
41C80
100
AcDbEntity
  8
05_SCHRAFFUR
100
AcDbLine
 10
-100.5372216510086
 20
-48.15532162470458
 30
0.0
 11
-99.01902093111676
 21
-48.28814697665212
 31
0.0
1001
ACAD
1010
0.0
1020
0.0
1030
0.0
  0
LINE
  5
41CCE
330
41C80
100
AcDbEntity
  8
05_SCHRAFFUR
100
AcDbLine
 10
-82.31881301230714
 20
-49.74922584807382
 30
0.0
 11
-80.80061229241527
 21
-49.88205120002135
 31
0.0
1001
ACAD
1010
0.0
1020
0.0
1030
0.0
  0
LINE
  5
41CCF
330
41C80
100
AcDbEntity
  8
05_SCHRAFFUR
100
AcDbLine
 10
-64.10040437360567
 20
-51.34313007144306
 30
0.0
 11
-62.5822036537138
 21
-51.47595542339058
 31
0.0
1001
ACAD
1010
0.0
1020
0.0
1030
0.0
  0
LINE
  5
41CD0
330
41C80
100
AcDbEntity
  8
05_SCHRAFFUR
100
AcDbLine
 10
-99.00943652726528
 20
-48.31072188889061
 30
0.0
 11
-99.30311433320003
 21
-46.71858045475187
 31
0.0
1001
ACAD
1010
0.0
1020
0.0
1030
0.0
  0
LINE
  5
41CD1
330
41C80
100
AcDbEntity
  8
05_SCHRAFFUR
100
AcDbLine
 10
-102.5335701984822
 20
-29.20502467922574
 30
0.0
 11
-102.827248004417
 21
-27.61288324508701
 31
0.0
1001
ACAD
1010
0.0
1020
0.0
1030
0.0
  0
LINE
  5
41CD2
330
41C80
100
AcDbEntity
  8
05_SCHRAFFUR
100
AcDbLine
 10
-106.0577038696992
 20
-10.09932746956087
 30
0.0
 11
-106.351381675634
 21
-8.507186035422137
 31
0.0
1001
ACAD
1010
0.0
1020
0.0
1030
0.0
  0
LINE
  5
41CD3
330
41C80
100
AcDbEntity
  8
05_SCHRAFFUR
100
AcDbLine
 10
-109.5818375409162
 20
9.006369740103991
 30
0.0
 11
-109.875515346851
 21
10.59851117424273
 31
0.0
1001
ACAD
1010
0.0
1020
0.0
1030
0.0
  0
LINE
  5
41CD4
330
41C80
100
AcDbEntity
  8
05_SCHRAFFUR
100
AcDbLine
 10
-80.79105268945113
 20
-49.90475031652682
 30
0.0
 11
-81.08473049538588
 21
-48.31260888238808
 31
0.0
1001
ACAD
1010
0.0
1020
0.0
1030
0.0
  0
LINE
  5
41CD5
330
41C80
100
AcDbEntity
  8
05_SCHRAFFUR
100
AcDbLine
 10
-84.31518636066812
 20
-30.79905310686195
 30
0.0
 11
-84.60886416660287
 21
-29.20691167272321
 31
0.0
1001
ACAD
1010
0.0
1020
0.0
1030
0.0
  0
LINE
  5
41CD6
330
41C80
100
AcDbEntity
  8
05_SCHRAFFUR
100
AcDbLine
 10
-98.41172104553606
 20
45.62373573179752
 30
0.0
 11
-98.70539885147081
 21
47.21587716593626
 31
0.0
1001
ACAD
1010
0.0
1020
0.0
1030
0.0
  0
LINE
  5
41CD7
330
41C80
100
AcDbEntity
  8
05_SCHRAFFUR
100
AcDbLine
 10
-62.57266885163881
 20
-51.49877874416211
 30
0.0
 11
-62.86634665757356
 21
-49.90663731002337
 31
0.0
1001
ACAD
1010
0.0
1020
0.0
1030
0.0
  0
LINE
  5
41CD8
330
41C80
100
AcDbEntity
  8
05_SCHRAFFUR
100
AcDbLine
 10
-66.09680252285579
 20
-32.39308153449724
 30
0.0
 11
-66.39048032879054
 21
-30.8009401003585
 31
0.0
1001
ACAD
1010
0.0
1020
0.0
1030
0.0
  0
LINE
  5
41CD9
330
41C80
100
AcDbEntity
  8
05_SCHRAFFUR
100
AcDbLine
 10
-83.71747087894073
 20
63.1354045138271
 30
0.0
 11
-84.01114868487548
 21
64.72754594796583
 31
0.0
1001
ACAD
1010
0.0
1020
0.0
1030
0.0
  0
LINE
  5
41CDA
330
41C80
100
AcDbEntity
  8
05_SCHRAFFUR
100
AcDbLine
 10
-87.24160455015772
 20
82.24110172349197
 30
0.0
 11
-87.53528235609246
 21
83.8332431576307
 31
0.0
1001
ACAD
1010
0.0
1020
0.0
1030
0.0
  0
LINE
  5
41CDB
330
41C80
100
AcDbEntity
  8
05_SCHRAFFUR
100
AcDbLine
 10
-65.49908704112841
 20
61.54137608619112
 30
0.0
 11
-65.79276484706316
 21
63.13351752032986
 31
0.0
1001
ACAD
1010
0.0
1020
0.0
1030
0.0
  0
LINE
  5
41CDC
330
41C80
100
AcDbEntity
  8
05_SCHRAFFUR
100
AcDbLine
 10
-69.02322071234539
 20
80.64707329585599
 30
0.0
 11
-69.31689851828014
 21
82.23921472999473
 31
0.0
1001
ACAD
1010
0.0
1020
0.0
1030
0.0
  0
LINE
  5
41CDD
330
41C80
100
AcDbEntity
  8
05_SCHRAFFUR
100
AcDbLine
 10
-89.94365429859682
 20
78.870029219358
 30
0.0
 11
-87.9652865146445
 21
80.93191359085357
 31
0.0
1001
ACAD
1010
0.0
1020
0.0
1030
0.0
  0
LINE
  5
41CDE
330
41C80
100
AcDbEntity
  8
05_SCHRAFFUR
100
AcDbLine
 10
-109.7918126538929
 20
25.72748875314528
 30
0.0
 11
-108.3382092402958
 21
27.24245588168424
 31
0.0
1001
ACAD
1010
0.0
1020
0.0
1030
0.0
  0
LINE
  5
41CDF
330
41C80
100
AcDbEntity
  8
05_SCHRAFFUR
100
AcDbLine
 10
-62.83575020938406
 20
74.6657964260844
 30
0.0
 11
-60.85738242543175
 21
76.72768079757998
 31
0.0
1001
ACAD
1010
0.0
1020
0.0
1030
0.0
  0
LINE
  5
41CE0
330
41C80
100
AcDbEntity
  8
05_SCHRAFFUR
100
AcDbLine
 10
-106.9490863424685
 20
-3.766273741032136
 30
0.0
 11
-104.9707185585157
 21
-1.704389369536556
 31
0.0
1001
ACAD
1010
0.0
1020
0.0
1030
0.0
  0
LINE
  5
41CE1
330
41C80
100
AcDbEntity
  8
05_SCHRAFFUR
100
AcDbLine
 10
-103.581595660687
 20
-32.7131189922527
 30
0.0
 11
-101.6032278767343
 21
-30.65123462075713
 31
0.0
1001
ACAD
1010
0.0
1020
0.0
1030
0.0
  0
LINE
  5
41CE2
330
41C80
100
AcDbEntity
  8
05_SCHRAFFUR
100
AcDbLine
 10
-76.47369157147386
 20
-36.91735178552472
 30
0.0
 11
-74.49532378752156
 21
-34.85546741402913
 31
0.0
1001
ACAD
1010
0.0
1020
0.0
1030
0.0
  0
LINE
  5
41CE3
330
41C80
100
AcDbEntity
  8
05_SCHRAFFUR
100
AcDbLine
 10
-101.3216048993399
 20
-33.06730510532066
 30
0.0
 11
-101.6022286328098
 21
-30.65507324038458
 31
0.0
1001
ACAD
1010
0.0
1020
0.0
1030
0.0
  0
LINE
  5
41CE4
330
41C80
100
AcDbEntity
  8
05_SCHRAFFUR
100
AcDbLine
 10
-104.6890897009802
 20
-4.120522726087074
 30
0.0
 11
-104.9697134344501
 21
-1.708290861150999
 31
0.0
1001
ACAD
1010
0.0
1020
0.0
1030
0.0
  0
LINE
  5
41CE5
330
41C80
100
AcDbEntity
  8
05_SCHRAFFUR
100
AcDbLine
 10
-108.0565745026206
 20
24.82625965314651
 30
0.0
 11
-108.3371982360904
 21
27.23849151808258
 31
0.0
1001
ACAD
1010
0.0
1020
0.0
1030
0.0
  0
LINE
  5
41CE6
330
41C80
100
AcDbEntity
  8
05_SCHRAFFUR
100
AcDbLine
 10
-74.21369665107613
 20
-37.2715318955502
 30
0.0
 11
-74.49432038454597
 21
-34.85930003061412
 31
0.0
1001
ACAD
1010
0.0
1020
0.0
1030
0.0
  0
LINE
  5
41CE7
330
41C80
100
AcDbEntity
  8
05_SCHRAFFUR
100
AcDbLine
 10
-87.68363585763927
 20
78.51559762138413
 30
0.0
 11
-87.9642595911091
 21
80.9278294863202
 31
0.0
1001
ACAD
1010
0.0
1020
0.0
1030
0.0
  0
LINE
  5
41CE8
330
41C80
100
AcDbEntity
  8
05_SCHRAFFUR
100
AcDbLine
 10
-60.57572760937365
 20
74.31137083115618
 30
0.0
 11
-60.85635134284348
 21
76.72360269609225
 31
0.0
1001
ACAD
1010
0.0
1020
0.0
1030
0.0
  0
LINE
  5
41CE9
330
41C80
100
AcDbEntity
  8
05_SCHRAFFUR
100
AcDbLine
 10
-89.93974629189597
 20
78.8595343520692
 30
0.0
 11
-87.68075396180938
 21
78.50917788700826
 31
0.0
1001
ACAD
1010
0.0
1020
0.0
1030
0.0
  0
LINE
  5
41CEA
330
41C80
100
AcDbEntity
  8
05_SCHRAFFUR
100
AcDbLine
 10
-62.83183833085695
 20
74.65525677133882
 30
0.0
 11
-60.57284600077037
 21
74.30490030627789
 31
0.0
1001
ACAD
1010
0.0
1020
0.0
1030
0.0
  0
LINE
  5
41CEB
330
41C80
100
AcDbEntity
  8
05_SCHRAFFUR
100
AcDbLine
 10
-109.8613302352396
 20
25.10021916814299
 30
0.0
 11
-108.053767163557
 21
24.81987673415825
 31
0.0
1001
ACAD
1010
0.0
1020
0.0
1030
0.0
  0
LINE
  5
41CEC
330
41C80
100
AcDbEntity
  8
05_SCHRAFFUR
100
AcDbLine
 10
-106.9453121139977
 20
-3.776556167571243
 30
0.0
 11
-104.6863197839111
 21
-4.126912632632183
 31
0.0
1001
ACAD
1010
0.0
1020
0.0
1030
0.0
  0
LINE
  5
41CED
330
41C80
100
AcDbEntity
  8
05_SCHRAFFUR
100
AcDbLine
 10
-103.5778647343527
 20
-32.72334553436076
 30
0.0
 11
-101.3188724042656
 21
-33.0737019994217
 31
0.0
1001
ACAD
1010
0.0
1020
0.0
1030
0.0
  0
LINE
  5
41CEE
330
41C80
100
AcDbEntity
  8
05_SCHRAFFUR
100
AcDbLine
 10
-76.46995677331324
 20
-36.92762311509114
 30
0.0
 11
-74.21096444322666
 21
-37.27797958015208
 31
0.0
1001
ACAD
1010
0.0
1020
0.0
1030
0.0
  0
LINE
  5
41CEF
330
41C80
100
AcDbEntity
  8
05_SCHRAFFUR
100
AcDbLine
 10
-67.08137456230997
 20
97.35683235345163
 30
0.0
 11
-66.73809913989316
 21
97.48860344222908
 31
0.0
1001
ACAD
1010
0.0
1020
0.0
1030
0.0
  0
LINE
  5
41CF0
330
41C80
100
AcDbEntity
  8
05_SCHRAFFUR
100
AcDbLine
 10
-94.603183678224
 20
70.7456978485643
 30
0.0
 11
-92.82471296574659
 21
71.428388792448
 31
0.0
1001
ACAD
1010
0.0
1020
0.0
1030
0.0
  0
LINE
  5
41CF1
330
41C80
100
AcDbEntity
  8
05_SCHRAFFUR
100
AcDbLine
 10
-73.2615351284976
 20
78.93798917516983
 30
0.0
 11
-71.48306441602017
 21
79.62068011905353
 31
0.0
1001
ACAD
1010
0.0
1020
0.0
1030
0.0
  0
LINE
  5
41CF2
330
41C80
100
AcDbEntity
  8
05_SCHRAFFUR
100
AcDbLine
 10
-100.7833442444116
 20
52.32685467028227
 30
0.0
 11
-99.00487353193421
 21
53.00954561416597
 31
0.0
1001
ACAD
1010
0.0
1020
0.0
1030
0.0
  0
LINE
  5
41CF3
330
41C80
100
AcDbEntity
  8
05_SCHRAFFUR
100
AcDbLine
 10
-79.44169569468522
 20
60.5191459968878
 30
0.0
 11
-77.66322498220779
 21
61.2018369407715
 31
0.0
1001
ACAD
1010
0.0
1020
0.0
1030
0.0
  0
LINE
  5
41CF4
330
41C80
100
AcDbEntity
  8
05_SCHRAFFUR
100
AcDbLine
 10
-106.9635048105992
 20
33.90801149200047
 30
0.0
 11
-105.1850340981223
 21
34.59070243588417
 31
0.0
1001
ACAD
1010
0.0
1020
0.0
1030
0.0
  0
LINE
  5
41CF5
330
41C80
100
AcDbEntity
  8
05_SCHRAFFUR
100
AcDbLine
 10
-104.1623379594357
 20
-13.15622671623896
 30
0.0
 11
-102.3838672469587
 21
-12.47353577235526
 31
0.0
1001
ACAD
1010
0.0
1020
0.0
1030
0.0
  0
LINE
  5
41CF6
330
41C80
100
AcDbEntity
  8
05_SCHRAFFUR
100
AcDbLine
 10
-108.7794942063738
 20
-30.97508874975597
 30
0.0
 11
-108.5640278131468
 21
-30.8923789506373
 31
0.0
1001
ACAD
1010
0.0
1020
0.0
1030
0.0
  0
LINE
  5
41CF7
330
41C80
100
AcDbEntity
  8
05_SCHRAFFUR
100
AcDbLine
 10
-89.00084997589784
 20
-23.38277856791547
 30
0.0
 11
-87.22237926342041
 21
-22.70008762403177
 31
0.0
1001
ACAD
1010
0.0
1020
0.0
1030
0.0
  0
LINE
  5
41CF8
330
41C80
100
AcDbEntity
  8
05_SCHRAFFUR
100
AcDbLine
 10
-95.18101054208637
 20
-41.80162174619726
 30
0.0
 11
-93.40253982960893
 21
-41.11893080231356
 31
0.0
1001
ACAD
1010
0.0
1020
0.0
1030
0.0
  0
LINE
  5
41CF9
330
41C80
100
AcDbEntity
  8
05_SCHRAFFUR
100
AcDbLine
 10
-73.83936199235995
 20
-33.60933041959174
 30
0.0
 11
-72.06089127988253
 21
-32.92663947570805
 31
0.0
1001
ACAD
1010
0.0
1020
0.0
1030
0.0
  0
LINE
  5
41CFA
330
41C80
100
AcDbEntity
  8
05_SCHRAFFUR
100
AcDbLine
 10
-80.01952255854758
 20
-52.02817359787355
 30
0.0
 11
-78.24105184607015
 21
-51.34548265398985
 31
0.0
1001
ACAD
1010
0.0
1020
0.0
1030
0.0
  0
LINE
  5
41CFB
330
41C80
100
AcDbEntity
  8
05_SCHRAFFUR
100
AcDbLine
 10
-64.85803457500878
 20
-62.25472544954982
 30
0.0
 11
-63.07956386253136
 21
-61.57203450566612
 31
0.0
1001
ACAD
1010
0.0
1020
0.0
1030
0.0
  0
LINE
  5
41CFC
330
41C80
100
AcDbEntity
  8
05_SCHRAFFUR
100
AcDbLine
 10
-67.08143012469554
 20
97.35349417902558
 30
0.0
 11
-65.8179768641221
 21
96.50128419413613
 31
0.0
1001
ACAD
1010
0.0
1020
0.0
1030
0.0
  0
LINE
  5
41CFD
330
41C80
100
AcDbEntity
  8
05_SCHRAFFUR
100
AcDbLine
 10
-73.26163295946026
 20
78.93469756679474
 30
0.0
 11
-71.99817969888681
 21
78.08248758190529
 31
0.0
1001
ACAD
1010
0.0
1020
0.0
1030
0.0
  0
LINE
  5
41CFE
330
41C80
100
AcDbEntity
  8
05_SCHRAFFUR
100
AcDbLine
 10
-94.60327492111265
 20
70.7424207732356
 30
0.0
 11
-93.33982166053919
 21
69.89021078834617
 31
0.0
1001
ACAD
1010
0.0
1020
0.0
1030
0.0
  0
LINE
  5
41CFF
330
41C80
100
AcDbEntity
  8
05_SCHRAFFUR
100
AcDbLine
 10
-79.44183579422679
 20
60.51590095456254
 30
0.0
 11
-78.17838253365334
 21
59.66369096967309
 31
0.0
1001
ACAD
1010
0.0
1020
0.0
1030
0.0
  0
LINE
  5
41D00
330
41C80
100
AcDbEntity
  8
05_SCHRAFFUR
100
AcDbLine
 10
-100.7834777558764
 20
52.32362416100341
 30
0.0
 11
-99.52002449530301
 21
51.47141417611397
 31
0.0
1001
ACAD
1010
0.0
1020
0.0
1030
0.0
  0
LINE
  5
41D01
330
41C80
100
AcDbEntity
  8
05_SCHRAFFUR
100
AcDbLine
 10
-106.9636805906416
 20
33.90482754877166
 30
0.0
 11
-105.7002273300677
 21
33.05261756388222
 31
0.0
1001
ACAD
1010
0.0
1020
0.0
1030
0.0
  0
LINE
  5
41D02
330
41C80
100
AcDbEntity
  8
05_SCHRAFFUR
100
AcDbLine
 10
-104.1626471332838
 20
-13.1592854943658
 30
0.0
 11
-102.8991938727099
 21
-14.01149547925524
 31
0.0
1001
ACAD
1010
0.0
1020
0.0
1030
0.0
  0
LINE
  5
41D03
330
41C80
100
AcDbEntity
  8
05_SCHRAFFUR
100
AcDbLine
 10
-89.00120800639706
 20
-23.38580531303887
 30
0.0
 11
-87.73775474582363
 21
-24.23801529792831
 31
0.0
1001
ACAD
1010
0.0
1020
0.0
1030
0.0
  0
LINE
  5
41D04
330
41C80
100
AcDbEntity
  8
05_SCHRAFFUR
100
AcDbLine
 10
-73.83976887951121
 20
-33.61232513171194
 30
0.0
 11
-72.57631561893777
 21
-34.46453511660138
 31
0.0
1001
ACAD
1010
0.0
1020
0.0
1030
0.0
  0
LINE
  5
41D05
330
41C80
100
AcDbEntity
  8
05_SCHRAFFUR
100
AcDbLine
 10
-95.18141084116269
 20
-41.80460192526971
 30
0.0
 11
-93.91795758058924
 21
-42.65681191015914
 31
0.0
1001
ACAD
1010
0.0
1020
0.0
1030
0.0
  0
LINE
  5
41D06
330
41C80
100
AcDbEntity
  8
05_SCHRAFFUR
100
AcDbLine
 10
-80.01997171427683
 20
-52.03112174394277
 30
0.0
 11
-78.75651845370339
 21
-52.88333172883222
 31
0.0
1001
ACAD
1010
0.0
1020
0.0
1030
0.0
  0
LINE
  5
41D07
330
41C80
100
AcDbEntity
  8
05_SCHRAFFUR
100
AcDbLine
 10
-64.85853258739098
 20
-62.25764156261584
 30
0.0
 11
-63.59507932681754
 21
-63.10985154750529
 31
0.0
1001
ACAD
1010
0.0
1020
0.0
1030
0.0
  0
LINE
  5
41D08
330
41C80
100
AcDbEntity
  8
05_SCHRAFFUR
100
AcDbLine
 10
-105.6987751646911
 20
33.05400393295645
 30
0.0
 11
-105.1837567928569
 21
34.58890362892134
 31
0.0
1001
ACAD
1010
0.0
1020
0.0
1030
0.0
  0
LINE
  5
41D09
330
41C80
100
AcDbEntity
  8
05_SCHRAFFUR
100
AcDbLine
 10
-99.51855470267766
 20
51.47280028453474
 30
0.0
 11
-99.00353633084343
 21
53.00769998049964
 31
0.0
1001
ACAD
1010
0.0
1020
0.0
1030
0.0
  0
LINE
  5
41D0A
330
41C80
100
AcDbEntity
  8
05_SCHRAFFUR
100
AcDbLine
 10
-93.33833424066416
 20
69.89159663611303
 30
0.0
 11
-92.82331586882992
 21
71.42649633207793
 31
0.0
1001
ACAD
1010
0.0
1020
0.0
1030
0.0
  0
LINE
  5
41D0B
330
41C80
100
AcDbEntity
  8
05_SCHRAFFUR
100
AcDbLine
 10
-108.6829853635813
 20
-31.25161726072338
 30
0.0
 11
-108.5629895638981
 21
-30.89399600578622
 31
0.0
1001
ACAD
1010
0.0
1020
0.0
1030
0.0
  0
LINE
  5
41D0C
330
41C80
100
AcDbEntity
  8
05_SCHRAFFUR
100
AcDbLine
 10
-102.8977874737193
 20
-14.01009935017282
 30
0.0
 11
-102.382769101885
 21
-12.47519965420792
 31
0.0
1001
ACAD
1010
0.0
1020
0.0
1030
0.0
  0
LINE
  5
41D0D
330
41C80
100
AcDbEntity
  8
05_SCHRAFFUR
100
AcDbLine
 10
-78.17690562566531
 20
59.66508605614035
 30
0.0
 11
-77.66188725383108
 21
61.19998575210525
 31
0.0
1001
ACAD
1010
0.0
1020
0.0
1030
0.0
  0
LINE
  5
41D0E
330
41C80
100
AcDbEntity
  8
05_SCHRAFFUR
100
AcDbLine
 10
-71.99668516365182
 20
78.08388240771865
 30
0.0
 11
-71.48166679181759
 21
79.61878210368354
 31
0.0
1001
ACAD
1010
0.0
1020
0.0
1030
0.0
  0
LINE
  5
41D0F
330
41C80
100
AcDbEntity
  8
05_SCHRAFFUR
100
AcDbLine
 10
-65.81646470163832
 20
96.50267875929694
 30
0.0
 11
-65.58749249949233
 21
97.18508036413119
 31
0.0
1001
ACAD
1010
0.0
1020
0.0
1030
0.0
  0
LINE
  5
41D10
330
41C80
100
AcDbEntity
  8
05_SCHRAFFUR
100
AcDbLine
 10
-93.91657932073304
 20
-42.65540628172312
 30
0.0
 11
-93.40156094889881
 21
-41.12050658575822
 31
0.0
1001
ACAD
1010
0.0
1020
0.0
1030
0.0
  0
LINE
  5
41D11
330
41C80
100
AcDbEntity
  8
05_SCHRAFFUR
100
AcDbLine
 10
-87.73635885871954
 20
-24.23660993014483
 30
0.0
 11
-87.22134048688531
 21
-22.70171023417993
 31
0.0
1001
ACAD
1010
0.0
1020
0.0
1030
0.0
  0
LINE
  5
41D12
330
41C80
100
AcDbEntity
  8
05_SCHRAFFUR
100
AcDbLine
 10
-78.7551507057342
 20
-52.88191686169557
 30
0.0
 11
-78.24013233389996
 21
-51.34701716573068
 31
0.0
1001
ACAD
1010
0.0
1020
0.0
1030
0.0
  0
LINE
  5
41D13
330
41C80
100
AcDbEntity
  8
05_SCHRAFFUR
100
AcDbLine
 10
-72.5749302437207
 20
-34.46312051011728
 30
0.0
 11
-72.05991187188647
 21
-32.92822081415238
 31
0.0
1001
ACAD
1010
0.0
1020
0.0
1030
0.0
  0
LINE
  5
41D14
330
41C80
100
AcDbEntity
  8
05_SCHRAFFUR
100
AcDbLine
 10
-60.21448931969371
 20
2.374472193039309
 30
0.0
 11
-60.00000999999975
 21
3.013680929257134
 31
0.0
1001
ACAD
1010
0.0
1020
0.0
1030
0.0
  0
LINE
  5
41D15
330
41C80
100
AcDbEntity
  8
05_SCHRAFFUR
100
AcDbLine
 10
-63.59372209073535
 20
-63.10842744166802
 30
0.0
 11
-63.07870371890112
 21
-61.57352774570313
 31
0.0
1001
ACAD
1010
0.0
1020
0.0
1030
0.0
  0
LINE
  5
41D16
330
41C80
100
AcDbEntity
  8
05_SCHRAFFUR
100
AcDbLine
 10
-84.92976990109582
 20
82.33438981681615
 30
0.0
 11
-84.92976990109582
 21
82.33438981681615
 31
0.0
1001
ACAD
1010
0.0
1020
0.0
1030
0.0
  0
LINE
  5
41D17
330
41C80
100
AcDbEntity
  8
05_SCHRAFFUR
100
AcDbLine
 10
-71.42848275601955
 20
92.69429181568648
 30
0.0
 11
-71.42848275601955
 21
92.69429181568648
 31
0.0
1001
ACAD
1010
0.0
1020
0.0
1030
0.0
  0
LINE
  5
41D18
330
41C80
100
AcDbEntity
  8
05_SCHRAFFUR
100
AcDbLine
 10
-85.2386302261557
 20
73.87888592950071
 30
0.0
 11
-85.2386302261557
 21
73.87888592950071
 31
0.0
1001
ACAD
1010
0.0
1020
0.0
1030
0.0
  0
LINE
  5
41D19
330
41C80
100
AcDbEntity
  8
05_SCHRAFFUR
100
AcDbLine
 10
-71.73734308107942
 20
84.23878792837104
 30
0.0
 11
-71.73734308107942
 21
84.23878792837104
 31
0.0
1001
ACAD
1010
0.0
1020
0.0
1030
0.0
  0
LINE
  5
41D1A
330
41C80
100
AcDbEntity
  8
05_SCHRAFFUR
100
AcDbLine
 10
-98.68605654910972
 20
55.34180576865788
 30
0.0
 11
-98.68605654910972
 21
55.34180576865788
 31
0.0
1001
ACAD
1010
0.0
1020
0.0
1030
0.0
  0
LINE
  5
41D1B
330
41C80
100
AcDbEntity
  8
05_SCHRAFFUR
100
AcDbLine
 10
-85.54749055121465
 20
65.42338204218549
 30
0.0
 11
-85.54749055121465
 21
65.42338204218549
 31
0.0
1001
ACAD
1010
0.0
1020
0.0
1030
0.0
  0
LINE
  5
41D1C
330
41C80
100
AcDbEntity
  8
05_SCHRAFFUR
100
AcDbLine
 10
-72.04620340613837
 20
75.78328404105582
 30
0.0
 11
-72.04620340613837
 21
75.78328404105582
 31
0.0
1001
ACAD
1010
0.0
1020
0.0
1030
0.0
  0
LINE
  5
41D1D
330
41C80
100
AcDbEntity
  8
05_SCHRAFFUR
100
AcDbLine
 10
-98.99491687416867
 20
46.88630188134311
 30
0.0
 11
-98.99491687416867
 21
46.88630188134311
 31
0.0
1001
ACAD
1010
0.0
1020
0.0
1030
0.0
  0
LINE
  5
41D1E
330
41C80
100
AcDbEntity
  8
05_SCHRAFFUR
100
AcDbLine
 10
-85.85635087627361
 20
56.96787815487073
 30
0.0
 11
-85.85635087627361
 21
56.96787815487073
 31
0.0
1001
ACAD
1010
0.0
1020
0.0
1030
0.0
  0
LINE
  5
41D1F
330
41C80
100
AcDbEntity
  8
05_SCHRAFFUR
100
AcDbLine
 10
-72.35506373119733
 20
67.32778015374106
 30
0.0
 11
-72.35506373119733
 21
67.32778015374106
 31
0.0
1001
ACAD
1010
0.0
1020
0.0
1030
0.0
  0
LINE
  5
41D20
330
41C80
100
AcDbEntity
  8
05_SCHRAFFUR
100
AcDbLine
 10
-99.30377719922672
 20
38.43079799402813
 30
0.0
 11
-99.30377719922672
 21
38.43079799402813
 31
0.0
1001
ACAD
1010
0.0
1020
0.0
1030
0.0
  0
LINE
  5
41D21
330
41C80
100
AcDbEntity
  8
05_SCHRAFFUR
100
AcDbLine
 10
-72.66392405625538
 20
58.87227626642607
 30
0.0
 11
-72.66392405625538
 21
58.87227626642607
 31
0.0
1001
ACAD
1010
0.0
1020
0.0
1030
0.0
  0
LINE
  5
41D22
330
41C80
100
AcDbEntity
  8
05_SCHRAFFUR
100
AcDbLine
 10
-99.61263752428749
 20
29.97529410671177
 30
0.0
 11
-99.61263752428749
 21
29.97529410671177
 31
0.0
1001
ACAD
1010
0.0
1020
0.0
1030
0.0
  0
LINE
  5
41D23
330
41C80
100
AcDbEntity
  8
05_SCHRAFFUR
100
AcDbLine
 10
-99.92149784934646
 20
21.51979021939656
 30
0.0
 11
-99.92149784934646
 21
21.51979021939656
 31
0.0
1001
ACAD
1010
0.0
1020
0.0
1030
0.0
  0
LINE
  5
41D24
330
41C80
100
AcDbEntity
  8
05_SCHRAFFUR
100
AcDbLine
 10
-100.2303581744054
 20
13.06428633208111
 30
0.0
 11
-100.2303581744054
 21
13.06428633208111
 31
0.0
1001
ACAD
1010
0.0
1020
0.0
1030
0.0
  0
LINE
  5
41D25
330
41C80
100
AcDbEntity
  8
05_SCHRAFFUR
100
AcDbLine
 10
-60.24035169768376
 20
43.74969755112329
 30
0.0
 11
-60.24035169768376
 21
43.74969755112329
 31
0.0
1001
ACAD
1010
0.0
1020
0.0
1030
0.0
  0
LINE
  5
41D26
330
41C80
100
AcDbEntity
  8
05_SCHRAFFUR
100
AcDbLine
 10
-100.5392184994643
 20
4.608782444766347
 30
0.0
 11
-100.5392184994643
 21
4.608782444766347
 31
0.0
1001
ACAD
1010
0.0
1020
0.0
1030
0.0
  0
LINE
  5
41D27
330
41C80
100
AcDbEntity
  8
05_SCHRAFFUR
100
AcDbLine
 10
-60.54921202274272
 20
35.29419366380853
 30
0.0
 11
-60.54921202274272
 21
35.29419366380853
 31
0.0
1001
ACAD
1010
0.0
1020
0.0
1030
0.0
  0
LINE
  5
41D28
330
41C80
100
AcDbEntity
  8
05_SCHRAFFUR
100
AcDbLine
 10
-114.1982321582736
 20
-14.09065438919288
 30
0.0
 11
-114.1982321582736
 21
-14.09065438919288
 31
0.0
1001
ACAD
1010
0.0
1020
0.0
1030
0.0
  0
LINE
  5
41D29
330
41C80
100
AcDbEntity
  8
05_SCHRAFFUR
100
AcDbLine
 10
-100.8480788245233
 20
-3.846721442548641
 30
0.0
 11
-100.8480788245233
 21
-3.846721442548641
 31
0.0
1001
ACAD
1010
0.0
1020
0.0
1030
0.0
  0
LINE
  5
41D2A
330
41C80
100
AcDbEntity
  8
05_SCHRAFFUR
100
AcDbLine
 10
-60.85807234780168
 20
26.83868977649354
 30
0.0
 11
-60.85807234780168
 21
26.83868977649354
 31
0.0
1001
ACAD
1010
0.0
1020
0.0
1030
0.0
  0
LINE
  5
41D2B
330
41C80
100
AcDbEntity
  8
05_SCHRAFFUR
100
AcDbLine
 10
-101.1569391495832
 20
-12.30222532986454
 30
0.0
 11
-101.1569391495832
 21
-12.30222532986454
 31
0.0
1001
ACAD
1010
0.0
1020
0.0
1030
0.0
  0
LINE
  5
41D2C
330
41C80
100
AcDbEntity
  8
05_SCHRAFFUR
100
AcDbLine
 10
-101.4657994746421
 20
-20.75772921717976
 30
0.0
 11
-101.4657994746421
 21
-20.75772921717976
 31
0.0
1001
ACAD
1010
0.0
1020
0.0
1030
0.0
  0
LINE
  5
41D2D
330
41C80
100
AcDbEntity
  8
05_SCHRAFFUR
100
AcDbLine
 10
-101.7746597997006
 20
-29.21323310449475
 30
0.0
 11
-101.7746597997006
 21
-29.21323310449475
 31
0.0
1001
ACAD
1010
0.0
1020
0.0
1030
0.0
  0
LINE
  5
41D2E
330
41C80
100
AcDbEntity
  8
05_SCHRAFFUR
100
AcDbLine
 10
-88.63609380180514
 20
-19.13165683096713
 30
0.0
 11
-88.63609380180514
 21
-19.13165683096713
 31
0.0
1001
ACAD
1010
0.0
1020
0.0
1030
0.0
  0
LINE
  5
41D2F
330
41C80
100
AcDbEntity
  8
05_SCHRAFFUR
100
AcDbLine
 10
-102.08352012476
 20
-37.66873699180974
 30
0.0
 11
-102.08352012476
 21
-37.66873699180974
 31
0.0
1001
ACAD
1010
0.0
1020
0.0
1030
0.0
  0
LINE
  5
41D30
330
41C80
100
AcDbEntity
  8
05_SCHRAFFUR
100
AcDbLine
 10
-88.94495412686501
 20
-27.58716071828212
 30
0.0
 11
-88.94495412686501
 21
-27.58716071828212
 31
0.0
1001
ACAD
1010
0.0
1020
0.0
1030
0.0
  0
LINE
  5
41D31
330
41C80
100
AcDbEntity
  8
05_SCHRAFFUR
100
AcDbLine
 10
-102.3923804498195
 20
-46.12424087912609
 30
0.0
 11
-102.3923804498195
 21
-46.12424087912609
 31
0.0
1001
ACAD
1010
0.0
1020
0.0
1030
0.0
  0
LINE
  5
41D32
330
41C80
100
AcDbEntity
  8
05_SCHRAFFUR
100
AcDbLine
 10
-89.25381445192398
 20
-36.04266460559848
 30
0.0
 11
-89.25381445192398
 21
-36.04266460559848
 31
0.0
1001
ACAD
1010
0.0
1020
0.0
1030
0.0
  0
LINE
  5
41D33
330
41C80
100
AcDbEntity
  8
05_SCHRAFFUR
100
AcDbLine
 10
-75.7525273068477
 20
-25.68276260672815
 30
0.0
 11
-75.7525273068477
 21
-25.68276260672815
 31
0.0
1001
ACAD
1010
0.0
1020
0.0
1030
0.0
  0
LINE
  5
41D34
330
41C80
100
AcDbEntity
  8
05_SCHRAFFUR
100
AcDbLine
 10
-89.56267477698293
 20
-44.49816849291301
 30
0.0
 11
-89.56267477698293
 21
-44.49816849291301
 31
0.0
1001
ACAD
1010
0.0
1020
0.0
1030
0.0
  0
LINE
  5
41D35
330
41C80
100
AcDbEntity
  8
05_SCHRAFFUR
100
AcDbLine
 10
-76.06138763190665
 20
-34.13826649404268
 30
0.0
 11
-76.06138763190665
 21
-34.13826649404268
 31
0.0
1001
ACAD
1010
0.0
1020
0.0
1030
0.0
  0
LINE
  5
41D36
330
41C80
100
AcDbEntity
  8
05_SCHRAFFUR
100
AcDbLine
 10
-62.71123429815634
 20
-23.89433354739844
 30
0.0
 11
-62.71123429815634
 21
-23.89433354739844
 31
0.0
1001
ACAD
1010
0.0
1020
0.0
1030
0.0
  0
LINE
  5
41D37
330
41C80
100
AcDbEntity
  8
05_SCHRAFFUR
100
AcDbLine
 10
-89.8715351020437
 20
-52.95367238022937
 30
0.0
 11
-89.8715351020437
 21
-52.95367238022937
 31
0.0
1001
ACAD
1010
0.0
1020
0.0
1030
0.0
  0
LINE
  5
41D38
330
41C80
100
AcDbEntity
  8
05_SCHRAFFUR
100
AcDbLine
 10
-76.37024795696743
 20
-42.59377038135903
 30
0.0
 11
-76.37024795696743
 21
-42.59377038135903
 31
0.0
1001
ACAD
1010
0.0
1020
0.0
1030
0.0
  0
LINE
  5
41D39
330
41C80
100
AcDbEntity
  8
05_SCHRAFFUR
100
AcDbLine
 10
-63.02009462321712
 20
-32.3498374347148
 30
0.0
 11
-63.02009462321712
 21
-32.3498374347148
 31
0.0
1001
ACAD
1010
0.0
1020
0.0
1030
0.0
  0
LINE
  5
41D3A
330
41C80
100
AcDbEntity
  8
05_SCHRAFFUR
100
AcDbLine
 10
-76.67910828202548
 20
-51.04927426867402
 30
0.0
 11
-76.67910828202548
 21
-51.04927426867402
 31
0.0
1001
ACAD
1010
0.0
1020
0.0
1030
0.0
  0
LINE
  5
41D3B
330
41C80
100
AcDbEntity
  8
05_SCHRAFFUR
100
AcDbLine
 10
-63.32895494827517
 20
-40.80534132202979
 30
0.0
 11
-63.32895494827517
 21
-40.80534132202979
 31
0.0
1001
ACAD
1010
0.0
1020
0.0
1030
0.0
  0
LINE
  5
41D3C
330
41C80
100
AcDbEntity
  8
05_SCHRAFFUR
100
AcDbLine
 10
-76.98796860708535
 20
-59.50477815598924
 30
0.0
 11
-76.98796860708535
 21
-59.50477815598924
 31
0.0
1001
ACAD
1010
0.0
1020
0.0
1030
0.0
  0
LINE
  5
41D3D
330
41C80
100
AcDbEntity
  8
05_SCHRAFFUR
100
AcDbLine
 10
-63.63781527333504
 20
-49.26084520934501
 30
0.0
 11
-63.63781527333504
 21
-49.26084520934501
 31
0.0
1001
ACAD
1010
0.0
1020
0.0
1030
0.0
  0
LINE
  5
41D3E
330
41C80
100
AcDbEntity
  8
05_SCHRAFFUR
100
AcDbLine
 10
-63.94667559839309
 20
-57.71634909665976
 30
0.0
 11
-63.94667559839309
 21
-57.71634909665976
 31
0.0
1001
ACAD
1010
0.0
1020
0.0
1030
0.0
  0
LINE
  5
41D3F
330
41C80
100
AcDbEntity
  8
05_SCHRAFFUR
100
AcDbLine
 10
-77.08927182697334
 20
90.77363661976438
 30
0.0
 11
-77.08927182697334
 21
90.77363661976438
 31
0.0
1001
ACAD
1010
0.0
1020
0.0
1030
0.0
  0
LINE
  5
41D40
330
41C80
100
AcDbEntity
  8
05_SCHRAFFUR
100
AcDbLine
 10
-70.73064020855236
 20
91.61076635356767
 30
0.0
 11
-70.73064020855236
 21
91.61076635356767
 31
0.0
1001
ACAD
1010
0.0
1020
0.0
1030
0.0
  0
LINE
  5
41D41
330
41C80
100
AcDbEntity
  8
05_SCHRAFFUR
100
AcDbLine
 10
-61.11084900761489
 20
92.87723589144048
 30
0.0
 11
-61.11084900761489
 21
92.87723589144048
 31
0.0
1001
ACAD
1010
0.0
1020
0.0
1030
0.0
  0
LINE
  5
41D42
330
41C80
100
AcDbEntity
  8
05_SCHRAFFUR
100
AcDbLine
 10
-83.7712380780049
 20
80.75557913795227
 30
0.0
 11
-83.7712380780049
 21
80.75557913795227
 31
0.0
1001
ACAD
1010
0.0
1020
0.0
1030
0.0
  0
LINE
  5
41D43
330
41C80
100
AcDbEntity
  8
05_SCHRAFFUR
100
AcDbLine
 10
-77.41260645958391
 20
81.59270887175557
 30
0.0
 11
-77.41260645958391
 21
81.59270887175557
 31
0.0
1001
ACAD
1010
0.0
1020
0.0
1030
0.0
  0
LINE
  5
41D44
330
41C80
100
AcDbEntity
  8
05_SCHRAFFUR
100
AcDbLine
 10
-67.79281525864644
 20
82.85917840962838
 30
0.0
 11
-67.79281525864644
 21
82.85917840962838
 31
0.0
1001
ACAD
1010
0.0
1020
0.0
1030
0.0
  0
LINE
  5
41D45
330
41C80
100
AcDbEntity
  8
05_SCHRAFFUR
100
AcDbLine
 10
-90.45320432903464
 20
70.73752165614064
 30
0.0
 11
-90.45320432903464
 21
70.73752165614064
 31
0.0
1001
ACAD
1010
0.0
1020
0.0
1030
0.0
  0
LINE
  5
41D46
330
41C80
100
AcDbEntity
  8
05_SCHRAFFUR
100
AcDbLine
 10
-84.09457271061365
 20
71.57465138994393
 30
0.0
 11
-84.09457271061365
 21
71.57465138994393
 31
0.0
1001
ACAD
1010
0.0
1020
0.0
1030
0.0
  0
LINE
  5
41D47
330
41C80
100
AcDbEntity
  8
05_SCHRAFFUR
100
AcDbLine
 10
-74.47478150967618
 20
72.84112092781675
 30
0.0
 11
-74.47478150967618
 21
72.84112092781675
 31
0.0
1001
ACAD
1010
0.0
1020
0.0
1030
0.0
  0
LINE
  5
41D48
330
41C80
100
AcDbEntity
  8
05_SCHRAFFUR
100
AcDbLine
 10
-97.13517058006528
 20
60.71946417432855
 30
0.0
 11
-97.13517058006528
 21
60.71946417432855
 31
0.0
1001
ACAD
1010
0.0
1020
0.0
1030
0.0
  0
LINE
  5
41D49
330
41C80
100
AcDbEntity
  8
05_SCHRAFFUR
100
AcDbLine
 10
-90.77653896164429
 20
61.55659390813184
 30
0.0
 11
-90.77653896164429
 21
61.55659390813184
 31
0.0
1001
ACAD
1010
0.0
1020
0.0
1030
0.0
  0
LINE
  5
41D4A
330
41C80
100
AcDbEntity
  8
05_SCHRAFFUR
100
AcDbLine
 10
-81.15674776070681
 20
62.82306344600465
 30
0.0
 11
-81.15674776070681
 21
62.82306344600465
 31
0.0
1001
ACAD
1010
0.0
1020
0.0
1030
0.0
  0
LINE
  5
41D4B
330
41C80
100
AcDbEntity
  8
05_SCHRAFFUR
100
AcDbLine
 10
-65.11536819265074
 20
64.9349511308867
 30
0.0
 11
-65.11536819265074
 21
64.9349511308867
 31
0.0
1001
ACAD
1010
0.0
1020
0.0
1030
0.0
  0
LINE
  5
41D4C
330
41C80
100
AcDbEntity
  8
05_SCHRAFFUR
100
AcDbLine
 10
-97.45850521267493
 20
51.53853642631998
 30
0.0
 11
-97.45850521267493
 21
51.53853642631998
 31
0.0
1001
ACAD
1010
0.0
1020
0.0
1030
0.0
  0
LINE
  5
41D4D
330
41C80
100
AcDbEntity
  8
05_SCHRAFFUR
100
AcDbLine
 10
-87.83871401173746
 20
52.80500596419279
 30
0.0
 11
-87.83871401173746
 21
52.80500596419279
 31
0.0
1001
ACAD
1010
0.0
1020
0.0
1030
0.0
  0
LINE
  5
41D4E
330
41C80
100
AcDbEntity
  8
05_SCHRAFFUR
100
AcDbLine
 10
-71.79733444368139
 20
54.91689364907483
 30
0.0
 11
-71.79733444368139
 21
54.91689364907483
 31
0.0
1001
ACAD
1010
0.0
1020
0.0
1030
0.0
  0
LINE
  5
41D4F
330
41C80
100
AcDbEntity
  8
05_SCHRAFFUR
100
AcDbLine
 10
-65.4387028252604
 20
55.75402338287813
 30
0.0
 11
-65.4387028252604
 21
55.75402338287813
 31
0.0
1001
ACAD
1010
0.0
1020
0.0
1030
0.0
  0
LINE
  5
41D50
330
41C80
100
AcDbEntity
  8
05_SCHRAFFUR
100
AcDbLine
 10
-104.1404714637055
 20
41.52047894450766
 30
0.0
 11
-104.1404714637055
 21
41.52047894450766
 31
0.0
1001
ACAD
1010
0.0
1020
0.0
1030
0.0
  0
LINE
  5
41D51
330
41C80
100
AcDbEntity
  8
05_SCHRAFFUR
100
AcDbLine
 10
-94.5206802627681
 20
42.78694848238046
 30
0.0
 11
-94.5206802627681
 21
42.78694848238046
 31
0.0
1001
ACAD
1010
0.0
1020
0.0
1030
0.0
  0
LINE
  5
41D52
330
41C80
100
AcDbEntity
  8
05_SCHRAFFUR
100
AcDbLine
 10
-101.2026465137978
 20
32.76889100056838
 30
0.0
 11
-101.2026465137978
 21
32.76889100056838
 31
0.0
1001
ACAD
1010
0.0
1020
0.0
1030
0.0
  0
LINE
  5
41D53
330
41C80
100
AcDbEntity
  8
05_SCHRAFFUR
100
AcDbLine
 10
-107.8846127648289
 20
22.75083351875673
 30
0.0
 11
-107.8846127648289
 21
22.75083351875673
 31
0.0
1001
ACAD
1010
0.0
1020
0.0
1030
0.0
  0
LINE
  5
41D54
330
41C80
100
AcDbEntity
  8
05_SCHRAFFUR
100
AcDbLine
 10
-98.52519944780397
 20
14.84466372182669
 30
0.0
 11
-98.52519944780397
 21
14.84466372182669
 31
0.0
1001
ACAD
1010
0.0
1020
0.0
1030
0.0
  0
LINE
  5
41D55
330
41C80
100
AcDbEntity
  8
05_SCHRAFFUR
100
AcDbLine
 10
-60.14676544196845
 20
19.89728041218814
 30
0.0
 11
-60.14676544196845
 21
19.89728041218814
 31
0.0
1001
ACAD
1010
0.0
1020
0.0
1030
0.0
  0
LINE
  5
41D56
330
41C80
100
AcDbEntity
  8
05_SCHRAFFUR
100
AcDbLine
 10
-105.2071656988337
 20
4.826606240014825
 30
0.0
 11
-105.2071656988337
 21
4.826606240014825
 31
0.0
1001
ACAD
1010
0.0
1020
0.0
1030
0.0
  0
LINE
  5
41D57
330
41C80
100
AcDbEntity
  8
05_SCHRAFFUR
100
AcDbLine
 10
-98.84853408041273
 20
5.66373597381812
 30
0.0
 11
-98.84853408041273
 21
5.66373597381812
 31
0.0
1001
ACAD
1010
0.0
1020
0.0
1030
0.0
  0
LINE
  5
41D58
330
41C80
100
AcDbEntity
  8
05_SCHRAFFUR
100
AcDbLine
 10
-111.8891319498648
 20
-5.191451241797267
 30
0.0
 11
-111.8891319498648
 21
-5.191451241797267
 31
0.0
1001
ACAD
1010
0.0
1020
0.0
1030
0.0
  0
LINE
  5
41D59
330
41C80
100
AcDbEntity
  8
05_SCHRAFFUR
100
AcDbLine
 10
-105.5305003314438
 20
-4.354321507993972
 30
0.0
 11
-105.5305003314438
 21
-4.354321507993972
 31
0.0
1001
ACAD
1010
0.0
1020
0.0
1030
0.0
  0
LINE
  5
41D5A
330
41C80
100
AcDbEntity
  8
05_SCHRAFFUR
100
AcDbLine
 10
-95.9107091305059
 20
-3.087851970121164
 30
0.0
 11
-95.9107091305059
 21
-3.087851970121164
 31
0.0
1001
ACAD
1010
0.0
1020
0.0
1030
0.0
  0
LINE
  5
41D5B
330
41C80
100
AcDbEntity
  8
05_SCHRAFFUR
100
AcDbLine
 10
-112.2124665824744
 20
-14.37237898980584
 30
0.0
 11
-112.2124665824744
 21
-14.37237898980584
 31
0.0
1001
ACAD
1010
0.0
1020
0.0
1030
0.0
  0
LINE
  5
41D5C
330
41C80
100
AcDbEntity
  8
05_SCHRAFFUR
100
AcDbLine
 10
-102.5926753815365
 20
-13.10590945193303
 30
0.0
 11
-102.5926753815365
 21
-13.10590945193303
 31
0.0
1001
ACAD
1010
0.0
1020
0.0
1030
0.0
  0
LINE
  5
41D5D
330
41C80
100
AcDbEntity
  8
05_SCHRAFFUR
100
AcDbLine
 10
-109.2746416325676
 20
-23.12396693374535
 30
0.0
 11
-109.2746416325676
 21
-23.12396693374535
 31
0.0
1001
ACAD
1010
0.0
1020
0.0
1030
0.0
  0
LINE
  5
41D5E
330
41C80
100
AcDbEntity
  8
05_SCHRAFFUR
100
AcDbLine
 10
-93.23326206451202
 20
-21.0120792488633
 30
0.0
 11
-93.23326206451202
 21
-21.0120792488633
 31
0.0
1001
ACAD
1010
0.0
1020
0.0
1030
0.0
  0
LINE
  5
41D5F
330
41C80
100
AcDbEntity
  8
05_SCHRAFFUR
100
AcDbLine
 10
-86.87463044609103
 20
-20.17494951506001
 30
0.0
 11
-86.87463044609103
 21
-20.17494951506001
 31
0.0
1001
ACAD
1010
0.0
1020
0.0
1030
0.0
  0
LINE
  5
41D60
330
41C80
100
AcDbEntity
  8
05_SCHRAFFUR
100
AcDbLine
 10
-77.25483924515356
 20
-18.9084799771872
 30
0.0
 11
-77.25483924515356
 21
-18.9084799771872
 31
0.0
1001
ACAD
1010
0.0
1020
0.0
1030
0.0
  0
LINE
  5
41D61
330
41C80
100
AcDbEntity
  8
05_SCHRAFFUR
100
AcDbLine
 10
-99.91522831554176
 20
-31.03013673067517
 30
0.0
 11
-99.91522831554176
 21
-31.03013673067517
 31
0.0
1001
ACAD
1010
0.0
1020
0.0
1030
0.0
  0
LINE
  5
41D62
330
41C80
100
AcDbEntity
  8
05_SCHRAFFUR
100
AcDbLine
 10
-93.55659669712077
 20
-30.19300699687188
 30
0.0
 11
-93.55659669712077
 21
-30.19300699687188
 31
0.0
1001
ACAD
1010
0.0
1020
0.0
1030
0.0
  0
LINE
  5
41D63
330
41C80
100
AcDbEntity
  8
05_SCHRAFFUR
100
AcDbLine
 10
-83.93680549618329
 20
-28.92653745899906
 30
0.0
 11
-83.93680549618329
 21
-28.92653745899906
 31
0.0
1001
ACAD
1010
0.0
1020
0.0
1030
0.0
  0
LINE
  5
41D64
330
41C80
100
AcDbEntity
  8
05_SCHRAFFUR
100
AcDbLine
 10
-67.89542592812722
 20
-26.81464977411702
 30
0.0
 11
-67.89542592812722
 21
-26.81464977411702
 31
0.0
1001
ACAD
1010
0.0
1020
0.0
1030
0.0
  0
LINE
  5
41D65
330
41C80
100
AcDbEntity
  8
05_SCHRAFFUR
100
AcDbLine
 10
-61.53679430970623
 20
-25.97752004031372
 30
0.0
 11
-61.53679430970623
 21
-25.97752004031372
 31
0.0
1001
ACAD
1010
0.0
1020
0.0
1030
0.0
  0
LINE
  5
41D66
330
41C80
100
AcDbEntity
  8
05_SCHRAFFUR
100
AcDbLine
 10
-100.2385629481514
 20
-40.21106447868374
 30
0.0
 11
-100.2385629481514
 21
-40.21106447868374
 31
0.0
1001
ACAD
1010
0.0
1020
0.0
1030
0.0
  0
LINE
  5
41D67
330
41C80
100
AcDbEntity
  8
05_SCHRAFFUR
100
AcDbLine
 10
-90.61877174721393
 20
-38.94459494081093
 30
0.0
 11
-90.61877174721393
 21
-38.94459494081093
 31
0.0
1001
ACAD
1010
0.0
1020
0.0
1030
0.0
  0
LINE
  5
41D68
330
41C80
100
AcDbEntity
  8
05_SCHRAFFUR
100
AcDbLine
 10
-74.57739217915786
 20
-36.83270725592888
 30
0.0
 11
-74.57739217915786
 21
-36.83270725592888
 31
0.0
1001
ACAD
1010
0.0
1020
0.0
1030
0.0
  0
LINE
  5
41D69
330
41C80
100
AcDbEntity
  8
05_SCHRAFFUR
100
AcDbLine
 10
-68.21876056073688
 20
-35.99557752212559
 30
0.0
 11
-68.21876056073688
 21
-35.99557752212559
 31
0.0
1001
ACAD
1010
0.0
1020
0.0
1030
0.0
  0
LINE
  5
41D6A
330
41C80
100
AcDbEntity
  8
05_SCHRAFFUR
100
AcDbLine
 10
-97.30073799824367
 20
-48.96265242262302
 30
0.0
 11
-97.30073799824367
 21
-48.96265242262302
 31
0.0
1001
ACAD
1010
0.0
1020
0.0
1030
0.0
  0
LINE
  5
41D6B
330
41C80
100
AcDbEntity
  8
05_SCHRAFFUR
100
AcDbLine
 10
-81.2593584301876
 20
-46.85076473774097
 30
0.0
 11
-81.2593584301876
 21
-46.85076473774097
 31
0.0
1001
ACAD
1010
0.0
1020
0.0
1030
0.0
  0
LINE
  5
41D6C
330
41C80
100
AcDbEntity
  8
05_SCHRAFFUR
100
AcDbLine
 10
-74.90072681176662
 20
-46.01363500393768
 30
0.0
 11
-74.90072681176662
 21
-46.01363500393768
 31
0.0
1001
ACAD
1010
0.0
1020
0.0
1030
0.0
  0
LINE
  5
41D6D
330
41C80
100
AcDbEntity
  8
05_SCHRAFFUR
100
AcDbLine
 10
-65.28093561082915
 20
-44.74716546606487
 30
0.0
 11
-65.28093561082915
 21
-44.74716546606487
 31
0.0
1001
ACAD
1010
0.0
1020
0.0
1030
0.0
  0
LINE
  5
41D6E
330
41C80
100
AcDbEntity
  8
05_SCHRAFFUR
100
AcDbLine
 10
-87.94132468121825
 20
-56.86882221955284
 30
0.0
 11
-87.94132468121825
 21
-56.86882221955284
 31
0.0
1001
ACAD
1010
0.0
1020
0.0
1030
0.0
  0
LINE
  5
41D6F
330
41C80
100
AcDbEntity
  8
05_SCHRAFFUR
100
AcDbLine
 10
-81.58269306279725
 20
-56.03169248574954
 30
0.0
 11
-81.58269306279725
 21
-56.03169248574954
 31
0.0
1001
ACAD
1010
0.0
1020
0.0
1030
0.0
  0
LINE
  5
41D70
330
41C80
100
AcDbEntity
  8
05_SCHRAFFUR
100
AcDbLine
 10
-71.96290186185979
 20
-54.76522294787674
 30
0.0
 11
-71.96290186185979
 21
-54.76522294787674
 31
0.0
1001
ACAD
1010
0.0
1020
0.0
1030
0.0
  0
LINE
  5
41D71
330
41C80
100
AcDbEntity
  8
05_SCHRAFFUR
100
AcDbLine
 10
-62.60348854483527
 20
-62.67139274480678
 30
0.0
 11
-62.60348854483527
 21
-62.67139274480678
 31
0.0
1001
ACAD
1010
0.0
1020
0.0
1030
0.0
  0
LINE
  5
41D72
330
41C80
100
AcDbEntity
  8
05_SCHRAFFUR
100
AcDbLine
 10
-67.15330645184076
 20
86.80503167578876
 30
0.0
 11
-67.15330645184076
 21
86.80503167578876
 31
0.0
1001
ACAD
1010
0.0
1020
0.0
1030
0.0
  0
LINE
  5
41D73
330
41C80
100
AcDbEntity
  8
05_SCHRAFFUR
100
AcDbLine
 10
-61.79777077092876
 20
83.3931791627865
 30
0.0
 11
-61.79777077092876
 21
83.3931791627865
 31
0.0
1001
ACAD
1010
0.0
1020
0.0
1030
0.0
  0
LINE
  5
41D74
330
41C80
100
AcDbEntity
  8
05_SCHRAFFUR
100
AcDbLine
 10
-80.71236596852941
 20
87.37790607505667
 30
0.0
 11
-80.71236596852941
 21
87.37790607505667
 31
0.0
1001
ACAD
1010
0.0
1020
0.0
1030
0.0
  0
LINE
  5
41D75
330
41C80
100
AcDbEntity
  8
05_SCHRAFFUR
100
AcDbLine
 10
-75.35683028761742
 20
83.96605356205441
 30
0.0
 11
-75.35683028761742
 21
83.96605356205441
 31
0.0
1001
ACAD
1010
0.0
1020
0.0
1030
0.0
  0
LINE
  5
41D76
330
41C80
100
AcDbEntity
  8
05_SCHRAFFUR
100
AcDbLine
 10
-88.91588980430425
 20
84.53892796132141
 30
0.0
 11
-88.91588980430425
 21
84.53892796132141
 31
0.0
1001
ACAD
1010
0.0
1020
0.0
1030
0.0
  0
LINE
  5
41D77
330
41C80
100
AcDbEntity
  8
05_SCHRAFFUR
100
AcDbLine
 10
-72.20661847985957
 20
73.8939481207542
 30
0.0
 11
-72.20661847985957
 21
73.8939481207542
 31
0.0
1001
ACAD
1010
0.0
1020
0.0
1030
0.0
  0
LINE
  5
41D78
330
41C80
100
AcDbEntity
  8
05_SCHRAFFUR
100
AcDbLine
 10
-85.76567799654549
 20
74.46682252002074
 30
0.0
 11
-85.76567799654549
 21
74.46682252002074
 31
0.0
1001
ACAD
1010
0.0
1020
0.0
1030
0.0
  0
LINE
  5
41D79
330
41C80
100
AcDbEntity
  8
05_SCHRAFFUR
100
AcDbLine
 10
-63.59376027757026
 20
60.34175311619105
 30
0.0
 11
-63.59376027757026
 21
60.34175311619105
 31
0.0
1001
ACAD
1010
0.0
1020
0.0
1030
0.0
  0
LINE
  5
41D7A
330
41C80
100
AcDbEntity
  8
05_SCHRAFFUR
100
AcDbLine
 10
-77.152819794258
 20
60.91462751545873
 30
0.0
 11
-77.152819794258
 21
60.91462751545873
 31
0.0
1001
ACAD
1010
0.0
1020
0.0
1030
0.0
  0
LINE
  5
41D7B
330
41C80
100
AcDbEntity
  8
05_SCHRAFFUR
100
AcDbLine
 10
-71.797284113346
 20
57.50277500245648
 30
0.0
 11
-71.797284113346
 21
57.50277500245648
 31
0.0
1001
ACAD
1010
0.0
1020
0.0
1030
0.0
  0
LINE
  5
41D7C
330
41C80
100
AcDbEntity
  8
05_SCHRAFFUR
100
AcDbLine
 10
-90.71187931094573
 20
61.48750191472641
 30
0.0
 11
-90.71187931094573
 21
61.48750191472641
 31
0.0
1001
ACAD
1010
0.0
1020
0.0
1030
0.0
  0
LINE
  5
41D7D
330
41C80
100
AcDbEntity
  8
05_SCHRAFFUR
100
AcDbLine
 10
-85.35634363003373
 20
58.07564940172415
 30
0.0
 11
-85.35634363003373
 21
58.07564940172415
 31
0.0
1001
ACAD
1010
0.0
1020
0.0
1030
0.0
  0
LINE
  5
41D7E
330
41C80
100
AcDbEntity
  8
05_SCHRAFFUR
100
AcDbLine
 10
-98.91540314672148
 20
58.64852380099137
 30
0.0
 11
-98.91540314672148
 21
58.64852380099137
 31
0.0
1001
ACAD
1010
0.0
1020
0.0
1030
0.0
  0
LINE
  5
41D7F
330
41C80
100
AcDbEntity
  8
05_SCHRAFFUR
100
AcDbLine
 10
-60.03421410330156
 20
33.87847455659449
 30
0.0
 11
-60.03421410330156
 21
33.87847455659449
 31
0.0
1001
ACAD
1010
0.0
1020
0.0
1030
0.0
  0
LINE
  5
41D80
330
41C80
100
AcDbEntity
  8
05_SCHRAFFUR
100
AcDbLine
 10
-95.76519133896363
 20
48.57641835969184
 30
0.0
 11
-95.76519133896363
 21
48.57641835969184
 31
0.0
1001
ACAD
1010
0.0
1020
0.0
1030
0.0
  0
LINE
  5
41D81
330
41C80
100
AcDbEntity
  8
05_SCHRAFFUR
100
AcDbLine
 10
-100.7113926533629
 20
35.59709775439638
 30
0.0
 11
-100.7113926533629
 21
35.59709775439638
 31
0.0
1001
ACAD
1010
0.0
1020
0.0
1030
0.0
  0
LINE
  5
41D82
330
41C80
100
AcDbEntity
  8
05_SCHRAFFUR
100
AcDbLine
 10
-95.35585697245096
 20
32.18524524139411
 30
0.0
 11
-95.35585697245096
 21
32.18524524139411
 31
0.0
1001
ACAD
1010
0.0
1020
0.0
1030
0.0
  0
LINE
  5
41D83
330
41C80
100
AcDbEntity
  8
05_SCHRAFFUR
100
AcDbLine
 10
-105.7647046813799
 20
22.68601419936112
 30
0.0
 11
-105.7647046813799
 21
22.68601419936112
 31
0.0
1001
ACAD
1010
0.0
1020
0.0
1030
0.0
  0
LINE
  5
41D84
330
41C80
100
AcDbEntity
  8
05_SCHRAFFUR
100
AcDbLine
 10
-110.7109059957802
 20
9.706693594067019
 30
0.0
 11
-110.7109059957802
 21
9.706693594067019
 31
0.0
1001
ACAD
1010
0.0
1020
0.0
1030
0.0
  0
LINE
  5
41D85
330
41C80
100
AcDbEntity
  8
05_SCHRAFFUR
100
AcDbLine
 10
-105.3553703148682
 20
6.29484108106476
 30
0.0
 11
-105.3553703148682
 21
6.29484108106476
 31
0.0
1001
ACAD
1010
0.0
1020
0.0
1030
0.0
  0
LINE
  5
41D86
330
41C80
100
AcDbEntity
  8
05_SCHRAFFUR
100
AcDbLine
 10
-66.47418127144828
 20
-18.47520816333213
 30
0.0
 11
-66.47418127144828
 21
-18.47520816333213
 31
0.0
1001
ACAD
1010
0.0
1020
0.0
1030
0.0
  0
LINE
  5
41D87
330
41C80
100
AcDbEntity
  8
05_SCHRAFFUR
100
AcDbLine
 10
-61.11864559053628
 20
-21.88706067633439
 30
0.0
 11
-61.11864559053628
 21
-21.88706067633439
 31
0.0
1001
ACAD
1010
0.0
1020
0.0
1030
0.0
  0
LINE
  5
41D88
330
41C80
100
AcDbEntity
  8
05_SCHRAFFUR
100
AcDbLine
 10
-102.2051585071099
 20
-3.777264360235903
 30
0.0
 11
-102.2051585071099
 21
-3.777264360235903
 31
0.0
1001
ACAD
1010
0.0
1020
0.0
1030
0.0
  0
LINE
  5
41D89
330
41C80
100
AcDbEntity
  8
05_SCHRAFFUR
100
AcDbLine
 10
-74.67770510722312
 20
-21.31418627706785
 30
0.0
 11
-74.67770510722312
 21
-21.31418627706785
 31
0.0
1001
ACAD
1010
0.0
1020
0.0
1030
0.0
  0
LINE
  5
41D8A
330
41C80
100
AcDbEntity
  8
05_SCHRAFFUR
100
AcDbLine
 10
-93.59230030482104
 20
-17.32945936479859
 30
0.0
 11
-93.59230030482104
 21
-17.32945936479859
 31
0.0
1001
ACAD
1010
0.0
1020
0.0
1030
0.0
  0
LINE
  5
41D8B
330
41C80
100
AcDbEntity
  8
05_SCHRAFFUR
100
AcDbLine
 10
-88.23676462390904
 20
-20.74131187780086
 30
0.0
 11
-88.23676462390904
 21
-20.74131187780086
 31
0.0
1001
ACAD
1010
0.0
1020
0.0
1030
0.0
  0
LINE
  5
41D8C
330
41C80
100
AcDbEntity
  8
05_SCHRAFFUR
100
AcDbLine
 10
-71.52749329946437
 20
-31.38629171836806
 30
0.0
 11
-71.52749329946437
 21
-31.38629171836806
 31
0.0
1001
ACAD
1010
0.0
1020
0.0
1030
0.0
  0
LINE
  5
41D8D
330
41C80
100
AcDbEntity
  8
05_SCHRAFFUR
100
AcDbLine
 10
-107.1513598215101
 20
-16.75658496553024
 30
0.0
 11
-107.1513598215101
 21
-16.75658496553024
 31
0.0
1001
ACAD
1010
0.0
1020
0.0
1030
0.0
  0
LINE
  5
41D8E
330
41C80
100
AcDbEntity
  8
05_SCHRAFFUR
100
AcDbLine
 10
-101.7958241405981
 20
-20.1684374785325
 30
0.0
 11
-101.7958241405981
 21
-20.1684374785325
 31
0.0
1001
ACAD
1010
0.0
1020
0.0
1030
0.0
  0
LINE
  5
41D8F
330
41C80
100
AcDbEntity
  8
05_SCHRAFFUR
100
AcDbLine
 10
-85.08655281615302
 20
-30.8134173190997
 30
0.0
 11
-85.08655281615302
 21
-30.8134173190997
 31
0.0
1001
ACAD
1010
0.0
1020
0.0
1030
0.0
  0
LINE
  5
41D90
330
41C80
100
AcDbEntity
  8
05_SCHRAFFUR
100
AcDbLine
 10
-62.91463509717778
 20
-44.93848672292938
 30
0.0
 11
-62.91463509717778
 21
-44.93848672292938
 31
0.0
1001
ACAD
1010
0.0
1020
0.0
1030
0.0
  0
LINE
  5
41D91
330
41C80
100
AcDbEntity
  8
05_SCHRAFFUR
100
AcDbLine
 10
-98.64561233283986
 20
-30.24054291983271
 30
0.0
 11
-98.64561233283986
 21
-30.24054291983271
 31
0.0
1001
ACAD
1010
0.0
1020
0.0
1030
0.0
  0
LINE
  5
41D92
330
41C80
100
AcDbEntity
  8
05_SCHRAFFUR
100
AcDbLine
 10
-76.4736946138646
 20
-44.36561232366239
 30
0.0
 11
-76.4736946138646
 21
-44.36561232366239
 31
0.0
1001
ACAD
1010
0.0
1020
0.0
1030
0.0
  0
LINE
  5
41D93
330
41C80
100
AcDbEntity
  8
05_SCHRAFFUR
100
AcDbLine
 10
-71.11815893295261
 20
-47.77746483666464
 30
0.0
 11
-71.11815893295261
 21
-47.77746483666464
 31
0.0
1001
ACAD
1010
0.0
1020
0.0
1030
0.0
  0
LINE
  5
41D94
330
41C80
100
AcDbEntity
  8
05_SCHRAFFUR
100
AcDbLine
 10
-90.03275413055144
 20
-43.79273792439562
 30
0.0
 11
-90.03275413055144
 21
-43.79273792439562
 31
0.0
1001
ACAD
1010
0.0
1020
0.0
1030
0.0
  0
LINE
  5
41D95
330
41C80
100
AcDbEntity
  8
05_SCHRAFFUR
100
AcDbLine
 10
-84.67721844963945
 20
-47.20459043739788
 30
0.0
 11
-84.67721844963945
 21
-47.20459043739788
 31
0.0
1001
ACAD
1010
0.0
1020
0.0
1030
0.0
  0
LINE
  5
41D96
330
41C80
100
AcDbEntity
  8
05_SCHRAFFUR
100
AcDbLine
 10
-67.96794712519477
 20
-57.84957027796508
 30
0.0
 11
-67.96794712519477
 21
-57.84957027796508
 31
0.0
1001
ACAD
1010
0.0
1020
0.0
1030
0.0
  0
LINE
  5
41D97
330
41C80
100
AcDbEntity
  8
05_SCHRAFFUR
100
AcDbLine
 10
-103.5918136472391
 20
-43.21986352512772
 30
0.0
 11
-103.5918136472391
 21
-43.21986352512772
 31
0.0
1001
ACAD
1010
0.0
1020
0.0
1030
0.0
  0
LINE
  5
41D98
330
41C80
100
AcDbEntity
  8
05_SCHRAFFUR
100
AcDbLine
 10
-98.23627796632719
 20
-46.63171603812998
 30
0.0
 11
-98.23627796632719
 21
-46.63171603812998
 31
0.0
1001
ACAD
1010
0.0
1020
0.0
1030
0.0
  0
LINE
  5
41D99
330
41C80
100
AcDbEntity
  8
05_SCHRAFFUR
100
AcDbLine
 10
-81.5270066418825
 20
-57.27669587869718
 30
0.0
 11
-81.5270066418825
 21
-57.27669587869718
 31
0.0
1001
ACAD
1010
0.0
1020
0.0
1030
0.0
  0
LINE
  5
41D9A
330
41C80
100
AcDbEntity
  8
05_SCHRAFFUR
100
AcDbLine
 10
-95.08606615856933
 20
-56.70382147943019
 30
0.0
 11
-95.08606615856933
 21
-56.70382147943019
 31
0.0
1001
ACAD
1010
0.0
1020
0.0
1030
0.0
  0
LINE
  5
41D9B
330
41C80
100
AcDbEntity
  8
05_SCHRAFFUR
100
AcDbLine
 10
-65.68489867877634
 20
83.00652241497619
 30
0.0
 11
-65.68489867877634
 21
83.00652241497619
 31
0.0
1001
ACAD
1010
0.0
1020
0.0
1030
0.0
  0
LINE
  5
41D9C
330
41C80
100
AcDbEntity
  8
05_SCHRAFFUR
100
AcDbLine
 10
-80.4978168173775
 20
80.46387331164259
 30
0.0
 11
-80.4978168173775
 21
80.46387331164259
 31
0.0
1001
ACAD
1010
0.0
1020
0.0
1030
0.0
  0
LINE
  5
41D9D
330
41C80
100
AcDbEntity
  8
05_SCHRAFFUR
100
AcDbLine
 10
-74.41159240200978
 20
74.88687614777541
 30
0.0
 11
-74.41159240200978
 21
74.88687614777541
 31
0.0
1001
ACAD
1010
0.0
1020
0.0
1030
0.0
  0
LINE
  5
41D9E
330
41C80
100
AcDbEntity
  8
05_SCHRAFFUR
100
AcDbLine
 10
-64.71108702613128
 20
65.99800066813464
 30
0.0
 11
-64.71108702613128
 21
65.99800066813464
 31
0.0
1001
ACAD
1010
0.0
1020
0.0
1030
0.0
  0
LINE
  5
41D9F
330
41C80
100
AcDbEntity
  8
05_SCHRAFFUR
100
AcDbLine
 10
-89.22451054061093
 20
72.3442270444416
 30
0.0
 11
-89.22451054061093
 21
72.3442270444416
 31
0.0
1001
ACAD
1010
0.0
1020
0.0
1030
0.0
  0
LINE
  5
41DA0
330
41C80
100
AcDbEntity
  8
05_SCHRAFFUR
100
AcDbLine
 10
-79.52400516473244
 20
63.45535156480082
 30
0.0
 11
-79.52400516473244
 21
63.45535156480082
 31
0.0
1001
ACAD
1010
0.0
1020
0.0
1030
0.0
  0
LINE
  5
41DA1
330
41C80
100
AcDbEntity
  8
05_SCHRAFFUR
100
AcDbLine
 10
-94.33692330333451
 20
60.91270246146769
 30
0.0
 11
-94.33692330333451
 21
60.91270246146769
 31
0.0
1001
ACAD
1010
0.0
1020
0.0
1030
0.0
  0
LINE
  5
41DA2
330
41C80
100
AcDbEntity
  8
05_SCHRAFFUR
100
AcDbLine
 10
-95.38561084102912
 20
45.75745977215797
 30
0.0
 11
-95.38561084102912
 21
45.75745977215797
 31
0.0
1001
ACAD
1010
0.0
1020
0.0
1030
0.0
  0
LINE
  5
41DA3
330
41C80
100
AcDbEntity
  8
05_SCHRAFFUR
100
AcDbLine
 10
-104.1123045642625
 20
37.63781350495697
 30
0.0
 11
-104.1123045642625
 21
37.63781350495697
 31
0.0
1001
ACAD
1010
0.0
1020
0.0
1030
0.0
  0
LINE
  5
41DA4
330
41C80
100
AcDbEntity
  8
05_SCHRAFFUR
100
AcDbLine
 10
-109.224717326987
 20
26.20628892198329
 30
0.0
 11
-109.224717326987
 21
26.20628892198329
 31
0.0
1001
ACAD
1010
0.0
1020
0.0
1030
0.0
  0
LINE
  5
41DA5
330
41C80
100
AcDbEntity
  8
05_SCHRAFFUR
100
AcDbLine
 10
-110.2734048646812
 20
11.05104623267357
 30
0.0
 11
-110.2734048646812
 21
11.05104623267357
 31
0.0
1001
ACAD
1010
0.0
1020
0.0
1030
0.0
  0
LINE
  5
41DA6
330
41C80
100
AcDbEntity
  8
05_SCHRAFFUR
100
AcDbLine
 10
-104.1871804493134
 20
5.47404906880638
 30
0.0
 11
-104.1871804493134
 21
5.47404906880638
 31
0.0
1001
ACAD
1010
0.0
1020
0.0
1030
0.0
  0
LINE
  5
41DA7
330
41C80
100
AcDbEntity
  8
05_SCHRAFFUR
100
AcDbLine
 10
-94.48667507343543
 20
-3.414826410834393
 30
0.0
 11
-94.48667507343543
 21
-3.414826410834393
 31
0.0
1001
ACAD
1010
0.0
1020
0.0
1030
0.0
  0
LINE
  5
41DA8
330
41C80
100
AcDbEntity
  8
05_SCHRAFFUR
100
AcDbLine
 10
-74.63622005715933
 20
-21.6044171606784
 30
0.0
 11
-74.63622005715933
 21
-21.6044171606784
 31
0.0
1001
ACAD
1010
0.0
1020
0.0
1030
0.0
  0
LINE
  5
41DA9
330
41C80
100
AcDbEntity
  8
05_SCHRAFFUR
100
AcDbLine
 10
-64.93571468128084
 20
-30.49329264031917
 30
0.0
 11
-64.93571468128084
 21
-30.49329264031917
 31
0.0
1001
ACAD
1010
0.0
1020
0.0
1030
0.0
  0
LINE
  5
41DAA
330
41C80
100
AcDbEntity
  8
05_SCHRAFFUR
100
AcDbLine
 10
-109.2995932120366
 20
-5.957475514167981
 30
0.0
 11
-109.2995932120366
 21
-5.957475514167981
 31
0.0
1001
ACAD
1010
0.0
1020
0.0
1030
0.0
  0
LINE
  5
41DAB
330
41C80
100
AcDbEntity
  8
05_SCHRAFFUR
100
AcDbLine
 10
-95.53536261112823
 20
-18.57006910014479
 30
0.0
 11
-95.53536261112823
 21
-18.57006910014479
 31
0.0
1001
ACAD
1010
0.0
1020
0.0
1030
0.0
  0
LINE
  5
41DAC
330
41C80
100
AcDbEntity
  8
05_SCHRAFFUR
100
AcDbLine
 10
-89.44913819576049
 20
-24.14706626401198
 30
0.0
 11
-89.44913819576049
 21
-24.14706626401198
 31
0.0
1001
ACAD
1010
0.0
1020
0.0
1030
0.0
  0
LINE
  5
41DAD
330
41C80
100
AcDbEntity
  8
05_SCHRAFFUR
100
AcDbLine
 10
-79.748632819882
 20
-33.03594174365276
 30
0.0
 11
-79.748632819882
 21
-33.03594174365276
 31
0.0
1001
ACAD
1010
0.0
1020
0.0
1030
0.0
  0
LINE
  5
41DAE
330
41C80
100
AcDbEntity
  8
05_SCHRAFFUR
100
AcDbLine
 10
-65.98440221897362
 20
-45.64853532962956
 30
0.0
 11
-65.98440221897362
 21
-45.64853532962956
 31
0.0
1001
ACAD
1010
0.0
1020
0.0
1030
0.0
  0
LINE
  5
41DAF
330
41C80
100
AcDbEntity
  8
05_SCHRAFFUR
100
AcDbLine
 10
-110.3482807497293
 20
-21.11271820347838
 30
0.0
 11
-110.3482807497293
 21
-21.11271820347838
 31
0.0
1001
ACAD
1010
0.0
1020
0.0
1030
0.0
  0
LINE
  5
41DB0
330
41C80
100
AcDbEntity
  8
05_SCHRAFFUR
100
AcDbLine
 10
-104.2620563343616
 20
-26.68971536734557
 30
0.0
 11
-104.2620563343616
 21
-26.68971536734557
 31
0.0
1001
ACAD
1010
0.0
1020
0.0
1030
0.0
  0
LINE
  5
41DB1
330
41C80
100
AcDbEntity
  8
05_SCHRAFFUR
100
AcDbLine
 10
-94.56155095848316
 20
-35.57859084698634
 30
0.0
 11
-94.56155095848316
 21
-35.57859084698634
 31
0.0
1001
ACAD
1010
0.0
1020
0.0
1030
0.0
  0
LINE
  5
41DB2
330
41C80
100
AcDbEntity
  8
05_SCHRAFFUR
100
AcDbLine
 10
-80.79732035757478
 20
-48.19118443296315
 30
0.0
 11
-80.79732035757478
 21
-48.19118443296315
 31
0.0
1001
ACAD
1010
0.0
1020
0.0
1030
0.0
  0
LINE
  5
41DB3
330
41C80
100
AcDbEntity
  8
05_SCHRAFFUR
100
AcDbLine
 10
-74.71109594220706
 20
-53.76818159683034
 30
0.0
 11
-74.71109594220706
 21
-53.76818159683034
 31
0.0
1001
ACAD
1010
0.0
1020
0.0
1030
0.0
  0
LINE
  5
41DB4
330
41C80
100
AcDbEntity
  8
05_SCHRAFFUR
100
AcDbLine
 10
-65.01059056632858
 20
-62.65705707647112
 30
0.0
 11
-65.01059056632858
 21
-62.65705707647112
 31
0.0
1001
ACAD
1010
0.0
1020
0.0
1030
0.0
  0
LINE
  5
41DB5
330
41C80
100
AcDbEntity
  8
05_SCHRAFFUR
100
AcDbLine
 10
-95.61023849617868
 20
-50.73383353629629
 30
0.0
 11
-95.61023849617868
 21
-50.73383353629629
 31
0.0
1001
ACAD
1010
0.0
1020
0.0
1030
0.0
  0
LINE
  5
41DB6
330
41C80
100
AcDbEntity
  8
05_SCHRAFFUR
100
AcDbLine
 10
-89.52401408081096
 20
-56.31083070016348
 30
0.0
 11
-89.52401408081096
 21
-56.31083070016348
 31
0.0
1001
ACAD
1010
0.0
1020
0.0
1030
0.0
  0
LINE
  5
41DB7
330
41C80
100
AcDbEntity
  8
09_BAU
100
AcDbLine
 10
-60.00000999999975
 20
95.71113624846384
 30
0.0
 11
-60.00000999999975
 21
-65.71115624846379
 31
0.0
  0
LINE
  5
41DB8
330
41C80
100
AcDbEntity
  8
09_BAU
100
AcDbLine
 10
-60.00000999999975
 20
95.71113624846384
 30
0.0
 11
-75.41885752996131
 21
99.77853504375662
 31
0.0
  0
LINE
  5
41DB9
330
41C80
100
AcDbEntity
  8
09_BAU
100
AcDbLine
 10
-75.41885752996131
 20
99.77853504375662
 30
0.0
 11
-90.28231563211193
 21
84.28987887954235
 31
0.0
  0
LINE
  5
41DBA
330
41C80
100
AcDbEntity
  8
09_BAU
100
AcDbLine
 10
-90.28231563211193
 20
84.28987887954235
 30
0.0
 11
-109.2569416395645
 21
30.55372569478823
 31
0.0
  0
LINE
  5
41DBB
330
41C80
100
AcDbEntity
  8
09_BAU
100
AcDbLine
 10
-109.2569416395645
 20
30.55372569478823
 30
0.0
 11
-114.3173606426917
 21
-15.10734113966691
 31
0.0
  0
LINE
  5
41DBC
330
41C80
100
AcDbEntity
  8
09_BAU
100
AcDbLine
 10
-114.3173606426917
 20
-15.10734113966691
 30
0.0
 11
-100.0863883880156
 21
-55.88360011595205
 31
0.0
  0
LINE
  5
41DBE
330
41C80
100
AcDbEntity
  8
09_BAU
100
AcDbLine
 10
-100.0863883880156
 20
-55.88360011595205
 30
0.0
 11
-60.00000999999975
 21
-65.71115624846379
 31
0.0
  0
LINE
  5
41E0A
102
{ACAD_REACTORS
330
41E0D
102
}
330
41C80
100
AcDbEntity
  8
325415_Anschlagprofil
100
AcDbLine
 10
-58.00001999999971
 20
34.99999000000002
 30
0.0
 11
-60.00001999999971
 21
34.99999000000002
 31
0.0
  0
LWPOLYLINE
  5
41E0B
102
{ACAD_REACTORS
330
41E0D
102
}
330
41C80
100
AcDbEntity
  8
AluVierkantrohr_60x40x2
100
AcDbPolyline
 90
        6
 70
     0
 43
0.0
 10
-60.00000999999975
 20
-5.000009999999974
 10
-60.00000999999974
 20
34.99999000000002
 10
-0.0000099999997474
 20
34.99999000000002
 10
-0.0000099999997474
 20
-5.000009999999974
 10
-60.00000999999975
 20
-5.000009999999974
 10
-0.0000099999997474
 20
-5.000009999999974
  0
LWPOLYLINE
  5
41E0C
102
{ACAD_REACTORS
330
41E0D
102
}
330
41C80
100
AcDbEntity
  8
AluVierkantrohr_60x40x2
100
AcDbPolyline
 90
        4
 70
     1
 43
0.0
 10
-58.00000999999975
 20
-3.000009999999974
 10
-58.00000999999974
 20
32.99999000000003
 10
-2.000009999999747
 20
32.99999000000003
 10
-2.000009999999747
 20
-3.000009999999974
  0
LINE
  5
41E3B
330
41C80
100
AcDbEntity
  8
05_SCHRAFFUR
100
AcDbLine
 10
-67.6184066424139
 20
-11.61016297036713
 30
0.0
 11
-66.3938962459606
 21
-10.1508483062255
 31
0.0
1001
ACAD
1010
0.0
1020
0.0
1030
0.0
  0
LINE
  5
41E3C
330
41C80
100
AcDbEntity
  8
05_SCHRAFFUR
100
AcDbLine
 10
-67.6246869711722
 20
-11.61127709814377
 30
0.0
 11
-66.10648625128033
 21
-11.7441024500913
 31
0.0
1001
ACAD
1010
0.0
1020
0.0
1030
0.0
  0
LINE
  5
41E3D
330
41C80
100
AcDbEntity
  8
05_SCHRAFFUR
100
AcDbLine
 10
-66.09680252285579
 20
-11.76689284941585
 30
0.0
 11
-66.39048032879054
 21
-10.17475141527711
 31
0.0
1001
ACAD
1010
0.0
1020
0.0
1030
0.0
  0
LINE
  5
41E3E
330
41C80
100
AcDbEntity
  8
05_SCHRAFFUR
100
AcDbLine
 10
-73.83936199235995
 20
-12.98314173451035
 30
0.0
 11
-72.06089127988253
 21
-12.30045079062665
 31
0.0
1001
ACAD
1010
0.0
1020
0.0
1030
0.0
  0
LINE
  5
41E3F
330
41C80
100
AcDbEntity
  8
05_SCHRAFFUR
100
AcDbLine
 10
-73.83976887951121
 20
-12.98613644663055
 30
0.0
 11
-72.57631561893777
 21
-13.83834643151999
 31
0.0
1001
ACAD
1010
0.0
1020
0.0
1030
0.0
  0
LINE
  5
41E40
330
41C80
100
AcDbEntity
  8
05_SCHRAFFUR
100
AcDbLine
 10
-72.5749302437207
 20
-13.83693182503589
 30
0.0
 11
-72.05991187188647
 21
-12.30203212907099
 31
0.0
1001
ACAD
1010
0.0
1020
0.0
1030
0.0
  0
LINE
  5
41E41
330
41C80
100
AcDbEntity
  8
05_SCHRAFFUR
100
AcDbLine
 10
-63.02009462321712
 20
-11.72364874963341
 30
0.0
 11
-63.02009462321712
 21
-11.72364874963341
 31
0.0
1001
ACAD
1010
0.0
1020
0.0
1030
0.0
  0
LINE
  5
41E42
330
41C80
100
AcDbEntity
  8
05_SCHRAFFUR
100
AcDbLine
 10
-71.52749329946437
 20
-10.76010303328667
 30
0.0
 11
-71.52749329946437
 21
-10.76010303328667
 31
0.0
1001
ACAD
1010
0.0
1020
0.0
1030
0.0
  0
LINE
  5
41E43
330
41C80
100
AcDbEntity
  8
05_SCHRAFFUR
100
AcDbLine
 10
-64.93571468128084
 20
-9.86710395523778
 30
0.0
 11
-64.93571468128084
 21
-9.86710395523778
 31
0.0
1001
ACAD
1010
0.0
1020
0.0
1030
0.0
  0
LINE
  5
41E44
330
41C80
100
AcDbEntity
  8
05_SCHRAFFUR
100
AcDbLine
 10
-67.6184066424139
 20
39.72977843319586
 30
0.0
 11
-66.3938962459606
 21
41.18909309733749
 31
0.0
1001
ACAD
1010
0.0
1020
0.0
1030
0.0
  0
LINE
  5
41E45
330
41C80
100
AcDbEntity
  8
05_SCHRAFFUR
100
AcDbLine
 10
-67.6246869711722
 20
39.72866430541922
 30
0.0
 11
-66.10648625128033
 21
39.59583895347169
 31
0.0
1001
ACAD
1010
0.0
1020
0.0
1030
0.0
  0
LINE
  5
41E46
330
41C80
100
AcDbEntity
  8
05_SCHRAFFUR
100
AcDbLine
 10
-66.09680252285579
 20
39.57304855414714
 30
0.0
 11
-66.39048032879054
 21
41.16518998828587
 31
0.0
1001
ACAD
1010
0.0
1020
0.0
1030
0.0
  0
LINE
  5
41E47
330
41C80
100
AcDbEntity
  8
05_SCHRAFFUR
100
AcDbLine
 10
-73.83936199235995
 20
38.35679966905264
 30
0.0
 11
-72.06089127988253
 21
39.03949061293634
 31
0.0
1001
ACAD
1010
0.0
1020
0.0
1030
0.0
  0
LINE
  5
41E48
330
41C80
100
AcDbEntity
  8
05_SCHRAFFUR
100
AcDbLine
 10
-73.83976887951121
 20
38.35380495693243
 30
0.0
 11
-72.57631561893777
 21
37.50159497204299
 31
0.0
1001
ACAD
1010
0.0
1020
0.0
1030
0.0
  0
LINE
  5
41E49
330
41C80
100
AcDbEntity
  8
05_SCHRAFFUR
100
AcDbLine
 10
-72.5749302437207
 20
37.5030095785271
 30
0.0
 11
-72.05991187188647
 21
39.03790927449199
 31
0.0
1001
ACAD
1010
0.0
1020
0.0
1030
0.0
  0
LINE
  5
41E4A
330
41C80
100
AcDbEntity
  8
05_SCHRAFFUR
100
AcDbLine
 10
-63.02009462321712
 20
39.61629265392958
 30
0.0
 11
-63.02009462321712
 21
39.61629265392958
 31
0.0
1001
ACAD
1010
0.0
1020
0.0
1030
0.0
  0
LINE
  5
41E4B
330
41C80
100
AcDbEntity
  8
05_SCHRAFFUR
100
AcDbLine
 10
-71.52749329946437
 20
40.57983837027632
 30
0.0
 11
-71.52749329946437
 21
40.57983837027632
 31
0.0
1001
ACAD
1010
0.0
1020
0.0
1030
0.0
  0
LINE
  5
41E4C
330
41C80
100
AcDbEntity
  8
05_SCHRAFFUR
100
AcDbLine
 10
-64.93571468128084
 20
41.4728374483252
 30
0.0
 11
-64.93571468128084
 21
41.4728374483252
 31
0.0
1001
ACAD
1010
0.0
1020
0.0
1030
0.0
  0
LINE
  5
41E4D
330
41C80
100
AcDbEntity
  8
05_SCHRAFFUR
100
AcDbLine
 10
-72.66392405625538
 20
49.48681479726326
 30
0.0
 11
-72.66392405625538
 21
49.48681479726326
 31
0.0
1001
ACAD
1010
0.0
1020
0.0
1030
0.0
  0
LINE
  5
41E4E
330
41C80
100
AcDbEntity
  8
05_SCHRAFFUR
100
AcDbLine
 10
-71.79733444368139
 20
45.53143217991203
 30
0.0
 11
-71.79733444368139
 21
45.53143217991203
 31
0.0
1001
ACAD
1010
0.0
1020
0.0
1030
0.0
  0
LINE
  5
41E4F
330
41C80
100
AcDbEntity
  8
05_SCHRAFFUR
100
AcDbLine
 10
-65.4387028252604
 20
46.36856191371532
 30
0.0
 11
-65.4387028252604
 21
46.36856191371532
 31
0.0
1001
ACAD
1010
0.0
1020
0.0
1030
0.0
  0
LINE
  5
41E50
330
41C80
100
AcDbEntity
  8
05_SCHRAFFUR
100
AcDbLine
 10
-71.797284113346
 20
48.11731353329367
 30
0.0
 11
-71.797284113346
 21
48.11731353329367
 31
0.0
1001
ACAD
1010
0.0
1020
0.0
1030
0.0
  0
LINE
  5
41E51
330
41C80
100
AcDbEntity
  8
05_SCHRAFFUR
100
AcDbLine
 10
-87.73245355242682
 20
46.86761609596112
 30
0.0
 11
-87.73245355242682
 21
46.86761609596112
 31
0.0
1001
ACAD
1010
0.0
1020
0.0
1030
0.0
  0
LINE
  5
41E52
330
41C80
100
AcDbEntity
  8
05_SCHRAFFUR
100
AcDbLine
 10
-86.86586393985283
 20
42.91223347860989
 30
0.0
 11
-86.86586393985283
 21
42.91223347860989
 31
0.0
1001
ACAD
1010
0.0
1020
0.0
1030
0.0
  0
LINE
  5
41E53
330
41C80
100
AcDbEntity
  8
05_SCHRAFFUR
100
AcDbLine
 10
-80.50723232143184
 20
43.74936321241318
 30
0.0
 11
-80.50723232143184
 21
43.74936321241318
 31
0.0
1001
ACAD
1010
0.0
1020
0.0
1030
0.0
  0
LINE
  5
41E54
330
41C80
100
AcDbEntity
  8
05_SCHRAFFUR
100
AcDbLine
 10
-86.86581360951743
 20
45.49811483199152
 30
0.0
 11
-86.86581360951743
 21
45.49811483199152
 31
0.0
1001
ACAD
1010
0.0
1020
0.0
1030
0.0
  0
LINE
  5
41E55
330
41C80
100
AcDbEntity
  8
05_SCHRAFFUR
100
AcDbLine
 10
-93.41044958001475
 20
30.27935874205389
 30
0.0
 11
-93.41044958001475
 21
30.27935874205389
 31
0.0
1001
ACAD
1010
0.0
1020
0.0
1030
0.0
  0
LINE
  5
41E56
330
41C80
100
AcDbEntity
  8
05_SCHRAFFUR
100
AcDbLine
 10
-92.54385996744076
 20
26.32397612470266
 30
0.0
 11
-92.54385996744076
 21
26.32397612470266
 31
0.0
1001
ACAD
1010
0.0
1020
0.0
1030
0.0
  0
LINE
  5
41E57
330
41C80
100
AcDbEntity
  8
05_SCHRAFFUR
100
AcDbLine
 10
-86.18522834901979
 20
27.16110585850595
 30
0.0
 11
-86.18522834901979
 21
27.16110585850595
 31
0.0
1001
ACAD
1010
0.0
1020
0.0
1030
0.0
  0
LINE
  5
41E58
330
41C80
100
AcDbEntity
  8
05_SCHRAFFUR
100
AcDbLine
 10
-92.54380963710536
 20
28.90985747808429
 30
0.0
 11
-92.54380963710536
 21
28.90985747808429
 31
0.0
1001
ACAD
1010
0.0
1020
0.0
1030
0.0
  0
LINE
  5
41E59
330
41C80
100
AcDbEntity
  8
05_SCHRAFFUR
100
AcDbLine
 10
-94.49904994299402
 20
5.685787901058347
 30
0.0
 11
-94.49904994299402
 21
5.685787901058347
 31
0.0
1001
ACAD
1010
0.0
1020
0.0
1030
0.0
  0
LINE
  5
41E5A
330
41C80
100
AcDbEntity
  8
05_SCHRAFFUR
100
AcDbLine
 10
-93.63246033042003
 20
1.730405283707113
 30
0.0
 11
-93.63246033042003
 21
1.730405283707113
 31
0.0
1001
ACAD
1010
0.0
1020
0.0
1030
0.0
  0
LINE
  5
41E5B
330
41C80
100
AcDbEntity
  8
05_SCHRAFFUR
100
AcDbLine
 10
-87.27382871199905
 20
2.567535017510408
 30
0.0
 11
-87.27382871199905
 21
2.567535017510408
 31
0.0
1001
ACAD
1010
0.0
1020
0.0
1030
0.0
  0
LINE
  5
41E5C
330
41C80
100
AcDbEntity
  8
05_SCHRAFFUR
100
AcDbLine
 10
-93.63241000008462
 20
4.316286637088751
 30
0.0
 11
-93.63241000008462
 21
4.316286637088751
 31
0.0
1001
ACAD
1010
0.0
1020
0.0
1030
0.0
  0
LINE
  5
41E5D
330
41C80
100
AcDbEntity
  8
05_SCHRAFFUR
100
AcDbLine
 10
-88.2991321828921
 20
-9.084308575082559
 30
0.0
 11
-88.2991321828921
 21
-9.084308575082559
 31
0.0
1001
ACAD
1010
0.0
1020
0.0
1030
0.0
  0
LINE
  5
41E5E
330
41C80
100
AcDbEntity
  8
05_SCHRAFFUR
100
AcDbLine
 10
-87.43254257031811
 20
-13.03969119243379
 30
0.0
 11
-87.43254257031811
 21
-13.03969119243379
 31
0.0
1001
ACAD
1010
0.0
1020
0.0
1030
0.0
  0
LINE
  5
41E5F
330
41C80
100
AcDbEntity
  8
05_SCHRAFFUR
100
AcDbLine
 10
-81.07391095189711
 20
-12.2025614586305
 30
0.0
 11
-81.07391095189711
 21
-12.2025614586305
 31
0.0
1001
ACAD
1010
0.0
1020
0.0
1030
0.0
  0
LINE
  5
41E60
330
41C80
100
AcDbEntity
  8
05_SCHRAFFUR
100
AcDbLine
 10
-87.43249223998271
 20
-10.45380983905215
 30
0.0
 11
-87.43249223998271
 21
-10.45380983905215
 31
0.0
1001
ACAD
1010
0.0
1020
0.0
1030
0.0
  0
ENDBLK
  5
41C82
330
41C80
100
AcDbEntity
  8
0
100
AcDbBlockEnd
  0
BLOCK
  5
41DCE
330
41DCD
100
AcDbEntity
  8
0
100
AcDbBlockBegin
  2
*D12
 70
     1
 10
0.0
 20
0.0
 30
0.0
  3
*D12
  1

  0
LINE
  5
41E61
330
41DCD
100
AcDbEntity
  8
02_BEMASSUNG
 62
     4
370
    -2
100
AcDbLine
 10
0.0016159665647068
 20
36.99999000000003
 30
0.0
 11
0.0016159665647102
 21
92.33227090193668
 31
0.0
  0
LINE
  5
41E62
330
41DCD
100
AcDbEntity
  8
02_BEMASSUNG
 62
     4
370
    -2
100
AcDbLine
 10
7.00161596656471
 20
90.33227090193667
 30
0.0
 11
65.92123489526002
 21
90.33227090193667
 31
0.0
  0
SOLID
  5
41E63
330
41DCD
100
AcDbEntity
  8
02_BEMASSUNG
 62
     4
100
AcDbTrace
 10
7.00161596656471
 20
91.49893756860334
 30
0.0
 11
7.00161596656471
 21
89.16560423527
 31
0.0
 12
0.00161596656471
 22
90.33227090193667
 32
0.0
 13
0.00161596656471
 23
90.33227090193667
 33
0.0
  0
MTEXT
  5
41E64
330
41DCD
100
AcDbEntity
  8
02_BEMASSUNG
 62
     4
100
AcDbMText
 10
56.52123489526002
 20
97.33227090193668
 30
0.0
 40
8.0
 41
0.0
 71
     5
 72
     1
  1
\A1;\C2;LW
 73
     1
 44
1.0
  0
POINT
  5
41E65
330
41DCD
100
AcDbEntity
  8
DEFPOINTS
 62
     0
100
AcDbPoint
 10
184.6016059665644
 20
73.99977811218241
 30
0.0
  0
POINT
  5
41E66
330
41DCD
100
AcDbEntity
  8
DEFPOINTS
 62
     0
100
AcDbPoint
 10
0.0016159665647066
 20
34.99999000000002
 30
0.0
  0
POINT
  5
41E67
330
41DCD
100
AcDbEntity
  8
DEFPOINTS
 62
     0
100
AcDbPoint
 10
0.00161596656471
 20
90.33227090193667
 30
0.0
  0
ENDBLK
  5
41DCF
330
41DCD
100
AcDbEntity
  8
0
100
AcDbBlockEnd
  0
BLOCK
  5
41DD8
330
41DD7
100
AcDbEntity
  8
0
100
AcDbBlockBegin
  2
*D13
 70
     1
 10
0.0
 20
0.0
 30
0.0
  3
*D13
  1

  0
LINE
  5
41E32
330
41DD7
100
AcDbEntity
  8
02_BEMASSUNG
 62
     4
370
    -2
100
AcDbLine
 10
-62.00000999999974
 20
34.99999000000002
 30
0.0
 11
-81.22082955661424
 21
34.99999000000003
 31
0.0
  0
LINE
  5
41E33
330
41DD7
100
AcDbEntity
  8
02_BEMASSUNG
 62
     4
370
    -2
100
AcDbLine
 10
-62.00000999999975
 20
-5.000009999999973
 30
0.0
 11
-81.22082955661426
 21
-5.000009999999969
 31
0.0
  0
LINE
  5
41E34
330
41DD7
100
AcDbEntity
  8
02_BEMASSUNG
 62
     4
370
    -2
100
AcDbLine
 10
-79.22082955661426
 20
27.99999000000003
 30
0.0
 11
-79.22082955661426
 21
1.99999000000003
 31
0.0
  0
SOLID
  5
41E35
330
41DD7
100
AcDbEntity
  8
02_BEMASSUNG
 62
     4
100
AcDbTrace
 10
-80.38749622328094
 20
27.99999000000003
 30
0.0
 11
-78.05416288994759
 21
27.99999000000003
 31
0.0
 12
-79.22082955661425
 22
34.99999000000002
 32
0.0
 13
-79.22082955661425
 23
34.99999000000002
 33
0.0
  0
SOLID
  5
41E36
330
41DD7
100
AcDbEntity
  8
02_BEMASSUNG
 62
     4
100
AcDbTrace
 10
-80.38749622328094
 20
1.99999000000003
 30
0.0
 11
-78.05416288994759
 21
1.99999000000003
 31
0.0
 12
-79.22082955661426
 22
-5.000009999999969
 32
0.0
 13
-79.22082955661426
 23
-5.000009999999969
 33
0.0
  0
MTEXT
  5
41E37
330
41DD7
100
AcDbEntity
  8
02_BEMASSUNG
 62
     4
100
AcDbMText
 10
-86.22082955661426
 20
14.99999000000002
 30
0.0
 40
8.0
 41
0.0
 71
     5
 72
     1
  1
\A1;40
 11
0.0000000000000001
 21
1.0
 31
0.0
 73
     1
 44
1.0
  0
POINT
  5
41E38
330
41DD7
100
AcDbEntity
  8
DEFPOINTS
 62
     0
100
AcDbPoint
 10
-60.00000999999974
 20
34.99999000000002
 30
0.0
  0
POINT
  5
41E39
330
41DD7
100
AcDbEntity
  8
DEFPOINTS
 62
     0
100
AcDbPoint
 10
-60.00000999999975
 20
-5.000009999999974
 30
0.0
  0
POINT
  5
41E3A
330
41DD7
100
AcDbEntity
  8
DEFPOINTS
 62
     0
100
AcDbPoint
 10
-79.22082955661426
 20
-5.000009999999969
 30
0.0
  0
ENDBLK
  5
41DD9
330
41DD7
100
AcDbEntity
  8
0
100
AcDbBlockEnd
  0
BLOCK
  5
41DE4
330
41DE3
100
AcDbEntity
  8
0
100
AcDbBlockBegin
  2
*D14
 70
     1
 10
0.0
 20
0.0
 30
0.0
  3
*D14
  1

  0
LINE
  5
41E17
330
41DE3
100
AcDbEntity
  8
02_BEMASSUNG
 62
     4
370
    -2
100
AcDbLine
 10
-0.0000099999997475
 20
-7.000009999999974
 30
0.0
 11
-0.0000099999997492
 21
-35.18779900824938
 31
0.0
  0
LINE
  5
41E18
330
41DE3
100
AcDbEntity
  8
02_BEMASSUNG
 62
     4
370
    -2
100
AcDbLine
 10
-60.00000999999975
 20
-17.00000999999997
 30
0.0
 11
-60.00000999999975
 21
-35.18779900824938
 31
0.0
  0
LINE
  5
41E19
330
41DE3
100
AcDbEntity
  8
02_BEMASSUNG
 62
     4
370
    -2
100
AcDbLine
 10
-7.000009999999749
 20
-33.18779900824939
 30
0.0
 11
-53.00000999999975
 21
-33.18779900824939
 31
0.0
  0
SOLID
  5
41E1A
330
41DE3
100
AcDbEntity
  8
02_BEMASSUNG
 62
     4
100
AcDbTrace
 10
-7.000009999999749
 20
-32.02113234158272
 30
0.0
 11
-7.000009999999749
 21
-34.35446567491605
 31
0.0
 12
-0.0000099999997491
 22
-33.18779900824939
 32
0.0
 13
-0.0000099999997491
 23
-33.18779900824939
 33
0.0
  0
SOLID
  5
41E1B
330
41DE3
100
AcDbEntity
  8
02_BEMASSUNG
 62
     4
100
AcDbTrace
 10
-53.00000999999975
 20
-32.02113234158272
 30
0.0
 11
-53.00000999999975
 21
-34.35446567491605
 31
0.0
 12
-60.00000999999975
 22
-33.18779900824939
 32
0.0
 13
-60.00000999999975
 23
-33.18779900824939
 33
0.0
  0
MTEXT
  5
41E1C
330
41DE3
100
AcDbEntity
  8
02_BEMASSUNG
 62
     4
100
AcDbMText
 10
-30.00000999999975
 20
-26.18779900824939
 30
0.0
 40
8.0
 41
0.0
 71
     5
 72
     1
  1
\A1;60
 73
     1
 44
1.0
  0
POINT
  5
41E1D
330
41DE3
100
AcDbEntity
  8
DEFPOINTS
 62
     0
100
AcDbPoint
 10
-0.0000099999997474
 20
-5.000009999999974
 30
0.0
  0
POINT
  5
41E1E
330
41DE3
100
AcDbEntity
  8
DEFPOINTS
 62
     0
100
AcDbPoint
 10
-60.00000999999975
 20
-15.00000999999997
 30
0.0
  0
POINT
  5
41E1F
330
41DE3
100
AcDbEntity
  8
DEFPOINTS
 62
     0
100
AcDbPoint
 10
-60.00000999999975
 20
-33.18779900824939
 30
0.0
  0
ENDBLK
  5
41DE5
330
41DE3
100
AcDbEntity
  8
0
100
AcDbBlockEnd
  0
BLOCK
  5
42125
330
42124
100
AcDbEntity
  8
0
100
AcDbBlockBegin
  2
*D15
 70
     1
 10
0.0
 20
0.0
 30
0.0
  3
*D15
  1

  0
LINE
  5
4214A
330
42124
100
AcDbEntity
  8
02_BEMASSUNG
 62
     4
370
    -2
100
AcDbLine
 10
-35.0
 20
22.99999999999999
 30
0.0
 11
-35.0
 21
2.198858342648229
 31
0.0
  0
LINE
  5
4214B
330
42124
100
AcDbEntity
  8
02_BEMASSUNG
 62
     4
370
    -2
100
AcDbLine
 10
25.00000000000001
 20
22.99999999999999
 30
0.0
 11
25.00000000000001
 21
2.198858342648229
 31
0.0
  0
LINE
  5
4214C
330
42124
100
AcDbEntity
  8
02_BEMASSUNG
 62
     4
370
    -2
100
AcDbLine
 10
-27.99999999999999
 20
4.198858342648229
 30
0.0
 11
18.0
 21
4.198858342648229
 31
0.0
  0
SOLID
  5
4214D
330
42124
100
AcDbEntity
  8
02_BEMASSUNG
 62
     4
100
AcDbTrace
 10
-27.99999999999999
 20
5.365525009314896
 30
0.0
 11
-27.99999999999999
 21
3.032191675981562
 31
0.0
 12
-35.0
 22
4.198858342648229
 32
0.0
 13
-35.0
 23
4.198858342648229
 33
0.0
  0
SOLID
  5
4214E
330
42124
100
AcDbEntity
  8
02_BEMASSUNG
 62
     4
100
AcDbTrace
 10
18.0
 20
5.365525009314896
 30
0.0
 11
18.0
 21
3.032191675981562
 31
0.0
 12
25.00000000000001
 22
4.198858342648229
 32
0.0
 13
25.00000000000001
 23
4.198858342648229
 33
0.0
  0
MTEXT
  5
4214F
330
42124
100
AcDbEntity
  8
02_BEMASSUNG
 62
     4
100
AcDbMText
 10
-4.999999999999992
 20
11.19885834264823
 30
0.0
 40
8.0
 41
0.0
 71
     5
 72
     1
  1
\A1;60
 73
     1
 44
1.0
  0
POINT
  5
42150
330
42124
100
AcDbEntity
  8
DEFPOINTS
 62
     0
100
AcDbPoint
 10
-35.0
 20
24.99999999999999
 30
0.0
  0
POINT
  5
42151
330
42124
100
AcDbEntity
  8
DEFPOINTS
 62
     0
100
AcDbPoint
 10
25.00000000000001
 20
25.0
 30
0.0
  0
POINT
  5
42152
330
42124
100
AcDbEntity
  8
DEFPOINTS
 62
     0
100
AcDbPoint
 10
25.00000000000001
 20
4.198858342648229
 30
0.0
  0
ENDBLK
  5
42126
330
42124
100
AcDbEntity
  8
0
100
AcDbBlockEnd
  0
BLOCK
  5
42131
330
42130
100
AcDbEntity
  8
0
100
AcDbBlockBegin
  2
*D16
 70
     1
 10
0.0
 20
0.0
 30
0.0
  3
*D16
  1

  0
LINE
  5
4216C
330
42130
100
AcDbEntity
  8
02_BEMASSUNG
 62
     4
370
    -2
100
AcDbLine
 10
25.0
 20
47.0
 30
0.0
 11
25.0
 21
96.2781428436822
 31
0.0
  0
LINE
  5
4216D
330
42130
100
AcDbEntity
  8
02_BEMASSUNG
 62
     4
370
    -2
100
AcDbLine
 10
32.0
 20
94.27814284368219
 30
0.0
 11
90.92123489526002
 21
94.27814284368219
 31
0.0
  0
SOLID
  5
4216E
330
42130
100
AcDbEntity
  8
02_BEMASSUNG
 62
     4
100
AcDbTrace
 10
32.0
 20
95.44480951034886
 30
0.0
 11
32.0
 21
93.11147617701552
 31
0.0
 12
25.0
 22
94.27814284368219
 32
0.0
 13
25.0
 23
94.27814284368219
 33
0.0
  0
MTEXT
  5
4216F
330
42130
100
AcDbEntity
  8
02_BEMASSUNG
 62
     4
100
AcDbMText
 10
81.52123489526003
 20
101.2781428436822
 30
0.0
 40
8.0
 41
0.0
 71
     5
 72
     1
  1
\A1;\C2;LW
 73
     1
 44
1.0
  0
POINT
  5
42170
330
42130
100
AcDbEntity
  8
DEFPOINTS
 62
     0
100
AcDbPoint
 10
209.5999899999997
 20
74.13117000874786
 30
0.0
  0
POINT
  5
42171
330
42130
100
AcDbEntity
  8
DEFPOINTS
 62
     0
100
AcDbPoint
 10
25.0
 20
45.0
 30
0.0
  0
POINT
  5
42172
330
42130
100
AcDbEntity
  8
DEFPOINTS
 62
     0
100
AcDbPoint
 10
25.0
 20
94.27814284368219
 30
0.0
  0
ENDBLK
  5
42132
330
42130
100
AcDbEntity
  8
0
100
AcDbBlockEnd
  0
BLOCK
  5
4213B
330
4213A
100
AcDbEntity
  8
0
100
AcDbBlockBegin
  2
*D17
 70
     1
 10
0.0
 20
0.0
 30
0.0
  3
*D17
  1

  0
LINE
  5
4215A
330
4213A
100
AcDbEntity
  8
02_BEMASSUNG
 62
     4
370
    -2
100
AcDbLine
 10
-37.00000999999974
 20
44.99999000000002
 30
0.0
 11
-50.19532726212672
 21
44.99999000000003
 31
0.0
  0
LINE
  5
4215B
330
4213A
100
AcDbEntity
  8
02_BEMASSUNG
 62
     4
370
    -2
100
AcDbLine
 10
-36.99999999999999
 20
25.0
 30
0.0
 11
-50.19532726212672
 21
25.0
 31
0.0
  0
LINE
  5
4215C
330
4213A
100
AcDbEntity
  8
02_BEMASSUNG
 62
     4
370
    -2
100
AcDbLine
 10
-48.19532726212671
 20
51.99999000000003
 30
0.0
 11
-48.19532726212671
 21
58.99999000000003
 31
0.0
  0
LINE
  5
4215D
330
4213A
100
AcDbEntity
  8
02_BEMASSUNG
 62
     4
370
    -2
100
AcDbLine
 10
-48.19532726212672
 20
18.0
 30
0.0
 11
-48.19532726212673
 21
11.0
 31
0.0
  0
LINE
  5
4215E
330
4213A
100
AcDbEntity
  8
02_BEMASSUNG
 62
     4
370
    -2
100
AcDbLine
 10
-48.19532726212672
 20
44.99999000000003
 30
0.0
 11
-48.19532726212672
 21
25.0
 31
0.0
  0
SOLID
  5
4215F
330
4213A
100
AcDbEntity
  8
02_BEMASSUNG
 62
     4
100
AcDbTrace
 10
-49.36199392879338
 20
51.99999000000003
 30
0.0
 11
-47.02866059546005
 21
51.99999000000002
 31
0.0
 12
-48.19532726212672
 22
44.99999000000003
 32
0.0
 13
-48.19532726212672
 23
44.99999000000003
 33
0.0
  0
SOLID
  5
42160
330
4213A
100
AcDbEntity
  8
02_BEMASSUNG
 62
     4
100
AcDbTrace
 10
-49.36199392879339
 20
18.0
 30
0.0
 11
-47.02866059546006
 21
18.0
 31
0.0
 12
-48.19532726212672
 22
25.0
 32
0.0
 13
-48.19532726212672
 23
25.0
 33
0.0
  0
MTEXT
  5
42161
330
4213A
100
AcDbEntity
  8
02_BEMASSUNG
 62
     4
100
AcDbMText
 10
-55.19532726212673
 20
34.99999500000001
 30
0.0
 40
8.0
 41
0.0
 71
     5
 72
     1
  1
\A1;20
 11
0.0000000000000001
 21
1.0
 31
0.0
 73
     1
 44
1.0
  0
POINT
  5
42162
330
4213A
100
AcDbEntity
  8
DEFPOINTS
 62
     0
100
AcDbPoint
 10
-35.00000999999974
 20
44.99999000000002
 30
0.0
  0
POINT
  5
42163
330
4213A
100
AcDbEntity
  8
DEFPOINTS
 62
     0
100
AcDbPoint
 10
-35.0
 20
25.0
 30
0.0
  0
POINT
  5
42164
330
4213A
100
AcDbEntity
  8
DEFPOINTS
 62
     0
100
AcDbPoint
 10
-48.19532726212672
 20
25.0
 30
0.0
  0
ENDBLK
  5
4213C
330
4213A
100
AcDbEntity
  8
0
100
AcDbBlockEnd
  0
ENDSEC
  0
SECTION
  2
ENTITIES
  0
LWPOLYLINE
  5
40D03
330
1E
100
AcDbEntity
  8
01_ZRAHMEN
100
AcDbPolyline
 90
        4
 70
     1
 43
0.0
 10
2026.015951517216
 20
-1600.370504060949
 10
2335.740834662945
 20
-1600.370504060949
 10
2335.740834662945
 20
-1302.903608228358
 10
2026.015951517216
 20
-1302.903608228358
  0
LWPOLYLINE
  5
40D04
330
1E
100
AcDbEntity
  8
01_ZRAHMEN
100
AcDbPolyline
 90
        4
 70
     1
 43
0.0
 10
2026.015951517216
 20
-1302.903608228358
 10
2335.740834662945
 20
-1302.903608228358
 10
2335.740834662945
 20
-1005.436712395767
 10
2026.015951517216
 20
-1005.436712395767
  0
LWPOLYLINE
  5
40D05
330
1E
100
AcDbEntity
  8
01_ZRAHMEN
100
AcDbPolyline
 90
        4
 70
     1
 43
0.0
 10
2315.740834662945
 20
-1025.436712395767
 10
2335.740834662945
 20
-1025.436712395767
 10
2335.740834662945
 20
-1005.436712395767
 10
2315.740834662945
 20
-1005.436712395767
  0
LWPOLYLINE
  5
40D06
330
1E
100
AcDbEntity
  8
01_ZRAHMEN
100
AcDbPolyline
 90
        4
 70
     1
 43
0.0
 10
2315.740834662945
 20
-1322.903608228358
 10
2335.740834662945
 20
-1322.903608228358
 10
2335.740834662945
 20
-1302.903608228358
 10
2315.740834662945
 20
-1302.903608228358
  0
MTEXT
  5
40D07
330
1E
100
AcDbEntity
  8
06_BESCHRIFTUNG
100
AcDbMText
 10
2325.740834662945
 20
-1015.436712395767
 30
0.0
 40
8.0
 41
20.0
 71
     5
 72
     5
  1
12.1
 73
     1
 44
1.0
  0
MTEXT
  5
40D09
330
1E
100
AcDbEntity
  8
04_Beschriftung_Tabelle
100
AcDbMText
 10
2035.37215574927
 20
-1019.436712395767
 30
0.0
 40
10.0
 41
100.6999924209031
 71
     1
 72
     5
  1
{\fArial|b0|i0|c0|p34;ST Manet, Pure}
 73
     1
 44
1.0
  0
LWPOLYLINE
  5
40D0B
330
1E
100
AcDbEntity
  8
01_ZRAHMEN
100
AcDbPolyline
 90
        4
 70
     1
 43
0.0
 10
2121.577213618883
 20
-1040.288407712645
 10
2026.015951517216
 20
-1040.288407712645
 10
2026.015951517216
 20
-1005.436712395767
 10
2121.577213618883
 20
-1005.436712395767
  0
LWPOLYLINE
  5
40D0D
330
1E
100
AcDbEntity
  8
01_ZRAHMEN
100
AcDbPolyline
 90
        4
 70
     1
 43
0.0
 10
2335.740834662945
 20
-1302.903608228358
 10
2645.465717808674
 20
-1302.903608228358
 10
2645.465717808674
 20
-1005.436712395767
 10
2335.740834662945
 20
-1005.436712395767
  0
LWPOLYLINE
  5
40D0E
330
1E
100
AcDbEntity
  8
01_ZRAHMEN
100
AcDbPolyline
 90
        4
 70
     1
 43
0.0
 10
2625.465717808674
 20
-1025.436712395767
 10
2645.465717808674
 20
-1025.436712395767
 10
2645.465717808674
 20
-1005.436712395767
 10
2625.465717808674
 20
-1005.436712395767
  0
LWPOLYLINE
  5
40D17
330
1E
100
AcDbEntity
  8
01_ZRAHMEN
100
AcDbPolyline
 90
        4
 70
     1
 43
0.0
 10
2335.740834662945
 20
-1600.370504060949
 10
2645.465717808674
 20
-1600.370504060949
 10
2645.465717808674
 20
-1302.903608228358
 10
2335.740834662945
 20
-1302.903608228358
  0
LWPOLYLINE
  5
40D3F
330
1E
100
AcDbEntity
  8
01_ZRAHMEN
100
AcDbPolyline
 90
        4
 70
     1
 43
0.0
 10
2315.740834662945
 20
-1045.436712395767
 10
2335.740834662945
 20
-1045.436712395767
 10
2335.740834662945
 20
-1025.436712395767
 10
2315.740834662945
 20
-1025.436712395767
  0
LWPOLYLINE
  5
40D40
330
1E
100
AcDbEntity
  8
01_ZRAHMEN
100
AcDbPolyline
 90
        4
 70
     1
 43
0.0
 10
2625.465717808674
 20
-1045.436712395767
 10
2645.465717808674
 20
-1045.436712395767
 10
2645.465717808674
 20
-1025.436712395767
 10
2625.465717808674
 20
-1025.436712395767
  0
LWPOLYLINE
  5
40D44
330
1E
100
AcDbEntity
  8
01_ZRAHMEN
100
AcDbPolyline
 90
        4
 70
     1
 43
0.0
 10
2315.740834662945
 20
-1342.903608228358
 10
2335.740834662945
 20
-1342.903608228358
 10
2335.740834662945
 20
-1322.903608228358
 10
2315.740834662945
 20
-1322.903608228358
  0
MTEXT
  5
40D56
102
{ACAD_XDICTIONARY
360
4222B
102
}
330
1E
100
AcDbEntity
  8
04_Beschriftung_Tabelle
100
AcDbMText
 10
2054.127971428475
 20
-965.996345391184
 30
0.0
 40
18.0
 41
1157.601617930048
 71
     1
 72
     5
  1
{\fArial|b0|i0|c0|p34;Anfahrprofile - Manet, Pure - Schiebet\U+00FCr}
 73
     1
 44
1.0
1001
ACAD
1000
ACAD_MTEXT_COLUMN_INFO_BEGIN
1070
    75
1070
     2
1070
    79
1070
     0
1070
    76
1070
     1
1070
    78
1070
     0
1070
    48
1040
1157.601617930048
1070
    49
1040
5.0
1070
    50
1070
     1
1040
0.0
1000
ACAD_MTEXT_COLUMN_INFO_END
  0
LWPOLYLINE
  5
40D57
330
1E
100
AcDbEntity
  8
01_ZRAHMEN
100
AcDbPolyline
 90
        4
 70
     1
 43
0.0
 10
2026.015951517216
 20
-1005.436712395767
 10
2645.465717808674
 20
-1005.436712395767
 10
2645.465717808674
 20
-946.6161344859465
 10
2026.015951517216
 20
-946.6161344859465
  0
INSERT
  5
40D58
330
1E
100
AcDbEntity
  8
01_ZRAHMEN
100
AcDbBlockReference
  2
DORMA
 10
2605.466657654135
 20
-987.5030285750439
 30
0.0
  0
MTEXT
  5
40D7C
330
1E
100
AcDbEntity
  8
02_BEMASSUNG
100
AcDbMText
 10
2584.792304211562
 20
-1616.796698082136
 30
0.0
 40
10.0
 41
121.3468271942247
 71
     5
 72
     5
  1
Stand 11.2012
 73
     1
 44
1.0
1001
ACAD
1000
ACAD_MTEXT_COLUMN_INFO_BEGIN
1070
    75
1070
     2
1070
    79
1070
     0
1070
    76
1070
     1
1070
    78
1070
     0
1070
    48
1040
121.3468271942247
1070
    49
1040
5.0
1070
    50
1070
     1
1040
0.0
1000
ACAD_MTEXT_COLUMN_INFO_END
  0
LINE
  5
416C9
330
1E
100
AcDbEntity
  8
03_MITTELLINIE
 48
3.0
100
AcDbLine
 10
2296.307464107911
 20
-1152.326319089325
 30
0.0
 11
2296.307464107911
 21
-1168.051075107797
 31
0.0
  0
INSERT
  5
416CA
330
1E
100
AcDbEntity
  8
11_GLAS
100
AcDbBlockReference
  2
Glas_HS_kz
 10
2296.307464107911
 20
-1165.109400432102
 30
0.0
  0
INSERT
  5
4175B
330
1E
100
AcDbEntity
  8
01_ZRAHMEN
100
AcDbBlockReference
  2
ST Mant_Pure Anfahrpfosten Seitenwand LW max.
 10
2188.307464107911
 20
-1192.110390432102
 30
0.0
  0
MTEXT
  5
4179E
102
{ACAD_REACTORS
330
417A1
102
}
330
1E
100
AcDbEntity
  8
02_BEMASSUNG
100
AcDbMText
 10
2061.036963703408
 20
-1212.12161525867
 30
0.0
 40
8.0
 41
232.1241682376467
 71
     1
 72
     5
  1
Mindest-Auflage auf Seitenwand = 35mm
 73
     1
 44
1.0
  0
LWPOLYLINE
  5
4179F
102
{ACAD_REACTORS
330
417A1
102
}
330
1E
100
AcDbEntity
  8
02_BEMASSUNG
  6
ByBlock
370
    -2
100
AcDbPolyline
 90
        2
 70
     0
 43
0.0
 10
2120.116728138429
 20
-1179.283015204273
 10
2107.588535655571
 20
-1207.741045946139
  0
SOLID
  5
417A0
102
{ACAD_REACTORS
330
417A1
102
}
330
1E
100
AcDbEntity
  8
02_BEMASSUNG
100
AcDbTrace
 10
2118.896413379541
 20
-1178.74579116626
 30
0.0
 11
2123.340072366502
 21
-1171.961126650945
 31
0.0
 12
2121.337042897317
 22
-1179.820239242285
 32
0.0
 13
2121.337042897317
 23
-1179.820239242285
 33
0.0
  0
INSERT
  5
4184D
330
1E
100
AcDbEntity
  8
01_ZRAHMEN
100
AcDbBlockReference
  2
ST Mant_Pure Anfahrpfosten Seitenwand verschoben
 10
2498.032347253639
 20
-1192.110390432102
 30
0.0
  0
INSERT
  5
418B7
330
1E
100
AcDbEntity
  8
11_GLAS
100
AcDbBlockReference
  2
Glas_HS_kz
 10
2631.032347253639
 20
-1165.109400432102
 30
0.0
  0
MTEXT
  5
418F7
102
{ACAD_REACTORS
330
418FA
102
}
330
1E
100
AcDbEntity
  8
02_BEMASSUNG
100
AcDbMText
 10
2395.761846849136
 20
-1212.12161525867
 30
0.0
 40
8.0
 41
232.1241682376467
 71
     1
 72
     5
  1
Mindest-Auflage auf Seitenwand = 35mm
 73
     1
 44
1.0
  0
LWPOLYLINE
  5
418F8
102
{ACAD_REACTORS
330
418FA
102
}
330
1E
100
AcDbEntity
  8
02_BEMASSUNG
  6
ByBlock
370
    -2
100
AcDbPolyline
 90
        2
 70
     0
 43
0.0
 10
2454.841611284158
 20
-1179.283015204273
 10
2442.313418801299
 20
-1207.741045946139
  0
SOLID
  5
418F9
102
{ACAD_REACTORS
330
418FA
102
}
330
1E
100
AcDbEntity
  8
02_BEMASSUNG
100
AcDbTrace
 10
2453.62129652527
 20
-1178.74579116626
 30
0.0
 11
2458.064955512231
 21
-1171.961126650945
 31
0.0
 12
2456.061926043046
 22
-1179.820239242285
 32
0.0
 13
2456.061926043046
 23
-1179.820239242285
 33
0.0
  0
INSERT
  5
41E69
330
1E
100
AcDbEntity
  8
01_ZRAHMEN
100
AcDbBlockReference
  2
ST Manet_Pure Anfahrpfosten Querwand LW -60mm
 10
2188.307464107911
 20
-1501.077872479148
 30
0.0
  0
INSERT
  5
41F15
330
1E
100
AcDbEntity
  8
11_GLAS
100
AcDbBlockReference
  2
Glas_HS_kz
 10
2296.309080074475
 20
-1484.076892479148
 30
0.0
  0
MTEXT
  5
41F55
330
1E
100
AcDbEntity
  8
06_BESCHRIFTUNG
100
AcDbMText
 10
2635.465717808674
 20
-1015.436712395767
 30
0.0
 40
8.0
 41
20.0
 71
     5
 72
     5
  1
12.2
 73
     1
 44
1.0
  0
MTEXT
  5
41F56
330
1E
100
AcDbEntity
  8
06_BESCHRIFTUNG
100
AcDbMText
 10
2325.740834662945
 20
-1312.903608228358
 30
0.0
 40
8.0
 41
20.0
 71
     5
 72
     5
  1
12.3
 73
     1
 44
1.0
  0
MTEXT
  5
42093
330
1E
100
AcDbEntity
  8
04_Beschriftung_Tabelle
100
AcDbMText
 10
2345.097038895
 20
-1019.436712395767
 30
0.0
 40
10.0
 41
100.6999924209031
 71
     1
 72
     5
  1
{\fArial|b0|i0|c0|p34;ST Manet, Pure}
 73
     1
 44
1.0
  0
LWPOLYLINE
  5
42094
330
1E
100
AcDbEntity
  8
01_ZRAHMEN
100
AcDbPolyline
 90
        4
 70
     1
 43
0.0
 10
2431.302096764612
 20
-1040.288407712645
 10
2335.740834662946
 20
-1040.288407712645
 10
2335.740834662946
 20
-1005.436712395767
 10
2431.302096764612
 20
-1005.436712395767
  0
MTEXT
  5
42095
330
1E
100
AcDbEntity
  8
04_Beschriftung_Tabelle
100
AcDbMText
 10
2035.37215574927
 20
-1316.903608228358
 30
0.0
 40
10.0
 41
100.6999924209031
 71
     1
 72
     5
  1
{\fArial|b0|i0|c0|p34;ST Manet, Pure}
 73
     1
 44
1.0
  0
LWPOLYLINE
  5
42096
330
1E
100
AcDbEntity
  8
01_ZRAHMEN
100
AcDbPolyline
 90
        4
 70
     1
 43
0.0
 10
2121.577213618883
 20
-1337.755303545236
 10
2026.015951517216
 20
-1337.755303545236
 10
2026.015951517216
 20
-1302.903608228358
 10
2121.577213618883
 20
-1302.903608228358
  0
VIEWPORT
  5
28F38
330
28F30
100
AcDbEntity
 67
     1
  8
0
100
AcDbViewport
 10
587.0
 20
400.4999999999998
 30
0.0
 40
1413.420642857142
 41
889.778
 68
     1
 69
     1
 12
587.0
 22
400.4999999999998
 13
0.0
 23
0.0
 14
10.0
 24
10.0
 15
10.0
 25
10.0
 16
0.0
 26
0.0
 36
1.0
 17
0.0
 27
0.0
 37
0.0
 42
50.0
 43
0.0
 44
0.0
 45
889.778
 50
0.0
 51
0.0
 72
   100
 90
    32800
  1

281
     0
 71
     1
 74
     0
110
0.0
120
0.0
130
0.0
111
1.0
121
0.0
131
0.0
112
0.0
122
1.0
132
0.0
 79
     0
146
0.0
170
     0
  0
VIEWPORT
  5
28F3A
330
28F30
100
AcDbEntity
 67
     1
  8
0
100
AcDbViewport
 10
587.0
 20
400.4999999999998
 30
0.0
 40
939.2000000000001
 41
640.7999999999998
 68
     2
 69
     2
 12
594.4000499999998
 22
420.399995
 13
0.0
 23
0.0
 14
1.0
 24
1.0
 15
0.0
 25
0.0
 16
0.0
 26
0.0
 36
1.0
 17
0.0
 27
0.0
 37
0.0
 42
50.0
 43
0.0
 44
0.0
 45
851.6958861987042
 50
0.0
 51
0.0
 72
   100
 90
    32800
  1

281
     0
 71
     1
 74
     0
110
0.0
120
0.0
130
0.0
111
1.0
121
0.0
131
0.0
112
0.0
122
1.0
132
0.0
 79
     0
146
0.0
170
     0
  0
ENDSEC
  0
SECTION
  2
OBJECTS
  0
DICTIONARY
  5
C
330
0
100
AcDbDictionary
281
     1
  3
ACAD_2007HEADERVARS_RT
350
421FC
  3
ACAD_COLOR
350
2E175
  3
ACAD_GROUP
350
D
  3
ACAD_LAYOUT
350
19
  3
ACAD_MATERIAL
350
2E160
  3
ACAD_MLEADERSTYLE
350
2F02F
  3
ACAD_MLINESTYLE
350
16
  3
ACAD_PLOTSETTINGS
350
18
  3
ACAD_PLOTSTYLENAME
350
2E074
  3
ACAD_SCALELIST
350
2F00D
  3
ACAD_TABLESTYLE
350
2E176
  3
ACAD_VISUALSTYLE
350
2E164
  3
ACDB_RECOMPOSE_DATA
350
421FB
  3
AcDbVariableDictionary
350
2E1A9
  3
AEC_PROPERTY_SET_DEFS
350
3A063
  0
DICTIONARY
  5
2E1FE
330
8
100
AcDbDictionary
280
     1
281
     1
  0
DICTIONARY
  5
30C4D
330
2
100
AcDbDictionary
280
     1
281
     1
  3
ACAD_LAYERSTATES
360
30C4E
  0
DICTIONARY
  5
2F0A4
330
10
100
AcDbDictionary
280
     1
281
     1
  3
ADSK_XREC_LAYER_RECONCILED
360
2F0A5
  0
DICTIONARY
  5
2F0A6
330
1E7BE
100
AcDbDictionary
280
     1
281
     1
  3
ADSK_XREC_LAYER_RECONCILED
360
2F0A7
  0
DICTIONARY
  5
2F0AA
330
1E7C0
100
AcDbDictionary
280
     1
281
     1
  3
ADSK_XREC_LAYER_RECONCILED
360
2F0AB
  0
DICTIONARY
  5
2F0AC
330
1E7C1
100
AcDbDictionary
280
     1
281
     1
  3
ADSK_XREC_LAYER_RECONCILED
360
2F0AD
  0
DICTIONARY
  5
2F0B0
330
1E7C4
100
AcDbDictionary
280
     1
281
     1
  3
ADSK_XREC_LAYER_RECONCILED
360
2F0B1
  0
DICTIONARY
  5
2F0B2
330
1E9D6
100
AcDbDictionary
280
     1
281
     1
  3
ADSK_XREC_LAYER_RECONCILED
360
2F0B3
  0
DICTIONARY
  5
2F0B4
330
1F292
100
AcDbDictionary
280
     1
281
     1
  3
ADSK_XREC_LAYER_RECONCILED
360
2F0B5
  0
DICTIONARY
  5
2F0EE
330
2A185
100
AcDbDictionary
280
     1
281
     1
  3
ADSK_XREC_LAYER_RECONCILED
360
2F0EF
  0
DICTIONARY
  5
3B4B8
330
3B4B7
100
AcDbDictionary
280
     1
281
     1
  0
DICTIONARY
  5
41360
330
4135F
100
AcDbDictionary
280
     1
281
     1
  0
DICTIONARY
  5
1EC0A
330
1E
100
AcDbDictionary
280
     1
281
     1
  3
ACAD_LAYOUTSELFREF
360
2DA49
  3
ACAD_SORTENTS
360
2EBCB
  0
DICTIONARY
  5
290AB
330
28F30
100
AcDbDictionary
280
     1
281
     1
  3
ACAD_LAYOUTSELFREF
360
2DD8D
  0
DICTIONARY
  5
416DD
330
4171F
100
AcDbDictionary
280
     1
281
     1
  0
DICTIONARY
  5
42123
330
417FC
100
AcDbDictionary
280
     1
281
     1
  0
DICTIONARY
  5
41DBF
330
41C80
100
AcDbDictionary
280
     1
281
     1
  0
DICTIONARY
  5
4222B
330
40D56
100
AcDbDictionary
280
     1
281
     1
  3
ACAD_MTEXT_2008_RT
360
4222C
  0
DICTIONARY
  5
421FC
102
{ACAD_REACTORS
330
C
102
}
330
C
100
AcDbDictionary
281
     1
  3
DIMJOGANG
350
421FD
  0
DICTIONARY
  5
2E175
102
{ACAD_REACTORS
330
C
102
}
330
C
100
AcDbDictionary
281
     1
  0
DICTIONARY
  5
D
102
{ACAD_REACTORS
330
C
102
}
330
C
100
AcDbDictionary
281
     1
  3
*A1
350
4179D
  3
*A2
350
417A1
  3
*A3
350
417A7
  3
*A4
350
418FA
  3
*A5
350
41E09
  3
*A6
350
41E0D
  0
DICTIONARY
  5
19
102
{ACAD_REACTORS
330
C
102
}
330
C
100
AcDbDictionary
281
     1
  3
Layout1
350
2E077
  3
Model
350
2E076
  0
DICTIONARY
  5
2E160
102
{ACAD_REACTORS
330
C
102
}
330
C
100
AcDbDictionary
281
     1
  3
ByBlock
350
2E162
  3
ByLayer
350
2E161
  3
Global
350
2E163
  0
DICTIONARY
  5
2F02F
102
{ACAD_REACTORS
330
C
102
}
330
C
100
AcDbDictionary
281
     1
  3
Standard
350
2F030
  0
DICTIONARY
  5
16
102
{ACAD_REACTORS
330
C
102
}
330
C
100
AcDbDictionary
281
     1
  3
STANDARD
350
17
  0
DICTIONARY
  5
18
102
{ACAD_REACTORS
330
C
102
}
330
C
100
AcDbDictionary
281
     1
  3
DIN_A4
350
1FCBE
  0
ACDBDICTIONARYWDFLT
  5
2E074
102
{ACAD_REACTORS
330
C
102
}
330
C
100
AcDbDictionary
281
     1
  3
Normal
350
2E075
100
AcDbDictionaryWithDefault
340
2E075
  0
DICTIONARY
  5
2F00D
102
{ACAD_REACTORS
330
C
102
}
330
C
100
AcDbDictionary
281
     1
  3
A0
350
2F00E
  3
A1
350
2F00F
  3
A2
350
2F010
  3
A3
350
2F011
  3
A4
350
2F012
  3
A5
350
2F013
  3
A6
350
2F014
  3
A7
350
2F015
  3
A8
350
2F016
  3
A9
350
2F017
  3
B0
350
2F018
  3
B1
350
2F019
  3
B2
350
2F01A
  3
B3
350
2F01B
  3
B4
350
2F01C
  3
B5
350
2F01D
  3
B6
350
2F01E
  3
B7
350
2F01F
  3
B8
350
2F020
  3
B9
350
2F021
  3
C0
350
2F022
  3
C1
350
2F023
  3
C2
350
2F024
  3
C3
350
2F025
  3
C4
350
2F026
  3
C5
350
2F027
  3
C6
350
2F028
  3
C7
350
2F029
  3
C8
350
2F02A
  3
C9
350
2F02B
  3
D0
350
2F02C
  3
D1
350
2F02D
  3
D2
350
2F02E
  0
DICTIONARY
  5
2E176
102
{ACAD_REACTORS
330
C
102
}
330
C
100
AcDbDictionary
281
     1
  3
Standard
350
2E177
  0
DICTIONARY
  5
2E164
102
{ACAD_REACTORS
330
C
102
}
330
C
100
AcDbDictionary
281
     1
  3
2dWireframe
350
2E16A
  3
3D Hidden
350
2E16C
  3
3dWireframe
350
2E16B
  3
Basic
350
2E169
  3
Brighten
350
2E170
  3
ColorChange
350
2E174
  3
Conceptual
350
2E16D
  3
Dim
350
2E16F
  3
EdgeColorOff
350
35ABB
  3
Facepattern
350
2E173
  3
Flat
350
2E165
  3
FlatWithEdges
350
2E166
  3
Gouraud
350
2E167
  3
GouraudWithEdges
350
2E168
  3
JitterOff
350
35AB9
  3
Linepattern
350
2E172
  3
OverhangOff
350
35ABA
  3
Realistic
350
2E16E
  3
Thicken
350
2E171
  0
XRECORD
  5
421FB
102
{ACAD_REACTORS
330
C
102
}
330
C
100
AcDbXrecord
280
     1
 90
        1
330
2E177
330
40D56
330
40D7C
  0
DICTIONARY
  5
2E1A9
102
{ACAD_REACTORS
330
C
102
}
330
C
100
AcDbDictionary
281
     1
  3
CANNOSCALE
350
2F175
  3
CMLEADERSTYLE
350
2F174
  3
CTABLESTYLE
350
2E1AA
  3
DIMASSOC
350
2E290
  3
INDEXCTL
350
2E28F
  3
SORTENTS
350
2E28E
  0
DICTIONARY
  5
3A063
102
{ACAD_REACTORS
330
C
102
}
330
C
100
AcDbDictionary
281
     1
  0
DICTIONARY
  5
30C4E
102
{ACAD_REACTORS
330
30C4D
102
}
330
30C4D
100
AcDbDictionary
281
     1
  0
XRECORD
  5
2F0A5
102
{ACAD_REACTORS
330
2F0A4
102
}
330
2F0A4
100
AcDbXrecord
280
     1
290
     1
  0
XRECORD
  5
2F0A7
102
{ACAD_REACTORS
330
2F0A6
102
}
330
2F0A6
100
AcDbXrecord
280
     1
290
     1
  0
XRECORD
  5
2F0AB
102
{ACAD_REACTORS
330
2F0AA
102
}
330
2F0AA
100
AcDbXrecord
280
     1
290
     1
  0
XRECORD
  5
2F0AD
102
{ACAD_REACTORS
330
2F0AC
102
}
330
2F0AC
100
AcDbXrecord
280
     1
290
     1
  0
XRECORD
  5
2F0B1
102
{ACAD_REACTORS
330
2F0B0
102
}
330
2F0B0
100
AcDbXrecord
280
     1
290
     1
  0
XRECORD
  5
2F0B3
102
{ACAD_REACTORS
330
2F0B2
102
}
330
2F0B2
100
AcDbXrecord
280
     1
290
     1
  0
XRECORD
  5
2F0B5
102
{ACAD_REACTORS
330
2F0B4
102
}
330
2F0B4
100
AcDbXrecord
280
     1
290
     1
  0
XRECORD
  5
2F0EF
102
{ACAD_REACTORS
330
2F0EE
102
}
330
2F0EE
100
AcDbXrecord
280
     1
290
     1
  0
XRECORD
  5
2DA49
102
{ACAD_REACTORS
330
1EC0A
102
}
330
1EC0A
100
AcDbXrecord
280
     1
340
1E
  0
SORTENTSTABLE
  5
2EBCB
102
{ACAD_REACTORS
330
1EC0A
102
}
330
1EC0A
100
AcDbSortentsTable
330
1E
331
40D44
  5
40D44
331
40D06
  5
40D06
331
40D0E
  5
40D0E
331
40D17
  5
40D17
331
40D3F
  5
40D3F
331
40D57
  5
40D57
331
40D58
  5
40D58
331
40D09
  5
40D09
331
40D04
  5
40D04
331
40D07
  5
40D07
331
40D40
  5
40D40
331
40D7C
  5
40D7C
331
40D05
  5
40D05
331
40D0D
  5
40D0D
331
40D56
  5
40D56
331
40D03
  5
40D03
331
40D0B
  5
40D0B
  0
XRECORD
  5
2DD8D
102
{ACAD_REACTORS
330
290AB
102
}
330
290AB
100
AcDbXrecord
280
     1
340
28F30
  0
XRECORD
  5
4222C
102
{ACAD_REACTORS
330
4222B
102
}
330
4222B
100
AcDbXrecord
280
     1
 40
205212.0
  1
{\fArial|b0|i0|c0|p34;Anfahrprofile - Manet, Pure - Schiebetür}
  0
XRECORD
  5
421FD
102
{ACAD_REACTORS
330
421FC
102
}
330
421FC
100
AcDbXrecord
280
     1
 40
1.570796326794896
  0
GROUP
  5
4179D
102
{ACAD_REACTORS
330
D
102
}
330
D
100
AcDbGroup
300

 70
     1
 71
     1
  0
GROUP
  5
417A1
102
{ACAD_REACTORS
330
D
102
}
330
D
100
AcDbGroup
300

 70
     1
 71
     1
340
4179F
340
4179E
340
417A0
  0
GROUP
  5
417A7
102
{ACAD_REACTORS
330
D
102
}
330
D
100
AcDbGroup
300

 70
     1
 71
     1
  0
GROUP
  5
418FA
102
{ACAD_REACTORS
330
D
102
}
330
D
100
AcDbGroup
300

 70
     1
 71
     1
340
418F8
340
418F7
340
418F9
  0
GROUP
  5
41E09
102
{ACAD_REACTORS
330
D
102
}
330
D
100
AcDbGroup
300

 70
     1
 71
     1
  0
GROUP
  5
41E0D
102
{ACAD_REACTORS
330
D
102
}
330
D
100
AcDbGroup
300

 70
     1
 71
     1
340
41E0C
340
41E0B
340
41E0A
  0
LAYOUT
  5
2E077
102
{ACAD_REACTORS
330
19
102
}
330
19
100
AcDbPlotSettings
  1

  2
\\HEINSERVER\HP Business Inkjet 2600 PCL 5C
  4

  6

 40
0.0
 41
0.0
 42
0.0
 43
0.0
 44
0.0
 45
0.0
 46
0.0
 47
0.0
 48
0.0
 49
0.0
140
0.0
141
0.0
142
1.0
143
1.0
 70
   688
 72
     0
 73
     0
 74
     5
  7
Haarlinie.ctb
 75
    16
147
1.0
 76
     0
 77
     2
 78
   300
148
0.0
149
0.0
100
AcDbLayout
  1
Layout1
 70
     1
 71
     1
 10
-7.5
 20
-20.0
 11
1181.499999999999
 21
821.0
 12
0.0
 22
0.0
 32
0.0
 14
117.4
 24
80.10000000000003
 34
0.0
 15
1056.599999999999
 25
720.8999999999998
 35
0.0
146
0.0
 13
0.0
 23
0.0
 33
0.0
 16
1.0
 26
0.0
 36
0.0
 17
0.0
 27
1.0
 37
0.0
 76
     0
330
28F30
331
28F38
  0
LAYOUT
  5
2E076
102
{ACAD_XDICTIONARY
360
35AC9
102
}
102
{ACAD_REACTORS
330
19
102
}
330
19
100
AcDbPlotSettings
  1

  2
\\delhnrs00001\Kyocera Mita KM-1650
  4
A4
  6

 40
6.805083274841308
 41
5.323410987854003
 42
6.805084228515625
 43
5.027069091796875
 44
209.9733276367187
 45
296.9683227539062
 46
0.0
 47
0.0
 48
354.3983320504371
 49
15.83613323421514
140
480.5224629198096
141
209.962500243234
142
1.0
143
4.282384889705211
 70
 28336
 72
     1
 73
     1
 74
     1
  7
Haarlinie.ctb
 75
     0
147
0.2335147413778675
 76
     0
 77
     2
 78
   300
148
0.0725552783001149
149
0.0513160095367766
100
AcDbLayout
  1
Model
 70
     1
 71
     0
 10
0.0
 20
0.0
 11
12.0
 21
9.0
 12
0.0
 22
0.0
 32
0.0
 14
0.0
 24
0.0
 34
0.0
 15
0.0
 25
0.0
 35
0.0
146
0.0
 13
0.0
 23
0.0
 33
0.0
 16
1.0
 26
0.0
 36
0.0
 17
0.0
 27
1.0
 37
0.0
 76
     0
330
1E
331
2E15E
  0
MATERIAL
  5
2E162
102
{ACAD_XDICTIONARY
360
42200
102
}
102
{ACAD_REACTORS
330
2E160
102
}
330
2E160
100
AcDbMaterial
  1
ByBlock
 73
     1
 78
     1
172
     1
176
     1
270
     1
274
     1
  0
MATERIAL
  5
2E161
102
{ACAD_XDICTIONARY
360
421FE
102
}
102
{ACAD_REACTORS
330
2E160
102
}
330
2E160
100
AcDbMaterial
  1
ByLayer
 73
     1
 78
     1
172
     1
176
     1
270
     1
274
     1
  0
MATERIAL
  5
2E163
102
{ACAD_XDICTIONARY
360
42202
102
}
102
{ACAD_REACTORS
330
2E160
102
}
330
2E160
100
AcDbMaterial
  1
Global
 73
     1
 78
     1
172
     1
176
     1
270
     1
274
     1
  0
MLEADERSTYLE
  5
2F030
102
{ACAD_REACTORS
330
2F02F
102
}
330
2F02F
100
AcDbMLeaderStyle
170
     2
171
     1
172
     0
 90
        2
 40
0.0
 41
0.0
173
     1
 91
-1056964608
340
13
 92
       -2
290
     1
 42
0.09
291
     1
 43
0.36
  3
Standard
 44
0.18
300

342
11
174
     1
178
     6
175
     1
176
     0
 93
-1056964608
 45
0.18
292
     0
297
     0
 46
0.18
 94
-1056964608
 47
1.0
 49
1.0
140
1.0
293
     1
141
0.0
294
     1
177
     0
142
1.0
295
     0
296
     0
143
0.125
1001
ACAD_MLEADERVER
1070
     2
  0
MLINESTYLE
  5
17
102
{ACAD_REACTORS
330
16
102
}
330
16
100
AcDbMlineStyle
  2
STANDARD
 70
     0
  3

 62
   256
 51
90.0
 52
90.0
 71
     2
 49
0.5
 62
   256
  6
BYLAYER
 49
-0.5
 62
   256
  6
BYLAYER
  0
PLOTSETTINGS
  5
1FCBE
102
{ACAD_REACTORS
330
18
102
}
330
18
100
AcDbPlotSettings
  1
DIN A4
  2
HP LaserJet 4P
  4
A4
  6

 40
5.916083335876463
 41
5.789076805114746
 42
6.720428466796875
 43
5.873748779296875
 44
296.9683227539062
 45
209.9733276367186
 46
0.0
 47
0.51
 48
0.0
 49
0.0
140
0.0
141
0.0
142
1.0
143
1.010834855400307
 70
   692
 72
     1
 73
     0
 74
     1
  7
DORMA_A4.ctb
 75
     0
147
0.9892812803768848
 76
     0
 77
     2
 78
   300
148
1.310484364796934
149
0.6846089128155201
  0
ACDBPLACEHOLDER
  5
2E075
102
{ACAD_REACTORS
330
2E074
102
}
330
2E074
  0
SCALE
  5
2F00E
102
{ACAD_REACTORS
330
2F00D
102
}
330
2F00D
100
AcDbScale
 70
     0
300
1:1
140
1.0
141
1.0
290
     1
  0
SCALE
  5
2F00F
102
{ACAD_REACTORS
330
2F00D
102
}
330
2F00D
100
AcDbScale
 70
     0
300
1:2
140
1.0
141
2.0
290
     0
  0
SCALE
  5
2F010
102
{ACAD_REACTORS
330
2F00D
102
}
330
2F00D
100
AcDbScale
 70
     0
300
1:4
140
1.0
141
4.0
290
     0
  0
SCALE
  5
2F011
102
{ACAD_REACTORS
330
2F00D
102
}
330
2F00D
100
AcDbScale
 70
     0
300
1:5
140
1.0
141
5.0
290
     0
  0
SCALE
  5
2F012
102
{ACAD_REACTORS
330
2F00D
102
}
330
2F00D
100
AcDbScale
 70
     0
300
1:8
140
1.0
141
8.0
290
     0
  0
SCALE
  5
2F013
102
{ACAD_REACTORS
330
2F00D
102
}
330
2F00D
100
AcDbScale
 70
     0
300
1:10
140
1.0
141
10.0
290
     0
  0
SCALE
  5
2F014
102
{ACAD_REACTORS
330
2F00D
102
}
330
2F00D
100
AcDbScale
 70
     0
300
1:16
140
1.0
141
16.0
290
     0
  0
SCALE
  5
2F015
102
{ACAD_REACTORS
330
2F00D
102
}
330
2F00D
100
AcDbScale
 70
     0
300
1:20
140
1.0
141
20.0
290
     0
  0
SCALE
  5
2F016
102
{ACAD_REACTORS
330
2F00D
102
}
330
2F00D
100
AcDbScale
 70
     0
300
1:30
140
1.0
141
30.0
290
     0
  0
SCALE
  5
2F017
102
{ACAD_REACTORS
330
2F00D
102
}
330
2F00D
100
AcDbScale
 70
     0
300
1:40
140
1.0
141
40.0
290
     0
  0
SCALE
  5
2F018
102
{ACAD_REACTORS
330
2F00D
102
}
330
2F00D
100
AcDbScale
 70
     0
300
1:50
140
1.0
141
50.0
290
     0
  0
SCALE
  5
2F019
102
{ACAD_REACTORS
330
2F00D
102
}
330
2F00D
100
AcDbScale
 70
     0
300
1:100
140
1.0
141
100.0
290
     0
  0
SCALE
  5
2F01A
102
{ACAD_REACTORS
330
2F00D
102
}
330
2F00D
100
AcDbScale
 70
     0
300
2:1
140
2.0
141
1.0
290
     0
  0
SCALE
  5
2F01B
102
{ACAD_REACTORS
330
2F00D
102
}
330
2F00D
100
AcDbScale
 70
     0
300
4:1
140
4.0
141
1.0
290
     0
  0
SCALE
  5
2F01C
102
{ACAD_REACTORS
330
2F00D
102
}
330
2F00D
100
AcDbScale
 70
     0
300
8:1
140
8.0
141
1.0
290
     0
  0
SCALE
  5
2F01D
102
{ACAD_REACTORS
330
2F00D
102
}
330
2F00D
100
AcDbScale
 70
     0
300
10:1
140
10.0
141
1.0
290
     0
  0
SCALE
  5
2F01E
102
{ACAD_REACTORS
330
2F00D
102
}
330
2F00D
100
AcDbScale
 70
     0
300
100:1
140
100.0
141
1.0
290
     0
  0
SCALE
  5
2F01F
102
{ACAD_REACTORS
330
2F00D
102
}
330
2F00D
100
AcDbScale
 70
     0
300
1/128" = 1'-0"
140
0.0078125
141
12.0
290
     0
  0
SCALE
  5
2F020
102
{ACAD_REACTORS
330
2F00D
102
}
330
2F00D
100
AcDbScale
 70
     0
300
1/64" = 1'-0"
140
0.015625
141
12.0
290
     0
  0
SCALE
  5
2F021
102
{ACAD_REACTORS
330
2F00D
102
}
330
2F00D
100
AcDbScale
 70
     0
300
1/32" = 1'-0"
140
0.03125
141
12.0
290
     0
  0
SCALE
  5
2F022
102
{ACAD_REACTORS
330
2F00D
102
}
330
2F00D
100
AcDbScale
 70
     0
300
1/16" = 1'-0"
140
0.0625
141
12.0
290
     0
  0
SCALE
  5
2F023
102
{ACAD_REACTORS
330
2F00D
102
}
330
2F00D
100
AcDbScale
 70
     0
300
3/32" = 1'-0"
140
0.09375
141
12.0
290
     0
  0
SCALE
  5
2F024
102
{ACAD_REACTORS
330
2F00D
102
}
330
2F00D
100
AcDbScale
 70
     0
300
1/8" = 1'-0"
140
0.125
141
12.0
290
     0
  0
SCALE
  5
2F025
102
{ACAD_REACTORS
330
2F00D
102
}
330
2F00D
100
AcDbScale
 70
     0
300
3/16" = 1'-0"
140
0.1875
141
12.0
290
     0
  0
SCALE
  5
2F026
102
{ACAD_REACTORS
330
2F00D
102
}
330
2F00D
100
AcDbScale
 70
     0
300
1/4" = 1'-0"
140
0.25
141
12.0
290
     0
  0
SCALE
  5
2F027
102
{ACAD_REACTORS
330
2F00D
102
}
330
2F00D
100
AcDbScale
 70
     0
300
3/8" = 1'-0"
140
0.375
141
12.0
290
     0
  0
SCALE
  5
2F028
102
{ACAD_REACTORS
330
2F00D
102
}
330
2F00D
100
AcDbScale
 70
     0
300
1/2" = 1'-0"
140
0.5
141
12.0
290
     0
  0
SCALE
  5
2F029
102
{ACAD_REACTORS
330
2F00D
102
}
330
2F00D
100
AcDbScale
 70
     0
300
3/4" = 1'-0"
140
0.75
141
12.0
290
     0
  0
SCALE
  5
2F02A
102
{ACAD_REACTORS
330
2F00D
102
}
330
2F00D
100
AcDbScale
 70
     0
300
1" = 1'-0"
140
1.0
141
12.0
290
     0
  0
SCALE
  5
2F02B
102
{ACAD_REACTORS
330
2F00D
102
}
330
2F00D
100
AcDbScale
 70
     0
300
1-1/2" = 1'-0"
140
1.5
141
12.0
290
     0
  0
SCALE
  5
2F02C
102
{ACAD_REACTORS
330
2F00D
102
}
330
2F00D
100
AcDbScale
 70
     0
300
3" = 1'-0"
140
3.0
141
12.0
290
     0
  0
SCALE
  5
2F02D
102
{ACAD_REACTORS
330
2F00D
102
}
330
2F00D
100
AcDbScale
 70
     0
300
6" = 1'-0"
140
6.0
141
12.0
290
     0
  0
SCALE
  5
2F02E
102
{ACAD_REACTORS
330
2F00D
102
}
330
2F00D
100
AcDbScale
 70
     0
300
1'-0" = 1'-0"
140
12.0
141
12.0
290
     0
  0
TABLESTYLE
  5
2E177
102
{ACAD_XDICTIONARY
360
2F126
102
}
102
{ACAD_REACTORS
330
2E176
102
}
330
2E176
100
AcDbTableStyle
  3
Standard
 70
     0
 71
     0
 40
0.06
 41
0.06
280
     0
281
     0
  7
STANDARD
140
0.18
170
     2
 62
     0
 63
     7
283
     0
274
    -2
284
     1
 64
     0
275
    -2
285
     1
 65
     0
276
    -2
286
     1
 66
     0
277
    -2
287
     1
 67
     0
278
    -2
288
     1
 68
     0
279
    -2
289
     1
 69
     0
  7
STANDARD
140
0.25
170
     5
 62
     0
 63
     7
283
     0
274
    -2
284
     1
 64
     0
275
    -2
285
     1
 65
     0
276
    -2
286
     1
 66
     0
277
    -2
287
     1
 67
     0
278
    -2
288
     1
 68
     0
279
    -2
289
     1
 69
     0
  7
STANDARD
140
0.18
170
     5
 62
     0
 63
     7
283
     0
274
    -2
284
     1
 64
     0
275
    -2
285
     1
 65
     0
276
    -2
286
     1
 66
     0
277
    -2
287
     1
 67
     0
278
    -2
288
     1
 68
     0
279
    -2
289
     1
 69
     0
  0
VISUALSTYLE
  5
2E16A
102
{ACAD_XDICTIONARY
360
4220E
102
}
102
{ACAD_REACTORS
330
2E164
102
}
330
2E164
100
AcDbVisualStyle
  2
2dWireframe
 70
     4
 71
     0
 72
     2
 73
     0
 90
        0
 40
-0.6
 41
-30.0
 62
     5
 63
     7
 74
     1
 91
        4
 64
     7
 65
   257
 75
     1
175
     1
 42
1.0
 92
        0
 66
   257
 43
1.0
 76
     1
 77
     6
 78
     2
 67
     7
 79
     5
170
     0
171
     0
290
     0
174
     0
 93
        1
 44
0.0
173
     0
291
     0
 45
0.0
1001
ACAD
1000
AcDbSavedByObjectVersion
1070
     0
  0
VISUALSTYLE
  5
2E16C
102
{ACAD_XDICTIONARY
360
42212
102
}
102
{ACAD_REACTORS
330
2E164
102
}
330
2E164
100
AcDbVisualStyle
  2
3D Hidden
 70
     6
 71
     1
 72
     2
 73
     2
 90
        0
 40
-0.6
 41
-30.0
 62
     5
 63
     7
 74
     2
 91
        2
 64
     7
 65
   257
 75
     2
175
     1
 42
40.0
 92
        0
 66
   257
 43
1.0
 76
     1
 77
     6
 78
     2
 67
     7
 79
     3
170
     0
171
     0
290
     0
174
     0
 93
        1
 44
0.0
173
     0
291
     0
 45
0.0
1001
ACAD
1000
AcDbSavedByObjectVersion
1070
     0
  0
VISUALSTYLE
  5
2E16B
102
{ACAD_XDICTIONARY
360
42210
102
}
102
{ACAD_REACTORS
330
2E164
102
}
330
2E164
100
AcDbVisualStyle
  2
3dWireframe
 70
     5
 71
     0
 72
     2
 73
     0
 90
        0
 40
-0.6
 41
-30.0
 62
     5
 63
     7
 74
     1
 91
        4
 64
     7
 65
   257
 75
     1
175
     1
 42
1.0
 92
        0
 66
   257
 43
1.0
 76
     1
 77
     6
 78
     2
 67
     7
 79
     5
170
     0
171
     0
290
     0
174
     0
 93
        1
 44
0.0
173
     0
291
     0
 45
0.0
1001
ACAD
1000
AcDbSavedByObjectVersion
1070
     0
  0
VISUALSTYLE
  5
2E169
102
{ACAD_XDICTIONARY
360
4220C
102
}
102
{ACAD_REACTORS
330
2E164
102
}
330
2E164
100
AcDbVisualStyle
  2
Basic
 70
     7
 71
     1
 72
     0
 73
     1
 90
        0
 40
-0.6
 41
-30.0
 62
     5
 63
     7
 74
     0
 91
        4
 64
     7
 65
   257
 75
     1
175
     1
 42
1.0
 92
        8
 66
     7
 43
1.0
 76
     1
 77
     6
 78
     2
 67
     7
 79
     5
170
     0
171
     0
290
     0
174
     0
 93
        1
 44
0.0
173
     0
291
     1
 45
0.0
1001
ACAD
1000
AcDbSavedByObjectVersion
1070
     0
  0
VISUALSTYLE
  5
2E170
102
{ACAD_XDICTIONARY
360
4221A
102
}
102
{ACAD_REACTORS
330
2E164
102
}
330
2E164
100
AcDbVisualStyle
  2
Brighten
 70
    12
 71
     2
 72
     2
 73
     0
 90
        0
 40
-0.6
 41
-30.0
 62
     5
 63
     7
 74
     1
 91
        4
 64
     7
 65
   257
 75
     1
175
     1
 42
1.0
 92
        8
 66
     7
 43
1.0
 76
     1
 77
     6
 78
     2
 67
     7
 79
     5
170
     0
171
     0
290
     0
174
     0
 93
        1
 44
50.0
173
     0
291
     1
 45
0.0
1001
ACAD
1000
AcDbSavedByObjectVersion
1070
     0
  0
VISUALSTYLE
  5
2E174
102
{ACAD_XDICTIONARY
360
42222
102
}
102
{ACAD_REACTORS
330
2E164
102
}
330
2E164
100
AcDbVisualStyle
  2
ColorChange
 70
    16
 71
     2
 72
     2
 73
     3
 90
        0
 40
-0.6
 41
-30.0
 62
     5
 63
     8
 74
     1
 91
        4
 64
     7
 65
   257
 75
     1
175
     1
 42
1.0
 92
        8
 66
     8
 43
1.0
 76
     1
 77
     6
 78
     2
 67
     7
 79
     5
170
     0
171
     0
290
     0
174
     0
 93
        1
 44
0.0
173
     0
291
     1
 45
0.0
1001
ACAD
1000
AcDbSavedByObjectVersion
1070
     0
  0
VISUALSTYLE
  5
2E16D
102
{ACAD_XDICTIONARY
360
42214
102
}
102
{ACAD_REACTORS
330
2E164
102
}
330
2E164
100
AcDbVisualStyle
  2
Conceptual
 70
     9
 71
     3
 72
     2
 73
     0
 90
        0
 40
-0.6
 41
-30.0
 62
     5
 63
     7
 74
     2
 91
        2
 64
     7
 65
   257
 75
     1
175
     1
 42
40.0
 92
        8
 66
     7
 43
1.0
 76
     1
 77
     6
 78
     2
 67
     7
 79
     3
170
     0
171
     0
290
     0
174
     0
 93
        1
 44
0.0
173
     0
291
     0
 45
0.0
1001
ACAD
1000
AcDbSavedByObjectVersion
1070
     0
  0
VISUALSTYLE
  5
2E16F
102
{ACAD_XDICTIONARY
360
42218
102
}
102
{ACAD_REACTORS
330
2E164
102
}
330
2E164
100
AcDbVisualStyle
  2
Dim
 70
    11
 71
     2
 72
     2
 73
     0
 90
        0
 40
-0.6
 41
-30.0
 62
     5
 63
     7
 74
     1
 91
        4
 64
     7
 65
   257
 75
     1
175
     1
 42
1.0
 92
        8
 66
     7
 43
1.0
 76
     1
 77
     6
 78
     2
 67
     7
 79
     5
170
     0
171
     0
290
     0
174
     0
 93
        1
 44
-50.0
173
     0
291
     1
 45
0.0
1001
ACAD
1000
AcDbSavedByObjectVersion
1070
     0
  0
VISUALSTYLE
  5
35ABB
102
{ACAD_XDICTIONARY
360
42229
102
}
102
{ACAD_REACTORS
330
2E164
102
}
330
2E164
100
AcDbVisualStyle
  2
EdgeColorOff
 70
    22
 71
     2
 72
     2
 73
     0
 90
        0
 40
-0.6
 41
-30.0
 62
     5
 63
     7
421
 16777215
 74
     1
 91
        4
 64
     7
 65
   257
 75
     1
175
     1
 42
1.0
 92
        8
 66
     7
 43
1.0
 76
     1
 77
     6
 78
     2
 67
     7
 79
     5
170
     0
171
     0
290
     0
174
     0
 93
        1
 44
0.0
173
     0
291
     1
 45
0.0
1001
ACAD
1000
AcDbSavedByObjectVersion
1070
     0
  0
VISUALSTYLE
  5
2E173
102
{ACAD_XDICTIONARY
360
42220
102
}
102
{ACAD_REACTORS
330
2E164
102
}
330
2E164
100
AcDbVisualStyle
  2
Facepattern
 70
    15
 71
     2
 72
     2
 73
     0
 90
        0
 40
-0.6
 41
-30.0
 62
     5
 63
     7
 74
     1
 91
        4
 64
     7
 65
   257
 75
     1
175
     1
 42
1.0
 92
        8
 66
     7
 43
1.0
 76
     1
 77
     6
 78
     2
 67
     7
 79
     5
170
     0
171
     0
290
     0
174
     0
 93
        1
 44
0.0
173
     0
291
     1
 45
0.0
1001
ACAD
1000
AcDbSavedByObjectVersion
1070
     0
  0
VISUALSTYLE
  5
2E165
102
{ACAD_XDICTIONARY
360
42204
102
}
102
{ACAD_REACTORS
330
2E164
102
}
330
2E164
100
AcDbVisualStyle
  2
Flat
 70
     0
 71
     2
 72
     1
 73
     1
 90
        2
 40
-0.6
 41
30.0
 62
     5
 63
     7
 74
     0
 91
        4
 64
     7
 65
   257
 75
     1
175
     1
 42
1.0
 92
        8
 66
     7
 43
1.0
 76
     1
 77
     6
 78
     2
 67
     7
 79
     5
170
     0
171
     0
290
     0
174
     0
 93
       13
 44
0.0
173
     0
291
     1
 45
0.0
1001
ACAD
1000
AcDbSavedByObjectVersion
1070
     0
  0
VISUALSTYLE
  5
2E166
102
{ACAD_XDICTIONARY
360
42206
102
}
102
{ACAD_REACTORS
330
2E164
102
}
330
2E164
100
AcDbVisualStyle
  2
FlatWithEdges
 70
     1
 71
     2
 72
     1
 73
     1
 90
        2
 40
-0.6
 41
30.0
 62
     5
 63
     7
 74
     1
 91
        4
 64
     7
 65
   257
 75
     1
175
     1
 42
1.0
 92
        0
 66
   257
 43
1.0
 76
     1
 77
     6
 78
     2
 67
     7
 79
     5
170
     0
171
     0
290
     0
174
     0
 93
       13
 44
0.0
173
     0
291
     1
 45
0.0
1001
ACAD
1000
AcDbSavedByObjectVersion
1070
     0
  0
VISUALSTYLE
  5
2E167
102
{ACAD_XDICTIONARY
360
42208
102
}
102
{ACAD_REACTORS
330
2E164
102
}
330
2E164
100
AcDbVisualStyle
  2
Gouraud
 70
     2
 71
     2
 72
     2
 73
     1
 90
        2
 40
-0.6
 41
30.0
 62
     5
 63
     7
 74
     0
 91
        4
 64
     7
 65
   257
 75
     1
175
     1
 42
1.0
 92
        0
 66
     7
 43
1.0
 76
     1
 77
     6
 78
     2
 67
     7
 79
     5
170
     0
171
     0
290
     0
174
     0
 93
       13
 44
0.0
173
     0
291
     1
 45
0.0
1001
ACAD
1000
AcDbSavedByObjectVersion
1070
     0
  0
VISUALSTYLE
  5
2E168
102
{ACAD_XDICTIONARY
360
4220A
102
}
102
{ACAD_REACTORS
330
2E164
102
}
330
2E164
100
AcDbVisualStyle
  2
GouraudWithEdges
 70
     3
 71
     2
 72
     2
 73
     1
 90
        2
 40
-0.6
 41
30.0
 62
     5
 63
     7
 74
     1
 91
        4
 64
     7
 65
   257
 75
     1
175
     1
 42
1.0
 92
        0
 66
   257
 43
1.0
 76
     1
 77
     6
 78
     2
 67
     7
 79
     5
170
     0
171
     0
290
     0
174
     0
 93
       13
 44
0.0
173
     0
291
     1
 45
0.0
1001
ACAD
1000
AcDbSavedByObjectVersion
1070
     0
  0
VISUALSTYLE
  5
35AB9
102
{ACAD_XDICTIONARY
360
42225
102
}
102
{ACAD_REACTORS
330
2E164
102
}
330
2E164
100
AcDbVisualStyle
  2
JitterOff
 70
    20
 71
     2
 72
     2
 73
     0
 90
        0
 40
-0.6
 41
-30.0
 62
     5
 63
     7
421
 16777215
 74
     1
 91
        4
 64
     7
 65
   257
 75
     1
175
     1
 42
1.0
 92
       10
 66
     7
 43
1.0
 76
     1
 77
     6
 78
     2
 67
     7
 79
     5
170
     0
171
     0
290
     0
174
     0
 93
        1
 44
0.0
173
     0
291
     1
 45
0.0
1001
ACAD
1000
AcDbSavedByObjectVersion
1070
     0
  0
VISUALSTYLE
  5
2E172
102
{ACAD_XDICTIONARY
360
4221E
102
}
102
{ACAD_REACTORS
330
2E164
102
}
330
2E164
100
AcDbVisualStyle
  2
Linepattern
 70
    14
 71
     2
 72
     2
 73
     0
 90
        0
 40
-0.6
 41
-30.0
 62
     5
 63
     7
 74
     1
 91
        4
 64
     7
 65
   257
 75
     7
175
     7
 42
1.0
 92
        8
 66
     7
 43
1.0
 76
     1
 77
     6
 78
     2
 67
     7
 79
     5
170
     0
171
     0
290
     0
174
     0
 93
        1
 44
0.0
173
     0
291
     1
 45
0.0
1001
ACAD
1000
AcDbSavedByObjectVersion
1070
     0
  0
VISUALSTYLE
  5
35ABA
102
{ACAD_XDICTIONARY
360
42227
102
}
102
{ACAD_REACTORS
330
2E164
102
}
330
2E164
100
AcDbVisualStyle
  2
OverhangOff
 70
    21
 71
     2
 72
     2
 73
     0
 90
        0
 40
-0.6
 41
-30.0
 62
     5
 63
     7
421
 16777215
 74
     1
 91
        4
 64
     7
 65
   257
 75
     1
175
     1
 42
1.0
 92
        9
 66
     7
 43
1.0
 76
     1
 77
     6
 78
     2
 67
     7
 79
     5
170
     0
171
     0
290
     0
174
     0
 93
        1
 44
0.0
173
     0
291
     1
 45
0.0
1001
ACAD
1000
AcDbSavedByObjectVersion
1070
     0
  0
VISUALSTYLE
  5
2E16E
102
{ACAD_XDICTIONARY
360
42216
102
}
102
{ACAD_REACTORS
330
2E164
102
}
330
2E164
100
AcDbVisualStyle
  2
Realistic
 70
     8
 71
     2
 72
     2
 73
     0
 90
        0
 40
-0.6
 41
-30.0
 62
     5
 63
     7
 74
     1
 91
        0
 64
     7
 65
   257
 75
     1
175
     1
 42
1.0
 92
        8
 66
     8
 43
1.0
 76
     1
 77
     6
 78
     2
 67
     7
 79
     5
170
     0
171
     0
290
     0
174
     0
 93
       13
 44
0.0
173
     0
291
     0
 45
0.0
1001
ACAD
1000
AcDbSavedByObjectVersion
1070
     0
  0
VISUALSTYLE
  5
2E171
102
{ACAD_XDICTIONARY
360
4221C
102
}
102
{ACAD_REACTORS
330
2E164
102
}
330
2E164
100
AcDbVisualStyle
  2
Thicken
 70
    13
 71
     2
 72
     2
 73
     0
 90
        0
 40
-0.6
 41
-30.0
 62
     5
 63
     7
 74
     1
 91
        4
 64
     7
 65
   257
 75
     1
175
     1
 42
1.0
 92
       12
 66
     7
 43
1.0
 76
     1
 77
     6
 78
     2
 67
     7
 79
     5
170
     0
171
     0
290
     0
174
     0
 93
        1
 44
0.0
173
     0
291
     1
 45
0.0
1001
ACAD
1000
AcDbSavedByObjectVersion
1070
     0
  0
DICTIONARYVAR
  5
2F175
102
{ACAD_REACTORS
330
2E1A9
102
}
330
2E1A9
100
DictionaryVariables
280
     0
  1
1:1
  0
DICTIONARYVAR
  5
2F174
102
{ACAD_REACTORS
330
2E1A9
102
}
330
2E1A9
100
DictionaryVariables
280
     0
  1
STANDARD
  0
DICTIONARYVAR
  5
2E1AA
102
{ACAD_REACTORS
330
2E1A9
102
}
330
2E1A9
100
DictionaryVariables
280
     0
  1
STANDARD
  0
DICTIONARYVAR
  5
2E290
102
{ACAD_REACTORS
330
2E1A9
102
}
330
2E1A9
100
DictionaryVariables
280
     0
  1
1
  0
DICTIONARYVAR
  5
2E28F
102
{ACAD_REACTORS
330
2E1A9
102
}
330
2E1A9
100
DictionaryVariables
280
     0
  1
0
  0
DICTIONARYVAR
  5
2E28E
102
{ACAD_REACTORS
330
2E1A9
102
}
330
2E1A9
100
DictionaryVariables
280
     0
  1
127
  0
DICTIONARY
  5
35AC9
330
2E076
100
AcDbDictionary
280
     1
281
     1
  3
ADSK_XREC_LAYOUTTHUMBNAIL
360
35ACA
  0
DICTIONARY
  5
42200
330
2E162
100
AcDbDictionary
280
     1
281
     1
  3
ACAD_XREC_ROUNDTRIP
360
42201
  0
DICTIONARY
  5
421FE
330
2E161
100
AcDbDictionary
280
     1
281
     1
  3
ACAD_XREC_ROUNDTRIP
360
421FF
  0
DICTIONARY
  5
42202
330
2E163
100
AcDbDictionary
280
     1
281
     1
  3
ACAD_XREC_ROUNDTRIP
360
42203
  0
DICTIONARY
  5
2F126
330
2E177
100
AcDbDictionary
280
     1
281
     1
  3
ACAD_ROUNDTRIP_2008_TABLESTYLE_CELLSTYLEMAP
360
421FA
  3
ACAD_XREC_ROUNDTRIP
360
42224
  0
DICTIONARY
  5
4220E
330
2E16A
100
AcDbDictionary
280
     1
281
     1
  3
ACAD_XREC_ROUNDTRIP
360
4220F
  0
DICTIONARY
  5
42212
330
2E16C
100
AcDbDictionary
280
     1
281
     1
  3
ACAD_XREC_ROUNDTRIP
360
42213
  0
DICTIONARY
  5
42210
330
2E16B
100
AcDbDictionary
280
     1
281
     1
  3
ACAD_XREC_ROUNDTRIP
360
42211
  0
DICTIONARY
  5
4220C
330
2E169
100
AcDbDictionary
280
     1
281
     1
  3
ACAD_XREC_ROUNDTRIP
360
4220D
  0
DICTIONARY
  5
4221A
330
2E170
100
AcDbDictionary
280
     1
281
     1
  3
ACAD_XREC_ROUNDTRIP
360
4221B
  0
DICTIONARY
  5
42222
330
2E174
100
AcDbDictionary
280
     1
281
     1
  3
ACAD_XREC_ROUNDTRIP
360
42223
  0
DICTIONARY
  5
42214
330
2E16D
100
AcDbDictionary
280
     1
281
     1
  3
ACAD_XREC_ROUNDTRIP
360
42215
  0
DICTIONARY
  5
42218
330
2E16F
100
AcDbDictionary
280
     1
281
     1
  3
ACAD_XREC_ROUNDTRIP
360
42219
  0
DICTIONARY
  5
42229
330
35ABB
100
AcDbDictionary
280
     1
281
     1
  3
ACAD_XREC_ROUNDTRIP
360
4222A
  0
DICTIONARY
  5
42220
330
2E173
100
AcDbDictionary
280
     1
281
     1
  3
ACAD_XREC_ROUNDTRIP
360
42221
  0
DICTIONARY
  5
42204
330
2E165
100
AcDbDictionary
280
     1
281
     1
  3
ACAD_XREC_ROUNDTRIP
360
42205
  0
DICTIONARY
  5
42206
330
2E166
100
AcDbDictionary
280
     1
281
     1
  3
ACAD_XREC_ROUNDTRIP
360
42207
  0
DICTIONARY
  5
42208
330
2E167
100
AcDbDictionary
280
     1
281
     1
  3
ACAD_XREC_ROUNDTRIP
360
42209
  0
DICTIONARY
  5
4220A
330
2E168
100
AcDbDictionary
280
     1
281
     1
  3
ACAD_XREC_ROUNDTRIP
360
4220B
  0
DICTIONARY
  5
42225
330
35AB9
100
AcDbDictionary
280
     1
281
     1
  3
ACAD_XREC_ROUNDTRIP
360
42226
  0
DICTIONARY
  5
4221E
330
2E172
100
AcDbDictionary
280
     1
281
     1
  3
ACAD_XREC_ROUNDTRIP
360
4221F
  0
DICTIONARY
  5
42227
330
35ABA
100
AcDbDictionary
280
     1
281
     1
  3
ACAD_XREC_ROUNDTRIP
360
42228
  0
DICTIONARY
  5
42216
330
2E16E
100
AcDbDictionary
280
     1
281
     1
  3
ACAD_XREC_ROUNDTRIP
360
42217
  0
DICTIONARY
  5
4221C
330
2E171
100
AcDbDictionary
280
     1
281
     1
  3
ACAD_XREC_ROUNDTRIP
360
4221D
  0
XRECORD
  5
35ACA
102
{ACAD_REACTORS
330
35AC9
102
}
330
35AC9
100
AcDbXrecord
280
     1
310
28000000000100006B0000000100080000000000006B0000000000000000000000010000000000000000000000000000FFFFFF000000000000000000000000000000000000000000000000000000000000000000330000006600000099000000CC000000FF00000000330000333300006633000099330000CC330000FF3300
310
0000660000336600006666000099660000CC660000FF66000000990000339900006699000099990000CC990000FF99000000CC000033CC000066CC000099CC0000CCCC0000FFCC000000FF000033FF000066FF000099FF0000CCFF0000FFFF000000003300330033006600330099003300CC003300FF003300003333003333
310
33006633330099333300CC333300FF33330000663300336633006666330099663300CC663300FF66330000993300339933006699330099993300CC993300FF99330000CC330033CC330066CC330099CC3300CCCC3300FFCC330000FF330033FF330066FF330099FF3300CCFF3300FFFF330000006600330066006600660099
310
006600CC006600FF00660000336600333366006633660099336600CC336600FF33660000666600336666006666660099666600CC666600FF66660000996600339966006699660099996600CC996600FF99660000CC660033CC660066CC660099CC6600CCCC6600FFCC660000FF660033FF660066FF660099FF6600CCFF6600
310
FFFF660000009900330099006600990099009900CC009900FF00990000339900333399006633990099339900CC339900FF33990000669900336699006666990099669900CC669900FF66990000999900339999006699990099999900CC999900FF99990000CC990033CC990066CC990099CC9900CCCC9900FFCC990000FF99
310
0033FF990066FF990099FF9900CCFF9900FFFF99000000CC003300CC006600CC009900CC00CC00CC00FF00CC000033CC003333CC006633CC009933CC00CC33CC00FF33CC000066CC003366CC006666CC009966CC00CC66CC00FF66CC000099CC003399CC006699CC009999CC00CC99CC00FF99CC0000CCCC0033CCCC0066CC
310
CC0099CCCC00CCCCCC00FFCCCC0000FFCC0033FFCC0066FFCC0099FFCC00CCFFCC00FFFFCC000000FF003300FF006600FF009900FF00CC00FF00FF00FF000033FF003333FF006633FF009933FF00CC33FF00FF33FF000066FF003366FF006666FF009966FF00CC66FF00FF66FF000099FF003399FF006699FF009999FF00CC
310
99FF00FF99FF0000CCFF0033CCFF0066CCFF0099CCFF00CCCCFF00FFCCFF0000FFFF0033FFFF0066FFFF0099FFFF00CCFFFF00FFFFFF00000000000D0D0D001A1A1A00282828003535350043434300505050005D5D5D006B6B6B00787878008686860093939300A1A1A100AEAEAE00BBBBBB00C9C9C900D6D6D600E4E4E400
310
F1F1F100FFFFFF0000000000000000000000000000000000000000000000000000000000000000000000000000000000E2E2E2E2E2E2E2E2E2E2E2E2E2E2E2E2E2E2E2E2E2E2E2E2E2E2E2E2E2E2E2E2E2E2E2E2E2E2E2E2E2E2E2E2E2E2E2E2E2E2E2E2E2E2E2E2E2E2E2E2E2E2E2E2E2E2E2E2E2E2E2E2E2E2E2E2E2E2E2
310
E2E2E2E2E2E2E2E2E2E2E2E2E2E2E2E2E2E2E2E2E2E2E2E2E2E2E2E2E2E2E2E2E2E2E2E2E2E2E2E2E2E2E2E2E2E2E2E2E2E2E2E2E2E2E2E2E2E2E2E2E2E2E2E2E2E2E2E2E2E2E2E2E2E2E2E22D2D2D2D2D2D2DE22D2D2D2D2D2D2DE2E2E2E2E2E2E2E2E2E2E2E2E2E2E2E2E2E2E2E2E2E2E2E2E2E2E2E2E2E2E2E2E2E2E2E2
310
E2E2E2E2E2E2E2E2E2E2E2E2E2E2E2E2E2E2E2E2E2E2E2E2E2E2E2E2E2E2E2E2E2E2E2E2E2E2E2E2E2E2E2E2E2E2E2E2E2E2E2E2E2E2E2E2E2E2E2E2E2E2E2E2E2E2E2E2E2E2E2E2E2E2E2E2E2E2E2E2E2E2E2E2E2E2E2E2E2E2E2E2E2E2E2E2E2E2E2E2E2E2E2E2E2E2E2E2E2E2E2E2E2E2E2E2E2E2E2E2E2E2E2E2E2E2E2
310
E2E2E2E2E2E2E2E2E2E2E2E2E2E2E2E2E2E2E2E2E2E2E2E2E2E2E2E2E2E2E2E2E2E2E2E2E2E2E2E2E2E2E2E2E2E2E2E2E2E2E2E2E2E2E2E2E2E2E2E2E2E2E2E2E2E2E2E2E2E2E2E2E2E2E2E2E2E22D2D2D2D2D2D2DE22D2D2D2D2D2D2DE2E2E2E2E2E2E2E2E2E2E2E2E2E2E2E2E2E2E2E2E2E2E2E2E2E2E2E2E2E2E2E2E2E2
310
E2E2E2E2E2E2E2E2E2E2E2E2E2E2E2E2E2E2E2E2E2E2E2E2E2E2E2E2E2E2E2E2E2E2E2E2E2E2E2E2E2E2E2E2E2E2E2E2E2E2E2E2E2E2E2E2E2E2E2E2E2E2E2E2E2E2E2E2E2E2E2E2E2E2E2E2E2E2E2E2E2E2E2E2E2E2E2E2E2E2E2E2E2E2E2E2E2E2E2E2E2E2E2E2E2E2E2E2E2E2E2E2E2E2E2E2E2E2E2E2E2E2E2E2E2E2E2
310
E2E2E2E2E2E2E2E2E2E2E2E2E2E2E2E2E2E2E2E2E2E2E2E2E2E2E2E2E2E2E2E2E2E2E2E2E2E2E2E2E2E2E2E2E2E2E2E2E2E2E2E2E2E2E2E2E2E2E2E2E2E2E2E2E2E2E2E2E2E2E2E2E2E2E2E2E2E2E2E22D2D2DE2E2E22DE22D2D2D2D2D2D2DE2E2E2E2E2E2E2E2E2E2E2E2E2E2E2E2E2E2E2E2E2E2E2E2E2E2E2E2E2E2E2E2
310
E2E2E2E2E2E2E2E2E2E2E2E2E2E2E2E2E2E2E2E2E2E2E2E2E2E2E2E2E2E2E2E2E2E2E2E2E2E2E2E2E2E2E2E2E2E2E2E2E2E2E2E2E2E2E2E2E2E2E2E2E2E2E2E2E2E2E2E2E2E2E2E2E2E2E2E2E2E2E2E2E2E2E2E2E2E2E2E2E2E2E2E2E2E2E2E2E2E2E2E2E2E2E2E2E2E2E2E2E2E2E2E2E2E2E2E2E2E2E2E2E2E2E2E2E2E2E2
310
E2E2E2E2E2E2E2E2E2E2E2E2E2E2E2E2E2E2E2E2E2E2E2E2E2E2E2E2E2E2E2E2E2E2E2E2E2E2E2E2E2E2E2E2E2E2E2E2E2E2E2E2E2E2E2E2E2E2E2E2E2E2E2E2E2E2E2E2E2E2E2E2E2E2E2E2E2E2E2E2E2E2E2E2E2E2E2E2E2E2E2E2E2E2E2E2E2E2E2E2E2E2E2E2E2E2E2E2E2E2E2E2E2E2E2E2E2E2E2E2E2E2E2E2E2E2E2
310
E2E2E2E2E2E2E2E2E2E2E2E2E2E2E2E2E2E2E2E2E2E2E2E2E2E2E2E2E2E2E2E2E2E2E2E2E2E2E2E2E2E2E2E2E2E2E2E2E2E2E2E2E2E2E2E2E2E2E2E2E2E2E2E2E2E2E2E2E2E2E2E2E2E2E2E2E2E2E2E2E2E2E2E2E2E2E2E2E2E2E2E2E2E2E2E2E2E2E2E2E2E2E2E2E2E2E2E2E2E2E2E2E2E2E2E2E2E2E2E2E2E2E2E2E2E2E2
310
E2E2E2F5F5F5F5F5F5F5F5F5F5F5F5F5F5F5F5F5F5F5F5F5F5F5F5F5F5F5F5F5F5F5F5F5F5F5F5F5F5F5F5F5F5F5F5F5F5F5F5F5F5F5F5F5F5F5F5F5F5F5F5F5F5F5F5F5F5F5F5F5F5F5F5F5F5F5F5F5F5F5F5F5F5F5F5F5F5F5F5F5F5F5F5F5F5F5F5F5F5E2E2E2E2E2E2E2E2E2E2E2E2E2E2E2E2E2E2E2E2E2E2E2E2E2E2
310
E2E2E2E2E2E2E2E2E2E2E2E2E2E2E2E2E2E2E2E2E2E2E2E2E2E2E2E2E2E2E2E2E2E2E2E2E2E2E2E2E2E2E2E2E2E2E2E2E2E2E2E2E2E2E2E2E2E2E2E2E2E2E2E2E2E2E2E2E2E2E2E2E2E2E2E2E2E2E2E2E2E2E2E2E2E2E2E2E2E2E2E2E2E2E2E2E2E2E2E2E2E2E2E2E2E2E2E2E2E2E2E2E2E2E2E2E2E2E2E2E2E2E2E2E2E2E2
310
E2E2E2E2E2F5E2E2E2E2E2E2E2E2E2E2E2E2E2E2E2E2E2E2E2E2E2E2E2E2E2E2E2E2E2E2E2E2E2E2E2E2E2E2E2E2E2E2E2E2E2E2E2E2F5E2E2E2E2E2E2E2E2E2E2E2E2E2E2E2E2E2E2E2E2E2E2E2E2E2E2E2E2E2E2E2E2E2E2E2E2E2E2E2E2E2E2E2E2E2E2E2F5E2E2E2E2E2E2E2E2E2E2E2E2E2E2E2E2E2E2E2E2E2E2E2E2
310
E2E2E2E2E2E2E2E2E2E2E2E2E2E2E2E2E2E2E2E2E2E2E2E2E2E2E2E2E2E2E2E2E2E2E2E2E2E2E2E2E2E2E2E2E2E2E2E2E2E2E2E2E2E2E2E2E2E2E2E2E2E2E2E2E2E2E2E2E2E2E2E2E2E2E2E2E2E2E2E2E2E2E2E2E2E2E2E2E2E2E2E2E2E2E2E2E2E2E2E2E2E2E2E2E2E2E2E2E2E2E2E2E2E2E2E2E2E2E2E2E2E2E2E2E2E2E2
310
E2E2E2E2E2E2E2F5E2E2E2E2E2E2E2E2E2E2E2E2E2E2E2E2E2E2E2E2E2E2E2E2E2E2E2E2E2E2E2E2E2E2E2E2E2E2E2E2E2E2E2E2E2E2E2E2F5E2E2E2E2E2E2E2E2E2E2E2E2E2E2E2E2E2E2E2E2E2E2E2E2E2E2E2E2E2E2E2E2E2E2E2E2E2E2E2E2E2E2E2E2E2E2E2F5E2E2E2E2E2E2E2E2E2E2E2E2E2E2E2E2E2E2E2E2E2E2
310
E2E2E2E2E2E2E2E2E2E2E2E2E2E2E2E2E2E2E2E2E2E2E2E2E2E2E2E2E2E2E2E2E2E2E2E2E2E2E2E2E2E2E2E2E2E2E2E2E2E2E2E2E2E2E2E2E2E2E2E2E2E2E2E2E2E2E2E2E2E2E2E2E2E2E2E2E2E2E2E2E2E2E2E2E2E2E2E2E2E2E2E2E2E2E2E2E2E2E2E2E2E2E2E2E2E2E2E2E2E2E2E2E2E2E2E2E2E2E2E2E2E2E2E2E2E2E2
310
E2E2E2E2E2E2E2E2E2F5E2E2E2E2E2E2E2E2E2E2E2E2E2E2E2E2E2E2E2E2E2E2E2E2E2E2E2E2E2E2E2E2E2E2E2E2E2E2E2E2E2E2E2E2E2E2E2E2F5E2E2E2E2E2E2E2E2E2E2E2E2E2E2E2E2E2E2E2E2E2E2E2E2E2E2E2E2E2E2E2E2E2E2E2E2E2E2E2E2E2E2E2E2E2E2E2F5E2E2E2E2E2E2E2E2E2E2E2E2E2E2E2E2E2E2E2E2
310
E2E2E2E2E2E2E2E2E2E2E2E2E2E2E2E2E2E2E2E2E2E2E2E2E2E2E2E2E2E2E2E2E2E2E2E2E2E2E2E2E2E2E2E2E2E2E2E2E2E2E2E2E2E2E2E2E2E2E2E2E2E2E2E2E2E2E2E2E2E2E2E2E2E2E2E2E2E2E2E2E2E2E2E2E2E2E2E2E2E2E2E2E2E2E2E2E2E2E2E2E2E2E2E2E2E2E2E2E2E2E2E2E2E2E2E2E2E2E2E2E2E2E2E2E2E2E2
310
E2E2E2E2E2E2E2E2E2E2E2F5E2E2E2E2E2E2E2E2E2E2E2E2E2E2E2E2E2E2E2E2E2E2E2E2E2E2E2E2E2E2E2E2E2E2E2E2E2E2E2E2E2E2E2E2E2E2E2E2F5E2E2E2E2E2E2E2E2E2E2E2E2E2E2E2E2E2E2E2E2E2E2E2E2E2E2E2E2E2E2E2E2E2E2E2E2E2E2E2E2E2E2E2E2E2E2E2F5E2E2E2E2E2E2E2E2E2E2E2E2E2E2E2E2E2E2
310
E2E2E2E2E2E2E2E2E2E2E2E2E2E2E2E2E2E2E2E2E2E2E2E2E2E2E2E2E2E2E2E2E2E2E2E2E2E2E2E2E2E2E2E2E2E2E2E2E2E2E2E2E2E2E2E2E2E2E2E2E2E2E2E2E2E2E2E2E2E2E2E2E2E2E2E2E2E2E2E2E2E2E2E2E2E2E2E2E2E2E2E2E2E2E2E2E2E2E2E2E2E2E2E2E2E2E2E2E2E2E2E2E2E2E2E2E2E2E2E2E2E2E2E2E2E2E2
310
E2E2E2E2E2E2E2E2E2E2E2E2E2F5E2E2E2E2E2E2E2E2E2E2E2E2E2E2F5F5E2E2E2E2E2E2E2E2E2E2E2E2E2E2E2E2E2E2E2E2E2E2E2E2E2E2E2E2E2E2E2E2F5E2E2E2E2E2E2E2E2E2E2E2E2E2E2E2E2E2E2E2E2E2E2E2E2E2E2E2E2E2E2E2E2E2E2E2E2E2E2E2E2E2E2E2E2E2E2E2F5E2E2E2E2E2E2E2E2E2E2E2E2E2E2E2E2
310
E2E2E2E2E2E2E2E2E2E2E2E2E2E2E2E2E2E2E2E2E2E2E2E2E2E2E2E2E2E2E2E2E2E2E2E2E2E2E2E2E2E2E2E2E2E2E2E2E2E2E2E2E2E2E2E2E2E2E2E2E2E2E2E2E2E2E2E2E2E2E2E2E2E2E2E2E2E2E2E2E2E2E2E2E2E2E2E2E2E2E2E2E2E2E2E2E2E2E2E2E2E2E2E2E2E2E2E2E2E2E2E2E2E2E2E2E2E2E2E2E2E2E2E2E2E2E2
310
E2E2E2E2E2E2E2E2E2E2E2E2E2E2E2F5E2E2E2E2E2E2E2E2E2BEBEF5F5F5BEF5E2E2E2E2E2E2E2E2E2E2E2E2E2E2E2E2E2E2E2E2E2E2E2E2E2E2E2E2E2E2E2E2F5E2E2E2E2E2E2E2E2E2E2E2E2E2E2E2E2E2E2E2E2E2E2E2E2E2E2E2E2E2E2E2E2E2E2E2E2E2E2E2E2E2E2E2E2E2E2E2F5E2E2E2E2E2E2E2E2E2E2E2E2E2E2
310
E2E2E2E2E2E2E2E2E2E2E2E2E2E2E2E2E2E2E2E2E2E2E2E2E2E2E2E2E2E2E2E2E2E2E2E2E2E2E2E2E2E2E2E2E2E2E2E2E2E2E2E2E2E2E2E2E2E2E2E2E2E2E2E2E2E2E2E2E2E2E2E2E2E2E2E2E2E2E2E2E2E2E2E2E2E2E2E2E2E2E2E2E2E2E2E2E2E2E2E2E2E2E2E2E2E2E2E2E2E2E2E2E2E2E2E2E2E2E2E2E2E2E2E2E2E2E2
310
E2E2E2E2E2E2E2E2E2E2E2E2E2E2E2E2E2F5E2E2E2E2E2E2E2E2E2F5F5BEBEBEBEF5E2E2E2E2E2E2E2E2E2E2E2E2E2E2E2E2E2E2E2E2E2E2E2E2E2E2E2E2E2E2E2E2F5E2E2E2E2E2E2E2E2E2E2E2E2E2E2E2E2E2E2E2E2E2E2E2E2E2E2E2E2E2E2E2E2E2E2E2E2E2E2E2E2E2E2E2E2E2E2E2F5E2E2E2E2E2E2E2E2E2E2E2E2
310
E2E2E2E2E2E2E2E2E2E2E2E2E2E2E2E2E2E2E2E2E2E2E2E2E2E2E2E2E2E2E2E2E2E2E2E2E2E2E2E2E2E2E2E2E2E2E2E2E2E2E2E2E2E2E2E2E2E2E2E2E2E2E2E2E2E2E2E2E2E2E2E2E2E2E2E2E2E2E2E2E2E2E2E2E2E2E2E2E2E2E2E2E2E2E2E2E2E2E2E2E2E2E2E2E2E2E2E2E2E2E2E2E2E2E2E2E2E2E2E2E2E2E2E2E2E2E2
310
E2E2E2E2E2E2E2E2E2E2E2E2E2E2E2E2E2E2E2F5E2E2E2E2E2E2E2E2BEF5BEBEBEBEBEF5E2E2E2E2E2E2E2E2E2E2E2E2E2E2E2E2E2E2E2E2E2E2E2E2E2E2E2E2E2E2E2E2F5E2E2E2E2E2E2E2E2E2E2E2E2E2E2E2E2E2E2E2E2E2E2E2E2E2E2E2E2E2E2E2E2E2E2E2E2E2E2E2E2E2E2E2E2E2E2E2F5E2E2E2E2E2E2E2E2E2E2
310
E2E2E2E2E2E2E2E2E2E2E2E2E2E2E2E2E2E2E2E2E2E2E2E2E2E2E2E2E2E2E2E2E2E2E2E2E2E2E2E2E2E2E2E2E2E2E2E2E2E2E2E2E2E2E2E2E2E2E2E2E2E2E2E2E2E2E2E2E2E2E2E2E2E2E2E2E2E2E2E2E2E2E2E2E2E2E2E2E2E2E2E2E2E2E2E2E2E2E2E2E2E2E2E2E2E2E2E2E2E2E2E2E2E2E2E2E2E2E2E2E2E2E2E2E2E2E2
310
E2E2E2E2E2E2E2E2E2E2E2E2E2E2E2E2E2E2E2E2E2F5E2E2E2E2E2E2E2E2F5BEBEE2BEBEBEF5E2E2E2E2E2E2E2E2E2E2E2E2E2E2E2E2E2E2E2E2E2E2E2E2E2E2E2E2E2E2E2E2F5E2E2E2E2E2E2E2E2E2E2E2E2E2E2E2E2E2E2E2E2E2E2E2E2E2E2E2E2E2E2E2E2E2E2E2E2E2E2E2E2E2E2E2E2E2E2E2F5E2E2E2E2E2E2E2E2
310
E2E2E2E2E2E2E2E2E2E2E2E2E2E2E2E2E2E2E2E2E2E2E2E2E2E2E2E2E2E2E2E2E2E2E2E2E2E2E2E2E2E2E2E2E2E2E2E2E2E2E2E2E2E2E2E2E2E2E2E2E2E2E2E2E2E2E2E2E2E2E2E2E2E2E2E2E2E2E2E2E2E2E2E2E2E2E2E2E2E2E2E2E2E2E2E2E2E2E2E2E2E2E2E2E2E2E2E2E2E2E2E2E2E2E2E2E2E2E2E2E2E2E2E2E2E2E2
310
E2E2E2E2E2E2E2E2E2E2E2E2E2E2E2E2E2E2E2E2E2E2E2F5E2E2E2E2E2E2E2BEF5BEBEBEBEBEBEF52D2D2D2D2D2D2D2D2DE2E2E2E2E2E2E2E2E2E2E2E2E2E2E2E2E2E2E2E2E2E2E2F5E2E2E2E2E2E2E2E2E2E2E2E2E2E2E2E2E2E2E2E2E2E2E2E2E2E2E2E2E2E2E2E2E2E2E2E2E2E2E2E2E2E2E2E2E2E2E2F5E2E2E2E2E2E2
310
E2E2E2E2E2E2E2E2E2E2E2E2E2E2E2E2E2E2E2E2E2E2E2E2E2E2E2E2E2E2E2E2E2E2E2E2E2E2E2E2E2E2E2E2E2E2E2E2E2E2E2E2E2E2E2E2E2E2E2E2E2E2E2E2E2E2E2E2E2E2E2E2E2E2E2E2E2E2E2E2E2E2E2E2E2E2E2E2E2E2E2E2E2E2E2E2E2E2E2E2E2E2E2E2E2E2E2E2E2E2E2E2E2E2E2E2E2E2E2E2E2E2E2E2E2E2E2
310
E2E2E2E2E2E2E2E2E2E2E2E2E2E2E2E2E2E2E2E2E2E2E2E2E2F5E2E2E2E2E2E2E2F5BEE2BEBEBEE2BEF5E2E2E22D2DE2E2E22DE2E2E2E2E2E2E2E2E2E2E2E2E2E2E2E2E2E2E2E2E2E2E2F5E2E2E2E2E2E2E2E2E2E2E2E2E2E2E2E2E2E2E2E2E2E2E2E2E2E2E2E2E2E2E2E2E2E2E2E2E2E2E2E2E2E2E2E2E2E2E2F5E2E2E2E2
310
E2E2E2E2E2E2E2E2E2E2E2E2E2E2E2E2E2E2E2E2E2E2E2E2E2E2E2E2E2E2E2E2E2E2E2E2E2E2E2E2E2E2E2E2E2E2E2E2E2E2E2E2E2E2E2E2E2E2E2E2E2E2E2E2E2E2E2E2E2E2E2E2E2E2E2E2E2E2E2E2E2E2E2E2E2E2E2E2E2E2E2E2E2E2E2E2E2E2E2E2E2E2E2E2E2E2E2E2E2E2E2E2E2E2E2E2E2E2E2E2E2E2E2E2E2E2E2
310
E2E2E2E2E2E2E2E2E2E2E2E2E2E2E2E2E2E2E2E2E2E2E2E2E2E2E2F5E2E2E2E2E2E2E2F5BEBEBEBEBEBEBEF5E2E2E22D2DE2E2E22DE2E2E2E2E2E2E2E2E2E2E2E2E2E2E2E2E2E2E2E2E2E2E2F5E2E2E2E2E2E2E2E2E2E2E2E2E2E2E2E2E2E2E2E2E2E2E2E2E2E2E2E2E2E2E2E2E2E2E2E2E2E2E2E2E2E2E2E2E2E2E2F5E2E2
310
E2E2E2E2E2E2E2E2E2E2E2E2E2E2E2E2E2E2E2E2E2E2E2E2E2E2E2E2E2E2E2E2E2E2E2E2E2E2E2E2E2E2E2E2E2E2E2E2E2E2E2E2E2E2E2E2E2E2E2E2E2E2E2E2E2E2E2E2E2E2E2E2E2E2E2E2E2E2E2E2E2E2E2E2E2E2E2E2E2E2E2E2E2E2E2E2E2E2E2E2E2E2E2E2E2E2E2E2E2E2E2E2E2E2E2E2E2E2E2E2E2E2E2E2E2E2E2
310
E2E2E2E2E2E2E2E2E2E2E2E2E2E2E2E2E2E2E2E2E2E2E2E2E2E2E2E2E2F5E2E2E2E2E2E2F5BEBEE2BEBEBEBEBEF5E2E2E2E2E2E2E2E22DE2E2E2E2E2E2E2E2E2E2E2E2E2E2E2E2E2E2E2E2E2E2E2F5E2E2E2E2E2E2E2E2E2E2E2E2E2E2E2E2E2E2E2E2E2E2E2E2E2E2E2E2E2E2E2E2E2E2E2E2E2E2E2E2E2E2E2E2E2E2E2F5
310
E2E2E2E2E2E2E2E2E2E2E2E2E2E2E2E2E2E2E2E2E2E2E2E2E2E2E2E2E2E2E2E2E2E2E2E2E2E2E2E2E2E2E2E2E2E2E2E2E2E2E2E2E2E2E2E2E2E2E2E2E2E2E2E2E2E2E2E2E2E2E2E2E2E2E2E2E2E2E2E2E2E2E2E2E2E2E2E2E2E2E2E2E2E2E2E2E2E2E2E2E2E2E2E2E2E2E2E2E2E2E2E2E2E2E2E2E2E2E2E2E2E2E2E2E2E2E2
310
E2E2E2E2E2E2E2E2E2E2E2E2E2E2E2E2E2E2E2E2E2E2E2E2E2E2E2E2E2E2E2F5E2E2E2E2E2E2F5BEBEE2E2BE2DBEBE28282828282828282828E2E2E2E2E2E2E2E2E2E2E2E2E2E2E2E2E2E2E2E2E2E2E2F5E2E2E2E2E2E2E2E2E2E2E2E2E2E2E2E2E2E2E2E2E2E2E2E2E2E2E2E2E2E2E2E2E2E2E2E2E2E2E2E2E2E2E2E2E2E2
310
E2F5E2E2E2E2E2E2E2E2E2E2E2E2E2E2E2E2E2E2E2E2E2E2E2E2E2E2E2E2E2E2E2E2E2E2E2E2E2E2E2E2E2E2E2E2E2E2E2E2E2E2E2E2E2E2E2E2E2E2E2E2E2E2E2E2E2E2E2E2E2E2E2E2E2E2E2E2E2E2E2E2E2E2E2E2E2E2E2E2E2E2E2E2E2E2E2E2E2E2E2E2E2E2E2E2E2E2E2E2E2E2E2E2E2E2E2E2E2E2E2E2E2E2E2E2E2
310
E2E2E2E2E2E2E2E2E2E2E2E2E2E2E2E2E2E2E2E2E2E2E2E2E2E2E2E2E2E2E2E2E2F5E2E2E2E2E2E2F5E2BEBEBEE22DE2E228282828282828282828E2E2E2E2E2E2E2E2E2E2E2E2E2E2E2E2E2E2E2E2E2E2E2F5E2E2E2E2E2E2E2E2E2E2E2E2E2E2E2E2E2E2E2E2E2E2E2E2E2E2E2E2E2E2E2E2E2E2E2E2E2E2E2E2E2E2E2E2
310
E2E2E2F5E2E2E2E2E2E2E2E2E2E2E2E2E2E2E2E2E2E2E2E2E2E2E2E2E2E2E2E2E2E2E2E2E2E2E2E2E2E2E2E2E2E2E2E2E2E2E2E2E2E2E2E2E2E2E2E2E2E2E2E2E2E2E2E2E2E2E2E2E2E2E2E2E2E2E2E2E2E2E2E2E2E2E2E2E2E2E2E2E2E2E2E2E2E2E2E2E2E2E2E2E2E2E2E2E2E2E2E2E2E2E2E2E2E2E2E2E2E2E2E2E2E2E2
310
E2E2E2E2E2E2E2E2E2E2E2E2E2E2E2E2E2E2E2E2E2E2E2E2E2E2E2E2E2E2E2E2E2E2E2F5E2E2E2E2E2E2F5E2BEBEBEBE2DE2E228E2E2E2E2E2E2E2E228E2E2E2E2E2E2E2E2E2E2E2E2E2E2E2E2E2E2E2E2E2E2E2F5E2E2E2E2E2E2E2E2E2E2E2E2E2E2E2E2E2E2E2E2E2E2E2E2E2E2E2E2E2E2E2E2E2E2E2E2E2E2E2E2E2E2
310
E2E2E2E2E2F5E2E2E2E2E2E2E2E2E2E2E2E2E2E2E2E2E2E2E2E2E2E2E2E2E2E2E2E2E2E2E2E2E2E2E2E2E2E2E2E2E2E2E2E2E2E2E2E2E2E2E2E2E2E2E2E2E2E2E2E2E2E2E2E2E2E2E2E2E2E2E2E2E2E2E2E2E2E2E2E2E2E2E2E2E2E2E2E2E2E2E2E2E2E2E2E2E2E2E2E2E2E2E2E2E2E2E2E2E2E2E2E2E2E2E2E2E2E2E2E2E2
310
E2E2E2E2E2E2E2E2E2E2E2E2E2E2E2E2E2E2E2E2E2E2E2E2E2E2E2E2E2E2E2E2E2E2E2E2E2F5E2E2E2E2E2E2E2F5E2BE2D2D2DE2E228E2E2E2E2E2E2E2E228E2E2E2E2E2E2E2E2E2E2E2E2E2E2E2E2E2E2E2E2E2E2E2F5E2E2E2E2E2E2E2E2E2E2E2E2E2E2E2E2E2E2E2E2E2E2E2E2E2E2E2E2E2E2E2E2E2E2E2E2E2E2E2E2
310
E2E2E2E2E2E2E2F5E2E2E2E2E2E2E2E2E2E2E2E2E2E2E2E2E2E2E2E2E2E2E2E2E2E2E2E2E2E2E2E2E2E2E2E2E2E2E2E2E2E2E2E2E2E2E2E2E2E2E2E2E2E2E2E2E2E2E2E2E2E2E2E2E2E2E2E2E2E2E2E2E2E2E2E2E2E2E2E2E2E2E2E2E2E2E2E2E2E2E2E2E2E2E2E2E2E2E2E2E2E2E2E2E2E2E2E2E2E2E2E2E2E2E2E2E2E2E2
310
E2E2E2E2E2E2E2E2E2E2E2E2E2E2E2E2E2E2E2E2E2E2E2E2E2E2E2E2E2E2E2E2E2E2E2E2E2E2E2F5E2E2E2E2E2E2E2F5E2BE2D2D2DE2E228E2E2E2E2E2E2E2E228BEBEBEBEBEBEBEBEBEBEBEBEBEBEBEBEBEE2E2E2E2E2E2F5E2E2E2E2E2E2E2E2E2E2E2E2E2E2E2E2E2E2E2E2E2E2E2E2E2E2E2E2E2E2E2E2E2E2E2E2E2E2
310
E2E2E2E2E2E2E2E2E2F5E2E2E2E2E2E2E2E2E2E2E2E2E2E2E2E2E2E2E2E2E2E2E2E2E2E2E2E2E2E2E2E2E2E2E2E2E2E2E2E2E2E2E2E2E2E2E2E2E2E2E2E2E2E2E2E2E2E2E2E2E2E2E2E2E2E2E2E2E2E2E2E2E2E2E2E2E2E2E2E2E2E2E2E2E2E2E2E2E2E2E2E2E2E2E2E2E2E2E2E2E2E2E2E2E2E2E2E2E2E2E2E2E2E2E2E2E2
310
E2E2E2E2E2E2E2E2E2E2E2E2E2E2E2E2E2E2E2E2E2E2E2E2E2E2E2E2E2E2E2E2E2E2E2E2E2E2E2E2E2F5E2E2E2E2E2E2E2F5BEBEBEBE2DE2E228E2E2E2E2E2E2E2E228BEBEBEBEBEBEBEBEBEBEBEBEBEBEBEBEBEE2E2E2E2E2E2F5E2E2E2E2E2E2E2E2E2E2E2E2E2E2E2E2E2E2E2E2E2E2E2E2E2E2E2E2E2E2E2E2E2E2E2E2
310
E2E2E2E2E2E2E2E2E2E2E2F5E2E2E2E2E2E2E2E2E2E2E2E2E2E2E2E2E2E2E2E2E2E2E2E2E2E2E2E2E2E2E2E2E2E2E2E2E2E2E2E2E2E2E2E2E2E2E2E2E2E2E2E2E2E2E2E2E2E2E2E2E2E2E2E2E2E2E2E2E2E2E2E2E2E2E2E2E2E2E2E2E2E2E2E2E2E2E2E2E2E2E2E2E2E2E2E2E2E2E2E2E2E2E2E2E2E2E2E2E2E2E2E2E2E2E2
310
E2E2E2E2E2E2E2E2E2E2E2E2E2E2E2E2E2E2E2E2E2E2E2E2E2E2E2E2E2E2E2E2E2E2E2E2E2E2E2E2E2E2E2F5E2E2E2E2E2E2E2F5BEBEBEE22DE2E228282828282828282828E2E2E2E2E2E2E2E2E2E2E2E2E2E2E2E2E2E2E2E2E2E2E2F5E2E2E2E2E2E2E2E2E2E2E2E2E2E2E2E2E2E2E2E2E2E2E2E2E2E2E2E2E2E2E2E2E2E2
310
E2E2E2E2E2E2E2E2E2E2E2E2E2F5E2E2E2E2E2E2E2E2E2E2E2E2E2E2E2E2E2E2E2E2E2E2E2E2E2E2E2E2E2E2E2E2E2E2E2E2E2E2E2E2E2E2E2E2E2E2E2E2E2E2E2E2E2E2E2E2E2E2E2E2E2E2E2E2E2E2E2E2E2E2E2E2E2E2E2E2E2E2E2E2E2E2E2E2E2E2E2E2E2E2E2E2E2E2E2E2E2E2E2E2E2E2E2E2E2E2E2E2E2E2E2E2E2
310
E2E2E2E2E2E2E2E2E2E2E2E2E2E2E2E2E2E2E2E2E2E2E2E2E2E2E2E2E2E2E2E2E2E2E2E2E2E2E2E2E2E2E2E2E2F5E2E2E2E2E2E2E2F5BEBEE2E22DBEBE28282828282828282828E2E2E2E2E2E2E2E2E2E2E2E2E2E2E2E2E2E2E2E2E2E2E2F5E2E2E2E2E2E2E2E2E2E2E2E2E2E2E2E2E2E2E2E2E2E2E2E2E2E2E2E2E2E2E2E2
310
E2E2E2E2E2E2E2E2E2E2E2E2E2E2E2F5E2E2E2E2E2E2E2E2E2E2E2E2E2E2E2E2E2E2E2E2E2E2E2E2E2E2E2E2E2E2E2E2E2E2E2E2E2E2E2E2E2E2E2E2E2E2E2E2E2E2E2E2E2E2E2E2E2E2E2E2E2E2E2E2E2E2E2E2E2E2E2E2E2E2E2E2E2E2E2E2E2E2E2E2E2E2E2E2E2E2E2E2E2E2E2E2E2E2E2E2E2E2E2E2E2E2E2E2E2E2E2
310
E2E2E2E2E2E2E2E2E2E2E2E2E2E2E2E2E2E2E2E2E2E2E2E2E2E2E2E2E2E2E2E2E2E2E2E2E2E2E2E2E2E2E2E2E2E2E2F5E2E2E2E2E2E2E2E2F5BEBEBEBEBEBEF5E2E2E2E2E2E2E2E22DE2E2E2E2E2E2E2E2E2E2E2E2E2E2E2E2E2E2E2E2E2E2E2F5E2E2E2E2E2E2E2E2E2E2E2E2E2E2E2E2E2E2E2E2E2E2E2E2E2E2E2E2E2E2
310
E2E2E2E2E2E2E2E2E2E2E2E2E2E2E2E2E2F5E2E2E2E2E2E2E2E2E2E2E2E2E2E2E2E2E2E2E2E2E2E2E2E2E2E2E2E2E2E2E2E2E2E2E2E2E2E2E2E2E2E2E2E2E2E2E2E2E2E2E2E2E2E2E2E2E2E2E2E2E2E2E2E2E2E2E2E2E2E2E2E2E2E2E2E2E2E2E2E2E2E2E2E2E2E2E2E2E2E2E2E2E2E2E2E2E2E2E2E2E2E2E2E2E2E2E2E2E2
310
E2E2E2E2E2E2E2E2E2E2E2E2E2E2E2E2E2E2E2E2E2E2E2E2E2E2E2E2E2E2E2E2E2E2E2E2E2E2E2E2E2E2E2E2E2E2E2E2E2F5E2E2E2E2E2E2E2E2F5BEE2BEE2BEE2F5E2E2E2E2E2E2E2E22DE2E2E2E2E2E2E2E2E2E2E2E2E2E2E2E2E2E2E2E2E2E2E2F5E2E2E2E2E2E2E2E2E2E2E2E2E2E2E2E2E2E2E2E2E2E2E2E2E2E2E2E2
310
E2E2E2E2E2E2E2E2E2E2E2E2E2E2E2E2E2E2E2F5E2E2E2E2E2E2E2E2E2E2E2E2E2E2E2E2E2E2E2E2E2E2E2E2E2E2E2E2E2E2E2E2E2E2E2E2E2E2E2E2E2E2E2E2E2E2E2E2E2E2E2E2E2E2E2E2E2E2E2E2E2E2E2E2E2E2E2E2E2E2E2E2E2E2E2E2E2E2E2E2E2E2E2E2E2E2E2E2E2E2E2E2E2E2E2E2E2E2E2E2E2E2E2E2E2E2E2
310
E2E2E2E2E2E2E2E2E2E2E2E2E2E2E2E2E2E2E2E2E2E2E2E2E2E2E2E2E2E2E2E2E2E2E2E2E2E2E2E2E2E2E2E2E2E2E2E2E2E2E2F5E2E2E2E2E2E2E2E2E2F5E2BEE2BEBEF5E2E2E2E2E2E2E2E22DE2E2E2E2E2E2E2E2E2E2E2E2E2E2E2E2E2E2E2E2E2E2E2F5E2E2E2E2E2E2E2E2E2E2E2E2E2E2E2E2E2E2E2E2E2E2E2E2E2E2
310
E2E2E2E2E2E2E2E2E2E2E2E2E2E2E2E2E2E2E2E2E2F5E2E2E2E2E2E2E2E2E2E2E2E2E2E2E2E2E2E2E2E2E2E2E2E2E2E2E2E2E2E2E2E2E2E2E2E2E2E2E2E2E2E2E2E2E2E2E2E2E2E2E2E2E2E2E2E2E2E2E2E2E2E2E2E2E2E2E2E2E2E2E2E2E2E2E2E2E2E2E2E2E2E2E2E2E2E2E2E2E2E2E2E2E2E2E2E2E2E2E2E2E2E2E2E2E2
310
E2E2E2E2E2E2E2E2E2E2E2E2E2E2E2E2E2E2E2E2E2E2E2E2E2E2E2E2E2E2E2E2E2E2E2E2E2E2E2E2E2E2E2E2E2E2E2E2E2E2E2E2E2F5E2E2E2E2E2E2E2E2E2F5BEBEBEE2BEF5E2E2E2E2E2E2E2E22DE2E2E2E2E2E2E2E2E2E2E2E2E2E2E2E2E2E2E2E2E2E2E2F5E2E2E2E2E2E2E2E2E2E2E2E2E2E2E2E2E2E2E2E2E2E2E2E2
310
E2E2E2E2E2E2E2E2E2E2E2E2E2E2E2E2E2E2E2E2E2E2E2F5E2E2E2E2E2E2E2E2E2E2E2E2E2E2E2E2E2E2E2E2E2E2E2E2E2E2E2E2E2E2E2E2E2E2E2E2E2E2E2E2E2E2E2E2E2E2E2E2E2E2E2E2E2E2E2E2E2E2E2E2E2E2E2E2E2E2E2E2E2E2E2E2E2E2E2E2E2E2E2E2E2E2E2E2E2E2E2E2E2E2E2E2E2E2E2E2E2E2E2E2E2E2E2
310
E2E2E2E2E2E2E2E2E2E2E2E2E2E2E2E2E2E2E2E2E2E2E2E2E2E2E2E2E2E2E2E2E2E2E2E2E2E2E2E2E2E2E2E2E2E2E2E2E2E2E2E2E2E2E2F5E2E2E2E2E2E2E2E2E2F5BEBEE2BEE2F5E2E2E2E2E2E2E2E22DE2E2E2E2E2E2E2E2E2E2E2E2E2E2E2E2E2E2E2E2E2E2E2F5E2E2E2E2E2E2E2E2E2E2E2E2E2E2E2E2E2E2E2E2E2E2
310
E2E2E2E2E2E2E2E2E2E2E2E2E2E2E2E2E2E2E2E2E2E2E2E2E2F5E2E2E2E2E2E2E2E2E2E2E2E2E2E2E2E2E2E2E2E2E2E2E2E2E2E2E2E2E2E2E2E2E2E2E2E2E2E2E2E2E2E2E2E2E2E2E2E2E2E2E2E2E2E2E2E2E2E2E2E2E2E2E2E2E2E2E2E2E2E2E2E2E2E2E2E2E2E2E2E2E2E2E2E2E2E2E2E2E2E2E2E2E2E2E2E2E2E2E2E2E2
310
E2E2E2E2E2E2E2E2E2E2E2E2E2E2E2E2E2E2E2E2E2E2E2E2E2E2E2E2E2E2E2E2E2E2E2E2E2E2E2E2E2E2E2E2E2E2E2E2E2E2E2E2E2E2E2E2E2F5E2E2E2E2E2E2E2E2E2E2F5BEE2BEE2F5E2E2E2E2E2E2E2E22DE2E2E2E2E2E2E2E2E2E2E2E2E2E2E2E2E2E2E2E2E2E2E2F5E2E2E2E22DE2E2E2E2E2E2E2E2E2E2E2E2E2E2E2
310
E2E2E2E2E2E2E2E2E2E2E2E2E2E2E2E2E2E2E2E2E2E2E2E2E2E2E2F5E2E2E2E2E2E2E2E2E2E2E2E2E2E2E2E2E2E2E2E2E2E2E2E2E2E2E2E2E2E2E2E2E2E2E2E2E2E2E2E2E2E2E2E2E2E2E2E2E2E2E2E2E2E2E2E2E2E2E2E2E2E2E2E2E2E2E2E2E2E2E2E2E2E2E2E2E2E2E2E2E2E2E2E2E2E2E2E2E2E2E2E2E2E2E2E2E2E2E2
310
E2E2E2E2E2E2E2E2E2E2E2E2E2E2E2E2E2E2E2E2E2E2E2E2E2E2E2E2E2E2E2E2E2E2E2E2E2E2E2E2E2E2E2E2E2E2E2E2E2E2E2E2E2E2E2E2E2E2E2F5E2E2E2E2E2E2E2E2E2E2F5BEBEBEBEF5E2E2E2E2E2E2E2E22DE2E2E2E2E2E2E2E2E2E2E2E2E2E2E2E2E2E2E2E2E2E2E2F5E2E2E2E2E2E2E2E2E2E2E2E2E2E2E2E2E2E2
310
E2E2E2E2E2E2E2E2E2E2E2E2E2E2E2E2E2E2E2E2E2E2E2E2E2E2E2E2E2F5E2E2E2E2E2E2E2E2E2E2E2E2E2E2E2E2E2E2E2E2E2E2E2E2E2E2E2E2E2E2E2E2E2E2E2E2E2E2E2E2E2E2E2E2E2E2E2E2E2E2E2E2E2E2E2E2E2E2E2E2E2E2E2E2E2E2E2E2E2E2E2E2E2E2E2E2E2E2E2E2E2E2E2E2E2E2E2E2E2E2E2E2E2E2E2E2E2
310
E2E2E2E2E2E2E2E2E2E2E2E2E2E2E2E2E2E2E2E2E2E2E2E2E2E2E2E2E2E2E2E2E2E2E2E2E2E2E2E2E2E2E2E2E2E2E2E2E2E2E2E2E2E2E2E2E2E2E2E2E2F5E2E2E2E2E2E2E2E2E2E2E2F5BEBEBEF5E2E2E2E2E2E2E2E22D2D2D2D2D2D2D2D2D2D2D2DE2E2E2E2E2E2E2E2E2E2E2E2F5E2E2E2E2E2E2E2E2E2E2E2E2E2E2E2E2
310
E2E2E2E2E2E2E2E2E2E2E2E2E2E2E2E2E2E2E2E2E2E2E2E2E2E2E2E2E2E2E2F5E2E2E2E2E2E2E2E2E2E2E2E2E2E2E2E2E2E2E2E2E2E2E2E2E2E2E2E2E2E2E2E2E2E2E2E2E2E2E2E2E2E2E2E2E2E2E2E2E2E2E2E2E2E2E2E2E2E2E2E2E2E2E2E2E2E2E2E2E2E2E2E2E2E2E2E2E2E2E2E2E2E2E2E2E2E2E2E2E2E2E2E2E2E2E2
310
E2E2E2E2E2E2E2E2E2E2E2E2E2E2E2E2E2E2E2E2E2E2E2E2E2E2E2E2E2E2E2E2E2E2E2E2E2E2E2E2E2E2E2E2E2E2E2E2E2E2E2E2E2E2E2E2E2E2E2E2E2E2E2F5E2E2E2E2E2E2E2E2E2E2E2E2F5BEBEF5E2E2E2E2E2E2E2E22DE2E2E2E2E2E2E2DCDCDCE2E2E2E2E2E2E2E2E2E2E2E2E2F5E2E2E2E2E2E2E2E2E2E2E2E2E2E2
310
E2E2E2E2E2E2E2E2E2E2E2E2E2E2E2E2E2E2E2E2E2E2E2E2E2E2E2E2E2E2E2E2E2F5E2E2E2E2E2E2E2E2E2E2E2E2E2E2E2E2E2E2E2E2E2E2E2E2E2E2E2E2E2E2E2E2E2E2E2E2E2E2E2E2E2E2E2E2E2E2E2E2E2E2E2E2E2E2E2E2E2E2E2E2E2E2E2E2E2E2E2E2E2E2E2E2E2E2E2E2E2E2E2E2E2E2E2E2E2E2E2E2E2E2E2E2E2
310
E2E2E2E2E2E2E2E2E2E2E2E2E2E2E2E2E2E2E2E2E2E2E2E2E2E2E2E2E2E2E2E2E2E2E2E2E2E2E2E2E2E2E2E2E2E2E2E2E2E2E2E2E2E2E2E2E2E2E2E2E2E2E2E2E2F5E2E2E2E2E2E2E2E2E2E2E2E2E2F5F5E2E2E2E2E2E2E2E2E2E2E2E2E2E2E2E2E2DCDCDCE2E2E2E2E2E2E2E2E2E2E2E2E2F5E2E2E2E2E2E2E2E2E2E2E2E2
310
E2E2E2E2E2E2E2E2E2E2E2E2E2E2E2E2E2E2E2E2E2E2E2E2E2E2E2E2E2E2E2E2E2E2E2F5E2E2E2E2E2E2E2E2E2E2E2E2E2E2E2E2E2E2E2E2E2E2E2E2E2E2E2E2E2E2E2E2E2E2E2E2E2E2E2E2E2E2E2E2E2E2E2E2E2E2E2E2E2E2E2E2E2E2E2E2E2E2E2E2E2E2E2E2E2E2E2E2E2E2E2E2E2E2E2E2E2E2E2E2E2E2E2E2E2E2E2
310
E2E2E2E2E2E2E2E2E2E2E2E2E2E2E2E2E2E2E2E2E2E2E2E2E2E2E2E2E2E2E2E2E2E2E2E2E2E2E2E2E2E2E2E2E2E2E2E2E2E2E2E2E2E2E2E2E2E2E2E2E2E2E2E2E2E2E2F5E2E2E2E2E2E2E2E2E2E2E2E2E2E2E2E2E2E2E2E2E2E2E2E2E2E2E2E2E2E2E2E2E2E2E2E2E2E2E2E2E2E2E2E2E2E2E2E2F5E2E2E2E2E2E2E2E2E2E2
310
E2E2E2E2E2E2E2E2E2E2E2E2E2E2E2E2E2E2E2E2E2E2E2E2E2E2E2E2E2E2E2E2E2E2E2E2E2F5E2E2E2E2E2E2E2E2E2E2E2E2E2E2E2E2E2E2E2E2E2E2E2E2E2E2E2E2E2E2E2E2E2E2E2E2E2E2E2E2E2E2E2E2E2E2E2E2E2E2E2E2E2E2E2E2E2E2E2E2E2E2E2E2E2E2E2E2E2E2E2E2E2E2E2E2E2E2E2E2E2E2E2E2E2E2E2E2E2
310
E2E2E2E2E2E2E2E2E2E2E2E2E2E2E2E2E2E2E2E2E2E2E2E2E2E2E2E2E2E2E2E2E2E2E2E2E2E2E2E2E2E2E2E2E2E2E2E2E2E2E2E2E2E2E2E2E2E2E2E2E2E2E2E2E2E2E2E2E2F5E2E2E2E2E2E2E2E2E2E2E2E2E2E2E2E2E2E2E2E2E2E2E2E2E2E2E2E2E2E2E2E2E2E2E2E2E2E2E2E2E2E2E2E2E2E2E2E2F5E2E2E2E2E2E2E2E2
310
E2E2E2E2E2E2E2E2E2E2E2E2E2E2E2E2E2E2E2E2E2E2E2E2E2E2E2E2E2E2E2E2E2E2E2E2E2E2E2F5E2E2E2E2E2E2E2E2E2E2E2E2E2E2E2E2E2E2E2E2E2E2E2E2E2E2E2E2E2E2E2E2E2E2E2E2E2E2E2E2E2E2E2E2E2E2E2E2E2E2E2E2E2E2E2E2E2E2E2E2E2E2E2E2E2E2E2E2E2E2E2E2E2E2E2E2E2E2E2E2E2E2E2E2E2E2E2
310
E2E2E2E2E2E2E2E2E2E2E2E2E2E2E2E2E2E2E2E2E2E2E2E2E2E2E2E2E2E2E2E2E2E2E2E2E2E2E2E2E2E2E2E2E2E2E2E2E2E2E2E2E2E2E2E2E2E2E2E2E2E2E2E2E2E2E2E2E2E2E2F5E2E2E2E2E2E2E2E2E2E2E2E2E2E2E2E2E2E2E2E2E2E2E2E2E2E2E2E2E2E2E2E2E2E2E2E2E2E2E2E2E2E2E2E2E2E2E2E2F5E2E2E2E2E2E2
310
E2E2E2E2E2E2E2E2E2E2E2E2E2E2E2E2E2E2E2E2E2E2E2E2E2E2E2E2E2E2E2E2E2E2E2E2E2E2E2E2E2F5E2E2E2E2E2E2E2E2E2E2E2E2E2E2E2E2E2E2E2E2E2E2E2E2E2E2E2E2E2E2E2E2E2E2E2E2E2E2E2E2E2E2E2E2E2E2E2E2E2E2E2E2E2E2E2E2E2E2E2E2E2E2E2E2E2E2E2E2E2E2E2E2E2E2E2E2E2E2E2E2E2E2E2E2E2
310
E2E2E2E2E2E2E2E2E2E2E2E2E2E2E2E2E2E2E2E2E2E2E2E2E2E2E2E2E2E2E2E2E2E2E2E2E2E2E2E2E2E2E2E2E2E2E2E2E2E2E2E2E2E2E2E2E2E2E2E2E2E2E2E2E2E2E2E2E2E2E2E2E2F5E2E2E2E2E2E2E2E2E2E2E2E2E2E2E2E2E2E2E2E2E2E2E2E2E2E2E2E2E2E2E2E2E2E2E2E2E2E2E2E2E2E2E2E2E2E2E2E2F5E2E2E2E2
310
E2E2E2E2E2E2E2E2E2E2E2E2E2E2E2E2E2E2E2E2E2E2E2E2E2E2E2E2E2E2E2E2E2E2E2E2E2E2E2E2E2E2E2F5E2E2E2E2E2E2E2E2E2E2E2E2E2E2E2E2E2E2E2E2E2E2E2E2E2E2E2E2E2E2E2E2E2E2E2E2E2E2E2E2E2E2E2E2E2E2E2E2E2E2E2E2E2E2E2E2E2E2E2E2E2E2E2E2E2E2E2E2E2E2E2E2E2E2E2E2E2E2E2E2E2E2E2
310
E2E2E2E2E2E2E2E2E2E2E2E2E2E2E2E2E2E2E2E2E2E2E2E2E2E2E2E2E2E2E2E2E2E2E2E2E2E2E2E2E2E2E2E2E2E2E2E2E2E2E2E2E2E2E2E2E2E2E2E2E2E2E2E2E2E2E2E2E2E2E2E2E2E2E2F5E2E2E2E2E2E2E2E2E2E2E2E2E2E2E2E2E2E2E2E2E2E2E2E2E2E2E2E2E2E2E2E2E2E2E2E2E2E2E2E2E2E2E2E2E2E2E2E2F5E2E2
310
E2E2E2E2E2E2E2E2E2E2E2E2E2E2E2E2E2E2E2E2E2E2E2E2E2E2E2E2E2E2E2E2E2E2E2E2E2E2E2E2E2E2E2E2E2F5E2E2E2E2E2E2E2E2E2E2E2E2E2E2E2E2E2E2E2E2E2E2E2E2E2E2E2E2E2E2E2E2E2E2E2E2E2E2E2E2E2E2E2E2E2E2E2E2E2E2E2E2E2E2E2E2E2E2E2E2E2E2E2E2E2E2E2E2E2E2E2E2E2E2E2E2E2E2E2E2E2
310
E2E2E2E2E2E2E2E2E2E2E2E2E2E2E2E2E2E2E2E2E2E2E2E2E2E2E2E2E2E2E2E2E2E2E2E2E2E2E2E2E2E2E2E2E2E2E2E2E2E2E2E2E2E2E2E2E2E2E2E2E2E2E2E2E2E2E2E2E2E2E2E2E2E2E2E2E2F5E2E2E2E2E2E2E2E2E2E2E2E2E2E2E2E2E2E2E2E2E2E2E2E2E2E2E2E2E2E2E2E2E2E2E2E2E2E2E2E2E2E2E2E2E2E2E2E2F5
310
E2E2E2E2E2E2E2E2E2E2E2E2E2E2E2E2E2E2E2E2E2E2E2E2E2E2E2E2E2E2E2E2E2E2E2E2E2E2E2E2E2E2E2E2E2E2E2F5E2E2E2E2E2E2E2E2E2E2E2E2E2E2E2E2E2E2E2E2E2E2E2E2E2E2E2E2E2E2E2E2E2E2E2E2E2E2E2E2E2E2E2E2E2E2E2E2E2E2E2E2E2E2E2E2E2E2E2E2E2E2E2E2E2E2E2E2E2E2E2E2E2E2E2E2E2E2E2
310
E2E2E2E2E2E2E2E2E2E2E2E2E2E2E2E2E2E2E2E2E2E2E2E2E2E2E2E2E2E2E2E2E2E2E2E2E2E2E2E2E2E2E2E2E2E2E2E2E2E2E2E2E2E2E2E2E2E2E2E2E2E2E2E2E2E2E2E2E2E2E2E2E2E2E2E2E2E2E2F5E2E2E2E2E2E2E2E2E2E2E2E2E2E2E2E2E2E2E2E2E2E2E2E2E2E2E2E2E2E2E2E2E2E2E2E2E2E2E2E2E2E2E2E2E2E2E2
310
E2F5E2E2E2E2E2E2E2E2E2E2E2E2E2E2E2E2E2E2E2E2E2E2E2E2E2E2E2E2E2E2E2E2E2E2E2E2E2E2E2E2E2E2E2E2E2E2E2F5E2E2E2E2E2E2E2E2E2E2E2E2E2E2E2E2E2E2E2E2E2E2E2E2E2E2E2E2E2E2E2E2E2E2E2E2E2E2E2E2E2E2E2E2E2E2E2E2E2E2E2E2E2E2E2E2E2E2E2E2E2E2E2E2E2E2E2E2E2E2E2E2E2E2E2E2E2
310
E2E2E2E2E2E2E2E2E2E2E2E2E2E2E2E2E2E2E2E2E2E2E2E2E2E2E2E2E2E2E2E2E2E2E2E2E2E2E2E2E2E2E2E2E2E2E2E2E2E2E2E2E2E2E2E2E2E2E2E2E2E2E2E2E2E2E2E2E2E2E2E2E2E2E2E2E2E2E2E2E2F5E2E2E2E2E2E2E2E2E2E2E2E2E2E2E2E2E2E2E2E2E2E2E2E2E2E2E2E2E2E2E2E2E2E2E2E2E2E2E2E2E2E2E2E2E2
310
E2E2E2F5E2E2E2E2E2E2E2E2E2E2E2E2E2E2E2E2E2E2E2E2E2E2E2E2E2E2E2E2E2E2E2E2E2E2E2E2E2E2E2E2E2E2E2E2E2E2E2F5E2E2E2E2E2E2E2E2E2E2E2E2E2E2E2E2E2E2E2E2E2E2E2E2E2E2E2E2E2E2E2E2E2E2E2E2E2E2E2E2E2E2E2E2E2E2E2E2E2E2E2E2E2E2E2E2E2E2E2E2E2E2E2E2E2E2E2E2E2E2E2E2E2E2E2
310
E2E2E2E2E2E2E2E2E2E2E2E2E2E2E2E2E2E2E2E2E2E2E2E2E2E2E2E2E2E2E2E2E2E2E2E2E2E2E2E2E2E2E2E2E2E2E2E2E2E2E2E2E2E2E2E2E2E2E2E2E2E2E2E2E2E2E2E2E2E2E2E2E2E2E2E2E2E2E2E2E2E2E2F5E2E2E2E2E2E2E2E2E2E2E2E2E2E2E2E2E2E2E2E2E2E2E2E2E2E2E2E2E2E2E2E2E2E2E2E2E2E2E2E2E2E2E2
310
E2F5F5F5F5F5E2E2E2E2E2E2E2E2E2E2E2E2E2E2E2E2E2E2E2E2E2E2E2E2E2E2E2E2E2E2E2E2E2E2E2E2E2E2E2E2E2E2E2E2E2E2E2F5E2E2E2E2E2E2E2E2E2E2E2E2E2E2E2E2E2E2E2E2E2E2E2E2E2E2E2E2E2E2E2E2E2E2E2E2E2E2E2E2E2E2E2E2E2E2E2E2E2E2E2E2E2E2E2E2E2E2E2E2E2E2E2E2E2E2E2E2E2E2E2E2E2
310
E2E2E2E2E2E2E2E2E2E2E2E2E2E2E2E2E2E2E2E2E2E2E2E2E2E2E2E2E2E2E2E2E2E2E2E2E2E2E2E2E2E2E2E2E2E2E2E2E2E2E2E2E2E2E2E2E2E2E2E2E2E2E2E2E2E2E2E2E2E2E2E2E2E2E2E2E2E2E2E2E2E2E2E2E2F5F5F5F5F5F5F5F5F5F5F5F5F5F5F5F5E2E2E2E2E2E2E2E2E2E2E2E2E2E2E2E2E2E2E2E2E2E2E2E2E2E2
310
E2E2E2F5E2E2E2F5E2E2E2E2E2E2E2E2E2E2E2E2E2E2E2E2E2E2E2E2E2E2E2E2E2E2E2E2E2E2E2E2E2E2E2E2E2E2E2E2E2E2E2E2E2E2E2F5E2E2E2E2E2E2E2E2E2E2E2E2E2E2E2E2E2E2E2E2E2E2E2E2E2E2E2E2E2E2E2E2E2E2E2E2E2E2E2E2E2E2E2E2E2E2E2E2E2E2E2E2E2E2E2E2E2E2E2E2E2E2E2E2E2E2E2E2E2E2E2
310
E2E2E2E2E2E2E2E2E2E2E2E2E2E2E2E2E2E2E2E2E2E2E2E2E2E2E2E2E2E2E2E2E2E2E2E2E2E2E2E2E2E2E2E2E2E2E2E2E2E2E2E2E2E2E2E2E2E2E2E2E2E2E2E2E2E2E2E2E2E2E2E2E2E2E2E2E2E2E2E2E2E2E2E2E2E2E2F5DCDCDCDCDCDCDCDCDCDCDCDCDCE2F5E2E2E2E2E2E2E2E2E2E2E2E2E2E2E2E2E2E2E2E2E2E2E2E2
310
E2E2E2E2E2F5E2E2E2F5E2E2E2E2E2E2E2E2E2E2E2E2E2E2E2E2E2E2E2E2E2E2E2E2E2E2E2E2E2E2E2E2E2E2E2E2E2E2E2E2E2E2E2E2E2E2E2F5E2E2E2E2E2E2E2E2E2E2E2E2E2E2E2E2E2E2E2E2E2E2E2E2E2E2E2E2E2E2E2E2E2E2E2E2E2E2E2E2E2E2E2E2E2E2E2E2E2E2E2E2E2E2E2E2E2E2E2E2E2E2E2E2E2E2E2E2E2
310
E2E2E2E2E2E2E2E2E2E2E2E2E2E2E2E2E2E2E2E2E2E2E2E2E2E2E2E2E2E2E2E2E2E2E2E2E2E2E2E2E2E2E2E2E2E2E2E2E2E2E2E2E2E2E2E2E2E2E2E2E2E2E2E2E2E2E2E2E2E2E2E2E2E2E2E2E2E2E2E2E2E2E2E2E2E2E2E2E2F5DCDCDCDCDCDCDCDCDCDCDCDCDCE2F5E2E2E2E2E2E2E2E2E2E2E2E2E2E2E2E2E2E2E2E2E2E2
310
E2E2E2E2E2E2E2F5F5F5F5F5E2E2E2E2E2E2E2E2E2E2E2E2E2E2E2E2E2E2E2E2E2E2E2E2E2E2E2E2E2E2E2E2E2E2E2E2E2E2E2E2E2E2E2E2E2E2E2F5E2E2E2E2E2E2E2E2E2E2E2E2E2E2E2E2E2E2E2E2E2E2E2E2E2E2E2E2E2E2E2E2E2E2E2E2E2E2E2E2E2E2E2E2E2E2E2E2E2E2E2E2E2E2E2E2E2E2E2E2E2E2E2E2E2E2E2
310
E2E2E2E2E2E2E2E2E2E2E2E2E2E2E2E2E2E2E2E2E2E2E2E2E2E2E2E2E2E2E2E2E2E2E2E2E2E2E2E2E2E2E2E2E2E2E2E2E2E2E2E2E2E2E2E2E2E2E2E2E2E2E2E2E2E2E2E2E2E2E2E2E2E2E2E2E2E2E2E2E2E2E2E2E2E2E2E2E2E2E2F5E2E2E2E2E2E2E2E2E2E2E2E2E2E2F5E2E2E2E2E2E2E2E2E2E2E2E2E2E2E2E2E2E2E2E2
310
E2E2E2E2E2E2E2E2E2F5DCDCDCF5E2E2E2E2E2E2E2E2E2E2E2E2E2E2E2E2E2E2E2E2E2E2E2E2E2E2E2E2E2E2E2E2E2E2E2E2E2E2E2E2E2E2E2E2E2E2E2F5E2E2E2E2E2E2E2E2E2E2E2E2E2E2E2E2E2E2E2E2E2E2E2E2E2E2E2E2E2E2E2E2E2E2E2E2E2E2E2E2E2E2E2E2E2E2E2E2E2E2E2E2E2E2E2E2E2E2E2E2E2E2E2E2E2
310
E2E2E2E2E2E2E2E2E2E2E2E2E2E2E2E2E2E2E2E2E2E2E2E2E2E2E2E2E2E2E2E2E2E2E2E2E2E2E2E2E2E2E2E2E2E2E2E2E2E2E2E2E2E2E2E2E2E2E2E2E2E2E2E2E2E2E2E2E2E2E2E2E2E2E2E2E2E2E2E2E2E2E2E2E2E2E2E2E2E2E2E2E2F5E2E2E2E2E2E2E2E2E2E2E2E2E2E2F5E2E2E2E2E2E2E2E2E2E2E2E2E2E2E2E2E2E2
310
E2E2E2E2E2E2E2E2E2E2E2F5DCDCDCF5E2E2E2E2E2E2E2E2E2E2E2E2E2E2E2E2E2E2E2E2E2E2E2E2E2E2E2E2E2E2E2E2E2E2E2E2E2E2E2E2E2E2E2E2E2E2E2F5E2E2E2E2E2E2E2E2E2E2E2E2E2E2E2E2E2E2E2E2E2E2E2E2E2E2E2E2E2E2E2E2E2E2E2E2E2E2E2E2E2E2E2E2E2E2E2E2E2E2E2E2E2E2E2E2E2E2E2E2E2E2E2
310
E2E2E2E2E2E2E2E2E2E2E2E2E2E2E2E2E2E2E2E2E2E2E2E2E2E2E2E2E2E2E2E2E2E2E2E2E2E2E2E2E2E2E2E2E2E2E2E2E2E2E2E2E2E2E2E2E2E2E2E2E2E2E2E2E2E2E2E2E2E2E2E2E2E2E2E2E2E2E2E2E2E2E2E2E2E2E2E2E2E2E2E2E2E2E2F5F5F5F5F5F5F5F5F5F5F5F5F5F5F5F5F5F5F5F5F5F5F5F5F5F5F5F5F5F5F5F5
310
F5F5F5F5F5F5F5F5F5F5F5F5F5F5F5F5F5F5F5F5F5F5F5F5F5F5F5F5F5F5F5F5F5F5F5F5F5F5F5F5F5F5F5F5F5F5F5F5F5F5F5F5F5F5F5F5F5F5F5F5F5F5F5F5F5F5E2E2E2E2E2E2E2E2E2E2E2E2E2E2E2E2E2E2E2E2E2E2E2E2E2E2E2E2E2E2E2E2E2E2E2E2E2E2E2E2E2E2E2E2E2E2E2E2E2E2E2E2E2E2E2E2E2E2E2E2E2
310
E2E2E2E2E2E2E2E2E2E2E2E2E2E2E2E2E2E2E2E2E2E2E2E2E2E2E2E2E2E2E2E2E2E2E2E2E2E2E2E2E2E2E2E2E2E2E2E2E2E2E2E2E2E2E2E2E2E2E2E2E2E2E2E2E2E2E2E2E2E2E2E2E2E2E2E2E2E2E2E2E2E2E2E2E2E2E2E2E2E2E2E2E2E2E2E2E2F5E2E2E2E2E2E2E2E2E2E2E2E2E2E2E2E2E2E2E2E2E2E2E2E2E2E2E2E2E2
310
E2E2E2E2E2E2E2E2E2E2E2E2E2E2E2E2E2E2E2F5E2E2E2E2E2E2E2E2E2E2E2E2E2E2E2E2E2E2E2E2E2E2E2E2E2E2E2E2E2E2E2E2E2E2E2E2E2E2E2E2E2E2E2E2E2E2E2F5E2E2E2E2E2E2E2E2E2E2E2E2E2E2E2E2E2E2E2E2E2E2E2E2E2E2E2E2E2E2E2E2E2E2E2E2E2E2E2E2E2E2E2E2E2E2E2E2E2E2E2E2E2E2E2E2E2E2E2
310
E2E2E2E2E2E2E2E2E2E2E2E2E2E2E2E2E2E2E2E2E2E2E2E2E2E2E2E2E2E2E2E2E2E2E2E2E2E2E2E2E2E2E2E2E2E2E2E2E2E2E2E2E2E2E2E2E2E2E2E2E2E2E2E2E2E2E2E2E2E2E2E2E2E2E2E2E2E2E2E2E2E2E2E2E2E2E2E2E2E2E2E2E2E2E2E2E2E2E2F5E2E2E2E2E2E2E2E2E2E2E2E2E2E2E2E2E2E2E2E2E2E2E2E2E2E2E2
310
E2E2E2E2E2E2E2E2E2E2E2E2E2E2E2E2E2E2E2E2E2F5E2E2E2E2E2E2E2E2E2E2E2E2E2E2E2E2E2E2E2E2E2E2E2E2E2E2E2E2E2E2E2E2E2E2E2E2E2E2E2E2E2E2E2E2E2E2E2F5E2E2E2E2E2E2E2E2E2E2E2E2E2E2E2E2E2E2E2E2E2E2E2E2E2E2E2E2E2E2E2E2E2E2E2E2E2E2E2E2E2E2E2E2E2E2E2E2E2E2E2E2E2E2E2E2E2
310
E2E2E2E2E2E2E2E2E2E2E2E2E2E2E2E2E2E2E2E2E2E2E2E2E2E2E2E2E2E2E2E2E2E2E2E2E2E2E2E2E2E2E2E2E2E2E2E2E2E2E2E2E2E2E2E2E2E2E2E2E2E2E2E2E2E2E2E2E2E2E2E2E2E2E2E2E2E2E2E2E2E2E2E2E2E2E2E2E2E2E2E2E2E2E2E2E2E2E2E2E2F5E2E2E2E2E2E2E2E2E2E2E2E2E2E2E2E2E2E2E2E2E2E2E2E2E2
310
E2E2E2E2E2E2E2E2E2E2E2E2E2E2E2E2E2E2E2E2E2E2E2F5E2E2E2E2E2E2E2E2E2E2E2E2E2E2E2E2E2E2E2E2E2E2E2E2E2E2E2E2E2E2E2E2E2E2E2E2E2E2E2E2E2E2E2E2E2E2E2F5E2E2E2E2E2E2E2E2E2E2E2E2E2E2E2E2E2E2E2E2E2E2E2E2E2E2E2E2E2E2E2E2E2E2E2E2E2E2E2E2E2E2E2E2E2E2E2E2E2E2E2E2E2E2E2
310
E2E2E2E2E2E2E2E2E2E2E2E2E2E2E2E2E2E2E2E2E2E2E2E2E2E2E2E2E2E2E2E2E2E2E2E2E2E2E2E2E2E2E2E2E2E2E2E2E2E2E2E2E2E2E2E2E2E2E2E2E2E2E2E2E2E2E2E2E2E2E2E2E2E2E2E2E2E2E2E2E2E2E2E2E2E2E2E2E2E2E2E2E2E2E2E2E2E2E2E2E2E2E2F5E2E2E2E2E2E2E2E2E2E2E2E2E2E2E2E2E2E2E2E2E2E2E2
310
E2E2E2E2E2E2E2E2E2E2E2E2E2E2E2E2E2E2E2E2E2E2E2E2E2F5E2E2E2E2E2E2E2E2E2E2E2E2E2E2E2E2E2E2E2E2E2E2E2E2E2E2E2E2E2E2E2E2E2E2E2E2E2E2E2E2E2E2E2E2E2E2E2F5E2E2E2E2E2E2E2E2E2E2E2E2E2E2E2E2E2E2E2E2E2E2E2E2E2E2E2E2E2E2E2E2E2E2E2E2E2E2E2E2E2E2E2E2E2E2E2E2E2E2E2E2E2
310
E2E2E2E2E2E2E2E2E2E2E2E2E2E2E2E2E2E2E2E2E2E2E2E2E2E2E2E2E2E2E2E2E2E2E2E2E2E2E2E2E2E2E2E2E2E2E2E2E2E2E2E2E2E2E2E2E2E2E2E2E2E2E2E2E2E2E2E2E2E2E2E2E2E2E2E2E2E2E2E2E2E2E2E2E2E2E2E2E2E2E2E2E2E2E2E2E2E2E2E2E2E2E2E2E2F5E2E2E2E2E2E2E2E2E2E2E2E2E2E2E2E2E2E2E2E2E2
310
E2E2E2E2E2E2E2E2E2E2E2E2E2E2E2E2E2E2E2E2E2E2E2E2E2E2E2F5E2E2E2E2E2E2E2E2E2E2E2E2E2E2E2E2E2E2E2E2E2E2E2E2E2E2E2E2E2E2E2E2E2E2E2E2E2E2E2E2E2E2E2E2E2E2E2F5E2E2E2E2E2E2E2E2E2E2E2E2E2E2E2E2E2E2E2E2E2E2E2E2E2E2E2E2E2E2E2E2E2E2E2E2E2E2E2E2E2E2E2E2E2E2E2E2E2E2E2
310
E2E2E2E2E2E2E2E2E2E2E2E2E2E2E2E2E2E2E2E2E2E2E2E2E2E2E2E2E2E2E2E2E2E2E2E2E2E2E2E2E2E2E2E2E2E2E2E2E2E2E2E2E2E2E2E2E2E2E2E2E2E2E2E2E2E2E2E2E2E2E2E2E2E2E2E2E2E2E2E2E2E2E2E2E2E2E2E2E2E2E2E2E2E2E2E2E2E2E2E2E2E2E2E2E2E2E2F5E2E2E2E2E2E2E2E2E2E2E2E2E2E2E2E2E2E2E2
310
E2E2E2E2E2E2E2E2E2E2E2E2E2E2E2E2E2E2E2E2E2E2E2E2E2E2E2E2E2F5E2E2E2E2E2E2E2E2E2E2E2E2E2E2E2E2E2E2E2E2E2E2E2E2E2E2E2E2E2E2E2E2E2E2E2E2E2E2E2E2E2E2E2E2E2E2E2F5E2E2E2E2E2E2E2E2E2E2E2E2E2E2E2E2E2E2E2E2E2E2E2E2E2E2E2E2E2E2E2E2E2E2E2E2E2E2E2E2E2E2E2E2E2E2E2E2E2
310
E2E2E2E2E2E2E2E2E2E2E2E2E2E2E2E2E2E2E2E2E2E2E2E2E2E2E2E2E2E2E2E2E2E2E2E2E2E2E2E2E2E2E2E2E2E2E2E2E2E2E2E2E2E2E2E2E2E2E2E2E2E2E2E2E2E2E2E2E2E2E2E2E2E2E2E2E2E2E2E2E2E2E2E2E2E2E2E2E2E2E2E2E2E2E2E2E2E2E2E2E2E2E2E2E2E2E2E2E2F5E2E2E2E2E2E2E2E2E2E2E2E2E2E2E2E2E2
310
E2E2E2E2E2E2E2E2E2E2E2E2E2E2E2E2E2E2E2E2E2E2E2E2E2E2E2E2E2E2E2F5E2E2E2E2E2E2E2E2E2E2E2E2E2E2E2E2E2E2E2E2E2E2E2E2E2E2E2E2E2E2E2E2E2E2E2E2E2E2E2E2E2E2E2E2E2E2E2F5E2E2E2E2E2E2E2E2E2E2E2E2E2E2E2E2E2E2E2E2E2E2E2E2E2E2E2E2E2E2E2E2E2E2E2E2E2E2E2E2E2E2E2E2E2E2E2
310
E2E2E2E2E2E2E2E2E2E2E2E2E2E2E2E2E2E2E2E2E2E2E2E2E2E2E2E2E2E2E2E2E2E2E2E2E2E2E2E2E2E2E2E2E2E2E2E2E2E2E2E2E2E2E2E2E2E2E2E2E2E2E2E2E2E2E2E2E2E2E2E2E2E2E2E2E2E2E2E2E2E2E2E2E2E2E2E2E2E2E2E2E2E2E2E2E2E2E2E2E2E2E2E2E2E2E2E2E2E2E2F5E2E2E2E2E2E2E2E2E2E2E2E2E2E2E2
310
E2E2E2E2E2E2E2E2E2E2E2E2E2E2E2E2E2E2E2E2E2E2E2E2E2E2E2E2E2E2E2E2E2F5E2E2E2E2E2E2E2E2E2E2E2E2E2E2E2E2E2E2E2E2E2E2E2E2E2E2E2E2E2E2E2E2E2E2E2E2E2E2E2E2E2E2E2E2E2E2E2F5E2E2E2E2E2E2E2E2E2E2E2E2E2E2E2E2E2E2E2E2E2E2E2E2E2E2E2E2E2E2E2E2E2E2E2E2E2E2E2E2E2E2E2E2E2
310
E2E2E2E2E2E2E2E2E2E2E2E2E2E2E2E2E2E2E2E2E2E2E2E2E2E2E2E2E2E2E2E2E2E2E2E2E2E2E2E2E2E2E2E2E2E2E2E2E2E2E2E2E2E2E2E2E2E2E2E2E2E2E2E2E2E2E2E2E2E2E2E2E2E2E2E2E2E2E2E2E2E2E2E2E2E2E2E2E2E2E2E2E2E2E2E2E2E2E2E2E2E2E2E2E2E2E2E2E2E2E2E2E2F5E2E2E2E2E2E2E2E2E2E2E2E2E2
310
E2E2E2E2E2E2E2E2E2E2E2E2E2E2E2E2E2E2E2E2E2E2E2E2E2E2E2E2E2E2E2E2E2E2E2F5E2E2E2E2E2E2E2E2E2E2E2E2E2E2E2E2E2E2E2E2E2E2E2E2E2E2E2E2E2E2E2E2E2E2E2E2E2E2E2E2E2E2E2E2E2E2E2F5E2E2E2E2E2E2E2E2E2E2E2E2E2E2E2E2E2E2E2E2E2E2E2E2E2E2E2E2E2E2E2E2E2E2E2E2E2E2E2E2E2E2E2
310
E2E2E2E2E2E2E2E2E2E2E2E2E2E2E2E2E2E2E2E2E2E2E2E2E2E2E2E2E2E2E2E2E2E2E2E2E2E2E2E2E2E2E2E2E2E2E2E2E2E2E2E2E2E2E2E2E2E2E2E2E2E2E2E2E2E2E2E2E2E2E2E2E2E2E2E2E2E2E2E2E2E2E2E2E2E2E2E2E2E2E2E2E2E2E2E2E2E2E2E2E2E2E2E2E2E2E2E2E2E2E2E2E2E2E2F5E2E2E2E2E2E2E2E2E2E2E2
310
E2E2E2E2E2E2E2E2E2E2E2E2E2E2E2E2E2E2E2E2E2E2E2E2E2E2E2E2E2E2E2E2E2E2E2E2E2F5E2E2E2E2E2E2E2E2E2E2E2E2E2E2E2E2E2E2E2E2E2E2E2E2E2E2E2E2E2E2E2E2E2E2E2E2E2E2E2E2E2E2E2E2E2E2E2F5E2E2E2E2E2E2E2E2E2E2E2E2E2E2E2E2E2E2E2E2E2E2E2E2E2E2E2E2E2E2E2E2E2E2E2E2E2E2E2E2E2
310
E2E2E2E2E2E2E2E2E2E2E2E2E2E2E2E2E2E2E2E2E2E2E2E2E2E2E2E2E2E2E2E2E2E2E2E2E2E2E2E2E2E2E2E2E2E2E2E2E2E2E2E2E2E2E2E2E2E2E2E2E2E2E2E2E2E2E2E2E2E2E2E2E2E2E2E2E2E2E2E2E2E2E2E2E2E2E2E2E2E2E2E2E2E2E2E2E2E2E2E2E2E2E2E2E2E2E2E2E2E2E2E2E2E2E2E2E2F5E2E2E2E2E2E2E2E2E2
310
E2E2E2E2E2E2E2E2E2E2E2E2E2E2E2E2E2E2E2E2E2E2E2E2E2E2E2E2E2E2E2E2E2E2E2E2E2E2E2F5E2E2E2E2E2E2E2E2E2E2E2E2E2E2E2E2E2E2E2E2E2E2E2E2E2E2E2E2E2E2E2E2E2E2E2E2E2E2E2E2E2E2E2E2E2E2E2F5E2E2E2E2E2E2E2E2E2E2E2E2E2E2E2E2E2E2E2E2E2E2E2E2E2E2E2E2E2E2E2E2E2E2E2E2E2E2E2
310
E2E2E2E2E2E2E2E2E2E2E2E2E2E2E2E2E2E2E2E2E2E2E2E2E2E2E2E2E2E2E2E2E2E2E2E2E2E2E2E2E2E2E2E2E2E2E2E2E2E2E2E2E2E2E2E2E2E2E2E2E2E2E2E2E2E2E2E2E2E2E2E2E2E2E2E2E2E2E2E2E2E2E2E2E2E2E2E2E2E2E2E2E2E2E2E2E2E2E2E2E2E2E2E2E2E2E2E2E2E2E2E2E2E2E2E2E2E2E2F5E2E2E2E2E2E2E2
310
E2E2E2E2E2E2E2E2E2E2E2E2E2E2E2E2E2E2E2E2E2E2E2E2E2E2E2E2E2E2E2E2E2E2E2E2E2E2E2E2E2F5E2E2E2E2E2E2E2E2E2E2E2E2E2E2E2E2E2E2E2E2E2E2E2E2E2E2E2E2E2E2E2E2E2E2E2E2E2E2E2E2E2E2E2E2E2E2E2F5E2E2E2E2E2E2E2E2E2E2E2E2E2E2E2E2E2E2E2E2E2E2E2E2E2E2E2E2E2E2E2E2E2E2E2E2E2
310
E2E2E2E2E2E2E2E2E2E2E2E2E2E2E2E2E2E2E2E2E2E2E2E2E2E2E2E2E2E2E2E2E2E2E2E2E2E2E2E2E2E2E2E2E2E2E2E2E2E2E2E2E2E2E2E2E2E2E2E2E2E2E2E2E2E2E2E2E2E2E2E2E2E2E2E2E2E2E2E2E2E2E2E2E2E2E2E2E2E2E2E2E2E2E2E2E2E2E2E2E2E2E2E2E2E2E2E2E2E2E2E2E2E2E2E2E2E2E2E2E2F5E2E2E2E22D
310
2D2D2D2D2D2DE22D2D2D2D2D2D2D2D2D2DE22D2D2D2D2D2D2D2D2D2DE22DE22D2D2D2DE2E2E2E2E2E2E2E2F5E2E2E2E2E2E2E2E22D2D2D2D2D2D2D2D2D2D2D2D2D2DE22D2D2DE22D2D2D2D2D2D2D2D2D2D2D2D2D2D2D2D2DE2E2E2F5E2E2E2E2E2E2E2E2E2E2E2E2E2E2E2E2E2E2E2E2E2E2E2E2E2E2E2E2E2E2E2E2E2E2E2
310
E2E2E2E2E2E2E2E2E2E2E2E2E2E2E2E2E2E2E2E2E2E2E2E2E2E2E2E2E2E2E2E2E2E2E2E2E2E2E2E2E2E2E2E2E2E2E2E2E2E2E2E2E2E2E2E2E2E2E2E2E2E2E2E2E2E2E2E2E2E2E2E2E2E2E2E2E2E2E2E2E2E2E2E2E2E2E2E2E2E2E2E2E2E2E2E2E2E2E2E2E2E2E2E2E2E2E2E2E2E2E2E2E2E2E2E2E2E2E2E2E2E2E2F5E2E2E2
310
E22D2D2D2D2D2D2D2D2D2D2D2D2D2D2D2D2D2D2D2D2D2D2D2D2D2D2D2D2DE22DE22D2D2D2DE2E2E2E2E2E2E2E2F5E2E2E2E2E2E2E2E22D2D2D2D2D2D2D2D2D2D2D2D2D2D2D2D2D2D2D2D2D2D2D2D2D2D2D2D2D2D2D2D2D2D2D2DE2E2E2F5E2E2E2E2E2E2E2E2E2E2E2E2E2E2E2E2E2E2E2E2E2E2E2E2E2E2E2E2E2E2E2E2E2
310
E2E2E2E2E2E2E2E2E2E2E2E2E2E2E2E2E2E2E2E2E2E2E2E2E2E2E2E2E2E2E2E2E2E2E2E2E2E2E2E2E2E2E2E2E2E2E2E2E2E2E2E2E2E2E2E2E2E2E2E2E2E2E2E2E2E2E2E2E2E2E2E2E2E2E2E2E2E2E2E2E2E2E2E2E2E2E2E2E2E2E2E2E2E2E2E2E2E2E2E2E2E2E2E2E2E2E2E2E2E2E2E2E2E2E2E2E2E2E2E2E2E2E2E2E2F5E2
310
E2E2E2E2E2E2E2E2E2E2E22DE2E2E2E2E2E2E2E2E2E2E2E2E2E2E2E2E2E2E2E2E2E2E2E2E2E2E2E2E2E2E2E2E2E2E2F5E2E2E2E2E2E2E2E2E2E2E2E2E2E2E22DE2E2E2E2E2E2E2E2E2E2E2E2E2E2E2E2E2E2E2E2E2E2E2E2E2E2E2E2E2E2E2F5E2E2E2E2E2E2E2E2E2E2E2E2E2E2E2E2E2E2E2E2E2E2E2E2E2E2E2E2E2E2E2
310
E2E2E2E2E2E2E2E2E2E2E2E2E2E2E2E2E2E2E2E2E2E2E2E2E2E2E2E2E2E2E2E2E2E2E2E2E2E2E2E2E2E2E2E2E2E2E2E2E2E2E2E2E2E2E2E2E2E2E2E2E2E2E2E2E2E2E2E2E2E2E2E2E2E2E2E2E2E2E2E2E2E2E2E2E2E2E2E2E2E2E2E2E2E2E2E2E2E2E2E2E2E2E2E2E2E2E2E2E2E2E2E2E2E2E2E2E2E2E2E2E2E2E2E2E2E2E2
310
F5E2E2E2E2E2E2E2E2E2E2E2E2E22DE2E2E2E2E2E2E2E2E2E2E2E2E2E2E2E2E2E2E2E2E2E2E2E2E2E2E2E2E2E2E2E2E2E2F5E2E2E2E2E2E2E2E2E2E2E2E2E2E2E2E22DE2E2E2E2E2E2E2E2E2E2E2E2E2E2E2E2E2E2E2E2E2E2E2E2E2E2E2E2E2E2F5E2E2E2E2E2E2E2E2E2E2E2E2E2E2E2E2E2E2E2E2E2E2E2E2E2E2E2E2E2
310
E2E2E2E2E2E2E2E2E2E2E2E2E2E2E2E2E2E2E2E2E2E2E2E2E2E2E2E2E2E2E2E2E2E2E2E2E2E2E2E2E2E2E2E2E2E2E2E2E2E2E2E2E2E2E2E2E2E2E2E2E2E2E2E2E2E2E2E2E2E2E2E2E2E2E2E2E2E2E2E2E2E2E2E2E2E2E2E2E2E2E2E2E2E2E2E2E2E2E2E2E2E2E2E2E2E2E2E2E2E2E2E2E2E2E2E2E2E2E2E2E2E2E2E2E2E2E2
310
E2E2F5E2E2E2E2E2E2E2E2E2E2E2E2E22DE2E2E2E2E2E2E2E2E2E2E2E2E2E2E2E2E2E2E2E2E2E2E2E2E2E2E2E2E2E2E2E2E2E2F5E2E2E2E2E2E2E2E2E2E2E2E2E2E2E2E22DE2E2E2E2E2E2E2E2E2E2E2E2E2E2E2E2E2E2E2E2E2E2E2E2E2E2E2E2E2E2F5E2E2E2E2E2E2E2E2E2E2E2E2E2E2E2E2E2E2E2E2E2E2E2E2E2E2E2
310
E2E2E2E2E2E2E2E2E2E2E2E2E2E2E2E2E2E2E2E2E2E2E2E2E2E2E2E2E2E2E2E2E2E2E2E2E2E2E2E2E2E2E2E2E2E2E2E2E2E2E2E2E2E2E2E2E2E2E2E2E2E2E2E2E2E2E2E2E2E2E2E2E2E2E2E2E2E2E2E2E2E2E2E2E2E2E2E2E2E2E2E2E2E2E2E2E2E2E2E2E2E2E2E2E2E2E2E2E2E2E2E2E2E2E2E2E2E2E2E2E2E2E2E2E2E2E2
310
E2E2E2E2F5E2E2E2E2E2E2E2E2E2E2E2E2E2E22D2D2D2D2D2D2D2D2D2D2DE2E2E2E2E2E2E2E2E2E2E2E2E2E2E2E2E2E2E2E2E2E2E2F5E2E2E2E2E2E2E2E2E2E2E2E2E2E2E2E2E22DE22D2D2D2D2D2D2D2D2D2DE2E2E2E2E2E2E2E2E2E2E2E2E2E2E2E2E2E2F5E2E2E2E2E2E2E2E2E2E2E2E2E2E2E2E2E2E2E2E2E2E2E2E2E2
310
E2E2E2E2E2E2E2E2E2E2E2E2E2E2E2E2E2E2E2E2E2E2E2E2E2E2E2E2E2E2E2E2E2E2E2E2E2E2E2E2E2E2E2E2E2E2E2E2E2E2E2E2E2E2E2E2E2E2E2E2E2E2E2E2E2E2E2E2E2E2E2E2E2E2E2E2E2E2E2E2E2E2E2E2E2E2E2E2E2E2E2E2E2E2E2E2E2E2E2E2E2E2E2E2E2E2E2E2E2E2E2E2E2E2E2E2E2E2E2E2E2E2E2E2E2E2E2
310
E2E2E2E2E2E2F5E2E2E2E2E2E2E2E2E2E2E2E2E22D2D2DE2E2E22D2DE2E2E22DE2E2E2E2E2E2E2E2E2E2E2E2E2E2E2E2E2E2E2E2E2E2E2F5E2E2E2E2E2E2E2E2E2E2E2E2E2E2E2E2E22D2D2DE2E2E22D2DE2E2E22DE2E2E2E2E2E2E2E2E2E2E2E2E2E2E2E2E2E2F5E2E2E2E2E2E2E2E2E2E2E2E2E2E2E2E2E2E2E2E2E2E2E2
310
E2E2E2E2E2E2E2E2E2E2E2E2E2E2E2E2E2E2E2E2E2E2E2E2E2E2E2E2E2E2E2E2E2E2E2E2E2E2E2E2E2E2E2E2E2E2E2E2E2E2E2E2E2E2E2E2E2E2E2E2E2E2E2E2E2E2E2E2E2E2E2E2E2E2E2E2E2E2E2E2E2E2E2E2E2E2E2E2E2E2E2E2E2E2E2E2E2E2E2E2E2E2E2E2E2E2E2E2E2E2E2E2E2E2E2E2E2E2E2E2E2E2E2E2E2E2E2
310
E2E2E2E2E2E2E2E2F5E2E2E2E2E2E2E2E2E2E2E2E2E22D2D2DE2E2E22D2DE2E2E22DE2E2E2E2E2E2E2E2E2E2E2E2E2E2E2E2E2E2E2E2E2E2E2F5E2E2E2E2E2E2E2E2E2E2E2E2E2E2E2E22D2D2D2DE2E2E22D2DE2E2E22DE2E2E2E2E2E2E2E2E2E2E2E2E2E2E2E2E2E2F5E2E2E2E2E2E2E2E2E2E2E2E2E2E2E2E2E2E2E2E2E2
310
E2E2E2E2E2E2E2E2E2E2E2E2E2E2E2E2E2E2E2E2E2E2E2E2E2E2E2E2E2E2E2E2E2E2E2E2E2E2E2E2E2E2E2E2E2E2E2E2E2E2E2E2E2E2E2E2E2E2E2E2E2E2E2E2E2E2E2E2E2E2E2E2E2E2E2E2E2E2E2E2E2E2E2E2E2E2E2E2E2E2E2E2E2E2E2E2E2E2E2E2E2E2E2E2E2E2E2E2E2E2E2E2E2E2E2E2E2E2E2E2E2E2E2E2E2E2E2
310
E2E2E2E2E2E2E2E2E2E2F5E2E2E2E2E2E2E2E2E2E2E2E2E22D2D28282828282828282828E2E2E2E2E2E2E2E2E2E2E2E2E2E2E2E2BEE2E2E2E2E2E2F5E2E2E2E2E2E2E2E2E2E2E2E2E2E2E2E22D2D2D28282828282828282828E2E2E2E2E2E2E2E2E2E2E2E2E2E2E2E2E2E2F5E2E2E2E2E2E2E2E2E2E2E2E2E2E2E2E2E2E2E2
310
E2E2E2E2E2E2E2E2E2E2E2E2E2E2E2E2E2E2E2E2E2E2E2E2E2E2E2E2E2E2E2E2E2E2E2E2E2E2E2E2E2E2E2E2E2E2E2E2E2E2E2E2E2E2E2E2E2E2E2E2E2E2E2E2E2E2E2E2E2E2E2E2E2E2E2E2E2E2E2E2E2E2E2E2E2E2E2E2E2E2E2E2E2E2E2E2E2E2E2E2E2E2E2E2E2E2E2E2E2E2E2E2E2E2E2E2E2E2E2E2E2E2E2E2E2E2E2
310
E2E2E2E2E2E2E2E2E2E2E2E2F5E2E2E2E2E2E2E2E2E2E2E22D2D2DE228282828282828282828BEBEBEBEBEBEBEBEBEBEBEBEBEBEBEBEBEE2E2E2E2E2E2F5E2E2E2E2E2E2E2E2E2E2E2E2E2E2E22D2D2DE2282828282828282828BEBEBEBEBEBEBEBEBEBEBEBEBEBEBEBEBEBEE2F5E2E2E2E2E2E2E2E2E2E2E2E2E2E2E2E2E2
310
E2E2E2E2E2E2E2E2E2E2E2E2E2E2E2E2E2E2E2E2E2E2E2E2E2E2E2E2E2E2E2E2E2E2E2E2E2E2E2E2E2E2E2E2E2E2E2E2E2E2E2E2E2E2E2E2E2E2E2E2E2E2E2E2E2E2E2E2E2E2E2E2E2E2E2E2E2E2E2E2E2E2E2E2E2E2E2E2E2E2E2E2E2E2E2E2E2E2E2E2E2E2E2E2E2E2E2E2E2E2E2E2E2E2E2E2E2E2E2E2E2E2E2E2E2E2E2
310
E2E2E2E2E2E2E2E2E2E2E2E2E2E2F5E2E2E2E2E2E2E2E2E2E2E22D2D2DE228E2E2E2E2E2E2E2E228BEBEBEBEBEBEBEBEBEBEBEBEBEBEBEBEBEE2E2E2E2E2E2F5E2E2E2E2E2E2E2E2E2E2E2E2E2E2E22D2D2DE228E2E2E2E2E2E2E2E2BEBEBEBEBEBEBEBEBEBEBEBEBEBEBEBEBEBEE2F5E2E2E2E2E2E2E2E2E2E2E2E2E2E2E2
310
E2E2E2E2E2E2E2E2E2E2E2E2E2E2E2E2E2E2E2E2E2E2E2E2E2E2E2E2E2E2E2E2E2E2E2E2E2E2E2E2E2E2E2E2E2E2E2E2E2E2E2E2E2E2E2E2E2E2E2E2E2E2E2E2E2E2E2E2E2E2E2E2E2E2E2E2E2E2E2E2E2E2E2E2E2E2E2E2E2E2E2E2E2E2E2E2E2E2E2E2E2E2E2E2E2E2E2E2E2E2E2E2E2E2E2E2E2E2E2E2E2E2E2E2E2E2E2
310
E2E2E2E2E2E2E2E2E2E2E2E2E2E2E2E2F5E2E2E2E2E2E2E2E2E2E2E22D2D2D2D28282828282828282828E2E2E2E2E2E2E2E2E2E2E2E2E2E2E2E2BEE2E2E2E2E2E2F5E2E2E2E2E2E2E2E2E2E2E2E2E2E2E22D2D2D2D28282828282828282828E2E2E2E2E2E2E2E2E2E2E2E2E2E2E2E2E2E2F5E2E2E2E2E2E2E2E2E2E2E2E2E2
310
E2E2E2E2E2E2E2E2E2E2E2E2E2E2E2E2E2E2E2E2E2E2E2E2E2E2E2E2E2E2E2E2E2E2E2E2E2E2E2E2E2E2E2E2E2E2E2E2E2E2E2E2E2E2E2E2E2E2E2E2E2E2E2E2E2E2E2E2E2E2E2E2E2E2E2E2E2E2E2E2E2E2E2E2E2E2E2E2E2E2E2E2E2E2E2E2E2E2E2E2E2E2E2E2E2E2E2E2E2E2E2E2E2E2E2E2E2E2E2E2E2E2E2E2E2E2E2
310
E2E2E2E2E2E2E2E2E2E2E2E2E2E2E2E2E2E2F5E2E2E2E2E2E2E2E2E2E2E2E2E22DE2E2F5BEBEBEBEBEBEBEF5E2E2E2E2E2E2E2E2E2E2E2E2E2E2E2E2E2E2E2E2E2E2E2F5E2E2E2E2E2E2E2E2E2E2E2E2E2E2E2F52D2DBEBEBEBEBEBEF5E2E2E22DE2E2E2E2E2E2E2E2E2E2E2E2E2E2E2E2E2E2F5E2E2E2E2E2E2E2E2E2E2E2
310
E2E2E2E2E2E2E2E2E2E2E2E2E2E2E2E2E2E2E2E2E2E2E2E2E2E2E2E2E2E2E2E2E2E2E2E2E2E2E2E2E2E2E2E2E2E2E2E2E2E2E2E2E2E2E2E2E2E2E2E2E2E2E2E2E2E2E2E2E2E2E2E2E2E2E2E2E2E2E2E2E2E2E2E2E2E2E2E2E2E2E2E2E2E2E2E2E2E2E2E2E2E2E2E2E2E2E2E2E2E2E2E2E2E2E2E2E2E2E2E2E2E2E2E2E2E2E2
310
E2E2E2E2E2E2E2E2E2E2E2E2E2E2E2E2E2E2E2E2F5E2E2E2E2E2E2E2E2E2E2E2E2E22DE2E2F5BEBEBEBEBEBEBEF5E2E2E2E2E2E2E2E2E2E2E2E2E2E2E2E2E2E2E2E2E2E2E2F5E2E2E2E2E2E2E2E2E2E2E2E2E2E2E2E2F52DBEBEBEBEBEBEF5E2E2E22DE2E2E2E2E2E2E2E2E2E2E2E2E2E2E2E2E2E2F5E2E2E2E2E2E2E2E2E2
310
E2E2E2E2E2E2E2E2E2E2E2E2E2E2E2E2E2E2E2E2E2E2E2E2E2E2E2E2E2E2E2E2E2E2E2E2E2E2E2E2E2E2E2E2E2E2E2E2E2E2E2E2E2E2E2E2E2E2E2E2E2E2E2E2E2E2E2E2E2E2E2E2E2E2E2E2E2E2E2E2E2E2E2E2E2E2E2E2E2E2E2E2E2E2E2E2E2E2E2E2E2E2E2E2E2E2E2E2E2E2E2E2E2E2E2E2E2E2E2E2E2E2E2E2E2E2E2
310
E2E2E2E2E2E2E2E2E2E2E2E2E2E2E2E2E2E2E2E2E2E2F5E2E2E2E2E2E2E2E2E2E2E2E2E22DE2E2E2F5BEBEBEE2BEBEF5E2E2E2E2E2E2E2E2E2E2E2E2E2E2E2E2E2E2E2E2E2E2E2F5E2E2E2E2E2E2E2E2E2E2E2E2E2E2E2E2F52DBEBEBEE2BEE2F5E2E2E22DE2E2E2E2E2E2E2E2E2E2E2E2E2E2E2E2E2E2F5E2E2E2E2E2E2E2
310
E2E2E2E2E2E2E2E2E2E2E2E2E2E2E2E2E2E2E2E2E2E2E2E2E2E2E2E2E2E2E2E2E2E2E2E2E2E2E2E2E2E2E2E2E2E2E2E2E2E2E2E2E2E2E2E2E2E2E2E2E2E2E2E2E2E2E2E2E2E2E2E2E2E2E2E2E2E2E2E2E2E2E2E2E2E2E2E2E2E2E2E2E2E2E2E2E2E2E2E2E2E2E2E2E2E2E2E2E2E2E2E2E2E2E2E2E2E2E2E2E2E2E2E2E2E2E2
310
E2E2E2E2E2E2E2E2E2E2E2E2E2E2E2E2E2E2E2E2E2E2E2E2F5E2E2E2E2E2E2E2E2E2E2E2E2E2E2E2E2E2E2F5F5BEBEBEE2F5E2E2E2E2E2E2E2E2E2E2E2E2E2E2E2E2E2E2E2E2E2E2E2F5E2E2E2E2E2E2E2E2E2E2E2E2E2E2E2E2E2F5F5BEBEE2BEE2F5E2E2E22DE2E2E2E2E2E2E2E2E2E2E2E2E2E2E2E2E2E2F5E2E2E2E2E2
310
E2E2E2E2E2E2E2E2E2E2E2E2E2E2E2E2E2E2E2E2E2E2E2E2E2E2E2E2E2E2E2E2E2E2E2E2E2E2E2E2E2E2E2E2E2E2E2E2E2E2E2E2E2E2E2E2E2E2E2E2E2E2E2E2E2E2E2E2E2E2E2E2E2E2E2E2E2E2E2E2E2E2E2E2E2E2E2E2E2E2E2E2E2E2E2E2E2E2E2E2E2E2E2E2E2E2E2E2E2E2E2E2E2E2E2E2E2E2E2E2E2E2E2E2E2E2E2
310
E2E2E2E2E2E2E2E2E2E2E2E2E2E2E2E2E2E2E2E2E2E2E2E2E2E2F5E2E2E2E2E2E2E2E2E2E2E2E2E2E2E2E2E2E2E2E2F5BEE2BEF5E2E2E2E2E2E2E2E2E2E2E2E2E2E2E2E2E2E2E2E2E2E2E2F5E2E2E2E22DE2E2E2E2E2E2E2E2E2E2E2E2E2E2F5BEBEBEBEF5E2E2E22DE2E2E2E2E2E2E2E2E2E2E2E2E2E2E2E2E2E2F5E2E2E2
310
E2E2E2E2E2E22DE2E2E2E2E2E2E2E2E2E2E2E2E2E2E2E2E2E2E2E2E2E2E2E2E2E2E2E2E2E2E2E2E2E2E2E2E2E2E2E2E2E2E2E2E2E2E2E2E2E2E2E2E2E2E2E2E2E2E2E2E2E2E2E2E2E2E2E2E2E2E2E2E2E2E2E2E2E2E2E2E2E2E2E2E2E2E2E2E2E2E2E2E2E2E2E2E2E2E2E2E2E2E2E2E2E2E2E2E2E2E2E2E2E2E2E2E2E2E2E2
310
E2E2E2E2E2E2E2E2E2E2E2E2E2E2E2E2E2E2E2E2E2E2E2E2E2E2E2E2F5E2E2E2E2E2E2E2E2E2E2E2E2E2E2E2E2E2E2E2E2F5BEBEBEF5E2E2E2E2E2E2E2E2E2E2E2E2E2E2E2E2E2E2E2E2E2E2E2F5E2E2E2E2E2E2E2E2E2E2E2E2E2E2E2E2E2E2E2E2F5BEBEBEF5E2E2E22DE2E2E2E2E2E2E2E2E2E2E2E2E2E2E2E2E2E2F5E2
310
E2E2E2E2E2E2E2E2E2E2E2E2E2E2E2E2E2E2E2E2E2E2E2E2E2E2E2E2E2E2E2E2E2E2E2E2E2E2E2E2E2E2E2E2E2E2E2E2E2E2E2E2E2E2E2E2E2E2E2E2E2E2E2E2E2E2E2E2E2E2E2E2E2E2E2E2E2E2E2E2E2E2E2E2E2E2E2E2E2E2E2E2E2E2E2E2E2E2E2E2E2E2E2E2E2E2E2E2E2E2E2E2E2E2E2E2E2E2E2E2E2E2E2E2E2E2E2
310
E2E2E2E2E2E2E2E2E2E2E2E2E2E2E2E2E2E2E2E2E2E2E2E2E2E2E2E2E2E2F5E2E2E2E2E2E2E2E2E2E2E2E2E2E2E2E2E2E2E2E2F5BEBEE22DE2E2E2E2E2E2E2E2E2E2E2E2E2E2E2E2E2E2E2E2E2E2E2F5E2E2E2E2E2E2E2E2E2E2E2E2E2E2E2E2E2E2E2E2F5BEE2BEF5E2E2E22DE2E2E2E2E2E2E2E2E2E2E2E2E2E2E2E2E2E2
310
F5E2E2E2E2E2E2E2E2E2E2E2E2E2E2E2E2E2E2E2E2E2E2E2E2E2E2E2E2E2E2E2E2E2E2E2E2E2E2E2E2E2E2E2E2E2E2E2E2E2E2E2E2E2E2E2E2E2E2E2E2E2E2E2E2E2E2E2E2E2E2E2E2E2E2E2E2E2E2E2E2E2E2E2E2E2E2E2E2E2E2E2E2E2E2E2E2E2E2E2E2E2E2E2E2E2E2E2E2E2E2E2E2E2E2E2E2E2E2E2E2E2E2E2E2E2E2
310
E2E2E2E2E2E2E2E2E2E2E2E2E2E2E2E2E2E2E2E2E2E2E2E2E2E2E2E2E2E2E2E2F5E2E2E2E2E2E2E2E2E2E2E2E2E2E2E2E2E2E2E2E2F5BEE2BE2D2D2D2D2D2D2D2DDCDCDC2DE2E2E2E2E2E2E2E2E2E2E2E2F5E2E2E2E2E2E2E2E2E2E2E2E2E2E2E2E2E2E2E2E2F5BEBEBEF5E2E2E22D2D2D2D2D2D2D2DDCDCDCE2E2E2E2E2E2
310
E2E2F5E2E2E2E2E2E2E2E2E2E2E2E2E2E2E2E2E2E2E2E2E2E2E2E2E2E2E2E2E2E2E2E2E2E2E2E2E2E2E2E2E2E2E2E2E2E2E2E2E2E2E2E2E2E2E2E2E2E2E2E2E2E2E2E2E2E2E2E2E2E2E2E2E2E2E2E2E2E2E2E2E2E2E2E2E2E2E2E2E2E2E2E2E2E2E2E2E2E2E2E2E2E2E2E2E2E2E2E2E2E2E2E2E2E2E2E2E2E2E2E2E2E2E2E2
310
E2E2E2E2E2E2E2E2E2E2E2E2E2E2E2E2E2E2E2E2E2E2E2E2E2E2E2E2E2E2E2E2E2E2F5E2E2E2E2E2E2E2E2E2E2E2E2E2E2E2E2E2E2E2E2F5BEBEBEF5E2E2E2E2E2E2E2DCE2DCE2E2E2E2E2E2E2E2E2E2E2E2E2F5E2E2E2E2E2E2E2E2E2E2E2E2E2E2E2E2E2E2E2E2F5BEBEBEF5E2E2E2E2E2E2E2E2E2E2E2DCDCDCE2E2E2E2
310
E2E2E2E2F5E2E2E2E2E2E2E2E2E2E2E2E2E2E2E2E2E2E2E2E2E2E2E2E2E2E2E2E2E2E2E2E2E2E2E2E2E2E2E2E2E2E2E2E2E2E2E2E2E2E2E2E2E2E2E2E2E2E2E2E2E2E2E2E2E2E2E2E2E2E2E2E2E2E2E2E2E2E2E2E2E2E2E2E2E2E2E2E2E2E2E2E2E2E2E2E2E2E2E2E2E2E2E2E2E2E2E2E2E2E2E2E2E2E2E2E2E2E2E2E2E2E2
310
E2E2E2E2E2E2E2E2E2E2E2E2E2E2E2E2E2E2E2E2E2E2E2E2E2E2E2E2E2E2E2E2E2E2E2E2F5E2E2E2E2E2E2E2E2E2E2E2E2E2E2E2E2E2E2E2E2E2F5BEBEF5E2E2E2E2E2E2E2DCDCDCE2E2E2E2E2E2E2E2E2E2E2E2E2F5E2E2E2E2E2E2E2E2E2E2E2E2E2E2E2E2E2E2E2E2F5E2BEBEF5E2E2E2E2E2E2E2E2E2E2E2DCDCDCE2E2
310
E2E2E2E2E2E2F5E2E2E2E2E2E2E2E2E2E2E2E2E2E2E2E2E2E2E2E2E2E2E2E2E2E2E2E2E2E2E2E2E2E2E2E2E2E2E2E2E2E2E2E2E2E2E2E2E2E2E2E2E2E2E2E2E2E2E2E2E2E2E2E2E2E2E2E2E2E2E2E2E2E2E2E2E2E2E2E2E2E2E2E2E2E2E2E2E2E2E2E2E2E2E2E2E2E2E2E2E2E2E2E2E2E2E2E2E2E2E2E2E2E2E2E2E2E2E2E2
310
E2E2E2E2E2E2E2E2E2E2E2E2E2E2E2E2E2E2E2E2E2E2E2E2E2E2E2E2E2E2E2E2E2E2E2E2E2E2F5E2E2E2E2E2E2E2E2E2E2E2E2E2E2E2E2E2E2E2E2E2BEF5BEF5E2E2E2E2E2E2E2E2E2E2E2E2E2E2E2E2E2E2E2E2E2E2E2F5E2E2E2E2E2E2E2E2E2E2E2E2E2E2E2E2E2E2E2E2E2F5BEBEF5E2E2E2E2E2E2E2E2E2E2E2E2E2E2
310
E2E2E2E2E2E2E2E2F5E2E2E2E2E2E2E2E2E2E2E2E2E2E2E2E2E2E2E2E2E2E2E2E2E2E2E2E2E2E2E2E2E2E2E2E2E2E2E2E2E2E2E2E2E2E2E2E2E2E2E2E2E2E2E2E2E2E2E2E2E2E2E2E2E2E2E2E2E2E2E2E2E2E2E2E2E2E2E2E2E2E2E2E2E2E2E2E2E2E2E2E2E2E2E2E2E2E2E2E2E2E2E2E2E2E2E2E2E2E2E2E2E2E2E2E2E2E2
310
E2E2E2E2E2E2E2E2E2E2E2E2E2E2E2E2E2E2E2E2E2E2E2E2E2E2E2E2E2E2E2E2E2E2E2E2E2E2E2E2F5E2E2E2E2E2E2E2E2E2E2E2E2E2E2E2E2E2E2E2E2E2E2F5BEF5E2E2E2E2E2E2E2E2E2E2E2E2E2E2E2E2E2E2E2E2E2E2E2F5E2E2E2E2E2E2E2E2E2E2E2E2E2E2E2E2E2E2E2E2E2E2F5BEF5E2E2E2E2E2E2E2E2E2E2E2E2
310
E2E2E2E2E2E2E2E2E2E2F5E2E2E2E2E2E2E2E2E2E2E2E2E2E2E2E2E2E2E2E2E2E2E2E2E2E2E2E2E2E2E2E2E2E2E2E2E2E2E2E2E2E2E2E2E2E2E2E2E2E2E2E2E2E2E2E2E2E2E2E2E2E2E2E2E2E2E2E2E2E2E2E2E2E2E2E2E2E2E2E2E2E2E2E2E2E2E2E2E2E2E2E2E2E2E2E2E2E2E2E2E2E2E2E2E2E2E2E2E2E2E2E2E2E2E2E2
310
E2E2E2E2E2E2E2E2E2E2E2E2E2E2E2E2E2E2E2E2E2E2E2E2E2E2E2E2E2E2E2E2E2E2E2E2E2E2E2E2E2E2F5E2E2E2E2E2E2E2E2E2E2E2E2E2E2E2E2E2E2E2E2E2E2E2F5F5E2E2E2E2E2E2E2E2E2E2E2E2E2E2E2E2E2E2E2E2E2E2E2F5E2E2E2E2E2E2E2E2E2E2E2E2E2E2E2E2E2E2E2E2E2E2E2F5F5E2E2E2E2E2E2E2E2E2E2
310
E2E2E2E2E2E2E2E2E2E2E2E2F5E2E2E2E2E2E2E2E2E2E2E2E2E2E2E2E2E2E2E2E2E2E2E2E2E2E2E2E2E2E2E2E2E2E2E2E2E2E2E2E2E2E2E2E2E2E2E2E2E2E2E2E2E2E2E2E2E2E2E2E2E2E2E2E2E2E2E2E2E2E2E2E2E2E2E2E2E2E2E2E2E2E2E2E2E2E2E2E2E2E2E2E2E2E2E2E2E2E2E2E2E2E2E2E2E2E2E2E2E2E2E2E2E2E2
310
E2E2E2E2E2E2E2E2E2E2E2E2E2E2E2E2E2E2E2E2E2E2E2E2E2E2E2E2E2E2E2E2E2E2E2E2E2E2E2E2E2E2E2E2F5E2E2E2E2E2E2E2E2E2E2E2E2E2E2E2E2E2E2E2E2E2E2E2E2F5E2E2E2E2E2E2E2E2E2E2E2E2E2E2E2E2E2E2E2E2E2E2E2F5E2E2E2E2E2E2E2E2E2E2E2E2E2E2E2E2E2E2E2E2E2E2E2E2F5E2E2E2E2E2E2E2E2
310
E2E2E2E2E2E2E2E2E2E2E2E2E2E2F5E2E2E2E2E2E2E2E2E2E2E2E2E2E2E2E2E2E2E2E2E2E2E2E2E2E2E2E2E2E2E2E2E2E2E2E2E2E2E2E2E2E2E2E2E2E2E2E2E2E2E2E2E2E2E2E2E2E2E2E2E2E2E2E2E2E2E2E2E2E2E2E2E2E2E2E2E2E2E2E2E2E2E2E2E2E2E2E2E2E2E2E2E2E2E2E2E2E2E2E2E2E2E2E2E2E2E2E2E2E2E2E2
310
E2E2E2E2E2E2E2E2E2E2E2E2E2E2E2E2E2E2E2E2E2E2E2E2E2E2E2E2E2E2E2E2E2E2E2E2E2E2E2E2E2E2E2E2E2E2F5E2E2E2E2E2E2E2E2E2E2E2E2E2E2E2E2E2E2E2E2E2E2E2E2E2E2E2E2E2E2E2E2E2E2E2E2E2E2E2E2E2E2E2E2E2E2E2E2F5E2E2E2E2E2E2E2E2E2E2E2E2E2E2E2E2E2E2E2E2E2E2E2E2E2E2E2E2E2E2E2
310
E2E2E2E2E2E2E2E2E2E2E2E2E2E2E2E2F5E2E2E2E2E2E2E2E2E2E2E2E2E2E2E2E2E2E2E2E2E2E2E2E2E2E2E2E2E2E2E2E2E2E2E2E2E2E2E2E2E2E2E2E2E2E2E2E2E2E2E2E2E2E2E2E2E2E2E2E2E2E2E2E2E2E2E2E2E2E2E2E2E2E2E2E2E2E2E2E2E2E2E2E2E2E2E2E2E2E2E2E2E2E2E2E2E2E2E2E2E2E2E2E2E2E2E2E2E2E2
310
E2E2E2E2E2E2E2E2E2E2E2E2E2E2E2E2E2E2E2E2E2E2E2E2E2E2E2E2E2E2E2E2E2E2E2E2E2E2E2E2E2E2E2E2E2E2E2E2F5E2E2E2E2E2E2E2E2E2E2E2E2E2E2E2E2E2E2E2E2E2E2E2E2E2E2E2E2E2E2E2E2E2E2E2E2E2E2E2E2E2E2E2E2F5F5F5F5F5E2E2E2E2E2E2E2E2E2E2E2E2E2E2E2E2E2E2E2E2E2E2E2E2E2E2E2E2E2
310
E2E2E2E2E2E2E2E2E2E2E2E2E2E2E2F5F5F5F5E2E2E2E2E2E2E2E2E2E2E2E2E2E2E2E2E2E2E2E2E2E2E2E2E2E2E2E2E2E2E2E2E2E2E2E2E2E2E2E2E2E2E2E2E2E2E2E2E2E2E2E2E2E2E2E2E2E2E2E2E2E2E2E2E2E2E2E2E2E2E2E2E2E2E2E2E2E2E2E2E2E2E2E2E2E2E2E2E2E2E2E2E2E2E2E2E2E2E2E2E2E2E2E2E2E2E2E2
310
E2E2E2E2E2E2E2E2E2E2E2E2E2E2E2E2E2E2E2E2E2E2E2E2E2E2E2E2E2E2E2E2E2E2E2E2E2E2E2E2E2E2E2E2E2E2E2E2E2E2F5F5F5F5F5F5F5F5F5F5F5F5F5F5F5F5E2E2E2E2E2E2E2E2E2E2E2E2E2E2E2E2E2E2E2E2E2E2E2E2E2E2E2E2E2F5E2E2E2F5F5F5F5F5F5F5F5F5F5F5F5F5F5F5F5E2E2E2E2E2E2E2E2E2E2E2E2
310
E2E2E2E2E2E2E2E2E2E2E2E2E2E2E2E2E2F5E2E2F5E2E2E2E2E2E2E2E2E2E2E2E2E2E2E2E2E2E2E2E2E2E2E2E2E2E2E2E2E2E2E2E2E2E2E2E2E2E2E2E2E2E2E2E2E2E2E2E2E2E2E2E2E2E2E2E2E2E2E2E2E2E2E2E2E2E2E2E2E2E2E2E2E2E2E2E2E2E2E2E2E2E2E2E2E2E2E2E2E2E2E2E2E2E2E2E2E2E2E2E2E2E2E2E2E2E2
310
E2E2E2E2E2E2E2E2E2E2E2E2E2E2E2E2E2E2E2E2E2E2E2E2E2E2E2E2E2E2E2E2E2E2E2E2E2E2E2E2E2E2E2E2E2E2E2E2E2E2E2E2F5DCDCDCDCDCDCDCDCDCDCDCDCDCE2F5E2E2E2E2E2E2E2E2E2E2E2E2E2E2E2E2E2E2E2E2E2E2E2E2E2E2E2E2E2F5E2E2E2F5DCDCDCDCDCDCDCDCDCDCDCDCE2E2F5E2E2E2E2E2E2E2E2E2E2
310
E2E2E2E2E2E2E2E2E2E2E2E2E2E2E2E2E2E2E2F5E2E2F5E2E2E2E2E2E2E2E2E2E2E2E2E2E2E2E2E2E2E2E2E2E2E2E2E2E2E2E2E2E2E2E2E2E2E2E2E2E2E2E2E2E2E2E2E2E2E2E2E2E2E2E2E2E2E2E2E2E2E2E2E2E2E2E2E2E2E2E2E2E2E2E2E2E2E2E2E2E2E2E2E2E2E2E2E2E2E2E2E2E2E2E2E2E2E2E2E2E2E2E2E2E2E2E2
310
E2E2E2E2E2E2E2E2E2E2E2E2E2E2E2E2E2E2E2E2E2E2E2E2E2E2E2E2E2E2E2E2E2E2E2E2E2E2E2E2E2E2E2E2E2E2E2E2E2E2E2E2E2E2F5DCDCDCDCDCDCDCDCDCDCDCDCDCE2F5E2E2E2E2E2E2E2E2E2E2E2E2E2E2E2E2E2E2E2E2E2E2E2E2E2E2E2E2E2F5F5F5F5F5DCDCDCDCDCDCDCDCDCDCDCDCE2E2F5E2E2E2E2E2E2E2E2
310
E2E2E2E2E2E2E2E2E2E2E2E2E2E2E2E2E2E2E2E2E2F5F5F5F5E2E2E2E2E2E2E2E2E2E2E2E2E2E2E2E2E2E2E2E2E2E2E2E2E2E2E2E2E2E2E2E2E2E2E2E2E2E2E2E2E2E2E2E2E2E2E2E2E2E2E2E2E2E2E2E2E2E2E2E2E2E2E2E2E2E2E2E2E2E2E2E2E2E2E2E2E2E2E2E2E2E2E2E2E2E2E2E2E2E2E2E2E2E2E2E2E2E2E2E2E2E2
310
E2E2E2E2E2E2E2E2E2E2E2E2E2E2E2E2E2E2E2E2E2E2E2E2E2E2E2E2E2E2E2E2E2E2E2E2E2E2E2E2E2E2E2E2E2E2E2E2E2E2E2E2E2E2E2E2F5DCDCDCDCDCDCDCDCDCDCDCDCDCE2F5E2E2E2E2E2E2E2E2E2E2E2E2E2E2E2E2E2E2E2E2E2E2E2E2E2E2E2E2E2F5DCDCDCF5DCDCDCDCDCDCDCDCDCDCDCDCE2E2F5E2E2E2E2E2E2
310
E2E2E2E2E2E2E2E2E2E2E2E2E2E2E2E2E2E2E2E2E2E2E2DCDCDCDCE2E2E2E2E2E2E2E2E2E2E2E2E2E2E2E2E2E2E2E2E2E2E2E2E2E2E2E2E2E2E2E2E2E2E2E2E2E2E2E2E2E2E2E2E2E2E2E2E2E2E2E2E2E2E2E2E2E2E2E2E2E2E2E2E2E2E2E2E2E2E2E2E2E2E2E2E2E2E2E2E2E2E2E2E2E2E2E2E2E2E2E2E2E2E2E2E2E2E2E2
310
E2E2E2E2E2E2E2E2E2E2E2E2E2E2E2E2E2E2E2E2E2E2E2E2E2E2E2E2E2E2E2E2E2E2E2E2E2E2E2E2E2E2E2E2E2E2E2E2E2E2E2E2E2E2E2E2E2E2F5E2E2E2E2E2E2E2E2E2E2E2E2E2E2F5E2E2E2E2E2E2E2E2E2E2E2E2E2E2E2E2E2E2E2E2E2E2E2E2E2E2E2E2E2F5DCDCDCF5E2E2E2E2E2E2E2E2E2E2E2E2E2E2F5E2E2E2E2
310
E2E2E2E2E2E2E2E2E2E2E2E2E2E2E2E2E2E2E2E2E2E2E2E2E2DCDCDCDCE2E2E2E2E2E2E2E2E2E2E2E2E2E2E2E2E2E2E2E2E2E2E2E2E2E2E2E2E2E2E2E2E2E2E2E2E2E2E2E2E2E2E2E2E2E2E2E2E2E2E2E2E2E2E2E2E2E2E2E2E2E2E2E2E2E2E2E2E2E2E2E2E2E2E2E2E2E2E2E2E2E2E2E2E2E2E2E2E2E2E2E2E2E2E2E2E2E2
310
E2E2E2E2E2E2E2E2E2E2E2E2E2E2E2E2E2E2E2E2E2E2E2E2E2E2E2E2E2E2E2E2E2E2E2E2E2E2E2E2E2E2E2E2E2E2E2E2E2E2E2E2E2E2E2E2E2E2E2E2F5F5F5F5F5F5F5F5F5F5F5F5F5F5F5F5F5F5F5F5F5F5F5F5F5F5F5F5F5F5F5F5F5F5F5F5F5F5F5F5F5F5F5F5F5F5F5F5F5F5F5F5F5F5F5F5F5F5F5F5F5F5F5F5F5F5F5
310
F5F5F5F5F5F5F5F5F5F5F5F5F5F5F5F5F5F5F5F5F5F5F5F5F5F5F5F5F5F5F5E2E2E2E2E2E2E2E2E2E2E2E2E2E2E2E2E2E2E2E2E2E2E2E2E2E2E2E2E2E2E2E2E2E2E2E2E2E2E2E2E2E2E2E2E2E2E2E2E2E2E2E2E2E2E2E2E2E2E2E2E2E2E2E2E2E2E2E2E2E2E2E2E2E2E2E2E2E2E2E2E2E2E2E2E2E2E2E2E2E2E2E2E2E2E2E2
310
E2E2E2E2E2E2E2E2E2E2E2E2E2E2E2E2E2E2E2E2E2E2E2E2E2E2E2E2E2E2E2E2E2E2E2E2E2E2E2E2E2E2E2E2E2E2E2E2E2E2E2E2E2E2E2E2E2E2E2E2E2E2F5E2E2E2E2E2E2E2E2E2E2E2E2E2E2E2E2E2E2E2E2E2E2E2E2E2E2E2E2E2E2E2E2E2E2E2E2E2E2E2E2E2E2E2E2E2E2E2E2E2E2E2E2E2E2E2E2E2E2E2E2E2E2E2E2
310
E2E2E2E2E2E2E2E2E2E2E2E2E2E2E2E2E2E2E2E2E2E2E2E2E2E2E2E2E2E2E2E2F5E2E2E2E2E2E2E2E2E2E2E2E2E2E2E2E2E2E2E2E2E2E2E2E2E2E2E2E2E2E2E2E2E2E2E2E2E2E2E2E2E2E2E2E2E2E2E2E2E2E2E2E2E2E2E2E2E2E2E2E2E2E2E2E2E2E2E2E2E2E2E2E2E2E2E2E2E2E2E2E2E2E2E2E2E2E2E2E2E2E2E2E2E2E2
310
E2E2E2E2E2E2E2E2E2E2E2E2E2E2E2E2E2E2E2E2E2E2E2E2E2E2E2E2E2E2E2E2E2E2E2E2E2E2E2E2E2E2E2E2E2E2E2E2E2E2E2E2E2E2E2E2E2E2E2E2E2E2E2E2F5E2E2E2E2E2E2E2E2E2E2E2E2E2E2E2E2E2E2E2E2E2E2E2E2E2E2E2E2E2E2E2E2E2E2E2E2E2E2E2E2E2E2E2E2E2E2E2E2E2E2E2E2E2E2E2E2E2E2E2E2E2E2
310
E2E2E2E2E2E2E2E2E2E2E2E2E2E2E2E2E2E2E2E2E2E2E2E2E2E2E2E2E2E2E2E2E2E2F5E2E2E2E2E2E2E2E2E2E2E2E2E2E2E2E2E2E2E2E2E2E2E2E2E2E2E2E2E2E2E2E2E2E2E2E2E2E2E2E2E2E2E2E2E2E2E2E2E2E2E2E2E2E2E2E2E2E2E2E2E2E2E2E2E2E2E2E2E2E2E2E2E2E2E2E2E2E2E2E2E2E2E2E2E2E2E2E2E2E2E2E2
310
E2E2E2E2E2E2E2E2E2E2E2E2E2E2E2E2E2E2E2E2E2E2E2E2E2E2E2E2E2E2E2E2E2E2E2E2E2E2E2E2E2E2E2E2E2E2E2E2E2E2E2E2E2E2E2E2E2E2E2E2E2E2E2E2E2E2F5E2E2E2DCDCDCDCDCDCDCDCDCDCDCDCDCDCDCDCDCDCDCDCDCDCDCDCDCDCDCDCDCDCDCDCDCDCDCDCDCDCDCDCDCDCDCDCDCDCDCDCDCDCDCDCDCDCDCDCE2
310
E2E2E2E2E2E2E2E2E2E2E2E2E2E2E2E2E2E2E2E2E2E2E2E2E2E2E2DCDCDCDCDCDCDCE2E2F5E2E2E2E2E2E2E2E2E2E2E2E2E2E2E2E2E2E2E2E2E2E2E2E2E2E2E2E2E2E2E2E2E2E2E2E2E2E2E2E2E2E2E2E2E2E2E2E2E2E2E2E2E2E2E2E2E2E2E2E2E2E2E2E2E2E2E2E2E2E2E2E2E2E2E2E2E2E2E2E2E2E2E2E2E2E2E2E2E2E2
310
E2E2E2E2E2E2E2E2E2E2E2E2E2E2E2E2E2E2E2E2E2E2E2E2E2E2E2E2E2E2E2E2E2E2E2E2E2E2E2E2E2E2E2E2E2E2E2E2E2E2E2E2E2E2E2E2E2E2E2E2E2E2E2E2E2E2E2E2F5E2E2E2DCDCDCDCDCDCDCDCDCDCDCDCDCDCDCDCDCDCDCDCDCDCDCDCDCDCDCDCDCDCDCDCDCDCDCDCDCDCDCDCDCDCDCDCDCDCDCDCDCDCDCDCDCDCDC
310
DCE2E2E2E2E2E2E2E2E2E2E2E2E2E2E2E2E2E2E2E2E2E2E2E2E2E2E2E2DCDCDCDCDCDCDCE2E2F5E2E2E2E2E2E2E2E2E2E2E2E2E2E2E2E2E2E2E2E2E2E2E2E2E2E2E2E2E2E2E2E2E2E2E2E2E2E2E2E2E2E2E2E2E2E2E2E2E2E2E2E2E2E2E2E2E2E2E2E2E2E2E2E2E2E2E2E2E2E2E2E2E2E2E2E2E2E2E2E2E2E2E2E2E2E2E2E2
310
E2E2E2E2E2E2E2E2E2E2E2E2E2E2E2E2E2E2E2E2E2E2E2E2E2E2E2E2E2E2E2E2E2E2E2E2E2E2E2E2E2E2E2E2E2E2E2E2E2E2E2E2E2E2E2E2E2E2E2E2E2E2E2E2E2E2E2E2E2E2F5E2E2E2DCDCDCDCDCDCDCDCDCDCDCDCDCDCDCDCDCDCDCDCDCDCDCDCDCDCDCDCDCDCDCDCDCDCDCDCDCDCDCDCDCDCDCDCDCDCDCDCDCDCDCDCDC
310
DCDCDCE2E2E2E2E2E2E2E2E2E2E2E2E2E2E2E2E2E2E2E2E2E2E2E2E2E2E2E2DCE2DCDCDCDCDCE2E2F5E2E2E2E2E2E2E2E2E2E2E2E2E2E2E2E2E2E2E2E2E2E2E2E2E2E2E2E2E2E2E2E2E2E2E2E2E2E2E2E2E2E2E2E2E2E2E2E2E2E2E2E2E2E2E2E2E2E2E2E2E2E2E2E2E2E2E2E2E2E2E2E2E2E2E2E2E2E2E2E2E2E2E2E2E2E2
310
E2E2E2E2E2E2E2E2E2E2E2E2E2E2E2E2E2E2E2E2E2E2E2E2E2E2E2E2E2E2E2E2E2E2E2E2E2E2E2E2E2E2E2E2E2E2E2E2E2E2E2E2E2E2E2E2E2E2E2E2E2E2E2E2E2E2E2E2E2E2E2E2F5E2E2E2DCDCDCDCDCDCDCDCDCDCDCDCDCDCDCDCDCDCDCDCDCDCDCDCDCDCDCDCDCDCDCDCDCDCDCDCDCDCDCDCDCDCDCDCDCDCDCDCDCDCDC
310
DCDCDCDCDCE2E2E2E2E2E2E2E2E2E2E2E2E2E2E2E2E2E2E2E2E2E2E2E2E2E2E2E2DCDCDCDCDCDCDCE2E2F5E2E2E2E2E2E2E2E2E2E2E2E2E2E2E2E2E2E2E2E2E2E2E2E2E2E2E2E2E2E2E2E2E2E2E2E2E2E2E2E2E2E2E2E2E2E2E2E2E2E2E2E2E2E2E2E2E2E2E2E2E2E2E2E2E2E2E2E2E2E2E2E2E2E2E2E2E2E2E2E2E2E2E2E2
310
E2E2E2E2E2E2E2E2E2E2E2E2E2E2E2E2E2E2E2E2E2E2E2E2E2E2E2E2E2E2E2E2E2E2E2E2E2E2E2E2E2E2E2E2E2E2E2E2E2E2E2E2E2E2E2E2E2E2E2E2E2E2E2E2E2E2E2E2E2E2E2E2E2E2F5E2E2E2E2E2E2E2E2E2E2E2E2E2E2E2E2E2E2E2E2E2E2E2E2E2E2E2E2E2E2E2E2E2E2E2E2E2E2E2E2E2E2E2E2E2E2E2E2E2E2E2E2
310
E2E2E2E2E2E2E2E2E2E2E2E2E2E2E2E2E2E2E2E2E2E2E2E2E2E2E2E2E2E2E2E2E2E2DCDCE2E2DCE2E2DCE2E2F5E2E2E2E2E2E2E2E2E2E2E2E2E2E2E2E2E2E2E2E2E2E2E2E2E2E2E2E2E2E2E2E2E2E2E2E2E2E2E2E2E2E2E2E2E2E2E2E2E2E2E2E2E2E2E2E2E2E2E2E2E2E2E2E2E2E2E2E2E2E2E2E2E2E2E2E2E2E2E2E2E2E2
310
E2E2E2E2E2E2E2E2E2E2E2E2E2E2E2E2E2E2E2E2E2E2E2E2E2E2E2E2E2E2E2E2E2E2E2E2E2E2E2E2E2E2E2E2E2E2E2E2E2E2E2E2E2E2E2E2E2E2E2E2E2E2E2E2E2E2E2E2E2E2E2E2E2E2E2E2F5E2E2E2E2E2E2E2E2E2E2E2E2E2E2E2E2E2E2E2E2E2E2E2E2E2E2E2E2E2E2E2E2E2E2E2E2E2E2E2E2E2E2E2E2E2E2E2E2E2E2
310
E2E2E2E2E2E2E2E2E2E2E2E2E2E2E2E2E2E2E2E2E2E2E2E2E2E2E2E2E2E2E2E2E2E2E2E2E2E2E2E2E2E2E2E2E2E2F5E2E2E2E2E2E2E2E2E2E2E2E2E2E2E2E2E2E2E2E2E2E2E2E2E2E2E2E2E2E2E2E2E2E2E2E2E2E2E2E2E2E2E2E2E2E2E2E2E2E2E2E2E2E2E2E2E2E2E2E2E2E2E2E2E2E2E2E2E2E2E2E2E2E2E2E2E2E2E2E2
310
E2E2E2E2E2E2E2E2E2E2E2E2E2E2E2E2E2E2E2E2E2E2E2E2E2E2E2E2E2E2E2E2E2E2E2E2E2E2E2E2E2E2E2E2E2E2E2E2E2E2E2E2E2E2E2E2E2E2E2E2E2E2E2E2E2E2E2E2E2E2E2E2E2E2E2E2E2E2F5E2E2E2E2E2E2E2E2E2E2E2E2E2E2E2E2E2E2E2E2E2E2E2E2E2E2E2E2E2E2E2E2E2E2E2E2E2E2E2E2E2E2E2E2E2E2E2E2
310
E2E2E2E2E2E2E2E2E2E2E2E2E2E2E2E2E2E2E2E2E2E2E2E2E2E2E2E2E2E2E2E2E2E2E2E2E2E2E2E2E2E2E2E2E2E2E2E2F5E2E2E2E2E2E2E2E2E2E2E2E2E2E2E2E2E2E2E2E2E2E2E2E2E2E2E2E2E2E2E2E2E2E2E2E2E2E2E2E2E2E2E2E2E2E2E2E2E2E2E2E2E2E2E2E2E2E2E2E2E2E2E2E2E2E2E2E2E2E2E2E2E2E2E2E2E2E2
310
E2E2E2E2E2E2E2E2E2E2E2E2E2E2E2E2E2E2E2E2E2E2E2E2E2E2E2E2E2E2E2E2E2E2E2E2E2E2E2E2E2E2E2E2E2E2E2E2E2E2E2E2E2E2E2E2E2E2E2E2E2E2E2E2E2E2E2E2E2E2E2E2E2E2E2E2E2E2E2E2F5F5F5F5F5F5F5F5F5F5F5F5F5F5F5F5F5F5F5F5F5F5F5F5F5F5F5F5F5F5F5F5F5F5F5F5F5F5F5F5F5F5F5F5F5F5F5
310
F5F5F5F5F5F5F5F5F5F5F5F5F5F5F5F5F5F5F5F5F5F5F5F5F5F5F5F5F5F5F5F5F5F5F5F5F5F5F5F5F5F5F5F5F5F5F5F5F5F5F5E2E2E2E2E2E2E2E2E2E2E2E2E2E2E2E2E2E2E2E2E2E2E2E2E2E2E2E2E2E2E2E2E2E2E2E2E2E2E2E2E2E2E2E2E2E2E2E2E2E2E2E2E2E2E2E2E2E2E2E2E2E2E2E2E2E2E2E2E2E2E2E2E2E2E2E2
310
E2E2E2E2E2E2E2E2
  0
XRECORD
  5
42201
102
{ACAD_REACTORS
330
42200
102
}
330
42200
100
AcDbXrecord
280
     1
102
MATERIAL
148
0.0
149
0.0
149
0.0
 93
        0
 94
       63
282
     0
 72
     1
 77
     1
171
     1
175
     1
179
     1
273
     0
  0
XRECORD
  5
421FF
102
{ACAD_REACTORS
330
421FE
102
}
330
421FE
100
AcDbXrecord
280
     1
102
MATERIAL
148
0.0
149
0.0
149
0.0
 93
        0
 94
       63
282
     0
 72
     1
 77
     1
171
     1
175
     1
179
     1
273
     0
  0
XRECORD
  5
42203
102
{ACAD_REACTORS
330
42202
102
}
330
42202
100
AcDbXrecord
280
     1
102
MATERIAL
148
0.0
149
0.0
149
0.0
 93
        0
 94
       63
282
     0
 72
     1
 77
     1
171
     1
175
     1
179
     1
273
     0
  0
CELLSTYLEMAP
  5
421FA
102
{ACAD_REACTORS
330
2F126
102
}
330
2F126
100
AcDbCellStyleMap
 90
        3
300
CELLSTYLE
  1
TABLEFORMAT_BEGIN
 90
        5
170
     1
 91
        0
 92
    32768
 62
   257
 93
        1
300
CONTENTFORMAT
  1
CONTENTFORMAT_BEGIN
 90
        0
 91
        0
 92
      512
 93
        0
300

 40
0.0
140
1.0
 94
        5
 62
     0
340
11
144
0.25
309
CONTENTFORMAT_END
171
     0
 94
        6
 95
        1
302
GRIDFORMAT
  1
GRIDFORMAT_BEGIN
 90
        0
 91
        1
 62
     0
 92
       -2
340
0
 93
        0
 40
0.045
309
GRIDFORMAT_END
 95
        2
302
GRIDFORMAT
  1
GRIDFORMAT_BEGIN
 90
        0
 91
        1
 62
     0
 92
       -2
340
0
 93
        0
 40
0.045
309
GRIDFORMAT_END
 95
        4
302
GRIDFORMAT
  1
GRIDFORMAT_BEGIN
 90
        0
 91
        1
 62
     0
 92
       -2
340
0
 93
        0
 40
0.045
309
GRIDFORMAT_END
 95
        8
302
GRIDFORMAT
  1
GRIDFORMAT_BEGIN
 90
        0
 91
        1
 62
     0
 92
       -2
340
0
 93
        0
 40
0.045
309
GRIDFORMAT_END
 95
       16
302
GRIDFORMAT
  1
GRIDFORMAT_BEGIN
 90
        0
 91
        1
 62
     0
 92
       -2
340
0
 93
        0
 40
0.045
309
GRIDFORMAT_END
 95
       32
302
GRIDFORMAT
  1
GRIDFORMAT_BEGIN
 90
        0
 91
        1
 62
     0
 92
       -2
340
0
 93
        0
 40
0.045
309
GRIDFORMAT_END
309
TABLEFORMAT_END
  1
CELLSTYLE_BEGIN
 90
        1
 91
        1
300
_TITLE
309
CELLSTYLE_END
300
CELLSTYLE
  1
TABLEFORMAT_BEGIN
 90
        5
170
     1
 91
        0
 92
        0
 62
   257
 93
        1
300
CONTENTFORMAT
  1
CONTENTFORMAT_BEGIN
 90
        0
 91
        0
 92
      512
 93
        0
300

 40
0.0
140
1.0
 94
        5
 62
     0
340
11
144
0.18
309
CONTENTFORMAT_END
171
     0
 94
        6
 95
        1
302
GRIDFORMAT
  1
GRIDFORMAT_BEGIN
 90
        0
 91
        1
 62
     0
 92
       -2
340
0
 93
        0
 40
0.045
309
GRIDFORMAT_END
 95
        2
302
GRIDFORMAT
  1
GRIDFORMAT_BEGIN
 90
        0
 91
        1
 62
     0
 92
       -2
340
0
 93
        0
 40
0.045
309
GRIDFORMAT_END
 95
        4
302
GRIDFORMAT
  1
GRIDFORMAT_BEGIN
 90
        0
 91
        1
 62
     0
 92
       -2
340
0
 93
        0
 40
0.045
309
GRIDFORMAT_END
 95
        8
302
GRIDFORMAT
  1
GRIDFORMAT_BEGIN
 90
        0
 91
        1
 62
     0
 92
       -2
340
0
 93
        0
 40
0.045
309
GRIDFORMAT_END
 95
       16
302
GRIDFORMAT
  1
GRIDFORMAT_BEGIN
 90
        0
 91
        1
 62
     0
 92
       -2
340
0
 93
        0
 40
0.045
309
GRIDFORMAT_END
 95
       32
302
GRIDFORMAT
  1
GRIDFORMAT_BEGIN
 90
        0
 91
        1
 62
     0
 92
       -2
340
0
 93
        0
 40
0.045
309
GRIDFORMAT_END
309
TABLEFORMAT_END
  1
CELLSTYLE_BEGIN
 90
        2
 91
        1
300
_HEADER
309
CELLSTYLE_END
300
CELLSTYLE
  1
TABLEFORMAT_BEGIN
 90
        5
170
     1
 91
        0
 92
        0
 62
   257
 93
        1
300
CONTENTFORMAT
  1
CONTENTFORMAT_BEGIN
 90
        0
 91
        0
 92
      512
 93
        0
300

 40
0.0
140
1.0
 94
        2
 62
     0
340
11
144
0.18
309
CONTENTFORMAT_END
171
     0
 94
        6
 95
        1
302
GRIDFORMAT
  1
GRIDFORMAT_BEGIN
 90
        0
 91
        1
 62
     0
 92
       -2
340
0
 93
        0
 40
0.045
309
GRIDFORMAT_END
 95
        2
302
GRIDFORMAT
  1
GRIDFORMAT_BEGIN
 90
        0
 91
        1
 62
     0
 92
       -2
340
0
 93
        0
 40
0.045
309
GRIDFORMAT_END
 95
        4
302
GRIDFORMAT
  1
GRIDFORMAT_BEGIN
 90
        0
 91
        1
 62
     0
 92
       -2
340
0
 93
        0
 40
0.045
309
GRIDFORMAT_END
 95
        8
302
GRIDFORMAT
  1
GRIDFORMAT_BEGIN
 90
        0
 91
        1
 62
     0
 92
       -2
340
0
 93
        0
 40
0.045
309
GRIDFORMAT_END
 95
       16
302
GRIDFORMAT
  1
GRIDFORMAT_BEGIN
 90
        0
 91
        1
 62
     0
 92
       -2
340
0
 93
        0
 40
0.045
309
GRIDFORMAT_END
 95
       32
302
GRIDFORMAT
  1
GRIDFORMAT_BEGIN
 90
        0
 91
        1
 62
     0
 92
       -2
340
0
 93
        0
 40
0.045
309
GRIDFORMAT_END
309
TABLEFORMAT_END
  1
CELLSTYLE_BEGIN
 90
        3
 91
        2
300
_DATA
309
CELLSTYLE_END
  0
XRECORD
  5
42224
102
{ACAD_REACTORS
330
2F126
102
}
330
2F126
100
AcDbXrecord
280
     1
102
ACAD_ROUNDTRIP_PRE2007_TABLESTYLE
 90
      512
 91
        0
  1

 92
      512
 93
        0
  2

 94
      512
 95
        0
  3

  0
XRECORD
  5
4220F
102
{ACAD_REACTORS
330
4220E
102
}
330
4220E
100
AcDbXrecord
280
     1
102
RTVSPropertyOp0
 70
     1
102
RTVSPropertyOp1
 70
     1
102
RTVSPropertyOp2
 70
     1
102
RTVSPropertyOp3
 70
     1
102
RTVSPropertyOp4
 70
     1
102
RTVSPropertyOp5
 70
     1
102
RTVSPropertyOp6
 70
     1
102
RTVSPropertyOp7
 70
     1
102
RTVSPropertyOp8
 70
     1
102
RTVSPropertyOp9
 70
     1
102
RTVSPropertyOp10
 70
     1
102
RTVSPropertyOp11
 70
     1
102
RTVSPropertyOp12
 70
     1
102
RTVSPropertyOp13
 70
     1
102
RTVSPropertyOp14
 70
     1
102
RTVSPropertyOp15
 70
     1
102
RTVSPropertyOp16
 70
     1
102
RTVSPropertyOp17
 70
     1
102
RTVSPropertyOp18
 70
     1
102
RTVSPropertyOp19
 70
     1
102
RTVSPropertyOp20
 70
     1
102
RTVSPropertyOp21
 70
     1
102
RTVSPropertyOp22
 70
     1
102
RTVSPropertyOp23
 70
     1
102
RTVSPropertyOp24
 70
     1
102
RTVSPropertyOp25
 70
     1
102
RTVSPropertyOp26
 70
     1
102
RTVSPropertyOp27
 70
     1
  0
XRECORD
  5
42213
102
{ACAD_REACTORS
330
42212
102
}
330
42212
100
AcDbXrecord
280
     1
102
RTVSPropertyOp0
 70
     1
102
RTVSPropertyOp1
 70
     1
102
RTVSPropertyOp2
 70
     1
102
RTVSPropertyOp3
 70
     1
102
RTVSPropertyOp4
 70
     1
102
RTVSPropertyOp5
 70
     1
102
RTVSPropertyOp6
 70
     1
102
RTVSPropertyOp7
 70
     1
102
RTVSPropertyOp8
 70
     1
102
RTVSPropertyOp9
 70
     1
102
RTVSPropertyOp10
 70
     1
102
RTVSPropertyOp11
 70
     1
102
RTVSPropertyOp12
 70
     1
102
RTVSPropertyOp13
 70
     1
102
RTVSPropertyOp14
 70
     1
102
RTVSPropertyOp15
 70
     1
102
RTVSPropertyOp16
 70
     1
102
RTVSPropertyOp17
 70
     1
102
RTVSPropertyOp18
 70
     1
102
RTVSPropertyOp19
 70
     1
102
RTVSPropertyOp20
 70
     1
102
RTVSPropertyOp21
 70
     1
102
RTVSPropertyOp22
 70
     1
102
RTVSPropertyOp23
 70
     1
102
RTVSPropertyOp24
 70
     1
102
RTVSPropertyOp25
 70
     1
102
RTVSPropertyOp26
 70
     1
102
RTVSPropertyOp27
 70
     1
  0
XRECORD
  5
42211
102
{ACAD_REACTORS
330
42210
102
}
330
42210
100
AcDbXrecord
280
     1
102
RTVSPropertyOp0
 70
     1
102
RTVSPropertyOp1
 70
     1
102
RTVSPropertyOp2
 70
     1
102
RTVSPropertyOp3
 70
     1
102
RTVSPropertyOp4
 70
     1
102
RTVSPropertyOp5
 70
     1
102
RTVSPropertyOp6
 70
     1
102
RTVSPropertyOp7
 70
     1
102
RTVSPropertyOp8
 70
     1
102
RTVSPropertyOp9
 70
     1
102
RTVSPropertyOp10
 70
     1
102
RTVSPropertyOp11
 70
     1
102
RTVSPropertyOp12
 70
     1
102
RTVSPropertyOp13
 70
     1
102
RTVSPropertyOp14
 70
     1
102
RTVSPropertyOp15
 70
     1
102
RTVSPropertyOp16
 70
     1
102
RTVSPropertyOp17
 70
     1
102
RTVSPropertyOp18
 70
     1
102
RTVSPropertyOp19
 70
     1
102
RTVSPropertyOp20
 70
     1
102
RTVSPropertyOp21
 70
     1
102
RTVSPropertyOp22
 70
     1
102
RTVSPropertyOp23
 70
     1
102
RTVSPropertyOp24
 70
     1
102
RTVSPropertyOp25
 70
     1
102
RTVSPropertyOp26
 70
     1
102
RTVSPropertyOp27
 70
     1
  0
XRECORD
  5
4220D
102
{ACAD_REACTORS
330
4220C
102
}
330
4220C
100
AcDbXrecord
280
     1
102
RTVSPropertyOp0
 70
     1
102
RTVSPropertyOp1
 70
     1
102
RTVSPropertyOp2
 70
     1
102
RTVSPropertyOp3
 70
     1
102
RTVSPropertyOp4
 70
     1
102
RTVSPropertyOp5
 70
     1
102
RTVSPropertyOp6
 70
     1
102
RTVSPropertyOp7
 70
     1
102
RTVSPropertyOp8
 70
     1
102
RTVSPropertyOp9
 70
     1
102
RTVSPropertyOp10
 70
     1
102
RTVSPropertyOp11
 70
     1
102
RTVSPropertyOp12
 70
     1
102
RTVSPropertyOp13
 70
     1
102
RTVSPropertyOp14
 70
     1
102
RTVSPropertyOp15
 70
     1
102
RTVSPropertyOp16
 70
     1
102
RTVSPropertyOp17
 70
     1
102
RTVSPropertyOp18
 70
     1
102
RTVSPropertyOp19
 70
     1
102
RTVSPropertyOp20
 70
     1
102
RTVSPropertyOp21
 70
     1
102
RTVSPropertyOp22
 70
     1
102
RTVSPropertyOp23
 70
     1
102
RTVSPropertyOp24
 70
     1
102
RTVSPropertyOp25
 70
     1
102
RTVSPropertyOp26
 70
     1
102
RTVSPropertyOp27
 70
     1
  0
XRECORD
  5
4221B
102
{ACAD_REACTORS
330
4221A
102
}
330
4221A
100
AcDbXrecord
280
     1
102
RTVSPropertyOp0
 70
     1
102
RTVSPropertyOp1
 70
     1
102
RTVSPropertyOp2
 70
     1
102
RTVSPropertyOp3
 70
     1
102
RTVSPropertyOp4
 70
     1
102
RTVSPropertyOp5
 70
     1
102
RTVSPropertyOp6
 70
     1
102
RTVSPropertyOp7
 70
     1
102
RTVSPropertyOp8
 70
     1
102
RTVSPropertyOp9
 70
     1
102
RTVSPropertyOp10
 70
     1
102
RTVSPropertyOp11
 70
     1
102
RTVSPropertyOp12
 70
     1
102
RTVSPropertyOp13
 70
     1
102
RTVSPropertyOp14
 70
     1
102
RTVSPropertyOp15
 70
     1
102
RTVSPropertyOp16
 70
     1
102
RTVSPropertyOp17
 70
     1
102
RTVSPropertyOp18
 70
     1
102
RTVSPropertyOp19
 70
     1
102
RTVSPropertyOp20
 70
     1
102
RTVSPropertyOp21
 70
     1
102
RTVSPropertyOp22
 70
     1
102
RTVSPropertyOp23
 70
     1
102
RTVSPropertyOp24
 70
     1
102
RTVSPropertyOp25
 70
     1
102
RTVSPropertyOp26
 70
     1
102
RTVSPropertyOp27
 70
     1
  0
XRECORD
  5
42223
102
{ACAD_REACTORS
330
42222
102
}
330
42222
100
AcDbXrecord
280
     1
102
RTVSPropertyOp0
 70
     1
102
RTVSPropertyOp1
 70
     1
102
RTVSPropertyOp2
 70
     1
102
RTVSPropertyOp3
 70
     1
102
RTVSPropertyOp4
 70
     1
102
RTVSPropertyOp5
 70
     1
102
RTVSPropertyOp6
 70
     1
102
RTVSPropertyOp7
 70
     1
102
RTVSPropertyOp8
 70
     1
102
RTVSPropertyOp9
 70
     1
102
RTVSPropertyOp10
 70
     1
102
RTVSPropertyOp11
 70
     1
102
RTVSPropertyOp12
 70
     1
102
RTVSPropertyOp13
 70
     1
102
RTVSPropertyOp14
 70
     1
102
RTVSPropertyOp15
 70
     1
102
RTVSPropertyOp16
 70
     1
102
RTVSPropertyOp17
 70
     1
102
RTVSPropertyOp18
 70
     1
102
RTVSPropertyOp19
 70
     1
102
RTVSPropertyOp20
 70
     1
102
RTVSPropertyOp21
 70
     1
102
RTVSPropertyOp22
 70
     1
102
RTVSPropertyOp23
 70
     1
102
RTVSPropertyOp24
 70
     1
102
RTVSPropertyOp25
 70
     1
102
RTVSPropertyOp26
 70
     1
102
RTVSPropertyOp27
 70
     1
  0
XRECORD
  5
42215
102
{ACAD_REACTORS
330
42214
102
}
330
42214
100
AcDbXrecord
280
     1
102
RTVSPropertyOp0
 70
     1
102
RTVSPropertyOp1
 70
     1
102
RTVSPropertyOp2
 70
     1
102
RTVSPropertyOp3
 70
     1
102
RTVSPropertyOp4
 70
     1
102
RTVSPropertyOp5
 70
     1
102
RTVSPropertyOp6
 70
     1
102
RTVSPropertyOp7
 70
     1
102
RTVSPropertyOp8
 70
     1
102
RTVSPropertyOp9
 70
     1
102
RTVSPropertyOp10
 70
     1
102
RTVSPropertyOp11
 70
     1
102
RTVSPropertyOp12
 70
     1
102
RTVSPropertyOp13
 70
     1
102
RTVSPropertyOp14
 70
     1
102
RTVSPropertyOp15
 70
     1
102
RTVSPropertyOp16
 70
     1
102
RTVSPropertyOp17
 70
     1
102
RTVSPropertyOp18
 70
     1
102
RTVSPropertyOp19
 70
     1
102
RTVSPropertyOp20
 70
     1
102
RTVSPropertyOp21
 70
     1
102
RTVSPropertyOp22
 70
     1
102
RTVSPropertyOp23
 70
     1
102
RTVSPropertyOp24
 70
     1
102
RTVSPropertyOp25
 70
     1
102
RTVSPropertyOp26
 70
     1
102
RTVSPropertyOp27
 70
     1
  0
XRECORD
  5
42219
102
{ACAD_REACTORS
330
42218
102
}
330
42218
100
AcDbXrecord
280
     1
102
RTVSPropertyOp0
 70
     1
102
RTVSPropertyOp1
 70
     1
102
RTVSPropertyOp2
 70
     1
102
RTVSPropertyOp3
 70
     1
102
RTVSPropertyOp4
 70
     1
102
RTVSPropertyOp5
 70
     1
102
RTVSPropertyOp6
 70
     1
102
RTVSPropertyOp7
 70
     1
102
RTVSPropertyOp8
 70
     1
102
RTVSPropertyOp9
 70
     1
102
RTVSPropertyOp10
 70
     1
102
RTVSPropertyOp11
 70
     1
102
RTVSPropertyOp12
 70
     1
102
RTVSPropertyOp13
 70
     1
102
RTVSPropertyOp14
 70
     1
102
RTVSPropertyOp15
 70
     1
102
RTVSPropertyOp16
 70
     1
102
RTVSPropertyOp17
 70
     1
102
RTVSPropertyOp18
 70
     1
102
RTVSPropertyOp19
 70
     1
102
RTVSPropertyOp20
 70
     1
102
RTVSPropertyOp21
 70
     1
102
RTVSPropertyOp22
 70
     1
102
RTVSPropertyOp23
 70
     1
102
RTVSPropertyOp24
 70
     1
102
RTVSPropertyOp25
 70
     1
102
RTVSPropertyOp26
 70
     1
102
RTVSPropertyOp27
 70
     1
  0
XRECORD
  5
4222A
102
{ACAD_REACTORS
330
42229
102
}
330
42229
100
AcDbXrecord
280
     1
102
RTVSPropertyOp0
 70
     0
102
RTVSPropertyOp1
 70
     0
102
RTVSPropertyOp2
 70
     0
102
RTVSPropertyOp3
 70
     0
102
RTVSPropertyOp4
 70
     0
102
RTVSPropertyOp5
 70
     0
102
RTVSPropertyOp6
 70
     0
102
RTVSPropertyOp7
 70
     0
102
RTVSPropertyOp8
 70
     0
102
RTVSPropertyOp9
 70
     0
102
RTVSPropertyOp10
 70
     0
102
RTVSPropertyOp11
 70
     0
102
RTVSPropertyOp12
 70
     0
102
RTVSPropertyOp13
 70
     0
102
RTVSPropertyOp14
 70
     2
102
RTVSPropertyOp15
 70
     0
102
RTVSPropertyOp16
 70
     0
102
RTVSPropertyOp17
 70
     0
102
RTVSPropertyOp18
 70
     0
102
RTVSPropertyOp19
 70
     0
102
RTVSPropertyOp20
 70
     0
102
RTVSPropertyOp21
 70
     0
102
RTVSPropertyOp22
 70
     0
102
RTVSPropertyOp23
 70
     0
102
RTVSPropertyOp24
 70
     0
102
RTVSPropertyOp25
 70
     0
102
RTVSPropertyOp26
 70
     0
102
RTVSPropertyOp27
 70
     0
  0
XRECORD
  5
42221
102
{ACAD_REACTORS
330
42220
102
}
330
42220
100
AcDbXrecord
280
     1
102
RTVSPropertyOp0
 70
     1
102
RTVSPropertyOp1
 70
     1
102
RTVSPropertyOp2
 70
     1
102
RTVSPropertyOp3
 70
     1
102
RTVSPropertyOp4
 70
     1
102
RTVSPropertyOp5
 70
     1
102
RTVSPropertyOp6
 70
     1
102
RTVSPropertyOp7
 70
     1
102
RTVSPropertyOp8
 70
     1
102
RTVSPropertyOp9
 70
     1
102
RTVSPropertyOp10
 70
     1
102
RTVSPropertyOp11
 70
     1
102
RTVSPropertyOp12
 70
     1
102
RTVSPropertyOp13
 70
     1
102
RTVSPropertyOp14
 70
     1
102
RTVSPropertyOp15
 70
     1
102
RTVSPropertyOp16
 70
     1
102
RTVSPropertyOp17
 70
     1
102
RTVSPropertyOp18
 70
     1
102
RTVSPropertyOp19
 70
     1
102
RTVSPropertyOp20
 70
     1
102
RTVSPropertyOp21
 70
     1
102
RTVSPropertyOp22
 70
     1
102
RTVSPropertyOp23
 70
     1
102
RTVSPropertyOp24
 70
     1
102
RTVSPropertyOp25
 70
     1
102
RTVSPropertyOp26
 70
     1
102
RTVSPropertyOp27
 70
     1
  0
XRECORD
  5
42205
102
{ACAD_REACTORS
330
42204
102
}
330
42204
100
AcDbXrecord
280
     1
102
RTVSPropertyOp0
 70
     1
102
RTVSPropertyOp1
 70
     1
102
RTVSPropertyOp2
 70
     1
102
RTVSPropertyOp3
 70
     1
102
RTVSPropertyOp4
 70
     1
102
RTVSPropertyOp5
 70
     1
102
RTVSPropertyOp6
 70
     1
102
RTVSPropertyOp7
 70
     1
102
RTVSPropertyOp8
 70
     1
102
RTVSPropertyOp9
 70
     1
102
RTVSPropertyOp10
 70
     1
102
RTVSPropertyOp11
 70
     1
102
RTVSPropertyOp12
 70
     1
102
RTVSPropertyOp13
 70
     1
102
RTVSPropertyOp14
 70
     1
102
RTVSPropertyOp15
 70
     1
102
RTVSPropertyOp16
 70
     1
102
RTVSPropertyOp17
 70
     1
102
RTVSPropertyOp18
 70
     1
102
RTVSPropertyOp19
 70
     1
102
RTVSPropertyOp20
 70
     1
102
RTVSPropertyOp21
 70
     1
102
RTVSPropertyOp22
 70
     1
102
RTVSPropertyOp23
 70
     1
102
RTVSPropertyOp24
 70
     1
102
RTVSPropertyOp25
 70
     1
102
RTVSPropertyOp26
 70
     1
102
RTVSPropertyOp27
 70
     1
  0
XRECORD
  5
42207
102
{ACAD_REACTORS
330
42206
102
}
330
42206
100
AcDbXrecord
280
     1
102
RTVSPropertyOp0
 70
     1
102
RTVSPropertyOp1
 70
     1
102
RTVSPropertyOp2
 70
     1
102
RTVSPropertyOp3
 70
     1
102
RTVSPropertyOp4
 70
     1
102
RTVSPropertyOp5
 70
     1
102
RTVSPropertyOp6
 70
     1
102
RTVSPropertyOp7
 70
     1
102
RTVSPropertyOp8
 70
     1
102
RTVSPropertyOp9
 70
     1
102
RTVSPropertyOp10
 70
     1
102
RTVSPropertyOp11
 70
     1
102
RTVSPropertyOp12
 70
     1
102
RTVSPropertyOp13
 70
     1
102
RTVSPropertyOp14
 70
     1
102
RTVSPropertyOp15
 70
     1
102
RTVSPropertyOp16
 70
     1
102
RTVSPropertyOp17
 70
     1
102
RTVSPropertyOp18
 70
     1
102
RTVSPropertyOp19
 70
     1
102
RTVSPropertyOp20
 70
     1
102
RTVSPropertyOp21
 70
     1
102
RTVSPropertyOp22
 70
     1
102
RTVSPropertyOp23
 70
     1
102
RTVSPropertyOp24
 70
     1
102
RTVSPropertyOp25
 70
     1
102
RTVSPropertyOp26
 70
     1
102
RTVSPropertyOp27
 70
     1
  0
XRECORD
  5
42209
102
{ACAD_REACTORS
330
42208
102
}
330
42208
100
AcDbXrecord
280
     1
102
RTVSPropertyOp0
 70
     1
102
RTVSPropertyOp1
 70
     1
102
RTVSPropertyOp2
 70
     1
102
RTVSPropertyOp3
 70
     1
102
RTVSPropertyOp4
 70
     1
102
RTVSPropertyOp5
 70
     1
102
RTVSPropertyOp6
 70
     1
102
RTVSPropertyOp7
 70
     1
102
RTVSPropertyOp8
 70
     1
102
RTVSPropertyOp9
 70
     1
102
RTVSPropertyOp10
 70
     1
102
RTVSPropertyOp11
 70
     1
102
RTVSPropertyOp12
 70
     1
102
RTVSPropertyOp13
 70
     1
102
RTVSPropertyOp14
 70
     1
102
RTVSPropertyOp15
 70
     1
102
RTVSPropertyOp16
 70
     1
102
RTVSPropertyOp17
 70
     1
102
RTVSPropertyOp18
 70
     1
102
RTVSPropertyOp19
 70
     1
102
RTVSPropertyOp20
 70
     1
102
RTVSPropertyOp21
 70
     1
102
RTVSPropertyOp22
 70
     1
102
RTVSPropertyOp23
 70
     1
102
RTVSPropertyOp24
 70
     1
102
RTVSPropertyOp25
 70
     1
102
RTVSPropertyOp26
 70
     1
102
RTVSPropertyOp27
 70
     1
  0
XRECORD
  5
4220B
102
{ACAD_REACTORS
330
4220A
102
}
330
4220A
100
AcDbXrecord
280
     1
102
RTVSPropertyOp0
 70
     1
102
RTVSPropertyOp1
 70
     1
102
RTVSPropertyOp2
 70
     1
102
RTVSPropertyOp3
 70
     1
102
RTVSPropertyOp4
 70
     1
102
RTVSPropertyOp5
 70
     1
102
RTVSPropertyOp6
 70
     1
102
RTVSPropertyOp7
 70
     1
102
RTVSPropertyOp8
 70
     1
102
RTVSPropertyOp9
 70
     1
102
RTVSPropertyOp10
 70
     1
102
RTVSPropertyOp11
 70
     1
102
RTVSPropertyOp12
 70
     1
102
RTVSPropertyOp13
 70
     1
102
RTVSPropertyOp14
 70
     1
102
RTVSPropertyOp15
 70
     1
102
RTVSPropertyOp16
 70
     1
102
RTVSPropertyOp17
 70
     1
102
RTVSPropertyOp18
 70
     1
102
RTVSPropertyOp19
 70
     1
102
RTVSPropertyOp20
 70
     1
102
RTVSPropertyOp21
 70
     1
102
RTVSPropertyOp22
 70
     1
102
RTVSPropertyOp23
 70
     1
102
RTVSPropertyOp24
 70
     1
102
RTVSPropertyOp25
 70
     1
102
RTVSPropertyOp26
 70
     1
102
RTVSPropertyOp27
 70
     1
  0
XRECORD
  5
42226
102
{ACAD_REACTORS
330
42225
102
}
330
42225
100
AcDbXrecord
280
     1
102
RTVSPropertyOp0
 70
     0
102
RTVSPropertyOp1
 70
     0
102
RTVSPropertyOp2
 70
     0
102
RTVSPropertyOp3
 70
     0
102
RTVSPropertyOp4
 70
     0
102
RTVSPropertyOp5
 70
     0
102
RTVSPropertyOp6
 70
     0
102
RTVSPropertyOp7
 70
     0
102
RTVSPropertyOp8
 70
     0
102
RTVSPropertyOp9
 70
     0
102
RTVSPropertyOp10
 70
     0
102
RTVSPropertyOp11
 70
     0
102
RTVSPropertyOp12
 70
     0
102
RTVSPropertyOp13
 70
     0
102
RTVSPropertyOp14
 70
     2
102
RTVSPropertyOp15
 70
     0
102
RTVSPropertyOp16
 70
     0
102
RTVSPropertyOp17
 70
     0
102
RTVSPropertyOp18
 70
     0
102
RTVSPropertyOp19
 70
     0
102
RTVSPropertyOp20
 70
     0
102
RTVSPropertyOp21
 70
     0
102
RTVSPropertyOp22
 70
     0
102
RTVSPropertyOp23
 70
     0
102
RTVSPropertyOp24
 70
     0
102
RTVSPropertyOp25
 70
     0
102
RTVSPropertyOp26
 70
     0
102
RTVSPropertyOp27
 70
     0
  0
XRECORD
  5
4221F
102
{ACAD_REACTORS
330
4221E
102
}
330
4221E
100
AcDbXrecord
280
     1
102
RTVSPropertyOp0
 70
     1
102
RTVSPropertyOp1
 70
     1
102
RTVSPropertyOp2
 70
     1
102
RTVSPropertyOp3
 70
     1
102
RTVSPropertyOp4
 70
     1
102
RTVSPropertyOp5
 70
     1
102
RTVSPropertyOp6
 70
     1
102
RTVSPropertyOp7
 70
     1
102
RTVSPropertyOp8
 70
     1
102
RTVSPropertyOp9
 70
     1
102
RTVSPropertyOp10
 70
     1
102
RTVSPropertyOp11
 70
     1
102
RTVSPropertyOp12
 70
     1
102
RTVSPropertyOp13
 70
     1
102
RTVSPropertyOp14
 70
     1
102
RTVSPropertyOp15
 70
     1
102
RTVSPropertyOp16
 70
     1
102
RTVSPropertyOp17
 70
     1
102
RTVSPropertyOp18
 70
     1
102
RTVSPropertyOp19
 70
     1
102
RTVSPropertyOp20
 70
     1
102
RTVSPropertyOp21
 70
     1
102
RTVSPropertyOp22
 70
     1
102
RTVSPropertyOp23
 70
     1
102
RTVSPropertyOp24
 70
     1
102
RTVSPropertyOp25
 70
     1
102
RTVSPropertyOp26
 70
     1
102
RTVSPropertyOp27
 70
     1
  0
XRECORD
  5
42228
102
{ACAD_REACTORS
330
42227
102
}
330
42227
100
AcDbXrecord
280
     1
102
RTVSPropertyOp0
 70
     0
102
RTVSPropertyOp1
 70
     0
102
RTVSPropertyOp2
 70
     0
102
RTVSPropertyOp3
 70
     0
102
RTVSPropertyOp4
 70
     0
102
RTVSPropertyOp5
 70
     0
102
RTVSPropertyOp6
 70
     0
102
RTVSPropertyOp7
 70
     0
102
RTVSPropertyOp8
 70
     0
102
RTVSPropertyOp9
 70
     0
102
RTVSPropertyOp10
 70
     0
102
RTVSPropertyOp11
 70
     0
102
RTVSPropertyOp12
 70
     0
102
RTVSPropertyOp13
 70
     0
102
RTVSPropertyOp14
 70
     2
102
RTVSPropertyOp15
 70
     0
102
RTVSPropertyOp16
 70
     0
102
RTVSPropertyOp17
 70
     0
102
RTVSPropertyOp18
 70
     0
102
RTVSPropertyOp19
 70
     0
102
RTVSPropertyOp20
 70
     0
102
RTVSPropertyOp21
 70
     0
102
RTVSPropertyOp22
 70
     0
102
RTVSPropertyOp23
 70
     0
102
RTVSPropertyOp24
 70
     0
102
RTVSPropertyOp25
 70
     0
102
RTVSPropertyOp26
 70
     0
102
RTVSPropertyOp27
 70
     0
  0
XRECORD
  5
42217
102
{ACAD_REACTORS
330
42216
102
}
330
42216
100
AcDbXrecord
280
     1
102
RTVSPropertyOp0
 70
     1
102
RTVSPropertyOp1
 70
     1
102
RTVSPropertyOp2
 70
     1
102
RTVSPropertyOp3
 70
     1
102
RTVSPropertyOp4
 70
     1
102
RTVSPropertyOp5
 70
     1
102
RTVSPropertyOp6
 70
     1
102
RTVSPropertyOp7
 70
     1
102
RTVSPropertyOp8
 70
     1
102
RTVSPropertyOp9
 70
     1
102
RTVSPropertyOp10
 70
     1
102
RTVSPropertyOp11
 70
     1
102
RTVSPropertyOp12
 70
     1
102
RTVSPropertyOp13
 70
     1
102
RTVSPropertyOp14
 70
     1
102
RTVSPropertyOp15
 70
     1
102
RTVSPropertyOp16
 70
     1
102
RTVSPropertyOp17
 70
     1
102
RTVSPropertyOp18
 70
     1
102
RTVSPropertyOp19
 70
     1
102
RTVSPropertyOp20
 70
     1
102
RTVSPropertyOp21
 70
     1
102
RTVSPropertyOp22
 70
     1
102
RTVSPropertyOp23
 70
     1
102
RTVSPropertyOp24
 70
     1
102
RTVSPropertyOp25
 70
     1
102
RTVSPropertyOp26
 70
     1
102
RTVSPropertyOp27
 70
     1
  0
XRECORD
  5
4221D
102
{ACAD_REACTORS
330
4221C
102
}
330
4221C
100
AcDbXrecord
280
     1
102
RTVSPropertyOp0
 70
     1
102
RTVSPropertyOp1
 70
     1
102
RTVSPropertyOp2
 70
     1
102
RTVSPropertyOp3
 70
     1
102
RTVSPropertyOp4
 70
     1
102
RTVSPropertyOp5
 70
     1
102
RTVSPropertyOp6
 70
     1
102
RTVSPropertyOp7
 70
     1
102
RTVSPropertyOp8
 70
     1
102
RTVSPropertyOp9
 70
     1
102
RTVSPropertyOp10
 70
     1
102
RTVSPropertyOp11
 70
     1
102
RTVSPropertyOp12
 70
     1
102
RTVSPropertyOp13
 70
     1
102
RTVSPropertyOp14
 70
     1
102
RTVSPropertyOp15
 70
     1
102
RTVSPropertyOp16
 70
     1
102
RTVSPropertyOp17
 70
     1
102
RTVSPropertyOp18
 70
     1
102
RTVSPropertyOp19
 70
     1
102
RTVSPropertyOp20
 70
     1
102
RTVSPropertyOp21
 70
     1
102
RTVSPropertyOp22
 70
     1
102
RTVSPropertyOp23
 70
     1
102
RTVSPropertyOp24
 70
     1
102
RTVSPropertyOp25
 70
     1
102
RTVSPropertyOp26
 70
     1
102
RTVSPropertyOp27
 70
     1
  0
ENDSEC
  0
EOF
