  0
SECTION
  2
HEADER
  9
$ACADVER
  1
AC1018
  9
$ACADMAINTVER
 70
   104
  9
$DWGCODEPAGE
  3
ANSI_1252
  9
$AUTHOR
  1
meslinja
  9
$CUSTOMPROPERTYTAG
  1
Responsable
  9
$CUSTOMPROPERTY
  1

  9
$CUSTOMPROPERTYTAG
  1
Société
  9
$CUSTOMPROPERTY
  1
AIGA Central CAD
  9
$CUSTOMPROPERTYTAG
  1
Catégorie
  9
$CUSTOMPROPERTY
  1

  9
$CUSTOMPROPERTYTAG
  1
Numéro de pièce
  9
$CUSTOMPROPERTY
  1
Ensemble12
  9
$CUSTOMPROPERTYTAG
  1
Description
  9
$CUSTOMPROPERTY
  1

  9
$CUSTOMPROPERTYTAG
  1
Projet
  9
$CUSTOMPROPERTY
  1

  9
$CUSTOMPROPERTYTAG
  1
Concepteur
  9
$CUSTOMPROPERTY
  1
meslinja
  9
$CUSTOMPROPERTYTAG
  1
Ingénieur
  9
$CUSTOMPROPERTY
  1

  9
$CUSTOMPROPERTYTAG
  1
Responsable
  9
$CUSTOMPROPERTY
  1

  9
$CUSTOMPROPERTYTAG
  1
Centre de gestion
  9
$CUSTOMPROPERTY
  1

  9
$CUSTOMPROPERTYTAG
  1
Constructeur
  9
$CUSTOMPROPERTY
  1

  9
$CUSTOMPROPERTYTAG
  1
Etat utilisateur
  9
$CUSTOMPROPERTY
  1

  9
$CUSTOMPROPERTYTAG
  1
Etat de la conception
  9
$CUSTOMPROPERTY
  1
En cours
  9
$CUSTOMPROPERTYTAG
  1
Vérifié par
  9
$CUSTOMPROPERTY
  1

  9
$CUSTOMPROPERTYTAG
  1
Appr. pr conception par
  9
$CUSTOMPROPERTY
  1

  9
$CUSTOMPROPERTYTAG
  1
Appr. pr fabrication par
  9
$CUSTOMPROPERTY
  1

  9
$INSBASE
 10
0.0
 20
0.0
 30
0.0
  9
$EXTMIN
 10
0.0
 20
0.0
 30
0.0
  9
$EXTMAX
 10
840.0
 20
594.0
 30
0.0
  9
$LIMMIN
 10
0.0
 20
0.0
  9
$LIMMAX
 10
840.0
 20
594.0
  9
$ORTHOMODE
 70
     0
  9
$REGENMODE
 70
     1
  9
$FILLMODE
 70
     1
  9
$QTEXTMODE
 70
     0
  9
$MIRRTEXT
 70
     0
  9
$LTSCALE
 40
2.0
  9
$ATTMODE
 70
     1
  9
$TEXTSIZE
 40
0.2
  9
$TRACEWID
 40
0.05
  9
$TEXTSTYLE
  7
Standard
  9
$CLAYER
  8
0
  9
$CELTYPE
  6
ByLayer
  9
$CECOLOR
 62
   256
  9
$CELTSCALE
 40
1.0
  9
$DISPSILH
 70
     0
  9
$DIMSCALE
 40
1.0
  9
$DIMASZ
 40
1.799999999999999
  9
$DIMEXO
 40
0.0625
  9
$DIMDLI
 40
0.38
  9
$DIMRND
 40
0.0
  9
$DIMDLE
 40
0.0
  9
$DIMEXE
 40
0.18
  9
$DIMTP
 40
0.0
  9
$DIMTM
 40
0.0
  9
$DIMTXT
 40
0.3499999940395355
  9
$DIMCEN
 40
0.09
  9
$DIMTSZ
 40
0.0
  9
$DIMTOL
 70
     0
  9
$DIMLIM
 70
     0
  9
$DIMTIH
 70
     1
  9
$DIMTOH
 70
     1
  9
$DIMSE1
 70
     0
  9
$DIMSE2
 70
     0
  9
$DIMTAD
 70
     0
  9
$DIMZIN
 70
     0
  9
$DIMBLK
  1

  9
$DIMASO
 70
     1
  9
$DIMSHO
 70
     1
  9
$DIMPOST
  1

  9
$DIMAPOST
  1

  9
$DIMALT
 70
     0
  9
$DIMALTD
 70
     2
  9
$DIMALTF
 40
25.4
  9
$DIMLFAC
 40
1.0
  9
$DIMTOFL
 70
     0
  9
$DIMTVP
 40
0.0
  9
$DIMTIX
 70
     0
  9
$DIMSOXD
 70
     0
  9
$DIMSAH
 70
     0
  9
$DIMBLK1
  1

  9
$DIMBLK2
  1

  9
$DIMSTYLE
  2
Standard
  9
$DIMCLRD
 70
     0
  9
$DIMCLRE
 70
     0
  9
$DIMCLRT
 70
     0
  9
$DIMTFAC
 40
1.0
  9
$DIMGAP
 40
0.09
  9
$DIMJUST
 70
     0
  9
$DIMSD1
 70
     0
  9
$DIMSD2
 70
     0
  9
$DIMTOLJ
 70
     1
  9
$DIMTZIN
 70
     0
  9
$DIMALTZ
 70
     0
  9
$DIMALTTZ
 70
     0
  9
$DIMUPT
 70
     0
  9
$DIMDEC
 70
     4
  9
$DIMTDEC
 70
     4
  9
$DIMALTU
 70
     2
  9
$DIMALTTD
 70
     2
  9
$DIMTXSTY
  7
Standard
  9
$DIMAUNIT
 70
     0
  9
$DIMADEC
 70
     0
  9
$DIMALTRND
 40
0.0
  9
$DIMAZIN
 70
     0
  9
$DIMDSEP
 70
    46
  9
$DIMATFIT
 70
     3
  9
$DIMFRAC
 70
     0
  9
$DIMLDRBLK
  1

  9
$DIMLUNIT
 70
     2
  9
$DIMLWD
 70
    -2
  9
$DIMLWE
 70
    -2
  9
$DIMTMOVE
 70
     0
  9
$LUNITS
 70
     2
  9
$LUPREC
 70
     4
  9
$SKETCHINC
 40
0.1
  9
$FILLETRAD
 40
0.0
  9
$AUNITS
 70
     0
  9
$AUPREC
 70
     0
  9
$MENU
  1
.
  9
$ELEVATION
 40
0.0
  9
$PELEVATION
 40
0.0
  9
$THICKNESS
 40
0.0
  9
$LIMCHECK
 70
     0
  9
$CHAMFERA
 40
0.0
  9
$CHAMFERB
 40
0.0
  9
$CHAMFERC
 40
0.0
  9
$CHAMFERD
 40
0.0
  9
$SKPOLY
 70
     0
  9
$TDCREATE
 40
2455302.408863611
  9
$TDUCREATE
 40
2455302.325530277
  9
$TDUPDATE
 40
2455302.408863611
  9
$TDUUPDATE
 40
2455302.325530277
  9
$TDINDWG
 40
0.0000448495
  9
$TDUSRTIMER
 40
0.0000448495
  9
$USRTIMER
 70
     1
  9
$ANGBASE
 50
0.0
  9
$ANGDIR
 70
     0
  9
$PDMODE
 70
     0
  9
$PDSIZE
 40
0.0
  9
$PLINEWID
 40
0.0
  9
$SPLFRAME
 70
     0
  9
$SPLINETYPE
 70
     6
  9
$SPLINESEGS
 70
     8
  9
$HANDSEED
  5
E6B
  9
$SURFTAB1
 70
     6
  9
$SURFTAB2
 70
     6
  9
$SURFTYPE
 70
     6
  9
$SURFU
 70
     6
  9
$SURFV
 70
     6
  9
$UCSBASE
  2

  9
$UCSNAME
  2

  9
$UCSORG
 10
0.0
 20
0.0
 30
0.0
  9
$UCSXDIR
 10
1.0
 20
0.0
 30
0.0
  9
$UCSYDIR
 10
0.0
 20
1.0
 30
0.0
  9
$UCSORTHOREF
  2

  9
$UCSORTHOVIEW
 70
     0
  9
$UCSORGTOP
 10
0.0
 20
0.0
 30
0.0
  9
$UCSORGBOTTOM
 10
0.0
 20
0.0
 30
0.0
  9
$UCSORGLEFT
 10
0.0
 20
0.0
 30
0.0
  9
$UCSORGRIGHT
 10
0.0
 20
0.0
 30
0.0
  9
$UCSORGFRONT
 10
0.0
 20
0.0
 30
0.0
  9
$UCSORGBACK
 10
0.0
 20
0.0
 30
0.0
  9
$PUCSBASE
  2

  9
$PUCSNAME
  2

  9
$PUCSORG
 10
0.0
 20
0.0
 30
0.0
  9
$PUCSXDIR
 10
1.0
 20
0.0
 30
0.0
  9
$PUCSYDIR
 10
0.0
 20
1.0
 30
0.0
  9
$PUCSORTHOREF
  2

  9
$PUCSORTHOVIEW
 70
     0
  9
$PUCSORGTOP
 10
0.0
 20
0.0
 30
0.0
  9
$PUCSORGBOTTOM
 10
0.0
 20
0.0
 30
0.0
  9
$PUCSORGLEFT
 10
0.0
 20
0.0
 30
0.0
  9
$PUCSORGRIGHT
 10
0.0
 20
0.0
 30
0.0
  9
$PUCSORGFRONT
 10
0.0
 20
0.0
 30
0.0
  9
$PUCSORGBACK
 10
0.0
 20
0.0
 30
0.0
  9
$USERI1
 70
     0
  9
$USERI2
 70
     0
  9
$USERI3
 70
     0
  9
$USERI4
 70
     0
  9
$USERI5
 70
     0
  9
$USERR1
 40
0.0
  9
$USERR2
 40
0.0
  9
$USERR3
 40
0.0
  9
$USERR4
 40
0.0
  9
$USERR5
 40
0.0
  9
$WORLDVIEW
 70
     1
  9
$SHADEDGE
 70
     3
  9
$SHADEDIF
 70
    70
  9
$TILEMODE
 70
     1
  9
$MAXACTVP
 70
    64
  9
$PINSBASE
 10
0.0
 20
0.0
 30
0.0
  9
$PLIMCHECK
 70
     0
  9
$PEXTMIN
 10
0.0
 20
0.0
 30
0.0
  9
$PEXTMAX
 10
840.0
 20
594.0
 30
0.0
  9
$PLIMMIN
 10
0.0
 20
0.0
  9
$PLIMMAX
 10
840.0
 20
594.0
  9
$UNITMODE
 70
     0
  9
$VISRETAIN
 70
     1
  9
$PLINEGEN
 70
     0
  9
$PSLTSCALE
 70
     1
  9
$TREEDEPTH
 70
  3020
  9
$CMLSTYLE
  2
Standard
  9
$CMLJUST
 70
     0
  9
$CMLSCALE
 40
1.0
  9
$PROXYGRAPHICS
 70
     1
  9
$MEASUREMENT
 70
     1
  9
$CELWEIGHT
370
    -1
  9
$ENDCAPS
280
     0
  9
$JOINSTYLE
280
     0
  9
$LWDISPLAY
290
     0
  9
$INSUNITS
 70
     4
  9
$HYPERLINKBASE
  1

  9
$STYLESHEET
  1

  9
$XEDIT
290
     1
  9
$CEPSNTYPE
380
     0
  9
$PSTYLEMODE
290
     1
  9
$FINGERPRINTGUID
  2
{141B4389-2188-4882-955B-D492CD473CD6}
  9
$VERSIONGUID
  2
{5AEF764A-66BA-438C-9B13-E61FEA01C107}
  9
$EXTNAMES
290
     1
  9
$PSVPSCALE
 40
0.0
  9
$OLESTARTUP
290
     0
  9
$SORTENTS
280
   127
  9
$INDEXCTL
280
     0
  9
$HIDETEXT
280
     1
  9
$XCLIPFRAME
290
     0
  9
$HALOGAP
280
     0
  9
$OBSCOLOR
 70
   257
  9
$OBSLTYPE
280
     0
  9
$INTERSECTIONDISPLAY
280
     0
  9
$INTERSECTIONCOLOR
 70
   257
  9
$DIMASSOC
280
     1
  9
$PROJECTNAME
  1

  0
ENDSEC
  0
SECTION
  2
CLASSES
  0
CLASS
  1
ACDBDICTIONARYWDFLT
  2
AcDbDictionaryWithDefault
  3
ObjectDBX Classes
 90
        0
 91
        1
280
     0
281
     0
  0
CLASS
  1
MATERIAL
  2
AcDbMaterial
  3
ObjectDBX Classes
 90
     1153
 91
        3
280
     0
281
     0
  0
CLASS
  1
VISUALSTYLE
  2
AcDbVisualStyle
  3
ObjectDBX Classes
 90
     4095
 91
       16
280
     0
281
     0
  0
CLASS
  1
SCALE
  2
AcDbScale
  3
ObjectDBX Classes
 90
     1153
 91
       33
280
     0
281
     0
  0
CLASS
  1
TABLESTYLE
  2
AcDbTableStyle
  3
ObjectDBX Classes
 90
     4095
 91
        1
280
     0
281
     0
  0
CLASS
  1
MLEADERSTYLE
  2
AcDbMLeaderStyle
  3
ACDB_MLEADERSTYLE_CLASS
 90
     4095
 91
        1
280
     0
281
     0
  0
CLASS
  1
IMAGE
  2
AcDbRasterImage
  3
ISM
 90
     2175
 91
        1
280
     0
281
     1
  0
CLASS
  1
IMAGEDEF
  2
AcDbRasterImageDef
  3
ISM
 90
        0
 91
        1
280
     0
281
     0
  0
CLASS
  1
IMAGEDEF_REACTOR
  2
AcDbRasterImageDefReactor
  3
ISM
 90
        1
 91
        1
280
     0
281
     0
  0
CLASS
  1
RASTERVARIABLES
  2
AcDbRasterVariables
  3
ISM
 90
        0
 91
        1
280
     0
281
     0
  0
CLASS
  1
SORTENTSTABLE
  2
AcDbSortentsTable
  3
ObjectDBX Classes
 90
        0
 91
        1
280
     0
281
     0
  0
CLASS
  1
DICTIONARYVAR
  2
AcDbDictionaryVar
  3
ObjectDBX Classes
 90
        0
 91
        5
280
     0
281
     0
  0
CLASS
  1
CELLSTYLEMAP
  2
AcDbCellStyleMap
  3
ObjectDBX Classes
 90
     1152
 91
        1
280
     0
281
     0
  0
ENDSEC
  0
SECTION
  2
TABLES
  0
TABLE
  2
VPORT
  5
8
330
0
100
AcDbSymbolTable
 70
     1
  0
VPORT
  5
5F
330
8
100
AcDbSymbolTableRecord
100
AcDbViewportTableRecord
  2
*Active
 70
     0
 10
0.0
 20
0.0
 11
1.0
 21
1.0
 12
420.0
 22
297.0
 13
0.0
 23
0.0
 14
1.0
 24
1.0
 15
0.0
 25
0.0
 16
0.0
 26
0.0
 36
1.0
 17
0.0
 27
0.0
 37
0.0
 40
594.0
 41
1.414141414141414
 42
50.0
 43
0.0
 44
0.0
 50
0.0
 51
0.0
 71
     0
 72
   100
 73
     1
 74
     1
 75
     0
 76
     0
 77
     0
 78
     0
281
     0
 65
     1
110
0.0
120
0.0
130
0.0
111
1.0
121
0.0
131
0.0
112
0.0
122
1.0
132
0.0
 79
     0
146
0.0
  0
ENDTAB
  0
TABLE
  2
LTYPE
  5
5
330
0
100
AcDbSymbolTable
 70
    59
  0
LTYPE
  5
63
330
5
100
AcDbSymbolTableRecord
100
AcDbLinetypeTableRecord
  2
ByBlock
 70
     0
  3

 72
    65
 73
     0
 40
0.0
  0
LTYPE
  5
64
330
5
100
AcDbSymbolTableRecord
100
AcDbLinetypeTableRecord
  2
ByLayer
 70
     0
  3

 72
    65
 73
     0
 40
0.0
  0
LTYPE
  5
65
330
5
100
AcDbSymbolTableRecord
100
AcDbLinetypeTableRecord
  2
Continuous
 70
     0
  3
Solid line
 72
    65
 73
     0
 40
0.0
  0
LTYPE
  5
7D
330
5
100
AcDbSymbolTableRecord
100
AcDbLinetypeTableRecord
  2
Section_View_Lines
 70
     0
  3
Section View Lines
 72
    65
 73
     4
 40
0.8406
 49
0.6614
 74
     0
 49
-0.0827
 74
     0
 49
0.0138
 74
     0
 49
-0.0827
 74
     0
  0
LTYPE
  5
7E
330
5
100
AcDbSymbolTableRecord
100
AcDbLinetypeTableRecord
  2
CHAIN
 70
     0
  3
Chain ____ _ ____ _ ____ _ ____ _ ____ _ ____
 72
    65
 73
     4
 40
0.3543
 49
0.2362
 74
     0
 49
-0.0295
 74
     0
 49
0.0591
 74
     0
 49
-0.0295
 74
     0
  0
LTYPE
  5
7F
330
5
100
AcDbSymbolTableRecord
100
AcDbLinetypeTableRecord
  2
DASH_DOT
 70
     0
  3
Dash dot _._._._._._._._._._._._._._._.
 72
    65
 73
     4
 40
0.182
 49
0.1181
 74
     0
 49
-0.0295
 74
     0
 49
0.0049
 74
     0
 49
-0.0295
 74
     0
  0
LTYPE
  5
80
330
5
100
AcDbSymbolTableRecord
100
AcDbLinetypeTableRecord
  2
DASH_DOUBLE_DOT
 70
     0
  3
Dash Double Dot __ __ . __ __ . __ __ . __ _
 72
    65
 73
     6
 40
0.2164
 49
0.1181
 74
     0
 49
-0.0295
 74
     0
 49
0.0049
 74
     0
 49
-0.0295
 74
     0
 49
0.0049
 74
     0
 49
-0.0295
 74
     0
  0
LTYPE
  5
81
330
5
100
AcDbSymbolTableRecord
100
AcDbLinetypeTableRecord
  2
DASH_TRIPLE_DOT
 70
     0
  3
Dash Triple-Dot _ . . . _ . . . _ . . . _
 72
    65
 73
     8
 40
0.2508
 49
0.1181
 74
     0
 49
-0.0295
 74
     0
 49
0.0049
 74
     0
 49
-0.0295
 74
     0
 49
0.0049
 74
     0
 49
-0.0295
 74
     0
 49
0.0049
 74
     0
 49
-0.0295
 74
     0
  0
LTYPE
  5
82
330
5
100
AcDbSymbolTableRecord
100
AcDbLinetypeTableRecord
  2
DASHED
 70
     0
  3
Dashed __ __ __ __ __ __ __ __ __ __ __ __ __ _
 72
    65
 73
     2
 40
0.2068
 49
0.1655
 74
     0
 49
-0.0413
 74
     0
  0
LTYPE
  5
83
330
5
100
AcDbSymbolTableRecord
100
AcDbLinetypeTableRecord
  2
DASHED_SPACE
 70
     0
  3
Dashed Space __ __ __ __ __ __ __ __ __ __ __ _
 72
    65
 73
     2
 40
0.2067
 49
0.1654
 74
     0
 49
-0.0413
 74
     0
  0
LTYPE
  5
84
330
5
100
AcDbSymbolTableRecord
100
AcDbLinetypeTableRecord
  2
DOTTED
 70
     0
  3
Dotted . . . . . . . . . . . . . . . . . . . . 
 72
    65
 73
     2
 40
0.0481
 49
0.0068
 74
     0
 49
-0.0413
 74
     0
  0
LTYPE
  5
85
330
5
100
AcDbSymbolTableRecord
100
AcDbLinetypeTableRecord
  2
DOUBLE_DASH_CHAIN
 70
     0
  3
Double Dash Chain ___ _ _ ___ _ _ ___ _ _ ___ _
 72
    65
 73
     6
 40
1.240299999999999
 49
0.6614
 74
     0
 49
-0.0827
 74
     0
 49
0.1654
 74
     0
 49
-0.0827
 74
     0
 49
0.1654
 74
     0
 49
-0.0827
 74
     0
  0
LTYPE
  5
86
330
5
100
AcDbSymbolTableRecord
100
AcDbLinetypeTableRecord
  2
DOUBLE_DASH_DOT
 70
     0
  3
Double Dash Dot __ __ . __ __ . __ __ . __ _
 72
    65
 73
     6
 40
0.3296
 49
0.1181
 74
     0
 49
-0.0295
 74
     0
 49
0.1181
 74
     0
 49
-0.0295
 74
     0
 49
0.0049
 74
     0
 49
-0.0295
 74
     0
  0
LTYPE
  5
87
330
5
100
AcDbSymbolTableRecord
100
AcDbLinetypeTableRecord
  2
DOUBLE_DASH_DOUBLE_DOT
 70
     0
  3
Double Dash Double Dot _ _ . . _ _ . . _ _
 72
    65
 73
     8
 40
0.364
 49
0.1181
 74
     0
 49
-0.0295
 74
     0
 49
0.1181
 74
     0
 49
-0.0295
 74
     0
 49
0.0049
 74
     0
 49
-0.0295
 74
     0
 49
0.0049
 74
     0
 49
-0.0295
 74
     0
  0
LTYPE
  5
88
330
5
100
AcDbSymbolTableRecord
100
AcDbLinetypeTableRecord
  2
DOUBLE_DASH_TRIPLE_DOT
 70
     0
  3
Double Dash Triple Dot __ __ . . . __ __ . . .
 72
    65
 73
    10
 40
0.3984
 49
0.1181
 74
     0
 49
-0.0295
 74
     0
 49
0.1181
 74
     0
 49
-0.0295
 74
     0
 49
0.0049
 74
     0
 49
-0.0295
 74
     0
 49
0.0049
 74
     0
 49
-0.0295
 74
     0
 49
0.0049
 74
     0
 49
-0.0295
 74
     0
  0
LTYPE
  5
89
330
5
100
AcDbSymbolTableRecord
100
AcDbLinetypeTableRecord
  2
LONG_DASH_DOTTED
 70
     0
  3
Long Dash Dotted ____ . ____ . ____ . ____ . _
 72
    65
 73
     4
 40
0.3001
 49
0.2362
 74
     0
 49
-0.0295
 74
     0
 49
0.0049
 74
     0
 49
-0.0295
 74
     0
  0
LTYPE
  5
8A
330
5
100
AcDbSymbolTableRecord
100
AcDbLinetypeTableRecord
  2
LONG_DASH_DOUBLE_DOT
 70
     0
  3
Long Dash Double Dot ____ . . ____ . . ____ . .
 72
    65
 73
     6
 40
0.3345
 49
0.2362
 74
     0
 49
-0.0295
 74
     0
 49
0.0049
 74
     0
 49
-0.0295
 74
     0
 49
0.0049
 74
     0
 49
-0.0295
 74
     0
  0
LTYPE
  5
8B
330
5
100
AcDbSymbolTableRecord
100
AcDbLinetypeTableRecord
  2
LONG_DASH_TRIPLE_DOT
 70
     0
  3
Long Dash Triple Dot ____ ... ____ ... ____
 72
    65
 73
     8
 40
0.3689
 49
0.2362
 74
     0
 49
-0.0295
 74
     0
 49
0.0049
 74
     0
 49
-0.0295
 74
     0
 49
0.0049
 74
     0
 49
-0.0295
 74
     0
 49
0.0049
 74
     0
 49
-0.0295
 74
     0
  0
LTYPE
  5
8C
330
5
100
AcDbSymbolTableRecord
100
AcDbLinetypeTableRecord
  2
BORDER
 70
     0
  3
Border __ __ . __ __ . __ __ . __ __ . __ __ .
 72
    65
 73
     6
 40
44.45
 49
12.7
 74
     0
 49
-6.349999999999999
 74
     0
 49
12.7
 74
     0
 49
-6.349999999999999
 74
     0
 49
0.0
 74
     0
 49
-6.349999999999999
 74
     0
  0
LTYPE
  5
8D
330
5
100
AcDbSymbolTableRecord
100
AcDbLinetypeTableRecord
  2
BORDER2
 70
     0
  3
Border (.5x) __.__.__.__.__.__.__.__.__.__.__.
 72
    65
 73
     6
 40
22.225
 49
6.349999999999999
 74
     0
 49
-3.174999999999999
 74
     0
 49
6.349999999999999
 74
     0
 49
-3.174999999999999
 74
     0
 49
0.0
 74
     0
 49
-3.174999999999999
 74
     0
  0
LTYPE
  5
8E
330
5
100
AcDbSymbolTableRecord
100
AcDbLinetypeTableRecord
  2
BORDERX2
 70
     0
  3
Border (2x) ____  ____  .  ____  ____  .  ___
 72
    65
 73
     6
 40
88.9
 49
25.4
 74
     0
 49
-12.7
 74
     0
 49
25.4
 74
     0
 49
-12.7
 74
     0
 49
0.0
 74
     0
 49
-12.7
 74
     0
  0
LTYPE
  5
8F
330
5
100
AcDbSymbolTableRecord
100
AcDbLinetypeTableRecord
  2
CENTER
 70
     0
  3
Center ____ _ ____ _ ____ _ ____ _ ____ _ ____
 72
    65
 73
     4
 40
50.8
 49
31.75
 74
     0
 49
-6.349999999999999
 74
     0
 49
6.349999999999999
 74
     0
 49
-6.349999999999999
 74
     0
  0
LTYPE
  5
90
330
5
100
AcDbSymbolTableRecord
100
AcDbLinetypeTableRecord
  2
CENTER2
 70
     0
  3
Center (.5x) ___ _ ___ _ ___ _ ___ _ ___ _ ___
 72
    65
 73
     4
 40
28.575
 49
19.05
 74
     0
 49
-3.174999999999999
 74
     0
 49
3.174999999999999
 74
     0
 49
-3.174999999999999
 74
     0
  0
LTYPE
  5
91
330
5
100
AcDbSymbolTableRecord
100
AcDbLinetypeTableRecord
  2
CENTERX2
 70
     0
  3
Center (2x) ________  __  ________  __  _____
 72
    65
 73
     4
 40
101.6
 49
63.5
 74
     0
 49
-12.7
 74
     0
 49
12.7
 74
     0
 49
-12.7
 74
     0
  0
LTYPE
  5
92
330
5
100
AcDbSymbolTableRecord
100
AcDbLinetypeTableRecord
  2
DASHDOT2
 70
     0
  3
Dash dot (.5x) _._._._._._._._._._._._._._._.
 72
    65
 73
     4
 40
12.7
 49
6.349999999999999
 74
     0
 49
-3.174999999999999
 74
     0
 49
0.0
 74
     0
 49
-3.174999999999999
 74
     0
  0
LTYPE
  5
93
330
5
100
AcDbSymbolTableRecord
100
AcDbLinetypeTableRecord
  2
DASHDOTX2
 70
     0
  3
Dash dot (2x) ____  .  ____  .  ____  .  ___
 72
    65
 73
     4
 40
50.8
 49
25.4
 74
     0
 49
-12.7
 74
     0
 49
0.0
 74
     0
 49
-12.7
 74
     0
  0
LTYPE
  5
94
330
5
100
AcDbSymbolTableRecord
100
AcDbLinetypeTableRecord
  2
DASHED2
 70
     0
  3
Dashed (.5x) _ _ _ _ _ _ _ _ _ _ _ _ _ _ _ _ _
 72
    65
 73
     2
 40
9.524999999999998
 49
6.349999999999999
 74
     0
 49
-3.174999999999999
 74
     0
  0
LTYPE
  5
95
330
5
100
AcDbSymbolTableRecord
100
AcDbLinetypeTableRecord
  2
DASHEDX2
 70
     0
  3
Dashed (2x) ____  ____  ____  ____  ____  ___
 72
    65
 73
     2
 40
38.1
 49
25.4
 74
     0
 49
-12.7
 74
     0
  0
LTYPE
  5
96
330
5
100
AcDbSymbolTableRecord
100
AcDbLinetypeTableRecord
  2
DIVIDE
 70
     0
  3
Divide ____ . . ____ . . ____ . . ____ . . ____
 72
    65
 73
     6
 40
31.75
 49
12.7
 74
     0
 49
-6.349999999999999
 74
     0
 49
0.0
 74
     0
 49
-6.349999999999999
 74
     0
 49
0.0
 74
     0
 49
-6.349999999999999
 74
     0
  0
LTYPE
  5
97
330
5
100
AcDbSymbolTableRecord
100
AcDbLinetypeTableRecord
  2
DIVIDE2
 70
     0
  3
Divide (.5x) __..__..__..__..__..__..__..__.._
 72
    65
 73
     6
 40
15.875
 49
6.349999999999999
 74
     0
 49
-3.174999999999999
 74
     0
 49
0.0
 74
     0
 49
-3.174999999999999
 74
     0
 49
0.0
 74
     0
 49
-3.174999999999999
 74
     0
  0
LTYPE
  5
98
330
5
100
AcDbSymbolTableRecord
100
AcDbLinetypeTableRecord
  2
DIVIDEX2
 70
     0
  3
Divide (2x) ________  .  .  ________  .  .  _
 72
    65
 73
     6
 40
63.49999999999999
 49
25.4
 74
     0
 49
-12.7
 74
     0
 49
0.0
 74
     0
 49
-12.7
 74
     0
 49
0.0
 74
     0
 49
-12.7
 74
     0
  0
LTYPE
  5
99
330
5
100
AcDbSymbolTableRecord
100
AcDbLinetypeTableRecord
  2
DOT
 70
     0
  3
Dot . . . . . . . . . . . . . . . . . . . . . .
 72
    65
 73
     2
 40
6.349999999999999
 49
0.0
 74
     0
 49
-6.349999999999999
 74
     0
  0
LTYPE
  5
9A
330
5
100
AcDbSymbolTableRecord
100
AcDbLinetypeTableRecord
  2
DOT2
 70
     0
  3
Dot (.5x) .....................................
 72
    65
 73
     2
 40
3.174999999999999
 49
0.0
 74
     0
 49
-3.174999999999999
 74
     0
  0
LTYPE
  5
9B
330
5
100
AcDbSymbolTableRecord
100
AcDbLinetypeTableRecord
  2
DOTX2
 70
     0
  3
Dot (2x) .  .  .  .  .  .  .  .  .  .  .  .  . 
 72
    65
 73
     2
 40
12.7
 49
0.0
 74
     0
 49
-12.7
 74
     0
  0
LTYPE
  5
9C
330
5
100
AcDbSymbolTableRecord
100
AcDbLinetypeTableRecord
  2
HIDDEN
 70
     0
  3
Hidden __ __ __ __ __ __ __ __ __ __ __ __ __ _
 72
    65
 73
     2
 40
9.524999999999998
 49
6.349999999999999
 74
     0
 49
-3.174999999999999
 74
     0
  0
LTYPE
  5
9D
330
5
100
AcDbSymbolTableRecord
100
AcDbLinetypeTableRecord
  2
HIDDEN2
 70
     0
  3
Hidden (.5x) _ _ _ _ _ _ _ _ _ _ _ _ _ _ _ _ _
 72
    65
 73
     2
 40
4.762499999999999
 49
3.174999999999999
 74
     0
 49
-1.587499999999999
 74
     0
  0
LTYPE
  5
9E
330
5
100
AcDbSymbolTableRecord
100
AcDbLinetypeTableRecord
  2
HIDDENX2
 70
     0
  3
Hidden (2x) ____ ____ ____ ____ ____ ____ ____
 72
    65
 73
     2
 40
19.05
 49
12.7
 74
     0
 49
-6.349999999999999
 74
     0
  0
LTYPE
  5
9F
330
5
100
AcDbSymbolTableRecord
100
AcDbLinetypeTableRecord
  2
PHANTOM
 70
     0
  3
Phantom ______  __  __  ______  __  __  ______
 72
    65
 73
     6
 40
63.5
 49
31.75
 74
     0
 49
-6.349999999999999
 74
     0
 49
6.349999999999999
 74
     0
 49
-6.349999999999999
 74
     0
 49
6.349999999999999
 74
     0
 49
-6.349999999999999
 74
     0
  0
LTYPE
  5
A0
330
5
100
AcDbSymbolTableRecord
100
AcDbLinetypeTableRecord
  2
PHANTOM2
 70
     0
  3
Phantom (.5x) ___ _ _ ___ _ _ ___ _ _ ___ _ _
 72
    65
 73
     6
 40
31.75
 49
15.875
 74
     0
 49
-3.174999999999999
 74
     0
 49
3.174999999999999
 74
     0
 49
-3.174999999999999
 74
     0
 49
3.174999999999999
 74
     0
 49
-3.174999999999999
 74
     0
  0
LTYPE
  5
A1
330
5
100
AcDbSymbolTableRecord
100
AcDbLinetypeTableRecord
  2
PHANTOMX2
 70
     0
  3
Phantom (2x) ____________    ____    ____   _
 72
    65
 73
     6
 40
127.0
 49
63.5
 74
     0
 49
-12.7
 74
     0
 49
12.7
 74
     0
 49
-12.7
 74
     0
 49
12.7
 74
     0
 49
-12.7
 74
     0
  0
LTYPE
  5
A2
330
5
100
AcDbSymbolTableRecord
100
AcDbLinetypeTableRecord
  2
ACAD_ISO02W100
 70
     0
  3
ISO dash __ __ __ __ __ __ __ __ __ __ __ __ __
 72
    65
 73
     2
 40
15.0
 49
12.0
 74
     0
 49
-3.0
 74
     0
  0
LTYPE
  5
A3
330
5
100
AcDbSymbolTableRecord
100
AcDbLinetypeTableRecord
  2
ACAD_ISO03W100
 70
     0
  3
ISO dash space __    __    __    __    __    __
 72
    65
 73
     2
 40
30.0
 49
12.0
 74
     0
 49
-18.0
 74
     0
  0
LTYPE
  5
A4
330
5
100
AcDbSymbolTableRecord
100
AcDbLinetypeTableRecord
  2
ACAD_ISO04W100
 70
     0
  3
ISO long-dash dot ____ . ____ . ____ . ____ . _
 72
    65
 73
     4
 40
30.0
 49
24.0
 74
     0
 49
-3.0
 74
     0
 49
0.0
 74
     0
 49
-3.0
 74
     0
  0
LTYPE
  5
A5
330
5
100
AcDbSymbolTableRecord
100
AcDbLinetypeTableRecord
  2
ACAD_ISO05W100
 70
     0
  3
ISO long-dash double-dot ____ .. ____ .. ____ .
 72
    65
 73
     6
 40
33.0
 49
24.0
 74
     0
 49
-3.0
 74
     0
 49
0.0
 74
     0
 49
-3.0
 74
     0
 49
0.0
 74
     0
 49
-3.0
 74
     0
  0
LTYPE
  5
A6
330
5
100
AcDbSymbolTableRecord
100
AcDbLinetypeTableRecord
  2
ACAD_ISO06W100
 70
     0
  3
ISO long-dash triple-dot ____ ... ____ ... ____
 72
    65
 73
     8
 40
36.0
 49
24.0
 74
     0
 49
-3.0
 74
     0
 49
0.0
 74
     0
 49
-3.0
 74
     0
 49
0.0
 74
     0
 49
-3.0
 74
     0
 49
0.0
 74
     0
 49
-3.0
 74
     0
  0
LTYPE
  5
A7
330
5
100
AcDbSymbolTableRecord
100
AcDbLinetypeTableRecord
  2
ACAD_ISO07W100
 70
     0
  3
ISO dot . . . . . . . . . . . . . . . . . . . .
 72
    65
 73
     2
 40
3.0
 49
0.0
 74
     0
 49
-3.0
 74
     0
  0
LTYPE
  5
A8
330
5
100
AcDbSymbolTableRecord
100
AcDbLinetypeTableRecord
  2
ACAD_ISO08W100
 70
     0
  3
ISO long-dash short-dash ____ __ ____ __ ____ _
 72
    65
 73
     4
 40
36.0
 49
24.0
 74
     0
 49
-3.0
 74
     0
 49
6.0
 74
     0
 49
-3.0
 74
     0
  0
LTYPE
  5
A9
330
5
100
AcDbSymbolTableRecord
100
AcDbLinetypeTableRecord
  2
ACAD_ISO09W100
 70
     0
  3
ISO long-dash double-short-dash ____ __ __ ____
 72
    65
 73
     6
 40
45.0
 49
24.0
 74
     0
 49
-3.0
 74
     0
 49
6.0
 74
     0
 49
-3.0
 74
     0
 49
6.0
 74
     0
 49
-3.0
 74
     0
  0
LTYPE
  5
AA
330
5
100
AcDbSymbolTableRecord
100
AcDbLinetypeTableRecord
  2
ACAD_ISO10W100
 70
     0
  3
ISO dash dot __ . __ . __ . __ . __ . __ . __ .
 72
    65
 73
     4
 40
18.0
 49
12.0
 74
     0
 49
-3.0
 74
     0
 49
0.0
 74
     0
 49
-3.0
 74
     0
  0
LTYPE
  5
AB
330
5
100
AcDbSymbolTableRecord
100
AcDbLinetypeTableRecord
  2
ACAD_ISO11W100
 70
     0
  3
ISO double-dash dot __ __ . __ __ . __ __ . __ 
 72
    65
 73
     6
 40
33.0
 49
12.0
 74
     0
 49
-3.0
 74
     0
 49
12.0
 74
     0
 49
-3.0
 74
     0
 49
0.0
 74
     0
 49
-3.0
 74
     0
  0
LTYPE
  5
AC
330
5
100
AcDbSymbolTableRecord
100
AcDbLinetypeTableRecord
  2
ACAD_ISO12W100
 70
     0
  3
ISO dash double-dot __ . . __ . . __ . . __ . .
 72
    65
 73
     6
 40
21.0
 49
12.0
 74
     0
 49
-3.0
 74
     0
 49
0.0
 74
     0
 49
-3.0
 74
     0
 49
0.0
 74
     0
 49
-3.0
 74
     0
  0
LTYPE
  5
AD
330
5
100
AcDbSymbolTableRecord
100
AcDbLinetypeTableRecord
  2
ACAD_ISO13W100
 70
     0
  3
ISO double-dash double-dot __ __ . . __ __ . . 
 72
    65
 73
     8
 40
36.0
 49
12.0
 74
     0
 49
-3.0
 74
     0
 49
12.0
 74
     0
 49
-3.0
 74
     0
 49
0.0
 74
     0
 49
-3.0
 74
     0
 49
0.0
 74
     0
 49
-3.0
 74
     0
  0
LTYPE
  5
AE
330
5
100
AcDbSymbolTableRecord
100
AcDbLinetypeTableRecord
  2
ACAD_ISO14W100
 70
     0
  3
ISO dash triple-dot __ . . . __ . . . __ . . . 
 72
    65
 73
     8
 40
24.0
 49
12.0
 74
     0
 49
-3.0
 74
     0
 49
0.0
 74
     0
 49
-3.0
 74
     0
 49
0.0
 74
     0
 49
-3.0
 74
     0
 49
0.0
 74
     0
 49
-3.0
 74
     0
  0
LTYPE
  5
AF
330
5
100
AcDbSymbolTableRecord
100
AcDbLinetypeTableRecord
  2
ACAD_ISO15W100
 70
     0
  3
ISO double-dash triple-dot __ __ . . . __ __ . 
 72
    65
 73
    10
 40
39.0
 49
12.0
 74
     0
 49
-3.0
 74
     0
 49
12.0
 74
     0
 49
-3.0
 74
     0
 49
0.0
 74
     0
 49
-3.0
 74
     0
 49
0.0
 74
     0
 49
-3.0
 74
     0
 49
0.0
 74
     0
 49
-3.0
 74
     0
  0
LTYPE
  5
B2
330
5
100
AcDbSymbolTableRecord
100
AcDbLinetypeTableRecord
  2
FENCELINE1
 70
     0
  3
Fenceline circle ----0-----0----0-----0----0---
 72
    65
 73
     4
 40
36.83
 49
6.349999999999999
 74
     0
 49
-2.54
 74
     4
 75
   133
340
B1
 46
2.54
 50
0.0
 44
-2.54
 45
0.0
 49
-2.54
 74
     0
 49
25.4
 74
     0
  0
LTYPE
  5
B3
330
5
100
AcDbSymbolTableRecord
100
AcDbLinetypeTableRecord
  2
FENCELINE2
 70
     0
  3
Fenceline square ----[]-----[]----[]-----[]----
 72
    65
 73
     4
 40
36.83
 49
6.349999999999999
 74
     0
 49
-2.54
 74
     4
 75
   132
340
B1
 46
2.54
 50
0.0
 44
-2.54
 45
0.0
 49
-2.54
 74
     0
 49
25.4
 74
     0
  0
LTYPE
  5
B4
330
5
100
AcDbSymbolTableRecord
100
AcDbLinetypeTableRecord
  2
TRACKS
 70
     0
  3
Tracks -|-|-|-|-|-|-|-|-|-|-|-|-|-|-|-|-|-|-|-|
 72
    65
 73
     2
 40
7.62
 49
3.81
 74
     4
 75
   130
340
B1
 46
6.349999999999999
 50
0.0
 44
0.0
 45
0.0
 49
3.81
 74
     0
  0
LTYPE
  5
B5
330
5
100
AcDbSymbolTableRecord
100
AcDbLinetypeTableRecord
  2
BATTING
 70
     0
  3
Batting SSSSSSSSSSSSSSSSSSSSSSSSSSSSSSSSSSSSSSS
 72
    65
 73
     4
 40
10.16254
 49
0.00254
 74
     0
 49
-2.54
 74
     4
 75
   134
340
B1
 46
2.54
 50
0.0
 44
-2.54
 45
0.0
 49
-5.08
 74
     4
 75
   134
340
B1
 46
2.54
 50
180.0
 44
2.54
 45
0.0
 49
-2.54
 74
     0
  0
LTYPE
  5
B6
330
5
100
AcDbSymbolTableRecord
100
AcDbLinetypeTableRecord
  2
HOT_WATER_SUPPLY
 70
     0
  3
Hot water supply ---- HW ---- HW ---- HW ----
 72
    65
 73
     3
 40
22.86
 49
12.7
 74
     0
 49
-5.08
 74
     2
 75
     0
340
5D
 46
2.54
 50
0.0
 44
-2.54
 45
-1.27
  9
HW
 49
-5.08
 74
     0
  0
LTYPE
  5
B7
330
5
100
AcDbSymbolTableRecord
100
AcDbLinetypeTableRecord
  2
GAS_LINE
 70
     0
  3
Gas line ----GAS----GAS----GAS----GAS----GAS---
 72
    65
 73
     3
 40
24.13
 49
12.7
 74
     0
 49
-5.08
 74
     2
 75
     0
340
5D
 46
2.54
 50
0.0
 44
-2.54
 45
-1.27
  9
GAS
 49
-6.349999999999999
 74
     0
  0
LTYPE
  5
B8
330
5
100
AcDbSymbolTableRecord
100
AcDbLinetypeTableRecord
  2
ZIGZAG
 70
     0
  3
Zig zag /\/\/\/\/\/\/\/\/\/\/\/\/\/\/\/\/\/\/\/
 72
    65
 73
     4
 40
20.32254
 49
0.00254
 74
     0
 49
-5.08
 74
     4
 75
   131
340
B1
 46
5.08
 50
0.0
 44
-5.08
 45
0.0
 49
-10.16
 74
     4
 75
   131
340
B1
 46
5.08
 50
180.0
 44
5.08
 45
0.0
 49
-5.08
 74
     0
  0
ENDTAB
  0
TABLE
  2
LAYER
  5
2
330
0
100
AcDbSymbolTable
 70
    27
  0
LAYER
  5
5C
330
2
100
AcDbSymbolTableRecord
100
AcDbLayerTableRecord
  2
0
 70
     0
 62
     7
  6
Continuous
370
    18
390
F
  0
LAYER
  5
BC
330
2
100
AcDbSymbolTableRecord
100
AcDbLayerTableRecord
  2
Cadre (ISO)
 70
     0
 62
     7
  6
Continuous
370
    70
390
F
  0
LAYER
  5
BD
330
2
100
AcDbSymbolTableRecord
100
AcDbLayerTableRecord
  2
CARTOUCHE
 70
     0
 62
     7
  6
Continuous
370
    25
390
F
  0
LAYER
  5
BF
330
2
100
AcDbSymbolTableRecord
100
AcDbLayerTableRecord
  2
Cote (ISO)
 70
     0
 62
     7
  6
Continuous
370
    25
390
F
  0
LAYER
  5
C1
330
2
100
AcDbSymbolTableRecord
100
AcDbLayerTableRecord
  2
Etroit visible (ISO)
 70
     0
 62
     7
  6
Continuous
370
    35
390
F
  0
LAYER
  5
C2
330
2
100
AcDbSymbolTableRecord
100
AcDbLayerTableRecord
  2
Géométrie d'esquisse (ISO)
 70
     0
 62
     7
  6
Continuous
370
    25
390
F
  0
LAYER
  5
C7
330
2
100
AcDbSymbolTableRecord
100
AcDbLayerTableRecord
  2
Marque de centre (ISO)
 70
     0
 62
     7
  6
Continuous
370
    25
390
F
  0
LAYER
  5
CD
330
2
100
AcDbSymbolTableRecord
100
AcDbLayerTableRecord
  2
Symbole (ISO)
 70
     0
 62
     7
  6
Continuous
370
    25
390
F
  0
LAYER
  5
CE
330
2
100
AcDbSymbolTableRecord
100
AcDbLayerTableRecord
  2
Titre (ISO)
 70
     0
 62
     7
  6
Continuous
370
    50
390
F
  0
LAYER
  5
CF
330
2
100
AcDbSymbolTableRecord
100
AcDbLayerTableRecord
  2
Trait d'axe (ISO)
 70
     0
 62
     7
  6
Continuous
370
    25
390
F
  0
LAYER
  5
D1
330
2
100
AcDbSymbolTableRecord
100
AcDbLayerTableRecord
  2
Visible (ISO)
 70
     0
 62
     7
  6
Continuous
370
    50
390
F
  0
LAYER
  5
4C0
330
2
100
AcDbSymbolTableRecord
100
AcDbLayerTableRecord
  2
Defpoints
 70
     0
 62
     7
  6
Continuous
290
     0
370
    -3
390
F
  0
ENDTAB
  0
TABLE
  2
STYLE
  5
3
330
0
100
AcDbSymbolTable
 70
    15
  0
STYLE
  5
5D
330
3
100
AcDbSymbolTableRecord
100
AcDbTextStyleTableRecord
  2
Standard
 70
     0
 40
0.0
 41
1.0
 50
0.0
 71
     0
 42
0.2
  3
txt.shx
  4

  0
STYLE
  5
62
330
3
100
AcDbSymbolTableRecord
100
AcDbTextStyleTableRecord
  2
Annotative
 70
     0
 40
0.0
 41
1.0
 50
0.0
 71
     0
 42
0.2
  3

  4

1001
AcadAnnotative
1000
AnnotativeData
1002
{
1070
     1
1070
     1
1002
}
  0
STYLE
  5
B1
330
3
100
AcDbSymbolTableRecord
100
AcDbTextStyleTableRecord
  2

 70
     1
 40
0.0
 41
1.0
 50
0.0
 71
     0
 42
0.2
  3
ltypeshp.shx
  4

  0
STYLE
  5
D2
330
3
100
AcDbSymbolTableRecord
100
AcDbTextStyleTableRecord
  2
ARIAL_51
 70
     0
 40
0.0
 41
1.0
 50
0.0
 71
     0
 42
0.2
  3
ARIAL.TTF
  4

1001
ACAD
1000
Arial
1071
      256
  0
STYLE
  5
D3
330
3
100
AcDbSymbolTableRecord
100
AcDbTextStyleTableRecord
  2
StandardStandard
 70
     0
 40
0.0
 41
1.0
 50
0.0
 71
     0
 42
0.2
  3
txt.shx
  4

  0
STYLE
  5
D4
330
3
100
AcDbSymbolTableRecord
100
AcDbTextStyleTableRecord
  2
Texte de libell_ (ISO)
 70
     0
 40
0.0
 41
1.0
 50
0.0
 71
     0
 42
0.2
  3
TAHOMA.TTF
  4

1001
ACAD
1000
Tahoma
1071
      256
  0
STYLE
  5
D5
330
3
100
AcDbSymbolTableRecord
100
AcDbTextStyleTableRecord
  2
Texte de libellé (ANSI)
 70
     0
 40
0.0
 41
1.0
 50
0.0
 71
     0
 42
0.2
  3
TAHOMA.TTF
  4

1001
ACAD
1000
Tahoma
1071
      256
  0
STYLE
  5
D6
330
3
100
AcDbSymbolTableRecord
100
AcDbTextStyleTableRecord
  2
Texte de libellé (DIN)
 70
     0
 40
0.0
 41
1.0
 50
0.0
 71
     0
 42
0.2
  3
isocpeur.ttf
  4

1001
ACAD
1000
ISOCPEUR
1071
      256
  0
STYLE
  5
D7
330
3
100
AcDbSymbolTableRecord
100
AcDbTextStyleTableRecord
  2
Texte de libellé (ISO)
 70
     0
 40
0.0
 41
1.0
 50
0.0
 71
     0
 42
0.2
  3
TAHOMA.TTF
  4

1001
ACAD
1000
Tahoma
1071
      256
  0
STYLE
  5
D8
330
3
100
AcDbSymbolTableRecord
100
AcDbTextStyleTableRecord
  2
Texte de libellé (JIS)
 70
     0
 40
0.0
 41
1.0
 50
0.0
 71
     0
 42
0.2
  3
TAHOMA.TTF
  4

1001
ACAD
1000
Tahoma
1071
      256
  0
STYLE
  5
D9
330
3
100
AcDbSymbolTableRecord
100
AcDbTextStyleTableRecord
  2
Texte de note (ANSI)
 70
     0
 40
0.0
 41
1.0
 50
0.0
 71
     0
 42
0.2
  3
TAHOMA.TTF
  4

1001
ACAD
1000
Tahoma
1071
      256
  0
STYLE
  5
DA
330
3
100
AcDbSymbolTableRecord
100
AcDbTextStyleTableRecord
  2
Texte de note (DIN)
 70
     0
 40
0.0
 41
1.0
 50
0.0
 71
     0
 42
0.2
  3
isocpeur.ttf
  4

1001
ACAD
1000
ISOCPEUR
1071
      256
  0
STYLE
  5
DB
330
3
100
AcDbSymbolTableRecord
100
AcDbTextStyleTableRecord
  2
Texte de note (ISO)
 70
     0
 40
0.0
 41
1.0
 50
0.0
 71
     0
 42
0.2
  3
TAHOMA.TTF
  4

1001
ACAD
1000
Tahoma
1071
      256
  0
STYLE
  5
DC
330
3
100
AcDbSymbolTableRecord
100
AcDbTextStyleTableRecord
  2
Texte de note (JIS)
 70
     0
 40
0.0
 41
1.0
 50
0.0
 71
     0
 42
0.2
  3
TAHOMA.TTF
  4

1001
ACAD
1000
Tahoma
1071
      256
  0
STYLE
  5
18C
330
3
100
AcDbSymbolTableRecord
100
AcDbTextStyleTableRecord
  2
Texte de note (ISO)-Arial
 70
     0
 40
0.0
 41
1.0
 50
0.0
 71
     0
 42
0.2
  3
ARIAL.TTF
  4

1001
ACAD
1000
Arial
1071
      256
  0
ENDTAB
  0
TABLE
  2
VIEW
  5
6
330
0
100
AcDbSymbolTable
 70
     0
  0
ENDTAB
  0
TABLE
  2
UCS
  5
7
330
0
100
AcDbSymbolTable
 70
     0
  0
ENDTAB
  0
TABLE
  2
APPID
  5
9
330
0
100
AcDbSymbolTable
 70
     3
  0
APPID
  5
5E
330
9
100
AcDbSymbolTableRecord
100
AcDbRegAppTableRecord
  2
ACAD
 70
     0
  0
APPID
  5
66
330
9
100
AcDbSymbolTableRecord
100
AcDbRegAppTableRecord
  2
AcadAnnotative
 70
     0
  0
APPID
  5
70
330
9
100
AcDbSymbolTableRecord
100
AcDbRegAppTableRecord
  2
ACAD_MLEADERVER
 70
     0
  0
ENDTAB
  0
TABLE
  2
DIMSTYLE
  5
A
330
0
100
AcDbSymbolTable
 70
    21
100
AcDbDimStyleTable
 71
     2
340
DF
340
60
  0
DIMSTYLE
105
60
330
A
100
AcDbSymbolTableRecord
100
AcDbDimStyleTableRecord
  2
Standard
 70
     0
 40
2.0
 41
0.1800000071525574
 43
0.3800000000000001
 44
0.18
 45
0.00000001
140
0.1800000071525574
143
1.0
147
0.0900000035762787
176
   256
177
   256
178
   256
340
D3
371
    -1
372
    -1
  0
DIMSTYLE
105
61
330
A
100
AcDbSymbolTableRecord
100
AcDbDimStyleTableRecord
  2
Annotative
 70
     0
340
5D
1001
AcadAnnotative
1000
AnnotativeData
1002
{
1070
     1
1070
     1
1002
}
  0
DIMSTYLE
105
DD
330
A
100
AcDbSymbolTableRecord
100
AcDbDimStyleTableRecord
  2
Cote
 70
     0
 40
2.0
 41
2.5
 42
1.0
 43
5.999999999999999
 44
2.5
 45
0.00000001
 46
10.0
 73
     0
 77
     1
 78
     8
 79
     2
140
3.5
143
0.03937
146
0.4285714285714286
147
0.5
171
     3
172
     1
176
   150
177
   150
178
   256
179
     2
271
     2
272
     2
274
     3
278
    44
284
     8
340
DB
371
    -1
372
    -1
  0
DIMSTYLE
105
DE
330
A
100
AcDbSymbolTableRecord
100
AcDbDimStyleTableRecord
  2
Cote$7
 70
     0
 40
2.0
 41
2.5
 42
1.0
 43
5.999999999999999
 44
2.5
 45
0.00000001
 46
10.0
 73
     0
 77
     1
 78
     8
 79
     2
140
3.5
143
0.03937
146
0.4285714285714286
147
0.5
171
     3
172
     1
176
   256
177
   150
178
   256
179
     2
271
     2
272
     2
274
     3
278
    44
284
     8
340
DB
371
    -1
372
    -1
  0
DIMSTYLE
105
DF
102
{ACAD_REACTORS
330
4BF
330
592
330
664
330
736
330
808
330
8DA
330
9AC
330
A7E
330
B52
330
D69
102
}
330
A
100
AcDbSymbolTableRecord
100
AcDbDimStyleTableRecord
  2
Groom
 70
     0
 40
2.0
 41
2.5
 42
1.0
 43
5.999999999999999
 44
2.5
 45
0.00000001
 46
10.0
 73
     0
 77
     1
 78
     8
 79
     2
140
3.5
143
0.03937
146
0.4285714285714286
147
0.5
171
     3
176
   150
177
   150
178
   256
179
     2
271
     2
272
     2
274
     3
278
    44
284
     8
340
DB
342
FC
371
    -1
372
    -1
  0
DIMSTYLE
105
E0
330
A
100
AcDbSymbolTableRecord
100
AcDbDimStyleTableRecord
  2
Groom$7
 70
     0
 40
2.0
 41
2.5
 42
1.0
 43
5.999999999999999
 44
2.5
 45
0.00000001
 46
10.0
 73
     0
 77
     1
 78
     8
 79
     2
140
3.5
143
0.03937
146
0.4285714285714286
147
0.5
171
     3
172
     1
176
   256
177
   150
178
   256
179
     2
271
     2
272
     2
274
     3
278
    44
284
     8
340
DB
371
    -1
372
    -1
  0
DIMSTYLE
105
EF
330
A
100
AcDbSymbolTableRecord
100
AcDbDimStyleTableRecord
  2
Objet divers (ISO)
 70
     0
 40
2.0
 41
2.5
 42
0.0
 43
5.999999999999999
 44
3.174999999999999
 45
0.00000001
 46
10.0
 73
     0
 74
     0
 77
     1
140
5.25
143
0.03937
146
0.6676571709769112
147
0.762
171
     3
172
     1
176
   256
177
   256
178
   256
179
     2
271
     2
272
     2
274
     3
278
    44
340
D7
341
E1
371
    -1
372
    -1
  0
DIMSTYLE
105
F0
330
A
100
AcDbSymbolTableRecord
100
AcDbDimStyleTableRecord
  2
Objet divers (ISO)$7
 70
     0
 40
2.0
 41
5.0
 42
0.0
 43
5.999999999999999
 44
3.174999999999999
 45
0.00000001
 46
10.0
 73
     0
 74
     0
 77
     1
140
5.25
143
0.03937
146
0.6676571709769112
147
0.762
171
     3
172
     1
176
   256
177
   256
178
   256
179
     2
271
     2
272
     2
274
     3
278
    44
340
D7
341
E1
371
    25
372
    -1
  0
DIMSTYLE
105
F1
330
A
100
AcDbSymbolTableRecord
100
AcDbDimStyleTableRecord
  2
Par défaut - Méthode 1b (ISO)
 70
     0
 40
2.0
 41
2.5
 42
0.0
 43
5.999999999999999
 44
3.174999999999999
 45
0.00000001
 46
10.0
 73
     0
 77
     1
 78
     8
 79
     2
140
3.5
143
0.03937
147
0.762
171
     3
172
     1
176
   256
177
   256
178
   256
179
     2
271
     2
272
     2
274
     3
278
    44
284
     8
286
     8
340
DB
371
    -1
372
    -1
  0
DIMSTYLE
105
F2
330
A
100
AcDbSymbolTableRecord
100
AcDbDimStyleTableRecord
  2
Par défaut - Méthode 1b (ISO)$7
 70
     0
 40
2.0
 41
2.5
 42
0.0
 43
5.999999999999999
 44
3.174999999999999
 45
0.00000001
 46
10.0
 73
     0
 77
     1
 78
     8
 79
     2
140
3.5
143
0.03937
147
0.762
171
     3
172
     1
176
   256
177
   256
178
   256
179
     2
271
     2
272
     2
274
     3
278
    44
284
     8
286
     8
340
DB
371
    -1
372
    -1
  0
DIMSTYLE
105
F3
330
A
100
AcDbSymbolTableRecord
100
AcDbDimStyleTableRecord
  2
Par défaut - Méthode 2a (ISO)
 70
     0
 40
2.0
 41
2.5
 42
0.0
 43
5.999999999999999
 44
3.174999999999999
 45
0.00000001
 46
10.0
 77
     1
 78
     8
 79
     2
140
3.5
143
0.03937
147
0.762
171
     3
172
     1
176
   256
177
   256
178
   256
179
     2
271
     2
272
     2
274
     3
278
    44
284
     8
286
     8
340
DB
371
    -1
372
    -1
  0
DIMSTYLE
105
F4
330
A
100
AcDbSymbolTableRecord
100
AcDbDimStyleTableRecord
  2
Par défaut - Méthode 2a (ISO)$7
 70
     0
 40
2.0
 41
2.5
 42
0.0
 43
5.999999999999999
 44
3.174999999999999
 45
0.00000001
 46
10.0
 77
     1
 78
     8
 79
     2
140
3.5
143
0.03937
147
0.762
171
     3
172
     1
176
   256
177
   256
178
   256
179
     2
271
     2
272
     2
274
     3
278
    44
284
     8
286
     8
340
DB
371
    -1
372
    -1
  0
DIMSTYLE
105
F5
330
A
100
AcDbSymbolTableRecord
100
AcDbDimStyleTableRecord
  2
Par défaut - Méthode 2b (ISO)
 70
     0
 40
2.0
 41
2.5
 42
0.0
 43
5.999999999999999
 44
3.174999999999999
 45
0.00000001
 46
10.0
 77
     1
 78
     8
 79
     2
140
3.5
143
0.03937
147
0.762
171
     3
172
     1
176
   256
177
   256
178
   256
179
     2
271
     2
272
     2
274
     3
278
    44
284
     8
286
     8
340
DB
371
    -1
372
    -1
  0
DIMSTYLE
105
F6
330
A
100
AcDbSymbolTableRecord
100
AcDbDimStyleTableRecord
  2
Par défaut - Méthode 2b (ISO)$7
 70
     0
 40
2.0
 41
2.5
 42
0.0
 43
5.999999999999999
 44
3.174999999999999
 45
0.00000001
 46
10.0
 77
     1
 78
     8
 79
     2
140
3.5
143
0.03937
147
0.762
171
     3
172
     1
176
   256
177
   256
178
   256
179
     2
271
     2
272
     2
274
     3
278
    44
284
     8
286
     8
340
DB
371
    -1
372
    -1
  0
DIMSTYLE
105
F7
330
A
100
AcDbSymbolTableRecord
100
AcDbDimStyleTableRecord
  2
Par défaut - mm [po] (ISO)
 70
     0
  4
 po
 40
2.0
 41
2.5
 42
0.0
 43
5.999999999999999
 44
3.174999999999999
 45
0.00000001
 46
10.0
 73
     0
 74
     0
 77
     1
 78
     8
 79
     2
140
3.5
143
0.03937
147
0.762
170
     1
171
     3
172
     1
176
   256
177
   256
178
   256
179
     3
271
     3
272
     2
274
     3
275
     1
278
    44
284
     8
285
     8
286
     8
340
DB
371
    -1
372
    -1
  0
DIMSTYLE
105
F8
330
A
100
AcDbSymbolTableRecord
100
AcDbDimStyleTableRecord
  2
Par défaut - mm [po] (ISO)$7
 70
     0
  4
 po
 40
2.0
 41
2.5
 42
0.0
 43
5.999999999999999
 44
3.174999999999999
 45
0.00000001
 46
10.0
 73
     0
 74
     0
 77
     1
 78
     8
 79
     2
140
3.5
143
0.03937
147
0.762
170
     1
171
     3
172
     1
176
   256
177
   256
178
   256
179
     3
271
     3
272
     2
274
     3
275
     1
278
    44
284
     8
285
     8
286
     8
340
DB
371
    -1
372
    -1
  0
DIMSTYLE
105
F9
330
A
100
AcDbSymbolTableRecord
100
AcDbDimStyleTableRecord
  2
Par défaut (ISO)
 70
     0
 40
2.0
 41
2.5
 42
0.0
 43
5.999999999999999
 44
3.174999999999999
 45
0.00000001
 46
10.0
 73
     0
 74
     0
 77
     1
140
3.5
143
0.03937
146
1.001485756465366
147
0.762
171
     3
172
     1
176
   256
177
   256
178
   256
179
     2
271
     2
272
     2
274
     3
278
    44
340
DB
371
    -1
372
    -1
  0
DIMSTYLE
105
FA
330
A
100
AcDbSymbolTableRecord
100
AcDbDimStyleTableRecord
  2
Par défaut (ISO)$7
 70
     0
 40
2.0
 41
2.5
 42
0.0
 43
5.999999999999999
 44
3.174999999999999
 45
0.00000001
 46
10.0
 73
     0
 74
     0
 77
     1
140
3.5
143
0.03937
146
1.001485756465366
147
0.762
171
     3
172
     1
176
   256
177
   256
178
   256
179
     2
271
     2
272
     2
274
     3
278
    44
340
DB
371
    -1
372
    -1
  0
DIMSTYLE
105
FB
330
A
100
AcDbSymbolTableRecord
100
AcDbDimStyleTableRecord
  2
Standard$7
 70
     0
 40
2.0
 41
0.1800000071525574
 43
0.3800000000000001
 44
0.18
 45
0.00000001
140
0.1800000071525574
143
1.0
147
0.0900000035762787
176
   256
177
   256
178
   256
340
D3
371
    -1
372
    -1
  0
DIMSTYLE
105
10D
330
A
100
AcDbSymbolTableRecord
100
AcDbDimStyleTableRecord
  2
Référence (ISO)
 70
     0
 40
2.0
 41
2.5
340
5D
342
FC
  0
DIMSTYLE
105
10E
330
A
100
AcDbSymbolTableRecord
100
AcDbDimStyleTableRecord
  2
Secondaire (ISO)
 70
     0
 40
2.0
 41
2.5
340
5D
342
FC
  0
ENDTAB
  0
TABLE
  2
BLOCK_RECORD
  5
1
330
0
100
AcDbSymbolTable
 70
    18
  0
BLOCK_RECORD
  5
75
102
{ACAD_XDICTIONARY
360
E55
102
}
330
1
100
AcDbSymbolTableRecord
100
AcDbBlockTableRecord
  2
*Model_Space
340
78
  0
BLOCK_RECORD
  5
71
330
1
100
AcDbSymbolTableRecord
100
AcDbBlockTableRecord
  2
*Paper_Space
340
74
  0
BLOCK_RECORD
  5
79
330
1
100
AcDbSymbolTableRecord
100
AcDbBlockTableRecord
  2
*Paper_Space0
340
7C
  0
BLOCK_RECORD
  5
E1
330
1
100
AcDbSymbolTableRecord
100
AcDbBlockTableRecord
  2
Filled-1
340
0
  0
BLOCK_RECORD
  5
FC
330
1
100
AcDbSymbolTableRecord
100
AcDbBlockTableRecord
  2
_Closed
340
0
102
{BLKREFS
331
58C
331
58D
331
65E
331
65F
331
730
331
731
331
802
331
803
331
8D4
331
8D5
331
9A6
331
9A7
331
A78
331
A79
331
B4A
331
B4B
331
C1E
331
C1F
331
E4E
331
E4F
102
}
  0
BLOCK_RECORD
  5
103
330
1
100
AcDbSymbolTableRecord
100
AcDbBlockTableRecord
  2
DatumFilled45
340
0
  0
BLOCK_RECORD
  5
10F
330
1
100
AcDbSymbolTableRecord
100
AcDbBlockTableRecord
  2
Dessus
340
0
  0
BLOCK_RECORD
  5
117
330
1
100
AcDbSymbolTableRecord
100
AcDbBlockTableRecord
  2
Dessous
340
0
  0
BLOCK_RECORD
  5
11E
330
1
100
AcDbSymbolTableRecord
100
AcDbBlockTableRecord
  2
Cadres Default Border
340
0
102
{BLKREFS
331
164
102
}
  0
BLOCK_RECORD
  5
165
330
1
100
AcDbSymbolTableRecord
100
AcDbBlockTableRecord
  2
Cartouches Groom
340
0
102
{BLKREFS
331
1A6
102
}
  0
BLOCK_RECORD
  5
4C1
330
1
100
AcDbSymbolTableRecord
100
AcDbBlockTableRecord
  2
*D8
340
0
  0
BLOCK_RECORD
  5
593
330
1
100
AcDbSymbolTableRecord
100
AcDbBlockTableRecord
  2
*D9
340
0
  0
BLOCK_RECORD
  5
665
330
1
100
AcDbSymbolTableRecord
100
AcDbBlockTableRecord
  2
*D10
340
0
  0
BLOCK_RECORD
  5
737
330
1
100
AcDbSymbolTableRecord
100
AcDbBlockTableRecord
  2
*D11
340
0
  0
BLOCK_RECORD
  5
809
330
1
100
AcDbSymbolTableRecord
100
AcDbBlockTableRecord
  2
*D12
340
0
  0
BLOCK_RECORD
  5
8DB
330
1
100
AcDbSymbolTableRecord
100
AcDbBlockTableRecord
  2
*D13
340
0
  0
BLOCK_RECORD
  5
9AD
330
1
100
AcDbSymbolTableRecord
100
AcDbBlockTableRecord
  2
*D14
340
0
  0
BLOCK_RECORD
  5
A7F
330
1
100
AcDbSymbolTableRecord
100
AcDbBlockTableRecord
  2
*D15
340
0
  0
BLOCK_RECORD
  5
B53
330
1
100
AcDbSymbolTableRecord
100
AcDbBlockTableRecord
  2
*D16
340
0
  0
BLOCK_RECORD
  5
D6A
330
1
100
AcDbSymbolTableRecord
100
AcDbBlockTableRecord
  2
*D17
340
0
  0
ENDTAB
  0
ENDSEC
  0
SECTION
  2
BLOCKS
  0
BLOCK
  5
76
330
75
100
AcDbEntity
  8
0
100
AcDbBlockBegin
  2
*Model_Space
 70
     0
 10
0.0
 20
0.0
 30
0.0
  3
*Model_Space
  1

  0
ENDBLK
  5
77
330
75
100
AcDbEntity
  8
0
100
AcDbBlockEnd
  0
BLOCK
  5
72
330
71
100
AcDbEntity
 67
     1
  8
0
100
AcDbBlockBegin
  2
*Paper_Space
 70
     0
 10
0.0
 20
0.0
 30
0.0
  3
*Paper_Space
  1

  0
ENDBLK
  5
73
330
71
100
AcDbEntity
 67
     1
  8
0
100
AcDbBlockEnd
  0
BLOCK
  5
7A
330
79
100
AcDbEntity
 67
     1
  8
0
100
AcDbBlockBegin
  2
*Paper_Space0
 70
     0
 10
0.0
 20
0.0
 30
0.0
  3
*Paper_Space0
  1

  0
ENDBLK
  5
7B
330
79
100
AcDbEntity
 67
     1
  8
0
100
AcDbBlockEnd
  0
BLOCK
  5
E2
330
E1
100
AcDbEntity
  8
0
100
AcDbBlockBegin
  2
Filled-1
 70
     0
 10
0.0
 20
0.0
 30
0.0
  3
Filled-1
  1

  0
LINE
  5
E4
330
E1
100
AcDbEntity
  8
0
 62
     0
100
AcDbLine
 10
-1.0
 20
0.0
 30
0.0
 11
0.0
 21
0.0
 31
0.0
  0
POLYLINE
  5
E5
330
E1
100
AcDbEntity
  8
0
 62
     0
100
AcDb2dPolyline
 66
     1
 10
0.0
 20
0.0
 30
0.0
 70
   128
  0
VERTEX
  5
E6
330
E5
100
AcDbEntity
  8
0
 62
     0
100
AcDbVertex
100
AcDb2dVertex
 10
-1.0
 20
-0.1
 30
0.0
  0
VERTEX
  5
E7
330
E5
100
AcDbEntity
  8
0
 62
     0
100
AcDbVertex
100
AcDb2dVertex
 10
0.0
 20
0.0
 30
0.0
  0
VERTEX
  5
E9
330
E5
100
AcDbEntity
  8
0
 62
     0
100
AcDbVertex
100
AcDb2dVertex
 10
-1.0
 20
0.1
 30
0.0
  0
VERTEX
  5
EA
330
E5
100
AcDbEntity
  8
0
 62
     0
100
AcDbVertex
100
AcDb2dVertex
 10
-1.0
 20
-0.1
 30
0.0
  0
SEQEND
  5
E8
330
E5
100
AcDbEntity
  8
0
 62
     0
  0
SOLID
  5
EB
330
E1
100
AcDbEntity
  8
0
 62
     0
100
AcDbTrace
 10
-1.0
 20
-0.1
 30
0.0
 11
0.0
 21
0.0
 31
0.0
 12
-1.0
 22
0.1
 32
0.0
 13
-1.0
 23
-0.1
 33
0.0
  0
LINE
  5
EC
330
E1
100
AcDbEntity
  8
0
 62
     0
100
AcDbLine
 10
-1.0
 20
-0.1
 30
0.0
 11
0.0
 21
0.0
 31
0.0
  0
LINE
  5
ED
330
E1
100
AcDbEntity
  8
0
 62
     0
100
AcDbLine
 10
0.0
 20
0.0
 30
0.0
 11
-1.0
 21
0.1
 31
0.0
  0
LINE
  5
EE
330
E1
100
AcDbEntity
  8
0
 62
     0
100
AcDbLine
 10
-1.0
 20
0.1
 30
0.0
 11
-1.0
 21
-0.1
 31
0.0
  0
ENDBLK
  5
E3
330
E1
100
AcDbEntity
  8
0
100
AcDbBlockEnd
  0
BLOCK
  5
101
330
FC
100
AcDbEntity
  8
0
100
AcDbBlockBegin
  2
_Closed
 70
     0
 10
0.0
 20
0.0
 30
0.0
  3
_Closed
  1

  0
LINE
  5
FD
330
FC
100
AcDbEntity
  8
0
  6
ByBlock
 62
     0
370
    -2
100
AcDbLine
 10
-1.0
 20
0.1666666666666666
 30
0.0
 11
0.0
 21
0.0
 31
0.0
  0
LINE
  5
FE
330
FC
100
AcDbEntity
  8
0
  6
ByBlock
 62
     0
370
    -2
100
AcDbLine
 10
0.0
 20
0.0
 30
0.0
 11
-1.0
 21
-0.1666666666666666
 31
0.0
  0
LINE
  5
FF
330
FC
100
AcDbEntity
  8
0
  6
ByBlock
 62
     0
370
    -2
100
AcDbLine
 10
-1.0
 20
0.1666666666666666
 30
0.0
 11
-1.0
 21
-0.1666666666666666
 31
0.0
  0
LINE
  5
100
330
FC
100
AcDbEntity
  8
0
  6
ByBlock
 62
     0
370
    -2
100
AcDbLine
 10
0.0
 20
0.0
 30
0.0
 11
-1.0
 21
0.0
 31
0.0
  0
ENDBLK
  5
102
330
FC
100
AcDbEntity
  8
0
100
AcDbBlockEnd
  0
BLOCK
  5
104
330
103
100
AcDbEntity
  8
0
100
AcDbBlockBegin
  2
DatumFilled45
 70
     0
 10
0.0
 20
0.0
 30
0.0
  3
DatumFilled45
  1

  0
POLYLINE
  5
106
330
103
100
AcDbEntity
  8
0
 62
     0
100
AcDb2dPolyline
 66
     1
 10
0.0
 20
0.0
 30
0.0
 70
   128
  0
VERTEX
  5
107
330
106
100
AcDbEntity
  8
0
 62
     0
100
AcDbVertex
100
AcDb2dVertex
 10
0.0
 20
1.0
 30
0.0
  0
VERTEX
  5
108
330
106
100
AcDbEntity
  8
0
 62
     0
100
AcDbVertex
100
AcDb2dVertex
 10
0.0
 20
-1.0
 30
0.0
  0
VERTEX
  5
10A
330
106
100
AcDbEntity
  8
0
 62
     0
100
AcDbVertex
100
AcDb2dVertex
 10
-1.0
 20
0.0
 30
0.0
  0
VERTEX
  5
10B
330
106
100
AcDbEntity
  8
0
 62
     0
100
AcDbVertex
100
AcDb2dVertex
 10
0.0
 20
1.0
 30
0.0
  0
SEQEND
  5
109
330
106
100
AcDbEntity
  8
0
 62
     0
  0
SOLID
  5
10C
330
103
100
AcDbEntity
  8
0
 62
     0
100
AcDbTrace
 10
0.0
 20
1.0
 30
0.0
 11
0.0
 21
-1.0
 31
0.0
 12
-1.0
 22
0.0
 32
0.0
 13
0.0
 23
1.0
 33
0.0
  0
ENDBLK
  5
105
330
103
100
AcDbEntity
  8
0
100
AcDbBlockEnd
  0
BLOCK
  5
110
330
10F
100
AcDbEntity
  8
0
100
AcDbBlockBegin
  2
Dessus
 70
     0
 10
0.0
 20
0.0
 30
0.0
  3
Dessus
  1

  0
LINE
  5
112
330
10F
100
AcDbEntity
  8
Géométrie d'esquisse (ISO)
100
AcDbLine
 10
0.0
 20
-1.25
 30
0.0
 11
0.0
 21
1.25
 31
0.0
  0
LINE
  5
113
330
10F
100
AcDbEntity
  8
Géométrie d'esquisse (ISO)
100
AcDbLine
 10
0.0
 20
1.25
 30
0.0
 11
-0.9999999999999964
 21
0.2499999999999858
 31
0.0
  0
LINE
  5
114
330
10F
100
AcDbEntity
  8
Géométrie d'esquisse (ISO)
100
AcDbLine
 10
0.0
 20
1.25
 30
0.0
 11
0.9999999999999964
 21
0.2500000000000035
 31
0.0
  0
MTEXT
  5
115
330
10F
100
AcDbEntity
  8
Symbole (ISO)
100
AcDbMText
 10
-10.10438013709993
 20
0.0
 30
0.0
 40
3.499999940395355
 41
0.0
 71
     5
 72
     1
  1
DESSUS
  7
Texte de note (ISO)
 73
     1
 44
1.0
  0
ENDBLK
  5
111
330
10F
100
AcDbEntity
  8
0
100
AcDbBlockEnd
  0
BLOCK
  5
118
330
117
100
AcDbEntity
  8
0
100
AcDbBlockBegin
  2
Dessous
 70
     0
 10
0.0
 20
0.0
 30
0.0
  3
Dessous
  1

  0
LINE
  5
11A
330
117
100
AcDbEntity
  8
Géométrie d'esquisse (ISO)
100
AcDbLine
 10
0.0
 20
1.25
 30
0.0
 11
0.0
 21
-1.25
 31
0.0
  0
LINE
  5
11B
330
117
100
AcDbEntity
  8
Géométrie d'esquisse (ISO)
100
AcDbLine
 10
0.0
 20
-1.25
 30
0.0
 11
0.9999999999999964
 21
-0.2500000000000035
 31
0.0
  0
LINE
  5
11C
330
117
100
AcDbEntity
  8
Géométrie d'esquisse (ISO)
100
AcDbLine
 10
0.0
 20
-1.25
 30
0.0
 11
-0.9999999999999964
 21
-0.2500000000000035
 31
0.0
  0
MTEXT
  5
11D
330
117
100
AcDbEntity
  8
Symbole (ISO)
100
AcDbMText
 10
-11.10465200524032
 20
0.0
 30
0.0
 40
3.499999940395355
 41
0.0
 71
     5
 72
     1
  1
DESSOUS
  7
Texte de note (ISO)
 73
     1
 44
1.0
  0
ENDBLK
  5
119
330
117
100
AcDbEntity
  8
0
100
AcDbBlockEnd
  0
BLOCK
  5
11F
330
11E
100
AcDbEntity
  8
0
100
AcDbBlockBegin
  2
Cadres Default Border
 70
     0
 10
0.0
 20
0.0
 30
0.0
  3
Cadres Default Border
  1

  0
POLYLINE
  5
121
330
11E
100
AcDbEntity
  8
Cadre (ISO)
100
AcDb2dPolyline
 66
     1
 10
0.0
 20
0.0
 30
0.0
 70
   128
  0
VERTEX
  5
122
330
121
100
AcDbEntity
  8
Cadre (ISO)
100
AcDbVertex
100
AcDb2dVertex
 10
10.0
 20
10.0
 30
0.0
  0
VERTEX
  5
123
330
121
100
AcDbEntity
  8
Cadre (ISO)
100
AcDbVertex
100
AcDb2dVertex
 10
10.0
 20
287.0000076293946
 30
0.0
  0
VERTEX
  5
125
330
121
100
AcDbEntity
  8
Cadre (ISO)
100
AcDbVertex
100
AcDb2dVertex
 10
410.0
 20
287.0000076293946
 30
0.0
  0
VERTEX
  5
126
330
121
100
AcDbEntity
  8
Cadre (ISO)
100
AcDbVertex
100
AcDb2dVertex
 10
410.0
 20
10.0
 30
0.0
  0
VERTEX
  5
127
330
121
100
AcDbEntity
  8
Cadre (ISO)
100
AcDbVertex
100
AcDb2dVertex
 10
10.0
 20
10.0
 30
0.0
  0
SEQEND
  5
124
330
121
100
AcDbEntity
  8
Cadre (ISO)
  0
POLYLINE
  5
128
330
11E
100
AcDbEntity
  8
Cadre (ISO)
100
AcDb2dPolyline
 66
     1
 10
0.0
 20
0.0
 30
0.0
 70
   128
  0
VERTEX
  5
129
330
128
100
AcDbEntity
  8
Cadre (ISO)
100
AcDbVertex
100
AcDb2dVertex
 10
210.0
 20
0.0
 30
0.0
  0
VERTEX
  5
12A
330
128
100
AcDbEntity
  8
Cadre (ISO)
100
AcDbVertex
100
AcDb2dVertex
 10
210.0
 20
10.0
 30
0.0
  0
VERTEX
  5
12C
330
128
100
AcDbEntity
  8
Cadre (ISO)
100
AcDbVertex
100
AcDb2dVertex
 10
207.1132469177246
 20
5.0
 30
0.0
  0
VERTEX
  5
12D
330
128
100
AcDbEntity
  8
Cadre (ISO)
100
AcDbVertex
100
AcDb2dVertex
 10
212.8867530822754
 20
5.0
 30
0.0
  0
VERTEX
  5
12E
330
128
100
AcDbEntity
  8
Cadre (ISO)
100
AcDbVertex
100
AcDb2dVertex
 10
210.0
 20
10.0
 30
0.0
  0
SEQEND
  5
12B
330
128
100
AcDbEntity
  8
Cadre (ISO)
  0
POLYLINE
  5
12F
330
11E
100
AcDbEntity
  8
Cadre (ISO)
100
AcDb2dPolyline
 66
     1
 10
0.0
 20
0.0
 30
0.0
 70
   128
  0
VERTEX
  5
130
330
12F
100
AcDbEntity
  8
Cadre (ISO)
100
AcDbVertex
100
AcDb2dVertex
 10
210.0
 20
297.0000076293946
 30
0.0
  0
VERTEX
  5
131
330
12F
100
AcDbEntity
  8
Cadre (ISO)
100
AcDbVertex
100
AcDb2dVertex
 10
210.0
 20
287.0000076293946
 30
0.0
  0
VERTEX
  5
133
330
12F
100
AcDbEntity
  8
Cadre (ISO)
100
AcDbVertex
100
AcDb2dVertex
 10
207.1132469177246
 20
292.0000076293945
 30
0.0
  0
VERTEX
  5
134
330
12F
100
AcDbEntity
  8
Cadre (ISO)
100
AcDbVertex
100
AcDb2dVertex
 10
212.8867530822754
 20
292.0000076293945
 30
0.0
  0
VERTEX
  5
135
330
12F
100
AcDbEntity
  8
Cadre (ISO)
100
AcDbVertex
100
AcDb2dVertex
 10
210.0
 20
287.0000076293946
 30
0.0
  0
SEQEND
  5
132
330
12F
100
AcDbEntity
  8
Cadre (ISO)
  0
POLYLINE
  5
136
330
11E
100
AcDbEntity
  8
Cadre (ISO)
100
AcDb2dPolyline
 66
     1
 10
0.0
 20
0.0
 30
0.0
 70
   128
  0
VERTEX
  5
137
330
136
100
AcDbEntity
  8
Cadre (ISO)
100
AcDbVertex
100
AcDb2dVertex
 10
0.0
 20
148.5000038146973
 30
0.0
  0
VERTEX
  5
138
330
136
100
AcDbEntity
  8
Cadre (ISO)
100
AcDbVertex
100
AcDb2dVertex
 10
10.0
 20
148.5000038146973
 30
0.0
  0
VERTEX
  5
13A
330
136
100
AcDbEntity
  8
Cadre (ISO)
100
AcDbVertex
100
AcDb2dVertex
 10
5.0
 20
151.3867473602295
 30
0.0
  0
VERTEX
  5
13B
330
136
100
AcDbEntity
  8
Cadre (ISO)
100
AcDbVertex
100
AcDb2dVertex
 10
5.0
 20
145.6132507324219
 30
0.0
  0
VERTEX
  5
13C
330
136
100
AcDbEntity
  8
Cadre (ISO)
100
AcDbVertex
100
AcDb2dVertex
 10
10.0
 20
148.5000038146973
 30
0.0
  0
SEQEND
  5
139
330
136
100
AcDbEntity
  8
Cadre (ISO)
  0
POLYLINE
  5
13D
330
11E
100
AcDbEntity
  8
Cadre (ISO)
100
AcDb2dPolyline
 66
     1
 10
0.0
 20
0.0
 30
0.0
 70
   128
  0
VERTEX
  5
13E
330
13D
100
AcDbEntity
  8
Cadre (ISO)
100
AcDbVertex
100
AcDb2dVertex
 10
420.0
 20
148.5000038146973
 30
0.0
  0
VERTEX
  5
13F
330
13D
100
AcDbEntity
  8
Cadre (ISO)
100
AcDbVertex
100
AcDb2dVertex
 10
410.0
 20
148.5000038146973
 30
0.0
  0
VERTEX
  5
141
330
13D
100
AcDbEntity
  8
Cadre (ISO)
100
AcDbVertex
100
AcDb2dVertex
 10
415.0
 20
151.3867473602295
 30
0.0
  0
VERTEX
  5
142
330
13D
100
AcDbEntity
  8
Cadre (ISO)
100
AcDbVertex
100
AcDb2dVertex
 10
415.0
 20
145.6132507324219
 30
0.0
  0
VERTEX
  5
143
330
13D
100
AcDbEntity
  8
Cadre (ISO)
100
AcDbVertex
100
AcDb2dVertex
 10
410.0
 20
148.5000038146973
 30
0.0
  0
SEQEND
  5
140
330
13D
100
AcDbEntity
  8
Cadre (ISO)
  0
LINE
  5
144
330
11E
100
AcDbEntity
  8
Cadre (ISO)
100
AcDbLine
 10
70.0
 20
10.0
 30
0.0
 11
70.0
 21
6.100000143051147
 31
0.0
  0
LINE
  5
145
330
11E
100
AcDbEntity
  8
Cadre (ISO)
100
AcDbLine
 10
70.0
 20
287.0000076293946
 30
0.0
 11
70.0
 21
290.9000015258789
 31
0.0
  0
LINE
  5
146
330
11E
100
AcDbEntity
  8
Cadre (ISO)
100
AcDbLine
 10
140.0
 20
10.0
 30
0.0
 11
140.0
 21
6.100000143051147
 31
0.0
  0
LINE
  5
147
330
11E
100
AcDbEntity
  8
Cadre (ISO)
100
AcDbLine
 10
140.0
 20
287.0000076293946
 30
0.0
 11
140.0
 21
290.9000015258789
 31
0.0
  0
LINE
  5
148
330
11E
100
AcDbEntity
  8
Cadre (ISO)
100
AcDbLine
 10
280.0
 20
10.0
 30
0.0
 11
280.0
 21
6.100000143051147
 31
0.0
  0
LINE
  5
149
330
11E
100
AcDbEntity
  8
Cadre (ISO)
100
AcDbLine
 10
280.0
 20
287.0000076293946
 30
0.0
 11
280.0
 21
290.9000015258789
 31
0.0
  0
LINE
  5
14A
330
11E
100
AcDbEntity
  8
Cadre (ISO)
100
AcDbLine
 10
350.0
 20
10.0
 30
0.0
 11
350.0
 21
6.100000143051147
 31
0.0
  0
LINE
  5
14B
330
11E
100
AcDbEntity
  8
Cadre (ISO)
100
AcDbLine
 10
350.0
 20
287.0000076293946
 30
0.0
 11
350.0
 21
290.9000015258789
 31
0.0
  0
MTEXT
  5
14C
330
11E
100
AcDbEntity
  8
Cadre (ISO)
100
AcDbMText
 10
384.5998768508435
 20
287.4
 30
0.0
 40
3.499999940395355
 41
0.0
 71
     7
 72
     1
  1
1
  7
Texte de note (ISO)
 73
     1
 44
1.0
  0
MTEXT
  5
14D
330
11E
100
AcDbEntity
  8
Cadre (ISO)
100
AcDbMText
 10
384.5998768508435
 20
6.100000059604644
 30
0.0
 40
3.499999940395355
 41
0.0
 71
     7
 72
     1
  1
1
  7
Texte de note (ISO)
 73
     1
 44
1.0
  0
MTEXT
  5
14E
330
11E
100
AcDbEntity
  8
Cadre (ISO)
100
AcDbMText
 10
314.1262440383434
 20
287.4
 30
0.0
 40
3.499999940395355
 41
0.0
 71
     7
 72
     1
  1
2
  7
Texte de note (ISO)
 73
     1
 44
1.0
  0
MTEXT
  5
14F
330
11E
100
AcDbEntity
  8
Cadre (ISO)
100
AcDbMText
 10
314.1262440383434
 20
6.100000059604644
 30
0.0
 40
3.499999940395355
 41
0.0
 71
     7
 72
     1
  1
2
  7
Texte de note (ISO)
 73
     1
 44
1.0
  0
MTEXT
  5
150
330
11E
100
AcDbEntity
  8
Cadre (ISO)
100
AcDbMText
 10
244.0774159133434
 20
287.3262560764327
 30
0.0
 40
3.499999940395355
 41
0.0
 71
     7
 72
     1
  1
3
  7
Texte de note (ISO)
 73
     1
 44
1.0
  0
MTEXT
  5
151
330
11E
100
AcDbEntity
  8
Cadre (ISO)
100
AcDbMText
 10
244.0774159133434
 20
6.026256136037408
 30
0.0
 40
3.499999940395355
 41
0.0
 71
     7
 72
     1
  1
3
  7
Texte de note (ISO)
 73
     1
 44
1.0
  0
MTEXT
  5
152
330
11E
100
AcDbEntity
  8
Cadre (ISO)
100
AcDbMText
 10
173.8479237258434
 20
287.4
 30
0.0
 40
3.499999940395355
 41
0.0
 71
     7
 72
     1
  1
4
  7
Texte de note (ISO)
 73
     1
 44
1.0
  0
MTEXT
  5
153
330
11E
100
AcDbEntity
  8
Cadre (ISO)
100
AcDbMText
 10
173.8479237258434
 20
6.100000059604644
 30
0.0
 40
3.499999940395355
 41
0.0
 71
     7
 72
     1
  1
4
  7
Texte de note (ISO)
 73
     1
 44
1.0
  0
MTEXT
  5
154
330
11E
100
AcDbEntity
  8
Cadre (ISO)
100
AcDbMText
 10
104.1897206008434
 20
287.3262560764327
 30
0.0
 40
3.499999940395355
 41
0.0
 71
     7
 72
     1
  1
5
  7
Texte de note (ISO)
 73
     1
 44
1.0
  0
MTEXT
  5
155
330
11E
100
AcDbEntity
  8
Cadre (ISO)
100
AcDbMText
 10
104.1897206008434
 20
6.026256136037408
 30
0.0
 40
3.499999940395355
 41
0.0
 71
     7
 72
     1
  1
5
  7
Texte de note (ISO)
 73
     1
 44
1.0
  0
MTEXT
  5
156
330
11E
100
AcDbEntity
  8
Cadre (ISO)
100
AcDbMText
 10
34.02858778834343
 20
287.3262560764327
 30
0.0
 40
3.499999940395355
 41
0.0
 71
     7
 72
     1
  1
6
  7
Texte de note (ISO)
 73
     1
 44
1.0
  0
MTEXT
  5
157
330
11E
100
AcDbEntity
  8
Cadre (ISO)
100
AcDbMText
 10
34.02858778834343
 20
6.026256136037408
 30
0.0
 40
3.499999940395355
 41
0.0
 71
     7
 72
     1
  1
6
  7
Texte de note (ISO)
 73
     1
 44
1.0
  0
LINE
  5
158
330
11E
100
AcDbEntity
  8
Cadre (ISO)
100
AcDbLine
 10
10.0
 20
74.25000190734863
 30
0.0
 11
6.100000143051147
 21
74.25000190734863
 31
0.0
  0
LINE
  5
159
330
11E
100
AcDbEntity
  8
Cadre (ISO)
100
AcDbLine
 10
410.0
 20
74.25000190734863
 30
0.0
 11
413.8999938964843
 21
74.25000190734863
 31
0.0
  0
LINE
  5
15A
330
11E
100
AcDbEntity
  8
Cadre (ISO)
100
AcDbLine
 10
10.0
 20
222.7499961853027
 30
0.0
 11
6.100000143051147
 21
222.7499961853027
 31
0.0
  0
LINE
  5
15B
330
11E
100
AcDbEntity
  8
Cadre (ISO)
100
AcDbLine
 10
410.0
 20
222.7499961853027
 30
0.0
 11
413.8999938964843
 21
222.7499961853027
 31
0.0
  0
MTEXT
  5
15C
330
11E
100
AcDbEntity
  8
Cadre (ISO)
100
AcDbMText
 10
6.344567900896072
 20
35.37500002980233
 30
0.0
 40
3.499999940395355
 41
0.0
 71
     7
 72
     1
  1
A
  7
Texte de note (ISO)
 73
     1
 44
1.0
  0
MTEXT
  5
15D
330
11E
100
AcDbEntity
  8
Cadre (ISO)
100
AcDbMText
 10
410.6445678412914
 20
35.37500002980233
 30
0.0
 40
3.499999940395355
 41
0.0
 71
     7
 72
     1
  1
A
  7
Texte de note (ISO)
 73
     1
 44
1.0
  0
MTEXT
  5
15E
330
11E
100
AcDbEntity
  8
Cadre (ISO)
100
AcDbMText
 10
7.042199140787124
 20
109.6250000298023
 30
0.0
 40
3.499999940395355
 41
0.0
 71
     7
 72
     1
  1
B
  7
Texte de note (ISO)
 73
     1
 44
1.0
  0
MTEXT
  5
15F
330
11E
100
AcDbEntity
  8
Cadre (ISO)
100
AcDbMText
 10
411.3421990811824
 20
109.6250000298023
 30
0.0
 40
3.499999940395355
 41
0.0
 71
     7
 72
     1
  1
B
  7
Texte de note (ISO)
 73
     1
 44
1.0
  0
MTEXT
  5
160
330
11E
100
AcDbEntity
  8
Cadre (ISO)
100
AcDbMText
 10
6.673457390069961
 20
183.8126013241708
 30
0.0
 40
3.499999940395355
 41
0.0
 71
     7
 72
     1
  1
C
  7
Texte de note (ISO)
 73
     1
 44
1.0
  0
MTEXT
  5
161
330
11E
100
AcDbEntity
  8
Cadre (ISO)
100
AcDbMText
 10
410.9734573304653
 20
183.8126013241708
 30
0.0
 40
3.499999940395355
 41
0.0
 71
     7
 72
     1
  1
C
  7
Texte de note (ISO)
 73
     1
 44
1.0
  0
MTEXT
  5
162
330
11E
100
AcDbEntity
  8
Cadre (ISO)
100
AcDbMText
 10
6.828058129549026
 20
258.1250000298023
 30
0.0
 40
3.499999940395355
 41
0.0
 71
     7
 72
     1
  1
D
  7
Texte de note (ISO)
 73
     1
 44
1.0
  0
MTEXT
  5
163
330
11E
100
AcDbEntity
  8
Cadre (ISO)
100
AcDbMText
 10
411.1280580699443
 20
258.1250000298023
 30
0.0
 40
3.499999940395355
 41
0.0
 71
     7
 72
     1
  1
D
  7
Texte de note (ISO)
 73
     1
 44
1.0
  0
ENDBLK
  5
120
330
11E
100
AcDbEntity
  8
0
100
AcDbBlockEnd
  0
BLOCK
  5
166
330
165
100
AcDbEntity
  8
0
100
AcDbBlockBegin
  2
Cartouches Groom
 70
     2
 10
0.0
 20
0.0
 30
0.0
  3
Cartouches Groom
  1

  0
IMAGE
  5
168
330
165
100
AcDbEntity
  8
0
 92
      140
310
8C000000010000008400000006000000050000006EC9DE23D5B35B40C6BB7DBF8B8761400000000000000000ECC8DE23D5B35B4075115C846EC3634000000000000000005AEB4262010B624075115C846EC3634000000000000000009AEB4262010B6240C6BB7DBF8B87614000000000000000006EC9DE23D5B35B40C6BB7D
310
BF8B8761400000000000000000
100
AcDbRasterImage
 90
        0
 10
110.8098840404179
 20
140.2358090835316
 30
0.0
 11
0.1004013020496554
 21
0.0
 31
0.0
 12
-0.0000000000000104
 22
0.1004013020496554
 32
0.0
 13
334.0
 23
178.0
340
16A
 70
     7
280
     0
281
    50
282
    50
283
     0
360
16B
 71
     1
 91
        2
 14
-0.5
 24
-0.5
 14
333.5
 24
177.5
  0
LINE
  5
16C
330
165
100
AcDbEntity
  8
0
  6
Continuous
 62
     7
100
AcDbLine
 10
272.4444576563382
 20
151.1646153831583
 30
0.0
 11
272.4444576563381
 21
158.1646153831583
 31
0.0
  0
LINE
  5
16D
330
165
100
AcDbEntity
  8
0
  6
Continuous
 62
     7
100
AcDbLine
 10
300.4444576563382
 20
196.1646153831583
 30
0.0
 11
110.7044576563382
 21
196.1646153831583
 31
0.0
  0
LINE
  5
16E
330
165
100
AcDbEntity
  8
0
  6
Continuous
 62
     7
100
AcDbLine
 10
300.4444576563382
 20
190.1646153831583
 30
0.0
 11
110.7044576563381
 21
190.1646153831583
 31
0.0
  0
LINE
  5
16F
330
165
100
AcDbEntity
  8
0
  6
Continuous
 62
     7
100
AcDbLine
 10
289.4444576563381
 20
178.1646153831582
 30
0.0
 11
289.4444576563382
 21
208.1646153831584
 31
0.0
  0
LINE
  5
170
330
165
100
AcDbEntity
  8
0
  6
Continuous
 62
     7
100
AcDbLine
 10
137.7044576563381
 20
178.1646153831583
 30
0.0
 11
137.7044576563379
 21
208.1646153831582
 31
0.0
  0
LINE
  5
171
330
165
100
AcDbEntity
  8
0
  6
Continuous
 62
     7
100
AcDbLine
 10
120.7044576563382
 20
178.1646153831583
 30
0.0
 11
120.7044576563381
 21
208.1646153831582
 31
0.0
  0
LINE
  5
172
330
165
100
AcDbEntity
  8
0
  6
Continuous
100
AcDbLine
 10
245.4444576563381
 20
171.4979487164916
 30
0.0
 11
300.4444576563382
 21
171.4979487164916
 31
0.0
  0
LINE
  5
173
330
165
100
AcDbEntity
  8
0
  6
Continuous
100
AcDbLine
 10
245.4444576563381
 20
164.8312820498249
 30
0.0
 11
300.4444576563382
 21
164.8312820498249
 31
0.0
  0
LINE
  5
174
330
165
100
AcDbEntity
  8
0
  6
Continuous
 62
     7
100
AcDbLine
 10
220.4444576563381
 20
151.1646153831583
 30
0.0
 11
300.4444576563382
 21
151.1646153831583
 31
0.0
  0
LINE
  5
175
330
165
100
AcDbEntity
  8
0
  6
Continuous
100
AcDbLine
 10
220.4444576563381
 20
158.1646153831583
 30
0.0
 11
220.4444576563381
 21
140.1646153831583
 31
0.0
  0
LINE
  5
176
330
165
100
AcDbEntity
  8
0
  6
Continuous
 62
     7
100
AcDbLine
 10
110.7044576563382
 20
158.1646153831583
 30
0.0
 11
300.4444576563382
 21
158.1646153831583
 31
0.0
  0
LINE
  5
177
330
165
100
AcDbEntity
  8
0
  6
Continuous
 62
     7
100
AcDbLine
 10
245.4444576563381
 20
178.1646153831583
 30
0.0
 11
245.4444576563381
 21
140.1646153831583
 31
0.0
  0
LINE
  5
178
330
165
100
AcDbEntity
  8
0
  6
Continuous
 62
     7
100
AcDbLine
 10
110.7044576563382
 20
178.1646153831583
 30
0.0
 11
300.4444576563382
 21
178.1646153831582
 31
0.0
  0
LINE
  5
179
330
165
100
AcDbEntity
  8
0
  6
Continuous
 62
     7
100
AcDbLine
 10
300.4444576563382
 20
184.1646153831583
 30
0.0
 11
110.7044576563382
 21
184.1646153831583
 31
0.0
  0
LINE
  5
17A
330
165
100
AcDbEntity
  8
0
  6
Continuous
 62
     7
100
AcDbLine
 10
110.7044576563382
 20
208.1646153831583
 30
0.0
 11
110.7044576563381
 21
140.1646153831583
 31
0.0
  0
LINE
  5
17B
330
165
100
AcDbEntity
  8
0
  6
Continuous
 62
     7
100
AcDbLine
 10
110.4444576563381
 20
140.1646153831582
 30
0.0
 11
300.4444576563382
 21
140.1646153831583
 31
0.0
  0
LINE
  5
17C
330
165
100
AcDbEntity
  8
0
  6
Continuous
 62
     7
100
AcDbLine
 10
300.4444576563382
 20
139.8869525466101
 30
0.0
 11
300.4444576563384
 21
208.1646153831584
 31
0.0
  0
LINE
  5
17D
330
165
100
AcDbEntity
  8
0
100
AcDbLine
 10
300.4444576563383
 20
202.1646153831583
 30
0.0
 11
110.7044576563382
 21
202.1646153831583
 31
0.0
  0
LINE
  5
17E
330
165
100
AcDbEntity
  8
0
100
AcDbLine
 10
110.7044576563382
 20
208.1646153831583
 30
0.0
 11
300.4444576563384
 21
208.1646153831584
 31
0.0
  0
MTEXT
  5
17F
330
165
100
AcDbEntity
  8
Titre (ISO)
100
AcDbMText
 10
277.7307924354409
 20
154.6646153831583
 30
0.0
 40
3.499999940395355
 41
10.57266955820552
 71
     5
 72
     1
  1
\fArial|b0|i0;\H3.5000;Ech:
  7
Texte de note (ISO)
 73
     1
 44
1.0
  0
MTEXT
  5
180
102
{ACAD_XDICTIONARY
360
E65
102
}
330
165
100
AcDbEntity
  8
Titre (ISO)
100
AcDbMText
 10
245.4444576563381
 20
174.8312820498249
 30
0.0
 40
3.499999940395355
 41
55.0
 71
     4
 72
     1
  1
\fArial|b0|i0;\H3.5000; Tol. g\U+00E9n. : +/-0.2
  7
Texte de note (ISO)
 73
     1
 44
1.0
  0
MTEXT
  5
181
102
{ACAD_XDICTIONARY
360
E67
102
}
330
165
100
AcDbEntity
  8
Titre (ISO)
100
AcDbMText
 10
245.4444576563381
 20
168.1646153831582
 30
0.0
 40
3.499999940395355
 41
19.60288265958627
 71
     4
 72
     1
  1
 Mati\U+00E8re:
  7
Texte de note (ISO)
 73
     1
 44
1.0
  0
MTEXT
  5
182
330
165
100
AcDbEntity
  8
Titre (ISO)
100
AcDbMText
 10
245.4444576563381
 20
161.4979487164916
 30
0.0
 40
3.499999940395355
 41
29.92026857253407
 71
     4
 72
     1
  1
\fArial|b0|i0;\H3.5000; Traitement:
  7
Texte de note (ISO)
 73
     1
 44
1.0
  0
MTEXT
  5
183
330
165
100
AcDbEntity
  8
Titre (ISO)
100
AcDbMText
 10
115.7044576563382
 20
181.1646153831583
 30
0.0
 40
3.499999940395355
 41
10.0
 71
     5
 72
     1
  1
\fArial|b0|i0;\H3.5000;Inc.
  7
Texte de note (ISO)
 73
     1
 44
1.0
  0
MTEXT
  5
184
330
165
100
AcDbEntity
  8
Titre (ISO)
100
AcDbMText
 10
129.2044576563382
 20
181.1646153831583
 30
0.0
 40
3.499999940395355
 41
16.99999999999999
 71
     5
 72
     1
  1
\fArial|b0|i0;\H3.5000;Date
  7
Texte de note (ISO)
 73
     1
 44
1.0
  0
MTEXT
  5
185
330
165
100
AcDbEntity
  8
Titre (ISO)
100
AcDbMText
 10
213.6694576563382
 20
181.1646153831583
 30
0.0
 40
3.499999940395355
 41
151.9300000000001
 71
     5
 72
     1
  1
\fArial|b0|i0;\H3.5000;Modifications
  7
Texte de note (ISO)
 73
     1
 44
1.0
  0
MTEXT
  5
186
330
165
100
AcDbEntity
  8
Titre (ISO)
100
AcDbMText
 10
294.9444576563382
 20
181.1646153831583
 30
0.0
 40
3.499999940395355
 41
11.00000000000001
 71
     5
 72
     1
  1
\fArial|b0|i0;\H3.5000;Par
  7
Texte de note (ISO)
 73
     1
 44
1.0
  0
TEXT
  5
187
330
165
100
AcDbEntity
  8
CARTOUCHE
100
AcDbText
 10
160.3377407043086
 20
149.2882988488137
 30
0.0
 40
1.889999955892562
  1
94046 CRETEIL
  7
ARIAL_51
100
AcDbText
  0
TEXT
  5
18A
330
165
100
AcDbEntity
  8
CARTOUCHE
100
AcDbText
 10
152.0235340679694
 20
144.8243084063567
 30
0.0
 40
1.889999955892562
  1
TEL 01 41 94 24 00 - FAX 01 41 94 24 01
  7
ARIAL_51
100
AcDbText
  0
TEXT
  5
18B
330
165
100
AcDbEntity
  8
CARTOUCHE
100
AcDbText
 10
151.2440771958126
 20
153.2326513732303
 30
0.0
 40
1.889999955892562
  1
42, RUE EUGENE DUPUIS, EUROPARC
  7
ARIAL_51
100
AcDbText
  0
ATTDEF
  5
18D
330
165
100
AcDbEntity
  8
Titre (ISO)
100
AcDbText
 10
249.6463666896275
 20
142.664615263949
 30
0.0
 40
6.000000238418579
  1
Ensemble12
  7
Texte de note (ISO)-Arial
 72
     1
 11
272.9444576563381
 21
145.6646153831583
 31
0.0
100
AcDbAttributeDefinition
  3
N° DE PIECE
  2
N°_DE_PIECE
 70
     0
 74
     2
  0
ATTDEF
  5
18E
330
165
100
AcDbEntity
  8
Titre (ISO)
100
AcDbText
 10
229.5310878919688
 20
143.6646153533559
 30
0.0
 40
4.000000059604644
  1
A3
  7
Texte de note (ISO)-Arial
 72
     1
 11
232.9444576563381
 21
145.6646153831583
 31
0.0
100
AcDbAttributeDefinition
  3
Taille de la feuille
  2
Taille_de_la_feuille
 70
     0
 74
     2
  0
ATTDEF
  5
18F
330
165
100
AcDbEntity
  8
Titre (ISO)
100
AcDbText
 10
151.6692734817133
 20
170.6646153831583
 30
0.0
 40
5.0
  1
Mise en applique
  7
Texte de note (ISO)-Arial
 72
     1
 11
178.0744576563381
 21
173.1646153831583
 31
0.0
100
AcDbAttributeDefinition
  3
<Titre 1 ?>
  2
<Titre_1_?>
 70
     0
 74
     2
  0
ATTDEF
  5
190
330
165
100
AcDbEntity
  8
Titre (ISO)
100
AcDbText
 10
146.8227523357378
 20
160.6646153831583
 30
0.0
 40
5.0
  1
verrou avec cylindre
  7
Texte de note (ISO)-Arial
 72
     1
 11
178.0744576563381
 21
163.1646153831583
 31
0.0
100
AcDbAttributeDefinition
  3
<Titre 2 ?>
  2
<Titre_2_?>
 70
     0
 74
     2
  0
ATTDEF
  5
191
330
165
100
AcDbEntity
  8
Titre (ISO)
100
AcDbText
 10
246.7087825577527
 20
152.9146154129606
 30
0.0
 40
3.499999940395355
  1
14/04/2010
  7
Texte de note (ISO)-Arial
 72
     1
 11
258.9444576563382
 21
154.6646153831583
 31
0.0
100
AcDbAttributeDefinition
  3
<Date>
  2
<Date>
 70
     0
 74
     2
  0
ATTDEF
  5
192
330
165
100
AcDbEntity
  8
Titre (ISO)
100
AcDbText
 10
228.0549625145035
 20
152.9146154129606
 30
0.0
 40
3.499999940395355
  1
JME
  7
Texte de note (ISO)-Arial
 72
     1
 11
232.9444576563381
 21
154.6646153831583
 31
0.0
100
AcDbAttributeDefinition
  3
<Dessinateur>
  2
<Dessinateur>
 70
     0
 74
     2
  0
ATTDEF
  5
193
330
165
100
AcDbEntity
  8
Titre (ISO)
100
AcDbText
 10
289.6919111604766
 20
152.9146154129606
 30
0.0
 40
3.499999940395355
  1
.5
  7
Texte de note (ISO)-Arial
 72
     1
 11
291.7307924354409
 21
154.6646153831583
 31
0.0
100
AcDbAttributeDefinition
  3
<Echelle>
  2
<Echelle>
 70
     0
 74
     2
  0
ATTDEF
  5
194
330
165
100
AcDbEntity
  8
Titre (ISO)
100
AcDbText
 10
282.5010829702257
 20
166.9146153831582
 30
0.0
 40
2.5
  1

  7
Texte de note (ISO)-Arial
 72
     1
 11
282.5010829702257
 21
168.1646153831582
 31
0.0
100
AcDbAttributeDefinition
  3
<Matière>
  2
<Matière>
 70
     0
 74
     2
  0
ATTDEF
  5
195
330
165
100
AcDbEntity
  8
Titre (ISO)
100
AcDbText
 10
286.2660724304398
 20
160.2479487164916
 30
0.0
 40
2.5
  1

  7
Texte de note (ISO)-Arial
 72
     1
 11
286.2660724304398
 21
161.4979487164916
 31
0.0
100
AcDbAttributeDefinition
  3
<Traitement>
  2
<Traitement>
 70
     0
 74
     2
  0
ATTDEF
  5
196
330
165
100
AcDbEntity
  8
Titre (ISO)
100
AcDbText
 10
115.7044576563381
 20
185.6646153235536
 30
0.0
 40
3.000000119209289
  1

  7
Texte de note (ISO)-Arial
 72
     1
 11
115.7044576563381
 21
187.1646153831583
 31
0.0
100
AcDbAttributeDefinition
  3
<Ind1>
  2
<Ind1>
 70
     0
 74
     2
  0
ATTDEF
  5
197
330
165
100
AcDbEntity
  8
Titre (ISO)
100
AcDbText
 10
129.2044576563382
 20
185.6646153235536
 30
0.0
 40
3.000000119209289
  1

  7
Texte de note (ISO)-Arial
 72
     1
 11
129.2044576563382
 21
187.1646153831583
 31
0.0
100
AcDbAttributeDefinition
  3
<Date1>
  2
<Date1>
 70
     0
 74
     2
  0
ATTDEF
  5
198
330
165
100
AcDbEntity
  8
Titre (ISO)
100
AcDbText
 10
213.6694576563382
 20
185.6646153235536
 30
0.0
 40
3.000000119209289
  1

  7
Texte de note (ISO)-Arial
 72
     1
 11
213.6694576563382
 21
187.1646153831583
 31
0.0
100
AcDbAttributeDefinition
  3
<Modif1>
  2
<Modif1>
 70
     0
 74
     2
  0
ATTDEF
  5
199
330
165
100
AcDbEntity
  8
Titre (ISO)
100
AcDbText
 10
294.9454576563381
 20
185.6646153235536
 30
0.0
 40
3.000000119209289
  1

  7
Texte de note (ISO)-Arial
 72
     1
 11
294.9454576563381
 21
187.1646153831583
 31
0.0
100
AcDbAttributeDefinition
  3
<Par1>
  2
<Par1>
 70
     0
 74
     2
  0
ATTDEF
  5
19A
330
165
100
AcDbEntity
  8
Titre (ISO)
100
AcDbText
 10
115.7044576563381
 20
191.6646153235537
 30
0.0
 40
3.000000119209289
  1

  7
Texte de note (ISO)-Arial
 72
     1
 11
115.7044576563381
 21
193.1646153831583
 31
0.0
100
AcDbAttributeDefinition
  3
<Ind2>
  2
<Ind2>
 70
     0
 74
     2
  0
ATTDEF
  5
19B
330
165
100
AcDbEntity
  8
Titre (ISO)
100
AcDbText
 10
129.2044576563382
 20
191.6646153235537
 30
0.0
 40
3.000000119209289
  1

  7
Texte de note (ISO)-Arial
 72
     1
 11
129.2044576563382
 21
193.1646153831583
 31
0.0
100
AcDbAttributeDefinition
  3
<Date2>
  2
<Date2>
 70
     0
 74
     2
  0
ATTDEF
  5
19C
330
165
100
AcDbEntity
  8
Titre (ISO)
100
AcDbText
 10
213.7054576563381
 20
191.6646153235536
 30
0.0
 40
3.000000119209289
  1

  7
Texte de note (ISO)-Arial
 72
     1
 11
213.7054576563381
 21
193.1646153831582
 31
0.0
100
AcDbAttributeDefinition
  3
<Modif2>
  2
<Modif2>
 70
     0
 74
     2
  0
ATTDEF
  5
19D
330
165
100
AcDbEntity
  8
Titre (ISO)
100
AcDbText
 10
294.9444576563382
 20
191.6646153235537
 30
0.0
 40
3.000000119209289
  1

  7
Texte de note (ISO)-Arial
 72
     1
 11
294.9444576563382
 21
193.1646153831583
 31
0.0
100
AcDbAttributeDefinition
  3
<Par2>
  2
<Par2>
 70
     0
 74
     2
  0
ATTDEF
  5
19E
330
165
100
AcDbEntity
  8
Titre (ISO)
100
AcDbText
 10
115.7021584057951
 20
197.664846366591
 30
0.0
 40
3.000000119209289
  1

  7
Texte de note (ISO)-Arial
 72
     1
 11
115.7021584057951
 21
199.1648464261957
 31
0.0
100
AcDbAttributeDefinition
  3
<Ind3>
  2
<Ind3>
 70
     0
 74
     2
  0
ATTDEF
  5
19F
330
165
100
AcDbEntity
  8
Titre (ISO)
100
AcDbText
 10
115.7008716550423
 20
203.667947930586
 30
0.0
 40
3.000000119209289
  1

  7
Texte de note (ISO)-Arial
 72
     1
 11
115.7008716550423
 21
205.1679479901906
 31
0.0
100
AcDbAttributeDefinition
  3
<Ind4>
  2
<Ind4>
 70
     0
 74
     2
  0
ATTDEF
  5
1A0
330
165
100
AcDbEntity
  8
Titre (ISO)
100
AcDbText
 10
129.204775059883
 20
197.6651397005693
 30
0.0
 40
3.000000119209289
  1

  7
Texte de note (ISO)-Arial
 72
     1
 11
129.204775059883
 21
199.1651397601739
 31
0.0
100
AcDbAttributeDefinition
  3
<Date3>
  2
<Date3>
 70
     0
 74
     2
  0
ATTDEF
  5
1A1
330
165
100
AcDbEntity
  8
Titre (ISO)
100
AcDbText
 10
129.204775059883
 20
203.667947930586
 30
0.0
 40
3.000000119209289
  1

  7
Texte de note (ISO)-Arial
 72
     1
 11
129.204775059883
 21
205.1679479901906
 31
0.0
100
AcDbAttributeDefinition
  3
<Date4>
  2
<Date4>
 70
     0
 74
     2
  0
ATTDEF
  5
1A2
330
165
100
AcDbEntity
  8
Titre (ISO)
100
AcDbText
 10
213.5845361249312
 20
197.6676997538841
 30
0.0
 40
3.000000119209289
  1

  7
Texte de note (ISO)-Arial
 72
     1
 11
213.5845361249312
 21
199.1676998134887
 31
0.0
100
AcDbAttributeDefinition
  3
<Modif3>
  2
<Modif3>
 70
     0
 74
     2
  0
ATTDEF
  5
1A3
330
165
100
AcDbEntity
  8
Titre (ISO)
100
AcDbText
 10
213.5707593562193
 20
203.6629994697872
 30
0.0
 40
3.000000119209289
  1

  7
Texte de note (ISO)-Arial
 72
     1
 11
213.5707593562193
 21
205.1629995293918
 31
0.0
100
AcDbAttributeDefinition
  3
<Modif4>
  2
<Modif4>
 70
     0
 74
     2
  0
ATTDEF
  5
1A4
330
165
100
AcDbEntity
  8
Titre (ISO)
100
AcDbText
 10
294.938417652361
 20
197.661611630379
 30
0.0
 40
3.000000119209289
  1

  7
Texte de note (ISO)-Arial
 72
     1
 11
294.938417652361
 21
199.1616116899836
 31
0.0
100
AcDbAttributeDefinition
  3
<Par3>
  2
<Par3>
 70
     0
 74
     2
  0
ATTDEF
  5
1A5
330
165
100
AcDbEntity
  8
Titre (ISO)
100
AcDbText
 10
294.9493452652637
 20
203.6691620517382
 30
0.0
 40
3.000000119209289
  1

  7
Texte de note (ISO)-Arial
 72
     1
 11
294.9493452652637
 21
205.1691621113429
 31
0.0
100
AcDbAttributeDefinition
  3
<Par4>
  2
<Par4>
 70
     0
 74
     2
  0
ENDBLK
  5
167
330
165
100
AcDbEntity
  8
0
100
AcDbBlockEnd
  0
BLOCK
  5
4C2
330
4C1
100
AcDbEntity
  8
0
100
AcDbBlockBegin
  2
*D8
 70
     1
 10
0.0
 20
0.0
 30
0.0
  3
*D8
  1

  0
LINE
  5
589
330
4C1
100
AcDbEntity
  8
Cote (ISO)
 62
   150
420
    33023
100
AcDbLine
 10
249.8623923328832
 20
321.8695408201351
 30
0.0
 11
249.8623923328832
 21
293.1640739779693
 31
0.0
  0
LINE
  5
58A
330
4C1
100
AcDbEntity
  8
Cote (ISO)
 62
   150
420
    33023
100
AcDbLine
 10
287.8623923328833
 20
324.869540820135
 30
0.0
 11
287.8623923328833
 21
293.1640739779693
 31
0.0
  0
LINE
  5
58B
330
4C1
100
AcDbEntity
  8
Cote (ISO)
 62
   150
420
    33023
100
AcDbLine
 10
254.8623923328832
 20
298.1640739779694
 30
0.0
 11
282.8623923328833
 21
298.1640739779694
 31
0.0
  0
INSERT
  5
58C
330
4C1
100
AcDbEntity
  8
Cote (ISO)
 62
   150
420
    33023
100
AcDbBlockReference
  2
_Closed
 10
249.8623923328832
 20
298.1640739779694
 30
0.0
 41
5.0
 42
5.0
 43
5.0
 50
180.0
  0
INSERT
  5
58D
330
4C1
100
AcDbEntity
  8
Cote (ISO)
 62
   150
420
    33023
100
AcDbBlockReference
  2
_Closed
 10
287.8623923328833
 20
298.1640739779694
 30
0.0
 41
5.0
 42
5.0
 43
5.0
  0
MTEXT
  5
58E
330
4C1
100
AcDbEntity
  8
Cote (ISO)
100
AcDbMText
 10
264.0084635216005
 20
306.4837516139667
 30
0.0
 40
7.0
 41
0.0
 71
     1
 72
     1
  1
\A1;38
  7
Texte de note (ISO)
 73
     1
 44
1.0
  0
POINT
  5
58F
330
4C1
100
AcDbEntity
  8
Defpoints
 62
     0
100
AcDbPoint
 10
249.8623923328832
 20
323.8695408201351
 30
0.0
  0
POINT
  5
590
330
4C1
100
AcDbEntity
  8
Defpoints
 62
     0
100
AcDbPoint
 10
287.8623923328833
 20
326.869540820135
 30
0.0
  0
POINT
  5
591
330
4C1
100
AcDbEntity
  8
Defpoints
 62
     0
100
AcDbPoint
 10
287.8623923328833
 20
298.1640739779694
 30
0.0
  0
ENDBLK
  5
4C3
330
4C1
100
AcDbEntity
  8
0
100
AcDbBlockEnd
  0
BLOCK
  5
594
330
593
100
AcDbEntity
  8
0
100
AcDbBlockBegin
  2
*D9
 70
     1
 10
0.0
 20
0.0
 30
0.0
  3
*D9
  1

  0
LINE
  5
65B
330
593
100
AcDbEntity
  8
Cote (ISO)
 62
   150
420
    33023
100
AcDbLine
 10
287.8623923328833
 20
324.869540820135
 30
0.0
 11
287.8623923328833
 21
293.1640739779693
 31
0.0
  0
LINE
  5
65C
330
593
100
AcDbEntity
  8
Cote (ISO)
 62
   150
420
    33023
100
AcDbLine
 10
325.8623923328835
 20
321.8695408201351
 30
0.0
 11
325.8623923328835
 21
293.1640739779693
 31
0.0
  0
LINE
  5
65D
330
593
100
AcDbEntity
  8
Cote (ISO)
 62
   150
420
    33023
100
AcDbLine
 10
292.8623923328833
 20
298.1640739779694
 30
0.0
 11
320.8623923328835
 21
298.1640739779694
 31
0.0
  0
INSERT
  5
65E
330
593
100
AcDbEntity
  8
Cote (ISO)
 62
   150
420
    33023
100
AcDbBlockReference
  2
_Closed
 10
287.8623923328833
 20
298.1640739779694
 30
0.0
 41
5.0
 42
5.0
 43
5.0
 50
180.0
  0
INSERT
  5
65F
330
593
100
AcDbEntity
  8
Cote (ISO)
 62
   150
420
    33023
100
AcDbBlockReference
  2
_Closed
 10
325.8623923328835
 20
298.1640739779694
 30
0.0
 41
5.0
 42
5.0
 43
5.0
  0
MTEXT
  5
660
330
593
100
AcDbEntity
  8
Cote (ISO)
100
AcDbMText
 10
302.0084635216007
 20
306.4837516139667
 30
0.0
 40
7.0
 41
0.0
 71
     1
 72
     1
  1
\A1;38
  7
Texte de note (ISO)
 73
     1
 44
1.0
  0
POINT
  5
661
330
593
100
AcDbEntity
  8
Defpoints
 62
     0
100
AcDbPoint
 10
287.8623923328833
 20
326.869540820135
 30
0.0
  0
POINT
  5
662
330
593
100
AcDbEntity
  8
Defpoints
 62
     0
100
AcDbPoint
 10
325.8623923328835
 20
323.8695408201351
 30
0.0
  0
POINT
  5
663
330
593
100
AcDbEntity
  8
Defpoints
 62
     0
100
AcDbPoint
 10
325.8623923328835
 20
298.1640739779694
 30
0.0
  0
ENDBLK
  5
595
330
593
100
AcDbEntity
  8
0
100
AcDbBlockEnd
  0
BLOCK
  5
666
330
665
100
AcDbEntity
  8
0
100
AcDbBlockBegin
  2
*D10
 70
     1
 10
0.0
 20
0.0
 30
0.0
  3
*D10
  1

  0
LINE
  5
72D
330
665
100
AcDbEntity
  8
Cote (ISO)
 62
   150
420
    33023
100
AcDbLine
 10
549.3623923328843
 20
321.8695408201341
 30
0.0
 11
549.3623923328843
 21
293.1640739779693
 31
0.0
  0
LINE
  5
72E
330
665
100
AcDbEntity
  8
Cote (ISO)
 62
   150
420
    33023
100
AcDbLine
 10
587.3623923328847
 20
324.869540820134
 30
0.0
 11
587.3623923328847
 21
293.1640739779693
 31
0.0
  0
LINE
  5
72F
330
665
100
AcDbEntity
  8
Cote (ISO)
 62
   150
420
    33023
100
AcDbLine
 10
554.3623923328843
 20
298.1640739779694
 30
0.0
 11
582.3623923328847
 21
298.1640739779694
 31
0.0
  0
INSERT
  5
730
330
665
100
AcDbEntity
  8
Cote (ISO)
 62
   150
420
    33023
100
AcDbBlockReference
  2
_Closed
 10
549.3623923328843
 20
298.1640739779694
 30
0.0
 41
5.0
 42
5.0
 43
5.0
 50
180.0
  0
INSERT
  5
731
330
665
100
AcDbEntity
  8
Cote (ISO)
 62
   150
420
    33023
100
AcDbBlockReference
  2
_Closed
 10
587.3623923328847
 20
298.1640739779694
 30
0.0
 41
5.0
 42
5.0
 43
5.0
  0
MTEXT
  5
732
330
665
100
AcDbEntity
  8
Cote (ISO)
100
AcDbMText
 10
563.5084635216018
 20
306.4837516139667
 30
0.0
 40
7.0
 41
0.0
 71
     1
 72
     1
  1
\A1;38
  7
Texte de note (ISO)
 73
     1
 44
1.0
  0
POINT
  5
733
330
665
100
AcDbEntity
  8
Defpoints
 62
     0
100
AcDbPoint
 10
549.3623923328843
 20
323.8695408201341
 30
0.0
  0
POINT
  5
734
330
665
100
AcDbEntity
  8
Defpoints
 62
     0
100
AcDbPoint
 10
587.3623923328847
 20
326.869540820134
 30
0.0
  0
POINT
  5
735
330
665
100
AcDbEntity
  8
Defpoints
 62
     0
100
AcDbPoint
 10
587.3623923328847
 20
298.1640739779694
 30
0.0
  0
ENDBLK
  5
667
330
665
100
AcDbEntity
  8
0
100
AcDbBlockEnd
  0
BLOCK
  5
738
330
737
100
AcDbEntity
  8
0
100
AcDbBlockBegin
  2
*D11
 70
     1
 10
0.0
 20
0.0
 30
0.0
  3
*D11
  1

  0
LINE
  5
7FF
330
737
100
AcDbEntity
  8
Cote (ISO)
 62
   150
420
    33023
100
AcDbLine
 10
587.3623923328847
 20
324.869540820134
 30
0.0
 11
587.3623923328847
 21
293.1640739779693
 31
0.0
  0
LINE
  5
800
330
737
100
AcDbEntity
  8
Cote (ISO)
 62
   150
420
    33023
100
AcDbLine
 10
625.3623923328847
 20
321.8695408201337
 30
0.0
 11
625.3623923328847
 21
293.1640739779693
 31
0.0
  0
LINE
  5
801
330
737
100
AcDbEntity
  8
Cote (ISO)
 62
   150
420
    33023
100
AcDbLine
 10
592.3623923328847
 20
298.1640739779694
 30
0.0
 11
620.3623923328847
 21
298.1640739779694
 31
0.0
  0
INSERT
  5
802
330
737
100
AcDbEntity
  8
Cote (ISO)
 62
   150
420
    33023
100
AcDbBlockReference
  2
_Closed
 10
587.3623923328847
 20
298.1640739779694
 30
0.0
 41
5.0
 42
5.0
 43
5.0
 50
180.0
  0
INSERT
  5
803
330
737
100
AcDbEntity
  8
Cote (ISO)
 62
   150
420
    33023
100
AcDbBlockReference
  2
_Closed
 10
625.3623923328847
 20
298.1640739779694
 30
0.0
 41
5.0
 42
5.0
 43
5.0
  0
MTEXT
  5
804
330
737
100
AcDbEntity
  8
Cote (ISO)
100
AcDbMText
 10
601.5084635216021
 20
306.4837516139667
 30
0.0
 40
7.0
 41
0.0
 71
     1
 72
     1
  1
\A1;38
  7
Texte de note (ISO)
 73
     1
 44
1.0
  0
POINT
  5
805
330
737
100
AcDbEntity
  8
Defpoints
 62
     0
100
AcDbPoint
 10
587.3623923328847
 20
326.869540820134
 30
0.0
  0
POINT
  5
806
330
737
100
AcDbEntity
  8
Defpoints
 62
     0
100
AcDbPoint
 10
625.3623923328847
 20
323.8695408201337
 30
0.0
  0
POINT
  5
807
330
737
100
AcDbEntity
  8
Defpoints
 62
     0
100
AcDbPoint
 10
625.3623923328847
 20
298.1640739779694
 30
0.0
  0
ENDBLK
  5
739
330
737
100
AcDbEntity
  8
0
100
AcDbBlockEnd
  0
BLOCK
  5
80A
330
809
100
AcDbEntity
  8
0
100
AcDbBlockBegin
  2
*D12
 70
     1
 10
0.0
 20
0.0
 30
0.0
  3
*D12
  1

  0
LINE
  5
8D1
330
809
100
AcDbEntity
  8
Cote (ISO)
 62
   150
420
    33023
100
AcDbLine
 10
437.6123923328935
 20
389.8695408201338
 30
0.0
 11
437.6123923328935
 21
432.0668816668527
 31
0.0
  0
LINE
  5
8D2
330
809
100
AcDbEntity
  8
Cote (ISO)
 62
   150
420
    33023
100
AcDbLine
 10
545.1123923328908
 20
386.8695408201343
 30
0.0
 11
545.1123923328908
 21
432.0668816668527
 31
0.0
  0
LINE
  5
8D3
330
809
100
AcDbEntity
  8
Cote (ISO)
 62
   150
420
    33023
100
AcDbLine
 10
442.6123923328936
 20
427.0668816668527
 30
0.0
 11
540.1123923328908
 21
427.0668816668527
 31
0.0
  0
INSERT
  5
8D4
330
809
100
AcDbEntity
  8
Cote (ISO)
 62
   150
420
    33023
100
AcDbBlockReference
  2
_Closed
 10
437.6123923328935
 20
427.0668816668527
 30
0.0
 41
5.0
 42
5.0
 43
5.0
 50
180.0
  0
INSERT
  5
8D5
330
809
100
AcDbEntity
  8
Cote (ISO)
 62
   150
420
    33023
100
AcDbBlockReference
  2
_Closed
 10
545.1123923328908
 20
427.0668816668527
 30
0.0
 41
5.0
 42
5.0
 43
5.0
  0
MTEXT
  5
8D6
330
809
100
AcDbEntity
  8
Cote (ISO)
100
AcDbMText
 10
480.1760256438392
 20
436.9473383491898
 30
0.0
 40
7.0
 41
0.0
 71
     1
 72
     1
  1
\A1;107,5
  7
Texte de note (ISO)
 73
     1
 44
1.0
  0
POINT
  5
8D7
330
809
100
AcDbEntity
  8
Defpoints
 62
     0
100
AcDbPoint
 10
437.6123923328935
 20
387.8695408201338
 30
0.0
  0
POINT
  5
8D8
330
809
100
AcDbEntity
  8
Defpoints
 62
     0
100
AcDbPoint
 10
545.1123923328908
 20
384.8695408201343
 30
0.0
  0
POINT
  5
8D9
330
809
100
AcDbEntity
  8
Defpoints
 62
     0
100
AcDbPoint
 10
545.1123923328908
 20
427.0668816668527
 30
0.0
  0
ENDBLK
  5
80B
330
809
100
AcDbEntity
  8
0
100
AcDbBlockEnd
  0
BLOCK
  5
8DC
330
8DB
100
AcDbEntity
  8
0
100
AcDbBlockBegin
  2
*D13
 70
     1
 10
0.0
 20
0.0
 30
0.0
  3
*D13
  1

  0
LINE
  5
9A3
330
8DB
100
AcDbEntity
  8
Cote (ISO)
 62
   150
420
    33023
100
AcDbLine
 10
545.1123923328908
 20
386.8695408201343
 30
0.0
 11
545.1123923328908
 21
432.0668816668527
 31
0.0
  0
LINE
  5
9A4
330
8DB
100
AcDbEntity
  8
Cote (ISO)
 62
   150
420
    33023
100
AcDbLine
 10
631.1123923328888
 20
389.8695408201345
 30
0.0
 11
631.1123923328888
 21
432.0668816668527
 31
0.0
  0
LINE
  5
9A5
330
8DB
100
AcDbEntity
  8
Cote (ISO)
 62
   150
420
    33023
100
AcDbLine
 10
550.1123923328909
 20
427.0668816668527
 30
0.0
 11
626.1123923328888
 21
427.0668816668527
 31
0.0
  0
INSERT
  5
9A6
330
8DB
100
AcDbEntity
  8
Cote (ISO)
 62
   150
420
    33023
100
AcDbBlockReference
  2
_Closed
 10
545.1123923328908
 20
427.0668816668527
 30
0.0
 41
5.0
 42
5.0
 43
5.0
 50
180.0
  0
INSERT
  5
9A7
330
8DB
100
AcDbEntity
  8
Cote (ISO)
 62
   150
420
    33023
100
AcDbBlockReference
  2
_Closed
 10
631.1123923328888
 20
427.0668816668527
 30
0.0
 41
5.0
 42
5.0
 43
5.0
  0
MTEXT
  5
9A8
330
8DB
100
AcDbEntity
  8
Cote (ISO)
100
AcDbMText
 10
583.1879463960194
 20
435.38655930285
 30
0.0
 40
7.0
 41
0.0
 71
     1
 72
     1
  1
\A1;86
  7
Texte de note (ISO)
 73
     1
 44
1.0
  0
POINT
  5
9A9
330
8DB
100
AcDbEntity
  8
Defpoints
 62
     0
100
AcDbPoint
 10
545.1123923328908
 20
384.8695408201343
 30
0.0
  0
POINT
  5
9AA
330
8DB
100
AcDbEntity
  8
Defpoints
 62
     0
100
AcDbPoint
 10
631.1123923328888
 20
387.8695408201345
 30
0.0
  0
POINT
  5
9AB
330
8DB
100
AcDbEntity
  8
Defpoints
 62
     0
100
AcDbPoint
 10
631.1123923328888
 20
427.0668816668527
 30
0.0
  0
ENDBLK
  5
8DD
330
8DB
100
AcDbEntity
  8
0
100
AcDbBlockEnd
  0
BLOCK
  5
9AE
330
9AD
100
AcDbEntity
  8
0
100
AcDbBlockBegin
  2
*D14
 70
     1
 10
0.0
 20
0.0
 30
0.0
  3
*D14
  1

  0
LINE
  5
A75
330
9AD
100
AcDbEntity
  8
Cote (ISO)
 62
   150
420
    33023
100
AcDbLine
 10
631.1123923328888
 20
389.8695408201345
 30
0.0
 11
631.1123923328888
 21
432.0668816668527
 31
0.0
  0
LINE
  5
A76
330
9AD
100
AcDbEntity
  8
Cote (ISO)
 62
   150
420
    33023
100
AcDbLine
 10
721.1150330200058
 20
383.8694001330157
 30
0.0
 11
721.1150330200058
 21
432.0668816668527
 31
0.0
  0
LINE
  5
A77
330
9AD
100
AcDbEntity
  8
Cote (ISO)
 62
   150
420
    33023
100
AcDbLine
 10
636.1123923328888
 20
427.0668816668527
 30
0.0
 11
716.1150330200058
 21
427.0668816668527
 31
0.0
  0
INSERT
  5
A78
330
9AD
100
AcDbEntity
  8
Cote (ISO)
 62
   150
420
    33023
100
AcDbBlockReference
  2
_Closed
 10
631.1123923328888
 20
427.0668816668527
 30
0.0
 41
5.0
 42
5.0
 43
5.0
 50
180.0
  0
INSERT
  5
A79
330
9AD
100
AcDbEntity
  8
Cote (ISO)
 62
   150
420
    33023
100
AcDbBlockReference
  2
_Closed
 10
721.1150330200058
 20
427.0668816668527
 30
0.0
 41
5.0
 42
5.0
 43
5.0
  0
MTEXT
  5
A7A
330
9AD
100
AcDbEntity
  8
Cote (ISO)
100
AcDbMText
 10
671.210421877253
 20
435.3536513109092
 30
0.0
 40
7.0
 41
0.0
 71
     1
 72
     1
  1
\A1;90
  7
Texte de note (ISO)
 73
     1
 44
1.0
  0
POINT
  5
A7B
330
9AD
100
AcDbEntity
  8
Defpoints
 62
     0
100
AcDbPoint
 10
631.1123923328888
 20
387.8695408201345
 30
0.0
  0
POINT
  5
A7C
330
9AD
100
AcDbEntity
  8
Defpoints
 62
     0
100
AcDbPoint
 10
721.1150330200058
 20
381.8694001330157
 30
0.0
  0
POINT
  5
A7D
330
9AD
100
AcDbEntity
  8
Defpoints
 62
     0
100
AcDbPoint
 10
721.1150330200058
 20
427.0668816668527
 30
0.0
  0
ENDBLK
  5
9AF
330
9AD
100
AcDbEntity
  8
0
100
AcDbBlockEnd
  0
BLOCK
  5
A80
330
A7F
100
AcDbEntity
  8
0
100
AcDbBlockBegin
  2
*D15
 70
     1
 10
0.0
 20
0.0
 30
0.0
  3
*D15
  1

  0
LINE
  5
B47
330
A7F
100
AcDbEntity
  8
Cote (ISO)
 62
   150
420
    33023
100
AcDbLine
 10
721.1150330200058
 20
383.8694001330157
 30
0.0
 11
721.1150330200058
 21
432.0668816668527
 31
0.0
  0
LINE
  5
B48
330
A7F
100
AcDbEntity
  8
Cote (ISO)
 62
   150
420
    33023
100
AcDbLine
 10
751.1123923328859
 20
383.8695408201351
 30
0.0
 11
751.1123923328859
 21
432.0668816668527
 31
0.0
  0
LINE
  5
B49
330
A7F
100
AcDbEntity
  8
Cote (ISO)
 62
   150
420
    33023
100
AcDbLine
 10
726.1150330200059
 20
427.0668816668527
 30
0.0
 11
746.1123923328858
 21
427.0668816668527
 31
0.0
  0
INSERT
  5
B4A
330
A7F
100
AcDbEntity
  8
Cote (ISO)
 62
   150
420
    33023
100
AcDbBlockReference
  2
_Closed
 10
721.1150330200058
 20
427.0668816668527
 30
0.0
 41
5.0
 42
5.0
 43
5.0
 50
180.0
  0
INSERT
  5
B4B
330
A7F
100
AcDbEntity
  8
Cote (ISO)
 62
   150
420
    33023
100
AcDbBlockReference
  2
_Closed
 10
751.1123923328859
 20
427.0668816668527
 30
0.0
 41
5.0
 42
5.0
 43
5.0
  0
MTEXT
  5
B4C
330
A7F
100
AcDbEntity
  8
Cote (ISO)
100
AcDbMText
 10
731.2809390028394
 20
435.358352452615
 30
0.0
 40
7.0
 41
0.0
 71
     1
 72
     1
  1
\A1;30
  7
Texte de note (ISO)
 73
     1
 44
1.0
  0
POINT
  5
B4D
330
A7F
100
AcDbEntity
  8
Defpoints
 62
     0
100
AcDbPoint
 10
721.1150330200058
 20
381.8694001330157
 30
0.0
  0
POINT
  5
B4E
330
A7F
100
AcDbEntity
  8
Defpoints
 62
     0
100
AcDbPoint
 10
751.1123923328859
 20
381.869540820135
 30
0.0
  0
POINT
  5
B4F
330
A7F
100
AcDbEntity
  8
Defpoints
 62
     0
100
AcDbPoint
 10
751.1123923328859
 20
427.0668816668527
 30
0.0
  0
ENDBLK
  5
A81
330
A7F
100
AcDbEntity
  8
0
100
AcDbBlockEnd
  0
BLOCK
  5
B54
330
B53
100
AcDbEntity
  8
0
100
AcDbBlockBegin
  2
*D16
 70
     1
 10
0.0
 20
0.0
 30
0.0
  3
*D16
  1

  0
LINE
  5
C1B
330
B53
100
AcDbEntity
  8
Cote (ISO)
 62
   150
420
    33023
100
AcDbLine
 10
575.0968965367486
 20
489.095485499045
 30
0.0
 11
575.0968965367486
 21
466.1145771970828
 31
0.0
  0
LINE
  5
C1C
330
B53
100
AcDbEntity
  8
Cote (ISO)
 62
   150
420
    33023
100
AcDbLine
 10
300.0968965367522
 20
489.1145771970827
 30
0.0
 11
300.0968965367522
 21
466.1145771970828
 31
0.0
  0
LINE
  5
C1D
330
B53
100
AcDbEntity
  8
Cote (ISO)
 62
   150
420
    33023
100
AcDbLine
 10
570.0968965367486
 20
471.1145771970827
 30
0.0
 11
305.0968965367522
 21
471.1145771970827
 31
0.0
  0
INSERT
  5
C1E
330
B53
100
AcDbEntity
  8
Cote (ISO)
 62
   150
420
    33023
100
AcDbBlockReference
  2
_Closed
 10
575.0968965367486
 20
471.1145771970827
 30
0.0
 41
5.0
 42
5.0
 43
5.0
  0
INSERT
  5
C1F
330
B53
100
AcDbEntity
  8
Cote (ISO)
 62
   150
420
    33023
100
AcDbBlockReference
  2
_Closed
 10
300.0968965367522
 20
471.1145771970827
 30
0.0
 41
5.0
 42
5.0
 43
5.0
 50
180.0
  0
MTEXT
  5
C20
330
B53
100
AcDbEntity
  8
Cote (ISO)
100
AcDbMText
 10
430.220805200283
 20
479.406047982845
 30
0.0
 40
7.0
 41
0.0
 71
     1
 72
     1
  1
\A1;275
  7
Texte de note (ISO)
 73
     1
 44
1.0
  0
POINT
  5
C21
330
B53
100
AcDbEntity
  8
Defpoints
 62
     0
100
AcDbPoint
 10
575.0968965367486
 20
491.0954854990451
 30
0.0
  0
POINT
  5
C22
330
B53
100
AcDbEntity
  8
Defpoints
 62
     0
100
AcDbPoint
 10
300.0968965367522
 20
491.1145771970828
 30
0.0
  0
POINT
  5
C23
330
B53
100
AcDbEntity
  8
Defpoints
 62
     0
100
AcDbPoint
 10
300.0968965367522
 20
471.1145771970827
 30
0.0
  0
ENDBLK
  5
B55
330
B53
100
AcDbEntity
  8
0
100
AcDbBlockEnd
  0
BLOCK
  5
D6B
330
D6A
100
AcDbEntity
  8
0
100
AcDbBlockBegin
  2
*D17
 70
     1
 10
0.0
 20
0.0
 30
0.0
  3
*D17
  1

  0
LINE
  5
E4A
330
D6A
100
AcDbEntity
  8
Cote (ISO)
 62
   150
420
    33023
100
AcDbLine
 10
411.2987801954187
 20
355.8695408201343
 30
0.0
 11
411.2987801954187
 21
334.8695408201367
 31
0.0
  0
LINE
  5
E4B
330
D6A
100
AcDbEntity
  8
Cote (ISO)
 62
   150
420
    33023
100
AcDbLine
 10
427.5741327810467
 20
366.6669494119099
 30
0.0
 11
411.2987801954187
 21
366.6669494119099
 31
0.0
  0
LINE
  5
E4C
330
D6A
100
AcDbEntity
  8
Cote (ISO)
 62
   150
420
    33023
100
AcDbLine
 10
411.2987801954187
 20
366.6669494119099
 30
0.0
 11
411.2987801954187
 21
360.8695408201342
 31
0.0
  0
MTEXT
  5
E4D
330
D6A
100
AcDbEntity
  8
Cote (ISO)
100
AcDbMText
 10
417.2987801954187
 20
374.9584201976722
 30
0.0
 40
7.0
 41
0.0
 71
     1
 72
     1
  1
\A1;31
  7
Texte de note (ISO)
 73
     1
 44
1.0
  0
INSERT
  5
E4E
330
D6A
100
AcDbEntity
  8
Cote (ISO)
 62
   150
420
    33023
100
AcDbBlockReference
  2
_Closed
 10
411.2987801954187
 20
360.8695408201342
 30
0.0
 41
5.0
 42
5.0
 43
5.0
 50
90.0
  0
INSERT
  5
E4F
330
D6A
100
AcDbEntity
  8
Cote (ISO)
 62
   150
420
    33023
100
AcDbBlockReference
  2
_Closed
 10
411.2987801954187
 20
329.8695408201366
 30
0.0
 41
5.0
 42
5.0
 43
5.0
 50
270.0
  0
POINT
  5
E50
330
D6A
100
AcDbEntity
  8
Defpoints
 62
     0
100
AcDbPoint
 10
411.2987801954188
 20
360.8695408201342
 30
0.0
  0
POINT
  5
E51
330
D6A
100
AcDbEntity
  8
Defpoints
 62
     0
100
AcDbPoint
 10
411.2987801954187
 20
329.8695408201366
 30
0.0
  0
POINT
  5
E52
330
D6A
100
AcDbEntity
  8
Defpoints
 62
     0
100
AcDbPoint
 10
411.2987801954187
 20
329.8695408201366
 30
0.0
  0
ENDBLK
  5
D6C
330
D6A
100
AcDbEntity
  8
0
100
AcDbBlockEnd
  0
ENDSEC
  0
SECTION
  2
ENTITIES
  0
INSERT
  5
164
330
75
100
AcDbEntity
  8
0
100
AcDbBlockReference
  2
Cadres Default Border
 10
0.0
 20
0.0
 30
0.0
 41
2.0
 42
2.0
 43
2.0
  0
INSERT
  5
1A6
330
75
100
AcDbEntity
  8
0
100
AcDbBlockReference
 66
     1
  2
Cartouches Groom
 10
219.1110846873232
 20
-259.7739050932201
 30
0.0
 41
2.0
 42
2.0
 43
2.0
  0
ATTRIB
  5
1A8
330
1A6
100
AcDbEntity
  8
Titre (ISO)
100
AcDbText
 10
718.4038180665782
 20
25.55532543467788
 30
0.0
 40
12.00000047683716
  1
Ensemble12
  7
Texte de note (ISO)-Arial
 72
     1
 11
764.9999999999995
 21
31.55532567309645
 31
0.0
100
AcDbAttribute
  2
N°_DE_PIECE
 70
     0
 74
     2
  0
ATTRIB
  5
1A9
330
1A6
100
AcDbEntity
  8
Titre (ISO)
100
AcDbText
 10
678.1732604712609
 20
27.55532561349177
 30
0.0
 40
8.000000119209289
  1
A3
  7
Texte de note (ISO)-Arial
 72
     1
 11
684.9999999999995
 21
31.55532567309642
 31
0.0
100
AcDbAttribute
  2
Taille_de_la_feuille
 70
     0
 74
     2
  0
ATTRIB
  5
1AA
330
1A6
100
AcDbEntity
  8
Titre (ISO)
100
AcDbText
 10
522.4496316507498
 20
81.55532567309652
 30
0.0
 40
10.0
  1
Mise en applique
  7
Texte de note (ISO)-Arial
 72
     1
 11
575.2599999999995
 21
86.55532567309652
 31
0.0
100
AcDbAttribute
  2
<Titre_1_?>
 70
     0
 74
     2
  0
ATTRIB
  5
1AB
330
1A6
100
AcDbEntity
  8
Titre (ISO)
100
AcDbText
 10
512.756589358799
 20
61.55532567309646
 30
0.0
 40
10.0
  1
verrou avec cylindre
  7
Texte de note (ISO)-Arial
 72
     1
 11
575.2599999999995
 21
66.55532567309646
 31
0.0
100
AcDbAttribute
  2
<Titre_2_?>
 70
     0
 74
     2
  0
ATTRIB
  5
1AC
330
1A6
100
AcDbEntity
  8
Titre (ISO)
100
AcDbText
 10
712.5286498028287
 20
46.05532573270107
 30
0.0
 40
6.99999988079071
  1
14/04/2010
  7
Texte de note (ISO)-Arial
 72
     1
 11
736.9999999999995
 21
49.55532567309642
 31
0.0
100
AcDbAttribute
  2
<Date>
 70
     0
 74
     2
  0
ATTRIB
  5
1AD
330
1A6
100
AcDbEntity
  8
Titre (ISO)
100
AcDbText
 10
675.2210097163302
 20
46.05532573270107
 30
0.0
 40
6.99999988079071
  1
JME
  7
Texte de note (ISO)-Arial
 72
     1
 11
684.9999999999995
 21
49.55532567309642
 31
0.0
100
AcDbAttribute
  2
<Dessinateur>
 70
     0
 74
     2
  0
ATTRIB
  5
1AE
330
1A6
100
AcDbEntity
  8
Titre (ISO)
100
AcDbText
 10
798.4949070082765
 20
46.05532573270107
 30
0.0
 40
6.99999988079071
  1
.5
  7
Texte de note (ISO)-Arial
 72
     1
 11
802.5726695582051
 21
49.55532567309642
 31
0.0
100
AcDbAttribute
  2
<Echelle>
 70
     0
 74
     2
  0
ATTRIB
  5
1AF
330
1A6
100
AcDbEntity
  8
Titre (ISO)
100
AcDbText
 10
784.1132506277745
 20
74.05532567309638
 30
0.0
 40
5.0
  1

  7
Texte de note (ISO)-Arial
 72
     1
 11
784.1132506277745
 21
76.55532567309638
 31
0.0
100
AcDbAttribute
  2
<Matière>
 70
     0
 74
     2
  0
ATTRIB
  5
1B0
330
1A6
100
AcDbEntity
  8
Titre (ISO)
100
AcDbText
 10
791.6432295482027
 20
60.72199233976309
 30
0.0
 40
5.0
  1

  7
Texte de note (ISO)-Arial
 72
     1
 11
791.6432295482027
 21
63.22199233976309
 31
0.0
100
AcDbAttribute
  2
<Traitement>
 70
     0
 74
     2
  0
ATTRIB
  5
1B1
330
1A6
100
AcDbEntity
  8
Titre (ISO)
100
AcDbText
 10
450.5199999999994
 20
111.5553255538872
 30
0.0
 40
6.000000238418579
  1

  7
Texte de note (ISO)-Arial
 72
     1
 11
450.5199999999994
 21
114.5553256730965
 31
0.0
100
AcDbAttribute
  2
<Ind1>
 70
     0
 74
     2
  0
ATTRIB
  5
1B2
330
1A6
100
AcDbEntity
  8
Titre (ISO)
100
AcDbText
 10
477.5199999999995
 20
111.5553255538872
 30
0.0
 40
6.000000238418579
  1

  7
Texte de note (ISO)-Arial
 72
     1
 11
477.5199999999995
 21
114.5553256730965
 31
0.0
100
AcDbAttribute
  2
<Date1>
 70
     0
 74
     2
  0
ATTRIB
  5
1B3
330
1A6
100
AcDbEntity
  8
Titre (ISO)
100
AcDbText
 10
646.4499999999995
 20
111.5553255538872
 30
0.0
 40
6.000000238418579
  1

  7
Texte de note (ISO)-Arial
 72
     1
 11
646.4499999999995
 21
114.5553256730965
 31
0.0
100
AcDbAttribute
  2
<Modif1>
 70
     0
 74
     2
  0
ATTRIB
  5
1B4
330
1A6
100
AcDbEntity
  8
Titre (ISO)
100
AcDbText
 10
809.0019999999995
 20
111.5553255538871
 30
0.0
 40
6.000000238418579
  1

  7
Texte de note (ISO)-Arial
 72
     1
 11
809.0019999999995
 21
114.5553256730964
 31
0.0
100
AcDbAttribute
  2
<Par1>
 70
     0
 74
     2
  0
ATTRIB
  5
1B5
330
1A6
100
AcDbEntity
  8
Titre (ISO)
100
AcDbText
 10
450.5199999999994
 20
123.5553255538872
 30
0.0
 40
6.000000238418579
  1

  7
Texte de note (ISO)-Arial
 72
     1
 11
450.5199999999994
 21
126.5553256730965
 31
0.0
100
AcDbAttribute
  2
<Ind2>
 70
     0
 74
     2
  0
ATTRIB
  5
1B6
330
1A6
100
AcDbEntity
  8
Titre (ISO)
100
AcDbText
 10
477.5199999999995
 20
123.5553255538872
 30
0.0
 40
6.000000238418579
  1

  7
Texte de note (ISO)-Arial
 72
     1
 11
477.5199999999995
 21
126.5553256730965
 31
0.0
100
AcDbAttribute
  2
<Date2>
 70
     0
 74
     2
  0
ATTRIB
  5
1B7
330
1A6
100
AcDbEntity
  8
Titre (ISO)
100
AcDbText
 10
646.5219999999995
 20
123.5553255538871
 30
0.0
 40
6.000000238418579
  1

  7
Texte de note (ISO)-Arial
 72
     1
 11
646.5219999999995
 21
126.5553256730963
 31
0.0
100
AcDbAttribute
  2
<Modif2>
 70
     0
 74
     2
  0
ATTRIB
  5
1B8
330
1A6
100
AcDbEntity
  8
Titre (ISO)
100
AcDbText
 10
808.9999999999996
 20
123.5553255538872
 30
0.0
 40
6.000000238418579
  1

  7
Texte de note (ISO)-Arial
 72
     1
 11
808.9999999999996
 21
126.5553256730965
 31
0.0
100
AcDbAttribute
  2
<Par2>
 70
     0
 74
     2
  0
ATTRIB
  5
1B9
330
1A6
100
AcDbEntity
  8
Titre (ISO)
100
AcDbText
 10
450.5154014989134
 20
135.555787639962
 30
0.0
 40
6.000000238418579
  1

  7
Texte de note (ISO)-Arial
 72
     1
 11
450.5154014989134
 21
138.5557877591713
 31
0.0
100
AcDbAttribute
  2
<Ind3>
 70
     0
 74
     2
  0
ATTRIB
  5
1BA
330
1A6
100
AcDbEntity
  8
Titre (ISO)
100
AcDbText
 10
450.5128279974079
 20
147.5619907679517
 30
0.0
 40
6.000000238418579
  1

  7
Texte de note (ISO)-Arial
 72
     1
 11
450.5128279974079
 21
150.561990887161
 31
0.0
100
AcDbAttribute
  2
<Ind4>
 70
     0
 74
     2
  0
ATTRIB
  5
1BB
330
1A6
100
AcDbEntity
  8
Titre (ISO)
100
AcDbText
 10
477.5206348070893
 20
135.5563743079183
 30
0.0
 40
6.000000238418579
  1

  7
Texte de note (ISO)-Arial
 72
     1
 11
477.5206348070893
 21
138.5563744271276
 31
0.0
100
AcDbAttribute
  2
<Date3>
 70
     0
 74
     2
  0
ATTRIB
  5
1BC
330
1A6
100
AcDbEntity
  8
Titre (ISO)
100
AcDbText
 10
477.5206348070893
 20
147.5619907679517
 30
0.0
 40
6.000000238418579
  1

  7
Texte de note (ISO)-Arial
 72
     1
 11
477.5206348070893
 21
150.561990887161
 31
0.0
100
AcDbAttribute
  2
<Date4>
 70
     0
 74
     2
  0
ATTRIB
  5
1BD
330
1A6
100
AcDbEntity
  8
Titre (ISO)
100
AcDbText
 10
646.2801569371857
 20
135.561494414548
 30
0.0
 40
6.000000238418579
  1

  7
Texte de note (ISO)-Arial
 72
     1
 11
646.2801569371857
 21
138.5614945337573
 31
0.0
100
AcDbAttribute
  2
<Modif3>
 70
     0
 74
     2
  0
ATTRIB
  5
1BE
330
1A6
100
AcDbEntity
  8
Titre (ISO)
100
AcDbText
 10
646.2526033997619
 20
147.5520938463542
 30
0.0
 40
6.000000238418579
  1

  7
Texte de note (ISO)-Arial
 72
     1
 11
646.2526033997619
 21
150.5520939655635
 31
0.0
100
AcDbAttribute
  2
<Modif4>
 70
     0
 74
     2
  0
ATTRIB
  5
1BF
330
1A6
100
AcDbEntity
  8
Titre (ISO)
100
AcDbText
 10
808.9879199920451
 20
135.5493181675378
 30
0.0
 40
6.000000238418579
  1

  7
Texte de note (ISO)-Arial
 72
     1
 11
808.9879199920451
 21
138.5493182867471
 31
0.0
100
AcDbAttribute
  2
<Par3>
 70
     0
 74
     2
  0
ATTRIB
  5
1C0
330
1A6
100
AcDbEntity
  8
Titre (ISO)
100
AcDbText
 10
809.0097752178506
 20
147.5644190102562
 30
0.0
 40
6.000000238418579
  1

  7
Texte de note (ISO)-Arial
 72
     1
 11
809.0097752178506
 21
150.5644191294655
 31
0.0
100
AcDbAttribute
  2
<Par4>
 70
     0
 74
     2
  0
SEQEND
  5
1A7
330
1A6
100
AcDbEntity
  8
0
  0
LINE
  5
1C1
330
75
100
AcDbEntity
  8
Visible (ISO)
100
AcDbLine
 10
756.1123923328857
 20
391.6674997912678
 30
0.0
 11
756.1123923328858
 21
372.0715818490025
 31
0.0
  0
ARC
  5
1C2
330
75
100
AcDbEntity
  8
Visible (ISO)
100
AcDbCircle
 10
751.1123923328859
 20
381.8695408201352
 30
0.0
 40
10.99999999999985
100
AcDbArc
 50
62.96430821058734
 51
297.035691789411
  0
LINE
  5
1C3
330
75
100
AcDbEntity
  8
Visible (ISO)
100
AcDbLine
 10
119.1123923329023
 20
373.2092867822885
 30
0.0
 11
119.112392332902
 21
390.5297948579772
 31
0.0
  0
ARC
  5
1C4
330
75
100
AcDbEntity
  8
Visible (ISO)
100
AcDbCircle
 10
124.112392332902
 20
381.8695408201329
 30
0.0
 40
9.999999999999856
100
AcDbArc
 50
239.9999999999998
 51
119.999999999999
  0
LINE
  5
1C5
330
75
100
AcDbEntity
  8
Visible (ISO)
100
AcDbLine
 10
506.8123923328919
 20
375.3695408201343
 30
0.0
 11
494.9117344096776
 21
375.3695408201343
 31
0.0
  0
ARC
  5
1C6
330
75
100
AcDbEntity
  8
Visible (ISO)
100
AcDbCircle
 10
487.3123923328924
 20
381.8695408201342
 30
0.0
 40
9.99999999999985
100
AcDbArc
 50
40.54160187350409
 51
319.4583981264939
  0
LINE
  5
1C7
330
75
100
AcDbEntity
  8
Visible (ISO)
100
AcDbLine
 10
494.9117344096776
 20
388.3695408201342
 30
0.0
 11
506.8123923328919
 21
388.3695408201342
 31
0.0
  0
ARC
  5
1C8
330
75
100
AcDbEntity
  8
Visible (ISO)
100
AcDbCircle
 10
506.8123923328919
 20
381.8695408201342
 30
0.0
 40
6.499999999999936
100
AcDbArc
 50
270.0
 51
90.0
  0
LINE
  5
1C9
330
75
100
AcDbEntity
  8
Visible (ISO)
100
AcDbLine
 10
151.9884313022218
 20
388.2333611636925
 30
0.0
 11
160.4737126764603
 21
379.7480797894541
 31
0.0
  0
ARC
  5
1CA
330
75
100
AcDbEntity
  8
Visible (ISO)
100
AcDbCircle
 10
158.3523923329006
 20
377.6267594458944
 30
0.0
 40
2.999999999999993
100
AcDbArc
 50
225.0000000000004
 51
45.00000000000047
  0
LINE
  5
1CB
330
75
100
AcDbEntity
  8
Visible (ISO)
100
AcDbLine
 10
156.231071989341
 20
375.5054391023348
 30
0.0
 11
147.7457906151026
 21
383.9907204765732
 31
0.0
  0
ARC
  5
1CC
330
75
100
AcDbEntity
  8
Visible (ISO)
100
AcDbCircle
 10
149.8671109586623
 20
386.1120408201328
 30
0.0
 40
2.999999999999943
100
AcDbArc
 50
45.00000000000119
 51
225.0000000000012
  0
ARC
  5
1CD
330
75
100
AcDbEntity
  8
Visible (ISO)
100
AcDbCircle
 10
244.1123923328985
 20
375.8695408201333
 30
0.0
 40
2.999999999999942
100
AcDbArc
 50
180.0
 51
0.0
  0
LINE
  5
1CE
330
75
100
AcDbEntity
  8
Visible (ISO)
100
AcDbLine
 10
241.1123923328985
 20
375.8695408201333
 30
0.0
 11
241.1123923328985
 21
387.8695408201332
 31
0.0
  0
ARC
  5
1CF
330
75
100
AcDbEntity
  8
Visible (ISO)
100
AcDbCircle
 10
244.1123923328985
 20
387.8695408201332
 30
0.0
 40
2.999999999999942
100
AcDbArc
 50
0.0
 51
180.0
  0
LINE
  5
1D0
330
75
100
AcDbEntity
  8
Visible (ISO)
100
AcDbLine
 10
247.1123923328985
 20
387.8695408201332
 30
0.0
 11
247.1123923328985
 21
375.8695408201333
 31
0.0
  0
LINE
  5
1D1
330
75
100
AcDbEntity
  8
Visible (ISO)
100
AcDbLine
 10
634.1123923328888
 20
387.8695408201346
 30
0.0
 11
634.1123923328888
 21
375.8695408201348
 31
0.0
  0
ARC
  5
1D2
330
75
100
AcDbEntity
  8
Visible (ISO)
100
AcDbCircle
 10
631.1123923328888
 20
375.8695408201347
 30
0.0
 40
2.999999999999977
100
AcDbArc
 50
180.0
 51
0.0
  0
LINE
  5
1D3
330
75
100
AcDbEntity
  8
Visible (ISO)
100
AcDbLine
 10
628.1123923328889
 20
375.8695408201347
 30
0.0
 11
628.1123923328889
 21
387.8695408201346
 31
0.0
  0
ARC
  5
1D4
330
75
100
AcDbEntity
  8
Visible (ISO)
100
AcDbCircle
 10
631.1123923328888
 20
387.8695408201346
 30
0.0
 40
2.999999999999977
100
AcDbArc
 50
0.0
 51
180.0
  0
LINE
  5
1D5
330
75
100
AcDbEntity
  8
Visible (ISO)
100
AcDbLine
 10
727.4789940506845
 20
383.9907204765753
 30
0.0
 11
718.9937126764464
 21
375.5054391023368
 31
0.0
  0
ARC
  5
1D6
330
75
100
AcDbEntity
  8
Visible (ISO)
100
AcDbCircle
 10
716.8723923328867
 20
377.6267594458965
 30
0.0
 40
2.999999999999948
100
AcDbArc
 50
135.0
 51
315.0
  0
LINE
  5
1D7
330
75
100
AcDbEntity
  8
Visible (ISO)
100
AcDbLine
 10
714.7510719893272
 20
379.748079789456
 30
0.0
 11
723.2363533635655
 21
388.2333611636946
 31
0.0
  0
ARC
  5
1D8
330
75
100
AcDbEntity
  8
Visible (ISO)
100
AcDbCircle
 10
725.3576737071251
 20
386.112040820135
 30
0.0
 40
2.999999999999952
100
AcDbArc
 50
315.0
 51
134.9999999999999
  0
ARC
  5
1D9
330
75
100
AcDbEntity
  8
Visible (ISO)
100
AcDbCircle
 10
551.1123923328908
 20
381.8695408201344
 30
0.0
 40
2.999999999999973
100
AcDbArc
 50
270.0
 51
90.0
  0
LINE
  5
1DA
330
75
100
AcDbEntity
  8
Visible (ISO)
100
AcDbLine
 10
551.1123923328908
 20
378.8695408201344
 30
0.0
 11
539.1123923328911
 21
378.8695408201344
 31
0.0
  0
ARC
  5
1DB
330
75
100
AcDbEntity
  8
Visible (ISO)
100
AcDbCircle
 10
539.1123923328911
 20
381.8695408201343
 30
0.0
 40
2.999999999999971
100
AcDbArc
 50
90.00000000000133
 51
270.0000000000013
  0
LINE
  5
1DC
330
75
100
AcDbEntity
  8
Visible (ISO)
100
AcDbLine
 10
539.1123923328912
 20
384.8695408201343
 30
0.0
 11
551.1123923328908
 21
384.8695408201343
 31
0.0
  0
LINE
  5
1DD
330
75
100
AcDbEntity
  8
Visible (ISO)
100
AcDbLine
 10
324.1123923328966
 20
384.8695408201336
 30
0.0
 11
336.1123923328962
 21
384.8695408201336
 31
0.0
  0
ARC
  5
1DE
330
75
100
AcDbEntity
  8
Visible (ISO)
100
AcDbCircle
 10
336.1123923328962
 20
381.8695408201336
 30
0.0
 40
2.999999999999973
100
AcDbArc
 50
270.0
 51
90.0
  0
LINE
  5
1DF
330
75
100
AcDbEntity
  8
Visible (ISO)
100
AcDbLine
 10
336.1123923328961
 20
378.8695408201336
 30
0.0
 11
324.1123923328965
 21
378.8695408201335
 31
0.0
  0
ARC
  5
1E0
330
75
100
AcDbEntity
  8
Visible (ISO)
100
AcDbCircle
 10
324.1123923328966
 20
381.8695408201335
 30
0.0
 40
2.999999999999971
100
AcDbArc
 50
90.0
 51
270.0
  0
LINE
  5
1E1
330
75
100
AcDbEntity
  8
Visible (ISO)
100
AcDbLine
 10
440.6123923328935
 20
387.8695408201339
 30
0.0
 11
440.6123923328935
 21
375.8695408201341
 31
0.0
  0
ARC
  5
1E2
330
75
100
AcDbEntity
  8
Visible (ISO)
100
AcDbCircle
 10
437.6123923328937
 20
375.869540820134
 30
0.0
 40
2.999999999999942
100
AcDbArc
 50
179.4293064001047
 51
0.0
  0
LINE
  5
1E3
330
75
100
AcDbEntity
  8
Visible (ISO)
100
AcDbLine
 10
434.612541148476
 20
375.8994217730554
 30
0.0
 11
434.723708643192
 21
387.0599072358182
 31
0.0
  0
ARC
  5
1E4
330
75
100
AcDbEntity
  8
Visible (ISO)
100
AcDbCircle
 10
437.6123923328936
 20
387.8695408201338
 30
0.0
 40
2.99999999999998
100
AcDbArc
 50
0.0
 51
195.6569990270727
  0
LINE
  5
1E5
330
75
100
AcDbEntity
  8
Visible (ISO)
100
AcDbLine
 10
104.112392332902
 20
366.869540820133
 30
0.0
 11
104.112392332902
 21
364.0695408201332
 31
0.0
  0
LINE
  5
1E6
330
75
100
AcDbEntity
  8
Visible (ISO)
100
AcDbLine
 10
107.112392332902
 20
364.0695408201332
 30
0.0
 11
104.112392332902
 21
364.0695408201332
 31
0.0
  0
LINE
  5
1E7
330
75
100
AcDbEntity
  8
Visible (ISO)
100
AcDbLine
 10
107.112392332902
 20
364.0695408201332
 30
0.0
 11
107.1123923329017
 21
366.869540820133
 31
0.0
  0
LINE
  5
1E8
330
75
100
AcDbEntity
  8
Visible (ISO)
100
AcDbLine
 10
104.112392332902
 20
366.869540820133
 30
0.0
 11
104.1123923329019
 21
402.8695408201327
 31
0.0
  0
LINE
  5
1E9
330
75
100
AcDbEntity
  8
Visible (ISO)
100
AcDbLine
 10
771.1123923328853
 20
360.8695408201356
 30
0.0
 11
765.1123923328856
 21
360.8695408201356
 31
0.0
  0
LINE
  5
1EA
330
75
100
AcDbEntity
  8
Visible (ISO)
100
AcDbLine
 10
110.1123923329018
 20
360.8695408201332
 30
0.0
 11
104.112392332902
 21
360.8695408201332
 31
0.0
  0
LINE
  5
1EB
330
75
100
AcDbEntity
  8
Visible (ISO)
100
AcDbLine
 10
104.1123923329022
 20
366.869540820133
 30
0.0
 11
110.1123923329019
 21
366.869540820133
 31
0.0
  0
LINE
  5
1EC
330
75
100
AcDbEntity
  8
Visible (ISO)
100
AcDbLine
 10
771.1123923328853
 20
402.8695408201352
 30
0.0
 11
771.1123923328853
 21
366.8695408201354
 31
0.0
  0
LINE
  5
1ED
330
75
100
AcDbEntity
  8
Visible (ISO)
100
AcDbLine
 10
771.1123923328853
 20
402.8695408201352
 30
0.0
 11
765.1123923328855
 21
402.8695408201352
 31
0.0
  0
LINE
  5
1EE
330
75
100
AcDbEntity
  8
Visible (ISO)
100
AcDbLine
 10
765.1123923328856
 20
366.8695408201353
 30
0.0
 11
771.1123923328853
 21
366.8695408201353
 31
0.0
  0
LINE
  5
1EF
330
75
100
AcDbEntity
  8
Visible (ISO)
100
AcDbLine
 10
110.1123923329019
 20
402.8695408201327
 30
0.0
 11
104.1123923329021
 21
402.8695408201327
 31
0.0
  0
LINE
  5
1F0
330
75
100
AcDbEntity
  8
Visible (ISO)
100
AcDbLine
 10
104.112392332902
 20
360.8695408201331
 30
0.0
 11
104.112392332902
 21
363.8695408201332
 31
0.0
  0
LINE
  5
1F1
330
75
100
AcDbEntity
  8
Visible (ISO)
100
AcDbLine
 10
104.112392332902
 20
363.8695408201332
 30
0.0
 11
110.1123923329018
 21
363.8695408201332
 31
0.0
  0
LINE
  5
1F2
330
75
100
AcDbEntity
  8
Visible (ISO)
100
AcDbLine
 10
110.1123923329018
 20
360.8695408201332
 30
0.0
 11
110.1123923329018
 21
366.869540820133
 31
0.0
  0
LINE
  5
1F3
330
75
100
AcDbEntity
  8
Visible (ISO)
100
AcDbLine
 10
771.1123923328853
 20
363.8695408201356
 30
0.0
 11
771.1123923328853
 21
360.8695408201356
 31
0.0
  0
LINE
  5
1F4
330
75
100
AcDbEntity
  8
Visible (ISO)
100
AcDbLine
 10
765.1123923328856
 20
363.8695408201356
 30
0.0
 11
771.1123923328853
 21
363.8695408201356
 31
0.0
  0
LINE
  5
1F5
330
75
100
AcDbEntity
  8
Visible (ISO)
100
AcDbLine
 10
765.1123923328855
 20
366.8695408201353
 30
0.0
 11
765.1123923328855
 21
360.8695408201356
 31
0.0
  0
LINE
  5
1F6
330
75
100
AcDbEntity
  8
Visible (ISO)
100
AcDbLine
 10
768.1123923328855
 20
364.0695408201356
 30
0.0
 11
768.1123923328855
 21
366.8695408201353
 31
0.0
  0
LINE
  5
1F7
330
75
100
AcDbEntity
  8
Visible (ISO)
100
AcDbLine
 10
768.1123923328855
 20
364.0695408201356
 30
0.0
 11
771.1123923328853
 21
364.0695408201356
 31
0.0
  0
LINE
  5
1F8
330
75
100
AcDbEntity
  8
Visible (ISO)
100
AcDbLine
 10
771.1123923328853
 20
364.0695408201356
 30
0.0
 11
771.1123923328853
 21
366.8695408201354
 31
0.0
  0
LINE
  5
1F9
330
75
100
AcDbEntity
  8
Visible (ISO)
100
AcDbLine
 10
765.1123923328856
 20
360.8695408201356
 30
0.0
 11
110.1123923329019
 21
360.8695408201332
 31
0.0
  0
LINE
  5
1FA
330
75
100
AcDbEntity
  8
Visible (ISO)
100
AcDbLine
 10
110.1123923329019
 20
402.8695408201327
 30
0.0
 11
765.1123923328855
 21
402.8695408201352
 31
0.0
  0
LINE
  5
1FB
330
75
100
AcDbEntity
  8
Visible (ISO)
100
AcDbLine
 10
751.1123923328855
 20
360.8695408201355
 30
0.0
 11
751.1123923328855
 21
356.8695408201356
 31
0.0
  0
LINE
  5
1FC
330
75
100
AcDbEntity
  8
Visible (ISO)
100
AcDbLine
 10
111.1123923328944
 20
360.8695408201336
 30
0.0
 11
111.1123923328944
 21
356.8695408201337
 31
0.0
  0
LINE
  5
1FD
330
75
100
AcDbEntity
  8
Visible (ISO)
100
AcDbLine
 10
494.3817344096741
 20
388.3695408201344
 30
0.0
 11
494.9117344096738
 21
388.3695408201344
 31
0.0
  0
ARC
  5
1FE
330
75
100
AcDbEntity
  8
Visible (ISO)
100
AcDbCircle
 10
506.2823923328886
 20
381.8695408201345
 30
0.0
 40
6.49999999999991
100
AcDbArc
 50
270.0
 51
90.0
  0
LINE
  5
1FF
330
75
100
AcDbEntity
  8
Visible (ISO)
100
AcDbLine
 10
494.9117344096738
 20
375.3695408201345
 30
0.0
 11
494.3817344096742
 21
375.3695408201345
 31
0.0
  0
ARC
  5
200
330
75
100
AcDbEntity
  8
Visible (ISO)
100
AcDbCircle
 10
486.7823923328889
 20
381.8695408201344
 30
0.0
 40
9.999999999999765
100
AcDbArc
 50
271.5185159221252
 51
319.458398126496
  0
ARC
  5
201
330
75
100
AcDbEntity
  8
Visible (ISO)
100
AcDbCircle
 10
486.7823923328889
 20
381.8695408201344
 30
0.0
 40
9.999999999999857
100
AcDbArc
 50
40.54160187350409
 51
88.48148407791276
  0
LINE
  5
202
330
75
100
AcDbEntity
  8
Visible (ISO)
100
AcDbLine
 10
149.1123923328939
 20
385.4695408201335
 30
0.0
 11
146.8711317528993
 21
385.9567713810019
 31
0.0
  0
LINE
  5
203
330
75
100
AcDbEntity
  8
Visible (ISO)
100
AcDbLine
 10
149.1123923328939
 20
382.6241187587664
 30
0.0
 11
149.1123923328939
 21
385.4695408201335
 31
0.0
  0
LINE
  5
204
330
75
100
AcDbEntity
  8
Visible (ISO)
100
AcDbLine
 10
153.7522516457656
 20
386.4695408201334
 30
0.0
 11
151.0123923328937
 21
386.4695408201334
 31
0.0
  0
LINE
  5
205
330
75
100
AcDbEntity
  8
Visible (ISO)
100
AcDbLine
 10
151.0123923328937
 20
386.4695408201334
 30
0.0
 11
151.0123923328937
 21
380.7241187587669
 31
0.0
  0
LINE
  5
206
330
75
100
AcDbEntity
  8
Visible (ISO)
100
AcDbLine
 10
154.2669702715272
 20
377.4695408201335
 30
0.0
 11
155.1123923328937
 21
377.4695408201335
 31
0.0
  0
LINE
  5
207
330
75
100
AcDbEntity
  8
Visible (ISO)
100
AcDbLine
 10
155.1123923328937
 20
377.4695408201335
 30
0.0
 11
155.1123923328937
 21
376.6241187587669
 31
0.0
  0
LINE
  5
208
330
75
100
AcDbEntity
  8
Visible (ISO)
100
AcDbLine
 10
583.1123923328881
 20
350.8056414286285
 30
0.0
 11
567.1123923328884
 21
350.8056414286285
 31
0.0
  0
LINE
  5
209
330
75
100
AcDbEntity
  8
Visible (ISO)
100
AcDbLine
 10
583.0123923328881
 20
348.8056414286285
 30
0.0
 11
567.2123923328883
 21
348.8056414286285
 31
0.0
  0
LINE
  5
20A
330
75
100
AcDbEntity
  8
Visible (ISO)
100
AcDbLine
 10
567.1123923328884
 20
350.8056414286285
 30
0.0
 11
567.1123923328882
 21
355.369540820136
 31
0.0
  0
LINE
  5
20B
330
75
100
AcDbEntity
  8
Visible (ISO)
100
AcDbLine
 10
583.1123923328881
 20
350.8056414286285
 30
0.0
 11
583.1123923328881
 21
355.369540820136
 31
0.0
  0
LINE
  5
20C
330
75
100
AcDbEntity
  8
Visible (ISO)
100
AcDbLine
 10
567.8984929413803
 20
348.1195408201366
 30
0.0
 11
567.2123923328883
 21
348.8056414286285
 31
0.0
  0
LINE
  5
20D
330
75
100
AcDbEntity
  8
Visible (ISO)
100
AcDbLine
 10
582.3262917243961
 20
348.1195408201366
 30
0.0
 11
583.0123923328881
 21
348.8056414286285
 31
0.0
  0
LINE
  5
20E
330
75
100
AcDbEntity
  8
Visible (ISO)
100
AcDbLine
 10
567.2123923328883
 20
348.8056414286285
 30
0.0
 11
567.2123923328883
 21
350.8056414286285
 31
0.0
  0
LINE
  5
20F
330
75
100
AcDbEntity
  8
Visible (ISO)
100
AcDbLine
 10
583.0123923328881
 20
348.8056414286285
 30
0.0
 11
583.0123923328881
 21
350.8056414286285
 31
0.0
  0
LINE
  5
210
330
75
100
AcDbEntity
  8
Visible (ISO)
100
AcDbLine
 10
308.1123923328917
 20
350.7865497305908
 30
0.0
 11
292.1123923328919
 21
350.7865497305906
 31
0.0
  0
LINE
  5
211
330
75
100
AcDbEntity
  8
Visible (ISO)
100
AcDbLine
 10
308.0123923328916
 20
348.7865497305908
 30
0.0
 11
292.2123923328919
 21
348.7865497305906
 31
0.0
  0
LINE
  5
212
330
75
100
AcDbEntity
  8
Visible (ISO)
100
AcDbLine
 10
292.1123923328919
 20
350.7865497305906
 30
0.0
 11
292.112392332892
 21
355.369540820136
 31
0.0
  0
LINE
  5
213
330
75
100
AcDbEntity
  8
Visible (ISO)
100
AcDbLine
 10
308.1123923328917
 20
350.7865497305906
 30
0.0
 11
308.1123923328917
 21
355.369540820136
 31
0.0
  0
LINE
  5
214
330
75
100
AcDbEntity
  8
Visible (ISO)
100
AcDbLine
 10
292.8794012433461
 20
348.1195408201364
 30
0.0
 11
292.2123923328919
 21
348.7865497305906
 31
0.0
  0
LINE
  5
215
330
75
100
AcDbEntity
  8
Visible (ISO)
100
AcDbLine
 10
307.3453834224374
 20
348.1195408201365
 30
0.0
 11
308.0123923328916
 21
348.7865497305907
 31
0.0
  0
LINE
  5
216
330
75
100
AcDbEntity
  8
Visible (ISO)
100
AcDbLine
 10
292.2123923328919
 20
348.7865497305906
 30
0.0
 11
292.2123923328919
 21
350.7865497305906
 31
0.0
  0
LINE
  5
217
330
75
100
AcDbEntity
  8
Visible (ISO)
100
AcDbLine
 10
308.0123923328916
 20
348.7865497305908
 30
0.0
 11
308.0123923328916
 21
350.7865497305908
 31
0.0
  0
LINE
  5
218
330
75
100
AcDbEntity
  8
Visible (ISO)
100
AcDbLine
 10
506.28239233289
 20
375.4595408201358
 30
0.0
 11
494.3817344096753
 21
375.4595408201358
 31
0.0
  0
ARC
  5
219
330
75
100
AcDbEntity
  8
Visible (ISO)
100
AcDbCircle
 10
486.7823923328903
 20
381.9595408201359
 30
0.0
 40
9.999999999999873
100
AcDbArc
 50
261.9027212878647
 51
319.4583981264948
  0
ARC
  5
21A
330
75
100
AcDbEntity
  8
Visible (ISO)
100
AcDbCircle
 10
506.2823923328901
 20
381.9595408201355
 30
0.0
 40
6.499999999999786
100
AcDbArc
 50
269.9999999999994
 51
359.6033337350706
  0
LINE
  5
21B
330
75
100
AcDbEntity
  8
Visible (ISO)
100
AcDbLine
 10
102.712392332897
 20
405.8695408201345
 30
0.0
 11
102.712392332897
 21
407.3695408201346
 31
0.0
  0
LINE
  5
21C
330
75
100
AcDbEntity
  8
Visible (ISO)
100
AcDbLine
 10
102.612392332897
 20
407.3695408201346
 30
0.0
 11
101.1123923328969
 21
407.3695408201346
 31
0.0
  0
LINE
  5
21D
330
75
100
AcDbEntity
  8
Visible (ISO)
100
AcDbLine
 10
102.612392332897
 20
355.3695408201361
 30
0.0
 11
101.1123923328971
 21
355.3695408201361
 31
0.0
  0
LINE
  5
21E
330
75
100
AcDbEntity
  8
Visible (ISO)
100
AcDbLine
 10
772.5123923328854
 20
405.8695408201348
 30
0.0
 11
772.5123923328854
 21
407.3695408201348
 31
0.0
  0
LINE
  5
21F
330
75
100
AcDbEntity
  8
Visible (ISO)
100
AcDbLine
 10
102.612392332897
 20
407.3695408201346
 30
0.0
 11
102.612392332897
 21
355.3695408201361
 31
0.0
  0
LINE
  5
220
330
75
100
AcDbEntity
  8
Visible (ISO)
100
AcDbLine
 10
101.1123923328969
 20
407.3695408201346
 30
0.0
 11
101.1123923328971
 21
355.3695408201361
 31
0.0
  0
LINE
  5
221
330
75
100
AcDbEntity
  8
Visible (ISO)
100
AcDbLine
 10
772.5123923328854
 20
405.8695408201348
 30
0.0
 11
102.712392332897
 21
405.8695408201345
 31
0.0
  0
LINE
  5
222
330
75
100
AcDbEntity
  8
Visible (ISO)
100
AcDbLine
 10
772.5123923328854
 20
407.3695408201348
 30
0.0
 11
102.712392332897
 21
407.3695408201345
 31
0.0
  0
LINE
  5
223
330
75
100
AcDbEntity
  8
Visible (ISO)
100
AcDbLine
 10
102.7123923328971
 20
356.8695408201361
 30
0.0
 11
102.7123923328971
 21
355.3695408201361
 31
0.0
  0
LINE
  5
224
330
75
100
AcDbEntity
  8
Visible (ISO)
100
AcDbLine
 10
772.5123923328854
 20
356.8695408201361
 30
0.0
 11
772.5123923328854
 21
355.3695408201362
 31
0.0
  0
LINE
  5
225
330
75
100
AcDbEntity
  8
Visible (ISO)
100
AcDbLine
 10
102.7123923328971
 20
356.8695408201361
 30
0.0
 11
772.5123923328854
 21
356.8695408201362
 31
0.0
  0
LINE
  5
226
330
75
100
AcDbEntity
  8
Visible (ISO)
100
AcDbLine
 10
102.7123923328971
 20
355.3695408201361
 30
0.0
 11
772.5123923328854
 21
355.3695408201362
 31
0.0
  0
LINE
  5
227
330
75
100
AcDbEntity
  8
Visible (ISO)
100
AcDbLine
 10
772.6123923328855
 20
355.3695408201362
 30
0.0
 11
774.1123923328857
 21
355.3695408201362
 31
0.0
  0
LINE
  5
228
330
75
100
AcDbEntity
  8
Visible (ISO)
100
AcDbLine
 10
772.6123923328855
 20
407.3695408201348
 30
0.0
 11
774.1123923328855
 21
407.3695408201348
 31
0.0
  0
LINE
  5
229
330
75
100
AcDbEntity
  8
Visible (ISO)
100
AcDbLine
 10
772.6123923328855
 20
355.3695408201362
 30
0.0
 11
772.6123923328855
 21
407.3695408201348
 31
0.0
  0
LINE
  5
22A
330
75
100
AcDbEntity
  8
Visible (ISO)
100
AcDbLine
 10
774.1123923328857
 20
355.3695408201362
 30
0.0
 11
774.1123923328855
 21
407.3695408201348
 31
0.0
  0
LINE
  5
22B
330
75
100
AcDbEntity
  8
Visible (ISO)
100
AcDbLine
 10
104.1123923328971
 20
358.3695408201364
 30
0.0
 11
102.6123923328972
 21
358.3695408201364
 31
0.0
  0
LINE
  5
22C
330
75
100
AcDbEntity
  8
Visible (ISO)
100
AcDbLine
 10
104.1123923328972
 20
404.3695408201346
 30
0.0
 11
102.6123923328971
 21
404.3695408201346
 31
0.0
  0
LINE
  5
22D
330
75
100
AcDbEntity
  8
Visible (ISO)
100
AcDbLine
 10
771.1123923328853
 20
404.3695408201348
 30
0.0
 11
772.6123923328855
 21
404.3695408201348
 31
0.0
  0
LINE
  5
22E
330
75
100
AcDbEntity
  8
Visible (ISO)
100
AcDbLine
 10
771.1123923328855
 20
358.3695408201365
 30
0.0
 11
772.6123923328855
 21
358.3695408201365
 31
0.0
  0
LINE
  5
22F
330
75
100
AcDbEntity
  8
Visible (ISO)
100
AcDbLine
 10
771.1123923328853
 20
358.3695408201365
 30
0.0
 11
771.1123923328853
 21
356.8695408201365
 31
0.0
  0
LINE
  5
230
330
75
100
AcDbEntity
  8
Visible (ISO)
100
AcDbLine
 10
104.1123923328971
 20
358.3695408201363
 30
0.0
 11
104.1123923328971
 21
356.8695408201364
 31
0.0
  0
LINE
  5
231
330
75
100
AcDbEntity
  8
Visible (ISO)
100
AcDbLine
 10
104.112392332897
 20
404.3695408201347
 30
0.0
 11
104.112392332897
 21
405.8695408201347
 31
0.0
  0
LINE
  5
232
330
75
100
AcDbEntity
  8
Visible (ISO)
100
AcDbLine
 10
771.1123923328853
 20
404.3695408201349
 30
0.0
 11
771.1123923328853
 21
405.8695408201349
 31
0.0
  0
ARC
  5
233
330
75
100
AcDbEntity
  8
Visible (ISO)
100
AcDbCircle
 10
593.3623923328847
 20
329.869540820134
 30
0.0
 40
3.000000000000014
100
AcDbArc
 50
270.0
 51
90.0
  0
LINE
  5
234
330
75
100
AcDbEntity
  8
Visible (ISO)
100
AcDbLine
 10
593.3623923328848
 20
326.8695408201339
 30
0.0
 11
581.3623923328846
 21
326.869540820134
 31
0.0
  0
ARC
  5
235
330
75
100
AcDbEntity
  8
Visible (ISO)
100
AcDbCircle
 10
581.3623923328846
 20
329.869540820134
 30
0.0
 40
3.000000000000014
100
AcDbArc
 50
90.0
 51
270.0
  0
LINE
  5
236
330
75
100
AcDbEntity
  8
Visible (ISO)
100
AcDbLine
 10
581.3623923328846
 20
332.8695408201341
 30
0.0
 11
593.3623923328848
 21
332.8695408201339
 31
0.0
  0
ARC
  5
237
330
75
100
AcDbEntity
  8
Visible (ISO)
100
AcDbCircle
 10
325.8623923328835
 20
323.8695408201351
 30
0.0
 40
3.00000000000002
100
AcDbArc
 50
180.0
 51
0.0
  0
LINE
  5
238
330
75
100
AcDbEntity
  8
Visible (ISO)
100
AcDbLine
 10
322.8623923328836
 20
323.8695408201351
 30
0.0
 11
322.8623923328836
 21
335.869540820135
 31
0.0
  0
ARC
  5
239
330
75
100
AcDbEntity
  8
Visible (ISO)
100
AcDbCircle
 10
325.8623923328835
 20
335.869540820135
 30
0.0
 40
3.00000000000002
100
AcDbArc
 50
0.0
 51
180.0
  0
LINE
  5
23A
330
75
100
AcDbEntity
  8
Visible (ISO)
100
AcDbLine
 10
328.8623923328836
 20
335.869540820135
 30
0.0
 11
328.8623923328836
 21
323.8695408201351
 31
0.0
  0
ARC
  5
23B
330
75
100
AcDbEntity
  8
Visible (ISO)
100
AcDbCircle
 10
549.3623923328843
 20
323.8695408201341
 30
0.0
 40
2.999999999999985
100
AcDbArc
 50
180.0
 51
0.0
  0
LINE
  5
23C
330
75
100
AcDbEntity
  8
Visible (ISO)
100
AcDbLine
 10
546.3623923328843
 20
323.8695408201343
 30
0.0
 11
546.3623923328845
 21
335.8695408201342
 31
0.0
  0
ARC
  5
23D
330
75
100
AcDbEntity
  8
Visible (ISO)
100
AcDbCircle
 10
549.3623923328844
 20
335.8695408201344
 30
0.0
 40
2.999999999999985
100
AcDbArc
 50
0.0
 51
180.0
  0
LINE
  5
23E
330
75
100
AcDbEntity
  8
Visible (ISO)
100
AcDbLine
 10
552.3623923328845
 20
335.8695408201342
 30
0.0
 11
552.3623923328845
 21
323.8695408201341
 31
0.0
  0
ARC
  5
23F
330
75
100
AcDbEntity
  8
Visible (ISO)
100
AcDbCircle
 10
249.8623923328831
 20
323.8695408201351
 30
0.0
 40
3.000000000000011
100
AcDbArc
 50
180.0
 51
0.0
  0
LINE
  5
240
330
75
100
AcDbEntity
  8
Visible (ISO)
100
AcDbLine
 10
246.8623923328832
 20
323.8695408201351
 30
0.0
 11
246.8623923328832
 21
335.8695408201351
 31
0.0
  0
ARC
  5
241
330
75
100
AcDbEntity
  8
Visible (ISO)
100
AcDbCircle
 10
249.8623923328832
 20
335.8695408201351
 30
0.0
 40
3.000000000000011
100
AcDbArc
 50
0.0
 51
180.0
  0
LINE
  5
242
330
75
100
AcDbEntity
  8
Visible (ISO)
100
AcDbLine
 10
252.8623923328832
 20
335.8695408201351
 30
0.0
 11
252.8623923328831
 21
323.8695408201351
 31
0.0
  0
ARC
  5
243
330
75
100
AcDbEntity
  8
Visible (ISO)
100
AcDbCircle
 10
625.3623923328847
 20
323.8695408201337
 30
0.0
 40
2.999999999999985
100
AcDbArc
 50
180.0
 51
0.0
  0
LINE
  5
244
330
75
100
AcDbEntity
  8
Visible (ISO)
100
AcDbLine
 10
622.3623923328848
 20
323.8695408201337
 30
0.0
 11
622.3623923328849
 21
335.8695408201338
 31
0.0
  0
ARC
  5
245
330
75
100
AcDbEntity
  8
Visible (ISO)
100
AcDbCircle
 10
625.3623923328848
 20
335.8695408201338
 30
0.0
 40
2.999999999999985
100
AcDbArc
 50
0.0
 51
180.0
  0
LINE
  5
246
330
75
100
AcDbEntity
  8
Visible (ISO)
100
AcDbLine
 10
628.3623923328851
 20
335.8695408201338
 30
0.0
 11
628.3623923328849
 21
323.8695408201337
 31
0.0
  0
ARC
  5
247
330
75
100
AcDbEntity
  8
Visible (ISO)
100
AcDbCircle
 10
281.8623923328832
 20
329.869540820135
 30
0.0
 40
3.000000000000014
100
AcDbArc
 50
90.0
 51
270.0
  0
LINE
  5
248
330
75
100
AcDbEntity
  8
Visible (ISO)
100
AcDbLine
 10
281.8623923328834
 20
332.8695408201351
 30
0.0
 11
293.8623923328835
 21
332.8695408201351
 31
0.0
  0
ARC
  5
249
330
75
100
AcDbEntity
  8
Visible (ISO)
100
AcDbCircle
 10
293.8623923328833
 20
329.869540820135
 30
0.0
 40
3.000000000000011
100
AcDbArc
 50
269.9999999999986
 51
89.99999999999863
  0
LINE
  5
24A
330
75
100
AcDbEntity
  8
Visible (ISO)
100
AcDbLine
 10
293.8623923328834
 20
326.869540820135
 30
0.0
 11
281.8623923328834
 21
326.869540820135
 31
0.0
  0
LINE
  5
24B
330
75
100
AcDbEntity
  8
Visible (ISO)
100
AcDbLine
 10
523.1123923328844
 20
317.6195408201367
 30
0.0
 11
523.1123923328843
 21
314.6195408201367
 31
0.0
  0
LINE
  5
24C
330
75
100
AcDbEntity
  8
Visible (ISO)
100
AcDbLine
 10
352.1123923328837
 20
314.6195408201367
 30
0.0
 11
352.1123923328837
 21
317.6195408201366
 31
0.0
  0
LINE
  5
24D
330
75
100
AcDbEntity
  8
Visible (ISO)
100
AcDbLine
 10
349.1123923328836
 20
311.6195408201365
 30
0.0
 11
226.612392332883
 21
311.6195408201365
 31
0.0
  0
LINE
  5
24E
330
75
100
AcDbEntity
  8
Visible (ISO)
100
AcDbLine
 10
648.6123923328851
 20
311.6195408201367
 30
0.0
 11
526.1123923328844
 21
311.6195408201367
 31
0.0
  0
ARC
  5
24F
330
75
100
AcDbEntity
  8
Visible (ISO)
100
AcDbCircle
 10
349.1123923328836
 20
317.6195408201365
 30
0.0
 40
2.999999999999985
100
AcDbArc
 50
270.0
 51
0.0
  0
ARC
  5
250
330
75
100
AcDbEntity
  8
Visible (ISO)
100
AcDbCircle
 10
349.1123923328836
 20
317.6195408201365
 30
0.0
 40
6.0
100
AcDbArc
 50
270.0
 51
330.000000000001
  0
ARC
  5
251
330
75
100
AcDbEntity
  8
Visible (ISO)
100
AcDbCircle
 10
648.612392332885
 20
317.6195408201367
 30
0.0
 40
2.999999999999985
100
AcDbArc
 50
270.0
 51
0.0
  0
ARC
  5
252
330
75
100
AcDbEntity
  8
Visible (ISO)
100
AcDbCircle
 10
648.6123923328851
 20
317.6195408201366
 30
0.0
 40
5.999999999999904
100
AcDbArc
 50
270.0
 51
0.0
  0
LINE
  5
253
330
75
100
AcDbEntity
  8
Visible (ISO)
100
AcDbLine
 10
648.6123923328851
 20
317.6195408201367
 30
0.0
 11
651.6023923328851
 21
317.6195408201367
 31
0.0
  0
LINE
  5
254
330
75
100
AcDbEntity
  8
Visible (ISO)
100
AcDbLine
 10
223.6223923328831
 20
317.6195408201365
 30
0.0
 11
226.6123923328831
 21
317.6195408201365
 31
0.0
  0
LINE
  5
255
330
75
100
AcDbEntity
  8
Visible (ISO)
100
AcDbLine
 10
349.1123923328837
 20
317.6195408201366
 30
0.0
 11
352.1123923328837
 21
317.6195408201366
 31
0.0
  0
LINE
  5
256
330
75
100
AcDbEntity
  8
Visible (ISO)
100
AcDbLine
 10
523.1123923328844
 20
317.6195408201367
 30
0.0
 11
526.1123923328844
 21
317.6195408201367
 31
0.0
  0
ARC
  5
257
330
75
100
AcDbEntity
  8
Visible (ISO)
100
AcDbCircle
 10
226.612392332883
 20
317.6195408201365
 30
0.0
 40
5.999999999999998
100
AcDbArc
 50
180.0
 51
270.0
  0
ARC
  5
258
330
75
100
AcDbEntity
  8
Visible (ISO)
100
AcDbCircle
 10
226.612392332883
 20
317.6195408201365
 30
0.0
 40
2.999999999999986
100
AcDbArc
 50
180.0
 51
270.0
  0
ARC
  5
259
330
75
100
AcDbEntity
  8
Visible (ISO)
100
AcDbCircle
 10
526.1123923328844
 20
317.6195408201368
 30
0.0
 40
6.000000000000137
100
AcDbArc
 50
210.0000000000004
 51
269.9999999999993
  0
ARC
  5
25A
330
75
100
AcDbEntity
  8
Visible (ISO)
100
AcDbCircle
 10
526.1123923328844
 20
317.6195408201366
 30
0.0
 40
2.99999999999997
100
AcDbArc
 50
180.0
 51
270.0
  0
LINE
  5
25B
330
75
100
AcDbEntity
  8
Visible (ISO)
100
AcDbLine
 10
226.612392332883
 20
311.6195408201365
 30
0.0
 11
226.612392332883
 21
317.6195408201365
 31
0.0
  0
LINE
  5
25C
330
75
100
AcDbEntity
  8
Visible (ISO)
100
AcDbLine
 10
349.1123923328836
 20
317.6195408201365
 30
0.0
 11
349.1123923328836
 21
311.6195408201365
 31
0.0
  0
LINE
  5
25D
330
75
100
AcDbEntity
  8
Visible (ISO)
100
AcDbLine
 10
526.1123923328844
 20
311.6195408201367
 30
0.0
 11
526.1123923328844
 21
317.6195408201367
 31
0.0
  0
LINE
  5
25E
330
75
100
AcDbEntity
  8
Visible (ISO)
100
AcDbLine
 10
648.612392332885
 20
317.6195408201368
 30
0.0
 11
648.612392332885
 21
311.6195408201367
 31
0.0
  0
LINE
  5
25F
330
75
100
AcDbEntity
  8
Visible (ISO)
100
AcDbLine
 10
651.6123923328851
 20
317.6195408201366
 30
0.0
 11
654.6123923328853
 21
317.6195408201366
 31
0.0
  0
LINE
  5
260
330
75
100
AcDbEntity
  8
Visible (ISO)
100
AcDbLine
 10
654.612392332885
 20
317.6195408201366
 30
0.0
 11
654.6123923328853
 21
342.1195408201367
 31
0.0
  0
LINE
  5
261
330
75
100
AcDbEntity
  8
Visible (ISO)
100
AcDbLine
 10
651.6123923328851
 20
317.6195408201366
 30
0.0
 11
651.6123923328852
 21
342.1195408201368
 31
0.0
  0
LINE
  5
262
330
75
100
AcDbEntity
  8
Visible (ISO)
100
AcDbLine
 10
220.6123923328829
 20
342.1195408201366
 30
0.0
 11
220.612392332883
 21
317.6195408201364
 31
0.0
  0
LINE
  5
263
330
75
100
AcDbEntity
  8
Visible (ISO)
100
AcDbLine
 10
223.6123923328831
 20
317.6195408201364
 30
0.0
 11
223.612392332883
 21
342.1195408201366
 31
0.0
  0
ARC
  5
264
330
75
100
AcDbEntity
  8
Visible (ISO)
100
AcDbCircle
 10
648.6123923328853
 20
342.1195408201368
 30
0.0
 40
5.999999999999898
100
AcDbArc
 50
0.0
 51
60.11020465618506
  0
ARC
  5
265
330
75
100
AcDbEntity
  8
Visible (ISO)
100
AcDbCircle
 10
648.6123923328494
 20
342.1195408201353
 30
0.0
 40
3.000000000035725
100
AcDbArc
 50
0.0
 51
4.679481277643523
  0
ARC
  5
266
330
75
100
AcDbEntity
  8
Visible (ISO)
100
AcDbCircle
 10
226.6123923328834
 20
342.1195408201366
 30
0.0
 40
3.000000000000491
100
AcDbArc
 50
175.320518722341
 51
180.0
  0
ARC
  5
267
330
75
100
AcDbEntity
  8
Visible (ISO)
100
AcDbCircle
 10
226.612392332883
 20
342.1195408201366
 30
0.0
 40
6.000000000000044
100
AcDbArc
 50
119.8897953438149
 51
180.0
  0
LINE
  5
268
330
75
100
AcDbEntity
  8
Visible (ISO)
100
AcDbLine
 10
651.6023923328851
 20
317.6195408201367
 30
0.0
 11
651.6023923328852
 21
348.1195408201369
 31
0.0
  0
LINE
  5
269
330
75
100
AcDbEntity
  8
Visible (ISO)
100
AcDbLine
 10
223.622392332883
 20
348.1195408201366
 30
0.0
 11
651.6023923328853
 21
348.1195408201369
 31
0.0
  0
LINE
  5
26A
330
75
100
AcDbEntity
  8
Visible (ISO)
100
AcDbLine
 10
223.622392332883
 20
348.1195408201366
 30
0.0
 11
223.6223923328831
 21
317.6195408201365
 31
0.0
  0
LINE
  5
26B
330
75
100
AcDbEntity
  8
Visible (ISO)
100
AcDbLine
 10
523.1123923328843
 20
314.6195408201367
 30
0.0
 11
352.1123923328837
 21
314.6195408201367
 31
0.0
  0
LINE
  5
26C
330
75
100
AcDbEntity
  8
Visible (ISO)
100
AcDbLine
 10
223.6123923328831
 20
317.6195408201364
 30
0.0
 11
220.6123923328831
 21
317.6195408201364
 31
0.0
  0
ARC
  5
26D
330
75
100
AcDbEntity
  8
Visible (ISO)
100
AcDbCircle
 10
529.362392332886
 20
320.8695408201352
 30
0.0
 40
6.000000000000413
100
AcDbArc
 50
212.7971682958033
 51
237.2028317041479
  0
ARC
  5
26E
330
75
100
AcDbEntity
  8
Visible (ISO)
100
AcDbCircle
 10
645.3623923328854
 20
320.8695408201351
 30
0.0
 40
6.000000000000137
100
AcDbArc
 50
302.7971682957959
 51
327.2028317041967
  0
ARC
  5
26F
330
75
100
AcDbEntity
  8
Visible (ISO)
100
AcDbCircle
 10
229.862392332886
 20
320.8695408201364
 30
0.0
 40
5.999999999999804
100
AcDbArc
 50
212.7971682958206
 51
237.2028317041518
  0
ARC
  5
270
330
75
100
AcDbEntity
  8
Visible (ISO)
100
AcDbCircle
 10
345.862392332885
 20
320.8695408201367
 30
0.0
 40
6.000000000000138
100
AcDbArc
 50
302.7971682958003
 51
327.2028317041797
  0
LINE
  5
271
330
75
100
AcDbEntity
  8
Visible (ISO)
100
AcDbLine
 10
773.4123923328853
 20
348.7695408201367
 30
0.0
 11
774.9123923328855
 21
348.7695408201367
 31
0.0
  0
LINE
  5
272
330
75
100
AcDbEntity
  8
Visible (ISO)
100
AcDbLine
 10
774.9123923328853
 20
348.8695408201366
 30
0.0
 11
774.9123923328853
 21
350.3695408201367
 31
0.0
  0
LINE
  5
273
330
75
100
AcDbEntity
  8
Visible (ISO)
100
AcDbLine
 10
773.4123923328853
 20
310.9695408201368
 30
0.0
 11
774.9123923328853
 21
310.9695408201368
 31
0.0
  0
LINE
  5
274
330
75
100
AcDbEntity
  8
Visible (ISO)
100
AcDbLine
 10
617.8623923328853
 20
350.3695408201366
 30
0.0
 11
617.8623923328853
 21
348.8695408201366
 31
0.0
  0
LINE
  5
275
330
75
100
AcDbEntity
  8
Visible (ISO)
100
AcDbLine
 10
774.9123923328853
 20
350.3695408201367
 30
0.0
 11
617.8623923328853
 21
350.3695408201366
 31
0.0
  0
LINE
  5
276
330
75
100
AcDbEntity
  8
Visible (ISO)
100
AcDbLine
 10
774.9123923328853
 20
348.8695408201366
 30
0.0
 11
617.8623923328853
 21
348.8695408201366
 31
0.0
  0
LINE
  5
277
330
75
100
AcDbEntity
  8
Visible (ISO)
100
AcDbLine
 10
773.4123923328853
 20
310.9695408201368
 30
0.0
 11
773.4123923328853
 21
348.7695408201367
 31
0.0
  0
LINE
  5
278
330
75
100
AcDbEntity
  8
Visible (ISO)
100
AcDbLine
 10
774.9123923328853
 20
310.9695408201368
 30
0.0
 11
774.9123923328855
 21
348.7695408201367
 31
0.0
  0
LINE
  5
279
330
75
100
AcDbEntity
  8
Visible (ISO)
100
AcDbLine
 10
774.9123923328853
 20
310.8695408201368
 30
0.0
 11
774.9123923328853
 21
309.3695408201369
 31
0.0
  0
LINE
  5
27A
330
75
100
AcDbEntity
  8
Visible (ISO)
100
AcDbLine
 10
100.3123923328862
 20
310.8695408201366
 30
0.0
 11
100.3123923328862
 21
309.3695408201366
 31
0.0
  0
LINE
  5
27B
330
75
100
AcDbEntity
  8
Visible (ISO)
100
AcDbLine
 10
100.3123923328862
 20
310.8695408201366
 30
0.0
 11
774.9123923328853
 21
310.8695408201368
 31
0.0
  0
LINE
  5
27C
330
75
100
AcDbEntity
  8
Visible (ISO)
100
AcDbLine
 10
100.3123923328862
 20
309.3695408201366
 30
0.0
 11
774.9123923328853
 21
309.3695408201369
 31
0.0
  0
LINE
  5
27D
330
75
100
AcDbEntity
  8
Visible (ISO)
100
AcDbLine
 10
101.8123923328861
 20
310.9695408201367
 30
0.0
 11
100.3123923328862
 21
310.9695408201367
 31
0.0
  0
LINE
  5
27E
330
75
100
AcDbEntity
  8
Visible (ISO)
100
AcDbLine
 10
101.8123923328861
 20
348.7695408201365
 30
0.0
 11
100.3123923328862
 21
348.7695408201365
 31
0.0
  0
LINE
  5
27F
330
75
100
AcDbEntity
  8
Visible (ISO)
100
AcDbLine
 10
101.8123923328861
 20
348.7695408201365
 30
0.0
 11
101.8123923328861
 21
310.9695408201366
 31
0.0
  0
LINE
  5
280
330
75
100
AcDbEntity
  8
Visible (ISO)
100
AcDbLine
 10
100.3123923328862
 20
348.7695408201365
 30
0.0
 11
100.3123923328862
 21
310.9695408201366
 31
0.0
  0
POLYLINE
  5
281
330
75
100
AcDbEntity
  8
Visible (ISO)
100
AcDb2dPolyline
 66
     1
 10
0.0
 20
0.0
 30
0.0
 70
   128
  0
VERTEX
  5
282
330
281
100
AcDbEntity
  8
Visible (ISO)
100
AcDbVertex
100
AcDb2dVertex
 10
101.8123923328861
 20
310.9695412016064
 30
0.0
  0
VERTEX
  5
283
330
281
100
AcDbEntity
  8
Visible (ISO)
100
AcDbVertex
100
AcDb2dVertex
 10
101.8124584014415
 20
310.9967280721813
 30
0.0
  0
VERTEX
  5
285
330
281
100
AcDbEntity
  8
Visible (ISO)
100
AcDbVertex
100
AcDb2dVertex
 10
101.8138368473777
 20
311.0338641500622
 30
0.0
  0
VERTEX
  5
286
330
281
100
AcDbEntity
  8
Visible (ISO)
100
AcDbVertex
100
AcDb2dVertex
 10
101.8182980315217
 20
311.0799623823315
 30
0.0
  0
VERTEX
  5
287
330
281
100
AcDbEntity
  8
Visible (ISO)
100
AcDbVertex
100
AcDb2dVertex
 10
101.8276123137369
 20
311.1340357160717
 30
0.0
  0
VERTEX
  5
288
330
281
100
AcDbEntity
  8
Visible (ISO)
100
AcDbVertex
100
AcDb2dVertex
 10
101.8435500555827
 20
311.1950923299938
 30
0.0
  0
VERTEX
  5
289
330
281
100
AcDbEntity
  8
Visible (ISO)
100
AcDbVertex
100
AcDb2dVertex
 10
101.8678816168724
 20
311.2621499395519
 30
0.0
  0
VERTEX
  5
28A
330
281
100
AcDbEntity
  8
Visible (ISO)
100
AcDbVertex
100
AcDb2dVertex
 10
101.9029482447698
 20
311.3342214918286
 30
0.0
  0
VERTEX
  5
28B
330
281
100
AcDbEntity
  8
Visible (ISO)
100
AcDbVertex
100
AcDb2dVertex
 10
101.9497867481007
 20
311.4103151655346
 30
0.0
  0
VERTEX
  5
28C
330
281
100
AcDbEntity
  8
Visible (ISO)
100
AcDbVertex
100
AcDb2dVertex
 10
102.0082108204408
 20
311.4894462919384
 30
0.0
  0
VERTEX
  5
28D
330
281
100
AcDbEntity
  8
Visible (ISO)
100
AcDbVertex
100
AcDb2dVertex
 10
102.0780341227694
 20
311.5706302023083
 30
0.0
  0
VERTEX
  5
28E
330
281
100
AcDbEntity
  8
Visible (ISO)
100
AcDbVertex
100
AcDb2dVertex
 10
102.1590703812583
 20
311.6528750753551
 30
0.0
  0
VERTEX
  5
28F
330
281
100
AcDbEntity
  8
Visible (ISO)
100
AcDbVertex
100
AcDb2dVertex
 10
102.2511332568868
 20
311.7351938581616
 30
0.0
  0
VERTEX
  5
290
330
281
100
AcDbEntity
  8
Visible (ISO)
100
AcDbVertex
100
AcDb2dVertex
 10
102.352962614332
 20
311.8166018819958
 30
0.0
  0
VERTEX
  5
291
330
281
100
AcDbEntity
  8
Visible (ISO)
100
AcDbVertex
100
AcDb2dVertex
 10
102.4615423468097
 20
311.8961120939403
 30
0.0
  0
VERTEX
  5
292
330
281
100
AcDbEntity
  8
Visible (ISO)
100
AcDbVertex
100
AcDb2dVertex
 10
102.5740518507703
 20
311.972735056892
 30
0.0
  0
VERTEX
  5
293
330
281
100
AcDbEntity
  8
Visible (ISO)
100
AcDbVertex
100
AcDb2dVertex
 10
102.6876707461818
 20
312.0454837179333
 30
0.0
  0
VERTEX
  5
294
330
281
100
AcDbEntity
  8
Visible (ISO)
100
AcDbVertex
100
AcDb2dVertex
 10
102.7995786157592
 20
312.1133710241466
 30
0.0
  0
VERTEX
  5
295
330
281
100
AcDbEntity
  8
Visible (ISO)
100
AcDbVertex
100
AcDb2dVertex
 10
102.9069548187002
 20
312.1754099226147
 30
0.0
  0
VERTEX
  5
296
330
281
100
AcDbEntity
  8
Visible (ISO)
100
AcDbVertex
100
AcDb2dVertex
 10
103.00673075888
 20
312.2306133604198
 30
0.0
  0
VERTEX
  5
297
330
281
100
AcDbEntity
  8
Visible (ISO)
100
AcDbVertex
100
AcDb2dVertex
 10
103.0963538673862
 20
312.2779942846447
 30
0.0
  0
VERTEX
  5
298
330
281
100
AcDbEntity
  8
Visible (ISO)
100
AcDbVertex
100
AcDb2dVertex
 10
103.173777767752
 20
312.3165656423718
 30
0.0
  0
VERTEX
  5
299
330
281
100
AcDbEntity
  8
Visible (ISO)
100
AcDbVertex
100
AcDb2dVertex
 10
103.2369563070281
 20
312.3453379964977
 30
0.0
  0
VERTEX
  5
29A
330
281
100
AcDbEntity
  8
Visible (ISO)
100
AcDbVertex
100
AcDb2dVertex
 10
103.2838432577594
 20
312.3633266782909
 30
0.0
  0
VERTEX
  5
29B
330
281
100
AcDbEntity
  8
Visible (ISO)
100
AcDbVertex
100
AcDb2dVertex
 10
103.3123923924907
 20
312.3695398664623
 30
0.0
  0
SEQEND
  5
284
330
281
100
AcDbEntity
  8
Visible (ISO)
  0
POLYLINE
  5
29C
330
75
100
AcDbEntity
  8
Visible (ISO)
100
AcDb2dPolyline
 66
     1
 10
0.0
 20
0.0
 30
0.0
 70
   128
  0
VERTEX
  5
29D
330
29C
100
AcDbEntity
  8
Visible (ISO)
100
AcDbVertex
100
AcDb2dVertex
 10
103.3123923924907
 20
312.3695398664623
 30
0.0
  0
VERTEX
  5
29E
330
29C
100
AcDbEntity
  8
Visible (ISO)
100
AcDbVertex
100
AcDb2dVertex
 10
103.3087192562564
 20
312.3536301946789
 30
0.0
  0
VERTEX
  5
2A0
330
29C
100
AcDbEntity
  8
Visible (ISO)
100
AcDbVertex
100
AcDb2dVertex
 10
103.2978993741019
 20
312.3326612806469
 30
0.0
  0
VERTEX
  5
2A1
330
29C
100
AcDbEntity
  8
Visible (ISO)
100
AcDbVertex
100
AcDb2dVertex
 10
103.2802321103557
 20
312.3069335317761
 30
0.0
  0
VERTEX
  5
2A2
330
29C
100
AcDbEntity
  8
Visible (ISO)
100
AcDbVertex
100
AcDb2dVertex
 10
103.256016829346
 20
312.2767330503612
 30
0.0
  0
VERTEX
  5
2A3
330
29C
100
AcDbEntity
  8
Visible (ISO)
100
AcDbVertex
100
AcDb2dVertex
 10
103.2255524483665
 20
312.2423530912548
 30
0.0
  0
VERTEX
  5
2A4
330
29C
100
AcDbEntity
  8
Visible (ISO)
100
AcDbVertex
100
AcDb2dVertex
 10
103.1891384807571
 20
312.2040892934948
 30
0.0
  0
VERTEX
  5
2A5
330
29C
100
AcDbEntity
  8
Visible (ISO)
100
AcDbVertex
100
AcDb2dVertex
 10
103.1470742908462
 20
312.1622325277477
 30
0.0
  0
VERTEX
  5
2A6
330
29C
100
AcDbEntity
  8
Visible (ISO)
100
AcDbVertex
100
AcDb2dVertex
 10
103.0996587959273
 20
312.1170736646801
 30
0.0
  0
VERTEX
  5
2A7
330
29C
100
AcDbEntity
  8
Visible (ISO)
100
AcDbVertex
100
AcDb2dVertex
 10
103.0471916583522
 20
312.0689059591442
 30
0.0
  0
VERTEX
  5
2A8
330
29C
100
AcDbEntity
  8
Visible (ISO)
100
AcDbVertex
100
AcDb2dVertex
 10
102.9899718699201
 20
312.0180226659924
 30
0.0
  0
VERTEX
  5
2A9
330
29C
100
AcDbEntity
  8
Visible (ISO)
100
AcDbVertex
100
AcDb2dVertex
 10
102.9282988694652
 20
311.964714655891
 30
0.0
  0
VERTEX
  5
2AA
330
29C
100
AcDbEntity
  8
Visible (ISO)
100
AcDbVertex
100
AcDb2dVertex
 10
102.8624718723043
 20
311.9093324041515
 30
0.0
  0
VERTEX
  5
2AB
330
29C
100
AcDbEntity
  8
Visible (ISO)
100
AcDbVertex
100
AcDb2dVertex
 10
102.7927900192483
 20
311.8523861265331
 30
0.0
  0
VERTEX
  5
2AC
330
29C
100
AcDbEntity
  8
Visible (ISO)
100
AcDbVertex
100
AcDb2dVertex
 10
102.7195528236373
 20
311.7942787504345
 30
0.0
  0
VERTEX
  5
2AD
330
29C
100
AcDbEntity
  8
Visible (ISO)
100
AcDbVertex
100
AcDb2dVertex
 10
102.6430593517764
 20
311.7354036665112
 30
0.0
  0
VERTEX
  5
2AE
330
29C
100
AcDbEntity
  8
Visible (ISO)
100
AcDbVertex
100
AcDb2dVertex
 10
102.5636089679941
 20
311.6761542654186
 30
0.0
  0
VERTEX
  5
2AF
330
29C
100
AcDbEntity
  8
Visible (ISO)
100
AcDbVertex
100
AcDb2dVertex
 10
102.4815008876069
 20
311.616928706184
 30
0.0
  0
VERTEX
  5
2B0
330
29C
100
AcDbEntity
  8
Visible (ISO)
100
AcDbVertex
100
AcDb2dVertex
 10
102.3970344376906
 20
311.558117995277
 30
0.0
  0
VERTEX
  5
2B1
330
29C
100
AcDbEntity
  8
Visible (ISO)
100
AcDbVertex
100
AcDb2dVertex
 10
102.3105088708146
 20
311.5001155233532
 30
0.0
  0
VERTEX
  5
2B2
330
29C
100
AcDbEntity
  8
Visible (ISO)
100
AcDbVertex
100
AcDb2dVertex
 10
102.2222234395488
 20
311.4433194494396
 30
0.0
  0
VERTEX
  5
2B3
330
29C
100
AcDbEntity
  8
Visible (ISO)
100
AcDbVertex
100
AcDb2dVertex
 10
102.1324773964628
 20
311.388120780006
 30
0.0
  0
VERTEX
  5
2B4
330
29C
100
AcDbEntity
  8
Visible (ISO)
100
AcDbVertex
100
AcDb2dVertex
 10
102.0415700500055
 20
311.3349152898937
 30
0.0
  0
VERTEX
  5
2B5
330
29C
100
AcDbEntity
  8
Visible (ISO)
100
AcDbVertex
100
AcDb2dVertex
 10
101.94980066206
 20
311.2841178274304
 30
0.0
  0
VERTEX
  5
2B6
330
29C
100
AcDbEntity
  8
Visible (ISO)
100
AcDbVertex
100
AcDb2dVertex
 10
101.8574684898524
 20
311.2362028455883
 30
0.0
  0
SEQEND
  5
29F
330
29C
100
AcDbEntity
  8
Visible (ISO)
  0
POLYLINE
  5
2B7
330
75
100
AcDbEntity
  8
Visible (ISO)
100
AcDb2dPolyline
 66
     1
 10
0.0
 20
0.0
 30
0.0
 70
   128
  0
VERTEX
  5
2B8
330
2B7
100
AcDbEntity
  8
Visible (ISO)
100
AcDbVertex
100
AcDb2dVertex
 10
101.1643748817189
 20
310.9703041410595
 30
0.0
  0
VERTEX
  5
2B9
330
2B7
100
AcDbEntity
  8
Visible (ISO)
100
AcDbVertex
100
AcDb2dVertex
 10
101.116301277016
 20
310.9579349851757
 30
0.0
  0
VERTEX
  5
2BB
330
2B7
100
AcDbEntity
  8
Visible (ISO)
100
AcDbVertex
100
AcDb2dVertex
 10
101.0689266857846
 20
310.9465862608105
 30
0.0
  0
VERTEX
  5
2BC
330
2B7
100
AcDbEntity
  8
Visible (ISO)
100
AcDbVertex
100
AcDb2dVertex
 10
101.022304826711
 20
310.9362651205212
 30
0.0
  0
VERTEX
  5
2BD
330
2B7
100
AcDbEntity
  8
Visible (ISO)
100
AcDbVertex
100
AcDb2dVertex
 10
100.9764895674928
 20
310.9269739484936
 30
0.0
  0
VERTEX
  5
2BE
330
2B7
100
AcDbEntity
  8
Visible (ISO)
100
AcDbVertex
100
AcDb2dVertex
 10
100.9315346268161
 20
310.9186364507824
 30
0.0
  0
VERTEX
  5
2BF
330
2B7
100
AcDbEntity
  8
Visible (ISO)
100
AcDbVertex
100
AcDb2dVertex
 10
100.8874937978728
 20
310.9111477232128
 30
0.0
  0
VERTEX
  5
2C0
330
2B7
100
AcDbEntity
  8
Visible (ISO)
100
AcDbVertex
100
AcDb2dVertex
 10
100.8444208738549
 20
310.9044624662548
 30
0.0
  0
VERTEX
  5
2C1
330
2B7
100
AcDbEntity
  8
Visible (ISO)
100
AcDbVertex
100
AcDb2dVertex
 10
100.8023696479543
 20
310.8985353803784
 30
0.0
  0
VERTEX
  5
2C2
330
2B7
100
AcDbEntity
  8
Visible (ISO)
100
AcDbVertex
100
AcDb2dVertex
 10
100.7613939133628
 20
310.8933163976818
 30
0.0
  0
VERTEX
  5
2C3
330
2B7
100
AcDbEntity
  8
Visible (ISO)
100
AcDbVertex
100
AcDb2dVertex
 10
100.7215474632724
 20
310.8887673711925
 30
0.0
  0
VERTEX
  5
2C4
330
2B7
100
AcDbEntity
  8
Visible (ISO)
100
AcDbVertex
100
AcDb2dVertex
 10
100.682884090875
 20
310.8848358488232
 30
0.0
  0
VERTEX
  5
2C5
330
2B7
100
AcDbEntity
  8
Visible (ISO)
100
AcDbVertex
100
AcDb2dVertex
 10
100.6454575893624
 20
310.8814812994152
 30
0.0
  0
VERTEX
  5
2C6
330
2B7
100
AcDbEntity
  8
Visible (ISO)
100
AcDbVertex
100
AcDb2dVertex
 10
100.6093216774209
 20
310.8786584234386
 30
0.0
  0
VERTEX
  5
2C7
330
2B7
100
AcDbEntity
  8
Visible (ISO)
100
AcDbVertex
100
AcDb2dVertex
 10
100.5745302227481
 20
310.8763171529919
 30
0.0
  0
VERTEX
  5
2C8
330
2B7
100
AcDbEntity
  8
Visible (ISO)
100
AcDbVertex
100
AcDb2dVertex
 10
100.5411370185359
 20
310.8744145727306
 30
0.0
  0
VERTEX
  5
2C9
330
2B7
100
AcDbEntity
  8
Visible (ISO)
100
AcDbVertex
100
AcDb2dVertex
 10
100.5091956344589
 20
310.8729077673107
 30
0.0
  0
VERTEX
  5
2CA
330
2B7
100
AcDbEntity
  8
Visible (ISO)
100
AcDbVertex
100
AcDb2dVertex
 10
100.4787603107436
 20
310.8717466688305
 30
0.0
  0
VERTEX
  5
2CB
330
2B7
100
AcDbEntity
  8
Visible (ISO)
100
AcDbVertex
100
AcDb2dVertex
 10
100.4498843935474
 20
310.8708883619457
 30
0.0
  0
VERTEX
  5
2CC
330
2B7
100
AcDbEntity
  8
Visible (ISO)
100
AcDbVertex
100
AcDb2dVertex
 10
100.4226218250735
 20
310.8702875471264
 30
0.0
  0
VERTEX
  5
2CD
330
2B7
100
AcDbEntity
  8
Visible (ISO)
100
AcDbVertex
100
AcDb2dVertex
 10
100.3970265475257
 20
310.8698965406567
 30
0.0
  0
VERTEX
  5
2CE
330
2B7
100
AcDbEntity
  8
Visible (ISO)
100
AcDbVertex
100
AcDb2dVertex
 10
100.3731520560726
 20
310.8696724271923
 30
0.0
  0
VERTEX
  5
2CF
330
2B7
100
AcDbEntity
  8
Visible (ISO)
100
AcDbVertex
100
AcDb2dVertex
 10
100.3510524419292
 20
310.8695699072033
 30
0.0
  0
VERTEX
  5
2D0
330
2B7
100
AcDbEntity
  8
Visible (ISO)
100
AcDbVertex
100
AcDb2dVertex
 10
100.3307812002643
 20
310.8695412969738
 30
0.0
  0
VERTEX
  5
2D1
330
2B7
100
AcDbEntity
  8
Visible (ISO)
100
AcDbVertex
100
AcDb2dVertex
 10
100.3123922732814
 20
310.8695412969738
 30
0.0
  0
SEQEND
  5
2BA
330
2B7
100
AcDbEntity
  8
Visible (ISO)
  0
POLYLINE
  5
2D2
330
75
100
AcDbEntity
  8
Visible (ISO)
100
AcDb2dPolyline
 66
     1
 10
0.0
 20
0.0
 30
0.0
 70
   128
  0
VERTEX
  5
2D3
330
2D2
100
AcDbEntity
  8
Visible (ISO)
100
AcDbVertex
100
AcDb2dVertex
 10
103.3123923924907
 20
347.3695407605319
 30
0.0
  0
VERTEX
  5
2D4
330
2D2
100
AcDbEntity
  8
Visible (ISO)
100
AcDbVertex
100
AcDb2dVertex
 10
103.2838432577594
 20
347.3757560348659
 30
0.0
  0
VERTEX
  5
2D6
330
2D2
100
AcDbEntity
  8
Visible (ISO)
100
AcDbVertex
100
AcDb2dVertex
 10
103.2369563070281
 20
347.3937436735778
 30
0.0
  0
VERTEX
  5
2D7
330
2D2
100
AcDbEntity
  8
Visible (ISO)
100
AcDbVertex
100
AcDb2dVertex
 10
103.173777767752
 20
347.4225161767154
 30
0.0
  0
VERTEX
  5
2D8
330
2D2
100
AcDbEntity
  8
Visible (ISO)
100
AcDbVertex
100
AcDb2dVertex
 10
103.0963538673862
 20
347.4610864913612
 30
0.0
  0
VERTEX
  5
2D9
330
2D2
100
AcDbEntity
  8
Visible (ISO)
100
AcDbVertex
100
AcDb2dVertex
 10
103.00673075888
 20
347.5084671175628
 30
0.0
  0
VERTEX
  5
2DA
330
2D2
100
AcDbEntity
  8
Visible (ISO)
100
AcDbVertex
100
AcDb2dVertex
 10
102.9069548187002
 20
347.5636708533912
 30
0.0
  0
VERTEX
  5
2DB
330
2D2
100
AcDbEntity
  8
Visible (ISO)
100
AcDbVertex
100
AcDb2dVertex
 10
102.7995786157592
 20
347.6257101988941
 30
0.0
  0
VERTEX
  5
2DC
330
2D2
100
AcDbEntity
  8
Visible (ISO)
100
AcDbVertex
100
AcDb2dVertex
 10
102.6876707461818
 20
347.6935981011539
 30
0.0
  0
VERTEX
  5
2DD
330
2D2
100
AcDbEntity
  8
Visible (ISO)
100
AcDbVertex
100
AcDb2dVertex
 10
102.5740518507703
 20
347.7663470602184
 30
0.0
  0
VERTEX
  5
2DE
330
2D2
100
AcDbEntity
  8
Visible (ISO)
100
AcDbVertex
100
AcDb2dVertex
 10
102.4615423468097
 20
347.8429697996526
 30
0.0
  0
VERTEX
  5
2DF
330
2D2
100
AcDbEntity
  8
Visible (ISO)
100
AcDbVertex
100
AcDb2dVertex
 10
102.352962614332
 20
347.9224790430217
 30
0.0
  0
VERTEX
  5
2E0
330
2D2
100
AcDbEntity
  8
Visible (ISO)
100
AcDbVertex
100
AcDb2dVertex
 10
102.2511332568868
 20
348.003887439385
 30
0.0
  0
VERTEX
  5
2E1
330
2D2
100
AcDbEntity
  8
Visible (ISO)
100
AcDbVertex
100
AcDb2dVertex
 10
102.1590703812583
 20
348.0862077123075
 30
0.0
  0
VERTEX
  5
2E2
330
2D2
100
AcDbEntity
  8
Visible (ISO)
100
AcDbVertex
100
AcDb2dVertex
 10
102.0780341227694
 20
348.1684525108486
 30
0.0
  0
VERTEX
  5
2E3
330
2D2
100
AcDbEntity
  8
Visible (ISO)
100
AcDbVertex
100
AcDb2dVertex
 10
102.0082108204408
 20
348.2496345213204
 30
0.0
  0
VERTEX
  5
2E4
330
2D2
100
AcDbEntity
  8
Visible (ISO)
100
AcDbVertex
100
AcDb2dVertex
 10
101.9497867481007
 20
348.3287664300352
 30
0.0
  0
VERTEX
  5
2E5
330
2D2
100
AcDbEntity
  8
Visible (ISO)
100
AcDbVertex
100
AcDb2dVertex
 10
101.9029482447698
 20
348.404860960558
 30
0.0
  0
VERTEX
  5
2E6
330
2D2
100
AcDbEntity
  8
Visible (ISO)
100
AcDbVertex
100
AcDb2dVertex
 10
101.8678816168724
 20
348.4769307619481
 30
0.0
  0
VERTEX
  5
2E7
330
2D2
100
AcDbEntity
  8
Visible (ISO)
100
AcDbVertex
100
AcDb2dVertex
 10
101.8435500555827
 20
348.5439885205179
 30
0.0
  0
VERTEX
  5
2E8
330
2D2
100
AcDbEntity
  8
Visible (ISO)
100
AcDbVertex
100
AcDb2dVertex
 10
101.8276123137369
 20
348.6050469412058
 30
0.0
  0
VERTEX
  5
2E9
330
2D2
100
AcDbEntity
  8
Visible (ISO)
100
AcDbVertex
100
AcDb2dVertex
 10
101.8182980315217
 20
348.6591186916976
 30
0.0
  0
VERTEX
  5
2EA
330
2D2
100
AcDbEntity
  8
Visible (ISO)
100
AcDbVertex
100
AcDb2dVertex
 10
101.8138368473777
 20
348.7052164769321
 30
0.0
  0
VERTEX
  5
2EB
330
2D2
100
AcDbEntity
  8
Visible (ISO)
100
AcDbVertex
100
AcDb2dVertex
 10
101.8124584014415
 20
348.7423529459684
 30
0.0
  0
VERTEX
  5
2EC
330
2D2
100
AcDbEntity
  8
Visible (ISO)
100
AcDbVertex
100
AcDb2dVertex
 10
101.8123923328861
 20
348.7695408223718
 30
0.0
  0
SEQEND
  5
2D5
330
2D2
100
AcDbEntity
  8
Visible (ISO)
  0
POLYLINE
  5
2ED
330
75
100
AcDbEntity
  8
Visible (ISO)
100
AcDb2dPolyline
 66
     1
 10
0.0
 20
0.0
 30
0.0
 70
   128
  0
VERTEX
  5
2EE
330
2ED
100
AcDbEntity
  8
Visible (ISO)
100
AcDbVertex
100
AcDb2dVertex
 10
100.3123922732814
 20
348.8695408201366
 30
0.0
  0
VERTEX
  5
2EF
330
2ED
100
AcDbEntity
  8
Visible (ISO)
100
AcDbVertex
100
AcDb2dVertex
 10
100.3307812002643
 20
348.8695412939858
 30
0.0
  0
VERTEX
  5
2F1
330
2ED
100
AcDbEntity
  8
Visible (ISO)
100
AcDbVertex
100
AcDb2dVertex
 10
100.3510524419292
 20
348.8695123877383
 30
0.0
  0
VERTEX
  5
2F2
330
2ED
100
AcDbEntity
  8
Visible (ISO)
100
AcDbVertex
100
AcDb2dVertex
 10
100.3731520560726
 20
348.8694086097021
 30
0.0
  0
VERTEX
  5
2F3
330
2ED
100
AcDbEntity
  8
Visible (ISO)
100
AcDbVertex
100
AcDb2dVertex
 10
100.3970265475257
 20
348.8691844681799
 30
0.0
  0
VERTEX
  5
2F4
330
2ED
100
AcDbEntity
  8
Visible (ISO)
100
AcDbVertex
100
AcDb2dVertex
 10
100.4226218250735
 20
348.8687944714675
 30
0.0
  0
VERTEX
  5
2F5
330
2ED
100
AcDbEntity
  8
Visible (ISO)
100
AcDbVertex
100
AcDb2dVertex
 10
100.4498843935474
 20
348.8681931279771
 30
0.0
  0
VERTEX
  5
2F6
330
2ED
100
AcDbEntity
  8
Visible (ISO)
100
AcDbVertex
100
AcDb2dVertex
 10
100.4787603107436
 20
348.8673349458023
 30
0.0
  0
VERTEX
  5
2F7
330
2ED
100
AcDbEntity
  8
Visible (ISO)
100
AcDbVertex
100
AcDb2dVertex
 10
100.5091956344589
 20
348.8661744333277
 30
0.0
  0
VERTEX
  5
2F8
330
2ED
100
AcDbEntity
  8
Visible (ISO)
100
AcDbVertex
100
AcDb2dVertex
 10
100.5411370185359
 20
348.8646660990835
 30
0.0
  0
VERTEX
  5
2F9
330
2ED
100
AcDbEntity
  8
Visible (ISO)
100
AcDbVertex
100
AcDb2dVertex
 10
100.5745302227481
 20
348.8627644513091
 30
0.0
  0
VERTEX
  5
2FA
330
2ED
100
AcDbEntity
  8
Visible (ISO)
100
AcDbVertex
100
AcDb2dVertex
 10
100.6093216774209
 20
348.8604239975158
 30
0.0
  0
VERTEX
  5
2FB
330
2ED
100
AcDbEntity
  8
Visible (ISO)
100
AcDbVertex
100
AcDb2dVertex
 10
100.6454575893624
 20
348.8575992472525
 30
0.0
  0
VERTEX
  5
2FC
330
2ED
100
AcDbEntity
  8
Visible (ISO)
100
AcDbVertex
100
AcDb2dVertex
 10
100.682884090875
 20
348.8542447083219
 30
0.0
  0
VERTEX
  5
2FD
330
2ED
100
AcDbEntity
  8
Visible (ISO)
100
AcDbVertex
100
AcDb2dVertex
 10
100.7215474632724
 20
348.8503148891087
 30
0.0
  0
VERTEX
  5
2FE
330
2ED
100
AcDbEntity
  8
Visible (ISO)
100
AcDbVertex
100
AcDb2dVertex
 10
100.7613939133628
 20
348.8457642968334
 30
0.0
  0
VERTEX
  5
2FF
330
2ED
100
AcDbEntity
  8
Visible (ISO)
100
AcDbVertex
100
AcDb2dVertex
 10
100.8023696479543
 20
348.8405474422089
 30
0.0
  0
VERTEX
  5
300
330
2ED
100
AcDbEntity
  8
Visible (ISO)
100
AcDbVertex
100
AcDb2dVertex
 10
100.8444208738549
 20
348.8346188312917
 30
0.0
  0
VERTEX
  5
301
330
2ED
100
AcDbEntity
  8
Visible (ISO)
100
AcDbVertex
100
AcDb2dVertex
 10
100.8874937978728
 20
348.8279329736307
 30
0.0
  0
VERTEX
  5
302
330
2ED
100
AcDbEntity
  8
Visible (ISO)
100
AcDbVertex
100
AcDb2dVertex
 10
100.9315346268161
 20
348.8204443764463
 30
0.0
  0
VERTEX
  5
303
330
2ED
100
AcDbEntity
  8
Visible (ISO)
100
AcDbVertex
100
AcDb2dVertex
 10
100.9764895674928
 20
348.8121075492873
 30
0.0
  0
VERTEX
  5
304
330
2ED
100
AcDbEntity
  8
Visible (ISO)
100
AcDbVertex
100
AcDb2dVertex
 10
101.022304826711
 20
348.8028170431554
 30
0.0
  0
VERTEX
  5
305
330
2ED
100
AcDbEntity
  8
Visible (ISO)
100
AcDbVertex
100
AcDb2dVertex
 10
101.0689266857846
 20
348.792495241627
 30
0.0
  0
VERTEX
  5
306
330
2ED
100
AcDbEntity
  8
Visible (ISO)
100
AcDbVertex
100
AcDb2dVertex
 10
101.116301277016
 20
348.7811470760553
 30
0.0
  0
VERTEX
  5
307
330
2ED
100
AcDbEntity
  8
Visible (ISO)
100
AcDbVertex
100
AcDb2dVertex
 10
101.1643748817189
 20
348.7687775103896
 30
0.0
  0
SEQEND
  5
2F0
330
2ED
100
AcDbEntity
  8
Visible (ISO)
  0
POLYLINE
  5
308
330
75
100
AcDbEntity
  8
Visible (ISO)
100
AcDb2dPolyline
 66
     1
 10
0.0
 20
0.0
 30
0.0
 70
   128
  0
VERTEX
  5
309
330
308
100
AcDbEntity
  8
Visible (ISO)
100
AcDbVertex
100
AcDb2dVertex
 10
101.8574684898524
 20
348.5028781911879
 30
0.0
  0
VERTEX
  5
30A
330
308
100
AcDbEntity
  8
Visible (ISO)
100
AcDbVertex
100
AcDb2dVertex
 10
101.94980066206
 20
348.4549643641859
 30
0.0
  0
VERTEX
  5
30C
330
308
100
AcDbEntity
  8
Visible (ISO)
100
AcDbVertex
100
AcDb2dVertex
 10
102.0415700500055
 20
348.4041674977689
 30
0.0
  0
VERTEX
  5
30D
330
308
100
AcDbEntity
  8
Visible (ISO)
100
AcDbVertex
100
AcDb2dVertex
 10
102.1324773964628
 20
348.3509616723805
 30
0.0
  0
VERTEX
  5
30E
330
308
100
AcDbEntity
  8
Visible (ISO)
100
AcDbVertex
100
AcDb2dVertex
 10
102.2222234395488
 20
348.2957631147056
 30
0.0
  0
VERTEX
  5
30F
330
308
100
AcDbEntity
  8
Visible (ISO)
100
AcDbVertex
100
AcDb2dVertex
 10
102.3105088708146
 20
348.2389660722166
 30
0.0
  0
VERTEX
  5
310
330
308
100
AcDbEntity
  8
Visible (ISO)
100
AcDbVertex
100
AcDb2dVertex
 10
102.3970344376906
 20
348.1809647923856
 30
0.0
  0
VERTEX
  5
311
330
308
100
AcDbEntity
  8
Visible (ISO)
100
AcDbVertex
100
AcDb2dVertex
 10
102.4815008876069
 20
348.1221537089496
 30
0.0
  0
VERTEX
  5
312
330
308
100
AcDbEntity
  8
Visible (ISO)
100
AcDbVertex
100
AcDb2dVertex
 10
102.5636089679941
 20
348.0629268831163
 30
0.0
  0
VERTEX
  5
313
330
308
100
AcDbEntity
  8
Visible (ISO)
100
AcDbVertex
100
AcDb2dVertex
 10
102.6430593517764
 20
348.0036787486225
 30
0.0
  0
VERTEX
  5
314
330
308
100
AcDbEntity
  8
Visible (ISO)
100
AcDbVertex
100
AcDb2dVertex
 10
102.7195528236373
 20
347.9448035156875
 30
0.0
  0
VERTEX
  5
315
330
308
100
AcDbEntity
  8
Visible (ISO)
100
AcDbVertex
100
AcDb2dVertex
 10
102.7927900192483
 20
347.8866954690366
 30
0.0
  0
VERTEX
  5
316
330
308
100
AcDbEntity
  8
Visible (ISO)
100
AcDbVertex
100
AcDb2dVertex
 10
102.8624718723043
 20
347.8297488188892
 30
0.0
  0
VERTEX
  5
317
330
308
100
AcDbEntity
  8
Visible (ISO)
100
AcDbVertex
100
AcDb2dVertex
 10
102.9282988694652
 20
347.7743670141845
 30
0.0
  0
VERTEX
  5
318
330
308
100
AcDbEntity
  8
Visible (ISO)
100
AcDbVertex
100
AcDb2dVertex
 10
102.9899718699201
 20
347.7210589295774
 30
0.0
  0
VERTEX
  5
319
330
308
100
AcDbEntity
  8
Visible (ISO)
100
AcDbVertex
100
AcDb2dVertex
 10
103.0471916583522
 20
347.6701750403791
 30
0.0
  0
VERTEX
  5
31A
330
308
100
AcDbEntity
  8
Visible (ISO)
100
AcDbVertex
100
AcDb2dVertex
 10
103.0996587959273
 20
347.6220075583606
 30
0.0
  0
VERTEX
  5
31B
330
308
100
AcDbEntity
  8
Visible (ISO)
100
AcDbVertex
100
AcDb2dVertex
 10
103.1470742908462
 20
347.5768489933162
 30
0.0
  0
VERTEX
  5
31C
330
308
100
AcDbEntity
  8
Visible (ISO)
100
AcDbVertex
100
AcDb2dVertex
 10
103.1891384807571
 20
347.5349914825111
 30
0.0
  0
VERTEX
  5
31D
330
308
100
AcDbEntity
  8
Visible (ISO)
100
AcDbVertex
100
AcDb2dVertex
 10
103.2255524483665
 20
347.4967273867278
 30
0.0
  0
VERTEX
  5
31E
330
308
100
AcDbEntity
  8
Visible (ISO)
100
AcDbVertex
100
AcDb2dVertex
 10
103.256016829346
 20
347.4623492157608
 30
0.0
  0
VERTEX
  5
31F
330
308
100
AcDbEntity
  8
Visible (ISO)
100
AcDbVertex
100
AcDb2dVertex
 10
103.2802321103557
 20
347.4321491813808
 30
0.0
  0
VERTEX
  5
320
330
308
100
AcDbEntity
  8
Visible (ISO)
100
AcDbVertex
100
AcDb2dVertex
 10
103.2978993741019
 20
347.406419495359
 30
0.0
  0
VERTEX
  5
321
330
308
100
AcDbEntity
  8
Visible (ISO)
100
AcDbVertex
100
AcDb2dVertex
 10
103.3087192562564
 20
347.3854526674896
 30
0.0
  0
VERTEX
  5
322
330
308
100
AcDbEntity
  8
Visible (ISO)
100
AcDbVertex
100
AcDb2dVertex
 10
103.3123923924907
 20
347.3695407605319
 30
0.0
  0
SEQEND
  5
30B
330
308
100
AcDbEntity
  8
Visible (ISO)
  0
LINE
  5
323
330
75
100
AcDbEntity
  8
Visible (ISO)
100
AcDbLine
 10
771.9123923328851
 20
347.3695408201367
 30
0.0
 11
771.9123923328851
 21
348.8695408201366
 31
0.0
  0
LINE
  5
324
330
75
100
AcDbEntity
  8
Visible (ISO)
100
AcDbLine
 10
771.9123923328851
 20
347.3695408201366
 30
0.0
 11
773.4123923328852
 21
347.3695408201366
 31
0.0
  0
LINE
  5
325
330
75
100
AcDbEntity
  8
Visible (ISO)
100
AcDbLine
 10
771.912392332885
 20
312.3695408201367
 30
0.0
 11
773.4123923328852
 21
312.3695408201367
 31
0.0
  0
LINE
  5
326
330
75
100
AcDbEntity
  8
Visible (ISO)
100
AcDbLine
 10
771.9123923328851
 20
312.3695408201367
 30
0.0
 11
771.9123923328851
 21
310.8695408201368
 31
0.0
  0
LINE
  5
327
330
75
100
AcDbEntity
  8
Visible (ISO)
100
AcDbLine
 10
100.3123923328862
 20
348.8695408201366
 30
0.0
 11
100.3123923328862
 21
350.3695408201366
 31
0.0
  0
LINE
  5
328
330
75
100
AcDbEntity
  8
Visible (ISO)
100
AcDbLine
 10
257.3623923328859
 20
348.8695408201366
 30
0.0
 11
257.3623923328859
 21
350.3695408201366
 31
0.0
  0
LINE
  5
329
330
75
100
AcDbEntity
  8
Visible (ISO)
100
AcDbLine
 10
257.3623923328859
 20
350.3695408201366
 30
0.0
 11
100.3123923328862
 21
350.3695408201366
 31
0.0
  0
LINE
  5
32A
330
75
100
AcDbEntity
  8
Visible (ISO)
100
AcDbLine
 10
257.3623923328859
 20
348.8695408201366
 30
0.0
 11
100.3123923328862
 21
348.8695408201366
 31
0.0
  0
LINE
  5
32B
330
75
100
AcDbEntity
  8
Visible (ISO)
100
AcDbLine
 10
318.3623923328858
 20
348.8695408201366
 30
0.0
 11
318.3623923328858
 21
348.1195408201366
 31
0.0
  0
LINE
  5
32C
330
75
100
AcDbEntity
  8
Visible (ISO)
100
AcDbLine
 10
318.3623923328858
 20
350.3695408201366
 30
0.0
 11
318.3623923328858
 21
348.8695408201366
 31
0.0
  0
LINE
  5
32D
330
75
100
AcDbEntity
  8
Visible (ISO)
100
AcDbLine
 10
257.3623923328858
 20
348.1195408201365
 30
0.0
 11
257.3623923328858
 21
348.8695408201366
 31
0.0
  0
LINE
  5
32E
330
75
100
AcDbEntity
  8
Visible (ISO)
100
AcDbLine
 10
617.8623923328853
 20
348.8695408201366
 30
0.0
 11
617.8623923328853
 21
348.1195408201367
 31
0.0
  0
LINE
  5
32F
330
75
100
AcDbEntity
  8
Visible (ISO)
100
AcDbLine
 10
556.8623923328853
 20
348.8695408201366
 30
0.0
 11
556.8623923328853
 21
350.3695408201366
 31
0.0
  0
LINE
  5
330
330
75
100
AcDbEntity
  8
Visible (ISO)
100
AcDbLine
 10
556.8623923328853
 20
348.1195408201367
 30
0.0
 11
556.8623923328853
 21
348.8695408201366
 31
0.0
  0
LINE
  5
331
330
75
100
AcDbEntity
  8
Visible (ISO)
100
AcDbLine
 10
556.8623923328853
 20
350.3695408201366
 30
0.0
 11
318.3623923328858
 21
350.3695408201366
 31
0.0
  0
LINE
  5
332
330
75
100
AcDbEntity
  8
Visible (ISO)
100
AcDbLine
 10
556.8623923328853
 20
348.8695408201366
 30
0.0
 11
318.3623923328858
 21
348.8695408201366
 31
0.0
  0
ARC
  5
333
330
75
100
AcDbEntity
  8
Visible (ISO)
100
AcDbCircle
 10
387.896896536748
 20
527.1784765885716
 30
0.0
 40
9.999999999999907
100
AcDbArc
 50
281.1777975146374
 51
88.48148407787855
  0
LINE
  5
334
330
75
100
AcDbEntity
  8
Visible (ISO)
100
AcDbLine
 10
368.9268965367518
 20
533.6784765885985
 30
0.0
 11
380.8275544599662
 21
533.6784765885984
 31
0.0
  0
ARC
  5
335
330
75
100
AcDbEntity
  8
Visible (ISO)
100
AcDbCircle
 10
388.4268965367514
 20
527.1784765885986
 30
0.0
 40
9.999999999999836
100
AcDbArc
 50
0.2578318852618874
 51
139.4583981264953
  0
ARC
  5
336
330
75
100
AcDbEntity
  8
Visible (ISO)
100
AcDbCircle
 10
368.9268965367517
 20
527.1784765885986
 30
0.0
 40
6.499999999999863
100
AcDbArc
 50
90.0
 51
179.6033337496579
  0
LINE
  5
337
330
75
100
AcDbEntity
  8
Visible (ISO)
100
AcDbLine
 10
308.0968965367521
 20
496.1145771970826
 30
0.0
 11
292.0968965367523
 21
496.1145771970826
 31
0.0
  0
LINE
  5
338
330
75
100
AcDbEntity
  8
Visible (ISO)
100
AcDbLine
 10
307.9968965367521
 20
494.1145771970827
 30
0.0
 11
292.1968965367523
 21
494.1145771970827
 31
0.0
  0
LINE
  5
339
330
75
100
AcDbEntity
  8
Visible (ISO)
100
AcDbLine
 10
292.0968965367523
 20
496.1145771970826
 30
0.0
 11
292.0968965367523
 21
500.6784765885904
 31
0.0
  0
LINE
  5
33A
330
75
100
AcDbEntity
  8
Visible (ISO)
100
AcDbLine
 10
308.0968965367521
 20
496.1145771970826
 30
0.0
 11
308.0968965367521
 21
500.6784765885905
 31
0.0
  0
LINE
  5
33B
330
75
100
AcDbEntity
  8
Visible (ISO)
100
AcDbLine
 10
293.6329971452461
 20
492.6784765885888
 30
0.0
 11
292.1968965367523
 21
494.1145771970827
 31
0.0
  0
LINE
  5
33C
330
75
100
AcDbEntity
  8
Visible (ISO)
100
AcDbLine
 10
306.5607959282582
 20
492.6784765885889
 30
0.0
 11
307.9968965367521
 21
494.1145771970827
 31
0.0
  0
LINE
  5
33D
330
75
100
AcDbEntity
  8
Visible (ISO)
100
AcDbLine
 10
292.1968965367523
 20
494.1145771970827
 30
0.0
 11
292.1968965367523
 21
496.1145771970826
 31
0.0
  0
LINE
  5
33E
330
75
100
AcDbEntity
  8
Visible (ISO)
100
AcDbLine
 10
307.9968965367521
 20
494.1145771970827
 30
0.0
 11
307.9968965367521
 21
496.1145771970826
 31
0.0
  0
LINE
  5
33F
330
75
100
AcDbEntity
  8
Visible (ISO)
100
AcDbLine
 10
583.0968965367485
 20
496.0954854990449
 30
0.0
 11
567.0968965367487
 21
496.095485499045
 31
0.0
  0
LINE
  5
340
330
75
100
AcDbEntity
  8
Visible (ISO)
100
AcDbLine
 10
582.9968965367485
 20
494.0954854990449
 30
0.0
 11
567.1968965367486
 21
494.095485499045
 31
0.0
  0
LINE
  5
341
330
75
100
AcDbEntity
  8
Visible (ISO)
100
AcDbLine
 10
567.0968965367487
 20
496.095485499045
 30
0.0
 11
567.0968965367487
 21
500.6784765885905
 31
0.0
  0
LINE
  5
342
330
75
100
AcDbEntity
  8
Visible (ISO)
100
AcDbLine
 10
583.0968965367485
 20
496.0954854990449
 30
0.0
 11
583.0968965367485
 21
500.6784765885905
 31
0.0
  0
LINE
  5
343
330
75
100
AcDbEntity
  8
Visible (ISO)
100
AcDbLine
 10
568.6139054472032
 20
492.6784765885905
 30
0.0
 11
567.1968965367487
 21
494.095485499045
 31
0.0
  0
LINE
  5
344
330
75
100
AcDbEntity
  8
Visible (ISO)
100
AcDbLine
 10
581.579887626294
 20
492.6784765885905
 30
0.0
 11
582.9968965367485
 21
494.095485499045
 31
0.0
  0
LINE
  5
345
330
75
100
AcDbEntity
  8
Visible (ISO)
100
AcDbLine
 10
567.1968965367487
 20
494.095485499045
 30
0.0
 11
567.1968965367487
 21
496.095485499045
 31
0.0
  0
LINE
  5
346
330
75
100
AcDbEntity
  8
Visible (ISO)
100
AcDbLine
 10
582.9968965367485
 20
494.0954854990449
 30
0.0
 11
582.9968965367485
 21
496.0954854990449
 31
0.0
  0
LINE
  5
347
330
75
100
AcDbEntity
  8
Visible (ISO)
100
AcDbLine
 10
380.8275544599652
 20
520.7684765886033
 30
0.0
 11
368.9268965367506
 21
520.7684765886033
 31
0.0
  0
ARC
  5
348
330
75
100
AcDbEntity
  8
Visible (ISO)
100
AcDbCircle
 10
388.4268965367502
 20
527.2684765886033
 30
0.0
 40
9.999999999999809
100
AcDbArc
 50
220.5416018735061
 51
139.4583981264982
  0
LINE
  5
349
330
75
100
AcDbEntity
  8
Visible (ISO)
100
AcDbLine
 10
368.9268965367506
 20
533.7684765886028
 30
0.0
 11
380.8275544599649
 21
533.7684765886028
 31
0.0
  0
ARC
  5
34A
330
75
100
AcDbEntity
  8
Visible (ISO)
100
AcDbCircle
 10
368.9268965367506
 20
527.268476588603
 30
0.0
 40
6.499999999999886
100
AcDbArc
 50
90.0
 51
270.0
  0
LINE
  5
34B
330
75
100
AcDbEntity
  8
Visible (ISO)
100
AcDbLine
 10
772.4968965367434
 20
551.1784765886005
 30
0.0
 11
772.4968965367434
 21
552.6784765886004
 31
0.0
  0
LINE
  5
34C
330
75
100
AcDbEntity
  8
Visible (ISO)
100
AcDbLine
 10
772.5968965367434
 20
552.6784765886004
 30
0.0
 11
774.0968965367433
 21
552.6784765886004
 31
0.0
  0
LINE
  5
34D
330
75
100
AcDbEntity
  8
Visible (ISO)
100
AcDbLine
 10
772.5968965367434
 20
549.6784765886006
 30
0.0
 11
772.5968965367434
 21
552.6784765886004
 31
0.0
  0
LINE
  5
34E
330
75
100
AcDbEntity
  8
Visible (ISO)
100
AcDbLine
 10
774.0968965367433
 20
549.6784765886006
 30
0.0
 11
774.0968965367433
 21
552.6784765886004
 31
0.0
  0
LINE
  5
34F
330
75
100
AcDbEntity
  8
Visible (ISO)
100
AcDbLine
 10
771.0968965367436
 20
551.1784765886005
 30
0.0
 11
772.4968965367434
 21
551.1784765886005
 31
0.0
  0
LINE
  5
350
330
75
100
AcDbEntity
  8
Visible (ISO)
100
AcDbLine
 10
772.4968965367434
 20
552.6784765886004
 30
0.0
 11
771.0968965367436
 21
552.6784765886004
 31
0.0
  0
LINE
  5
351
330
75
100
AcDbEntity
  8
Visible (ISO)
100
AcDbLine
 10
772.4968965367434
 20
502.1784765886023
 30
0.0
 11
772.4968965367434
 21
500.6784765886022
 31
0.0
  0
LINE
  5
352
330
75
100
AcDbEntity
  8
Visible (ISO)
100
AcDbLine
 10
772.5968965367434
 20
500.6784765886022
 30
0.0
 11
774.0968965367433
 21
500.6784765886022
 31
0.0
  0
LINE
  5
353
330
75
100
AcDbEntity
  8
Visible (ISO)
100
AcDbLine
 10
772.5968965367434
 20
503.6784765886022
 30
0.0
 11
772.5968965367434
 21
500.6784765886022
 31
0.0
  0
LINE
  5
354
330
75
100
AcDbEntity
  8
Visible (ISO)
100
AcDbLine
 10
774.0968965367433
 20
500.6784765886022
 30
0.0
 11
774.0968965367433
 21
503.6784765886022
 31
0.0
  0
LINE
  5
355
330
75
100
AcDbEntity
  8
Visible (ISO)
100
AcDbLine
 10
771.0968965367433
 20
502.1784765886023
 30
0.0
 11
772.4968965367434
 21
502.1784765886023
 31
0.0
  0
LINE
  5
356
330
75
100
AcDbEntity
  8
Visible (ISO)
100
AcDbLine
 10
771.0968965367433
 20
500.6784765886022
 30
0.0
 11
772.4968965367434
 21
500.6784765886022
 31
0.0
  0
LINE
  5
357
330
75
100
AcDbEntity
  8
Visible (ISO)
100
AcDbLine
 10
102.6968965367554
 20
502.178476588602
 30
0.0
 11
102.6968965367554
 21
500.6784765886021
 31
0.0
  0
LINE
  5
358
330
75
100
AcDbEntity
  8
Visible (ISO)
100
AcDbLine
 10
102.5968965367553
 20
500.6784765886021
 30
0.0
 11
101.0968965367551
 21
500.6784765886021
 31
0.0
  0
LINE
  5
359
330
75
100
AcDbEntity
  8
Visible (ISO)
100
AcDbLine
 10
102.5968965367552
 20
503.6784765886022
 30
0.0
 11
102.5968965367553
 21
500.6784765886021
 31
0.0
  0
LINE
  5
35A
330
75
100
AcDbEntity
  8
Visible (ISO)
100
AcDbLine
 10
101.0968965367551
 20
503.6784765886022
 30
0.0
 11
101.0968965367551
 21
500.6784765886021
 31
0.0
  0
LINE
  5
35B
330
75
100
AcDbEntity
  8
Visible (ISO)
100
AcDbLine
 10
104.0968965367551
 20
502.178476588602
 30
0.0
 11
102.6968965367554
 21
502.178476588602
 31
0.0
  0
LINE
  5
35C
330
75
100
AcDbEntity
  8
Visible (ISO)
100
AcDbLine
 10
102.6968965367554
 20
500.6784765886021
 30
0.0
 11
104.0968965367551
 21
500.6784765886021
 31
0.0
  0
LINE
  5
35D
330
75
100
AcDbEntity
  8
Visible (ISO)
100
AcDbLine
 10
102.6968965367554
 20
551.1784765886004
 30
0.0
 11
102.6968965367554
 21
552.6784765886004
 31
0.0
  0
LINE
  5
35E
330
75
100
AcDbEntity
  8
Visible (ISO)
100
AcDbLine
 10
102.5968965367553
 20
552.6784765886004
 30
0.0
 11
101.0968965367553
 21
552.6784765886004
 31
0.0
  0
LINE
  5
35F
330
75
100
AcDbEntity
  8
Visible (ISO)
100
AcDbLine
 10
102.5968965367552
 20
549.6784765886004
 30
0.0
 11
102.5968965367553
 21
552.6784765886004
 31
0.0
  0
LINE
  5
360
330
75
100
AcDbEntity
  8
Visible (ISO)
100
AcDbLine
 10
101.0968965367553
 20
552.6784765886004
 30
0.0
 11
101.0968965367551
 21
549.6784765886004
 31
0.0
  0
LINE
  5
361
330
75
100
AcDbEntity
  8
Visible (ISO)
100
AcDbLine
 10
104.0968965367551
 20
551.1784765886004
 30
0.0
 11
102.6968965367554
 21
551.1784765886004
 31
0.0
  0
LINE
  5
362
330
75
100
AcDbEntity
  8
Visible (ISO)
100
AcDbLine
 10
104.0968965367551
 20
552.6784765886004
 30
0.0
 11
102.6968965367554
 21
552.6784765886004
 31
0.0
  0
LINE
  5
363
330
75
100
AcDbEntity
  8
Visible (ISO)
100
AcDbLine
 10
774.0968965367433
 20
549.6784765886006
 30
0.0
 11
774.0968965367433
 21
503.6784765886022
 31
0.0
  0
LINE
  5
364
330
75
100
AcDbEntity
  8
Visible (ISO)
100
AcDbLine
 10
101.0968965367551
 20
503.6784765886022
 30
0.0
 11
101.0968965367551
 21
549.6784765886004
 31
0.0
  0
LINE
  5
365
330
75
100
AcDbEntity
  8
Visible (ISO)
100
AcDbLine
 10
771.0968965367433
 20
500.6784765886022
 30
0.0
 11
104.0968965367551
 21
500.6784765886021
 31
0.0
  0
LINE
  5
366
330
75
100
AcDbEntity
  8
Visible (ISO)
100
AcDbLine
 10
104.0968965367551
 20
552.6784765886004
 30
0.0
 11
771.0968965367436
 21
552.6784765886004
 31
0.0
  0
LINE
  5
367
330
75
100
AcDbEntity
  8
Visible (ISO)
100
AcDbLine
 10
774.0968965367435
 20
549.6784765886006
 30
0.0
 11
771.0968965367433
 21
549.6784765886023
 31
0.0
  0
LINE
  5
368
330
75
100
AcDbEntity
  8
Visible (ISO)
100
AcDbLine
 10
771.0968965367433
 20
503.678476588604
 30
0.0
 11
774.0968965367433
 21
503.6784765886022
 31
0.0
  0
LINE
  5
369
330
75
100
AcDbEntity
  8
Visible (ISO)
100
AcDbLine
 10
101.0968965367552
 20
503.6784765886022
 30
0.0
 11
104.096896536755
 21
503.6784765886038
 31
0.0
  0
LINE
  5
36A
330
75
100
AcDbEntity
  8
Visible (ISO)
100
AcDbLine
 10
104.0968965367551
 20
549.6784765886022
 30
0.0
 11
101.0968965367551
 21
549.6784765886004
 31
0.0
  0
LINE
  5
36B
330
75
100
AcDbEntity
  8
Visible (ISO)
100
AcDbLine
 10
771.0968965367436
 20
500.6784765886022
 30
0.0
 11
771.0968965367436
 21
503.6784765886039
 31
0.0
  0
LINE
  5
36C
330
75
100
AcDbEntity
  8
Visible (ISO)
100
AcDbLine
 10
104.0968965367551
 20
503.6784765886038
 30
0.0
 11
104.0968965367551
 21
500.6784765886021
 31
0.0
  0
LINE
  5
36D
330
75
100
AcDbEntity
  8
Visible (ISO)
100
AcDbLine
 10
104.0968965367551
 20
552.6784765886004
 30
0.0
 11
104.0968965367551
 21
549.6784765886023
 31
0.0
  0
LINE
  5
36E
330
75
100
AcDbEntity
  8
Visible (ISO)
100
AcDbLine
 10
771.0968965367436
 20
549.6784765886023
 30
0.0
 11
771.0968965367436
 21
552.6784765886005
 31
0.0
  0
LINE
  5
36F
330
75
100
AcDbEntity
  8
Visible (ISO)
100
AcDbLine
 10
257.3468965367524
 20
493.4284765885744
 30
0.0
 11
292.8829971452424
 21
493.4284765885744
 31
0.0
  0
LINE
  5
370
330
75
100
AcDbEntity
  8
Visible (ISO)
100
AcDbLine
 10
307.3107959282585
 20
493.4284765885744
 30
0.0
 11
318.3468965367528
 21
493.4284765885744
 31
0.0
  0
LINE
  5
371
330
75
100
AcDbEntity
  8
Visible (ISO)
100
AcDbLine
 10
556.8468965367538
 20
493.4284765885744
 30
0.0
 11
567.8639054472024
 21
493.4284765885744
 31
0.0
  0
LINE
  5
372
330
75
100
AcDbEntity
  8
Visible (ISO)
100
AcDbLine
 10
582.329887626294
 20
493.4284765885744
 30
0.0
 11
617.8468965367541
 21
493.4284765885744
 31
0.0
  0
LINE
  5
373
330
75
100
AcDbEntity
  8
Visible (ISO)
100
AcDbLine
 10
617.8468965367536
 20
492.6784765886006
 30
0.0
 11
556.8468965367542
 21
492.6784765886006
 31
0.0
  0
LINE
  5
374
330
75
100
AcDbEntity
  8
Visible (ISO)
100
AcDbLine
 10
318.3468965367542
 20
492.678476588599
 30
0.0
 11
257.3468965367539
 21
492.678476588599
 31
0.0
  0
LINE
  5
375
330
75
100
AcDbEntity
  8
Visible (ISO)
100
AcDbLine
 10
101.7968965367554
 20
494.0784765886011
 30
0.0
 11
100.2968965367551
 21
494.0784765886011
 31
0.0
  0
LINE
  5
376
330
75
100
AcDbEntity
  8
Visible (ISO)
100
AcDbLine
 10
100.2968965367553
 20
494.1784765886011
 30
0.0
 11
100.2968965367553
 21
495.6784765886011
 31
0.0
  0
LINE
  5
377
330
75
100
AcDbEntity
  8
Visible (ISO)
100
AcDbLine
 10
103.2968965367553
 20
495.6784765886011
 30
0.0
 11
100.2968965367553
 21
495.6784765886011
 31
0.0
  0
LINE
  5
378
330
75
100
AcDbEntity
  8
Visible (ISO)
100
AcDbLine
 10
103.2968965367553
 20
494.1784765886011
 30
0.0
 11
100.2968965367553
 21
494.1784765886011
 31
0.0
  0
LINE
  5
379
330
75
100
AcDbEntity
  8
Visible (ISO)
100
AcDbLine
 10
101.7968965367554
 20
492.678476588601
 30
0.0
 11
101.7968965367554
 21
494.0784765886011
 31
0.0
  0
LINE
  5
37A
330
75
100
AcDbEntity
  8
Visible (ISO)
100
AcDbLine
 10
100.2968965367551
 20
494.0784765886011
 30
0.0
 11
100.2968965367553
 21
492.678476588601
 31
0.0
  0
LINE
  5
37B
330
75
100
AcDbEntity
  8
Visible (ISO)
100
AcDbLine
 10
101.7968965367554
 20
456.2784765886012
 30
0.0
 11
100.2968965367553
 21
456.2784765886012
 31
0.0
  0
LINE
  5
37C
330
75
100
AcDbEntity
  8
Visible (ISO)
100
AcDbLine
 10
100.2968965367553
 20
456.1784765886011
 30
0.0
 11
100.2968965367553
 21
454.6784765886012
 31
0.0
  0
LINE
  5
37D
330
75
100
AcDbEntity
  8
Visible (ISO)
100
AcDbLine
 10
101.7968965367554
 20
457.6784765886012
 30
0.0
 11
101.7968965367554
 21
456.2784765886012
 31
0.0
  0
LINE
  5
37E
330
75
100
AcDbEntity
  8
Visible (ISO)
100
AcDbLine
 10
100.2968965367553
 20
457.6784765886012
 30
0.0
 11
100.2968965367553
 21
456.2784765886012
 31
0.0
  0
LINE
  5
37F
330
75
100
AcDbEntity
  8
Visible (ISO)
100
AcDbLine
 10
103.2968965367553
 20
456.1784765886011
 30
0.0
 11
100.2968965367553
 21
456.1784765886011
 31
0.0
  0
LINE
  5
380
330
75
100
AcDbEntity
  8
Visible (ISO)
100
AcDbLine
 10
100.2968965367553
 20
454.6784765886012
 30
0.0
 11
103.2968965367553
 21
454.6784765886012
 31
0.0
  0
LINE
  5
381
330
75
100
AcDbEntity
  8
Visible (ISO)
100
AcDbLine
 10
774.896896596359
 20
456.278476970071
 30
0.0
 11
774.0449139879215
 21
456.278476970071
 31
0.0
  0
LINE
  5
382
330
75
100
AcDbEntity
  8
Visible (ISO)
100
AcDbLine
 10
774.896896596359
 20
456.1784770654385
 30
0.0
 11
774.896896596359
 21
454.6784761117641
 31
0.0
  0
POLYLINE
  5
383
330
75
100
AcDbEntity
  8
Visible (ISO)
100
AcDb2dPolyline
 66
     1
 10
0.0
 20
0.0
 30
0.0
 70
   128
  0
VERTEX
  5
384
330
383
100
AcDbEntity
  8
Visible (ISO)
100
AcDbVertex
100
AcDb2dVertex
 10
773.3518240445423
 20
456.544776217813
 30
0.0
  0
VERTEX
  5
385
330
383
100
AcDbEntity
  8
Visible (ISO)
100
AcDbVertex
100
AcDb2dVertex
 10
773.3293723578695
 20
456.5981652902311
 30
0.0
  0
VERTEX
  5
387
330
383
100
AcDbEntity
  8
Visible (ISO)
100
AcDbVertex
100
AcDb2dVertex
 10
773.3000966751147
 20
456.6542747186369
 30
0.0
  0
VERTEX
  5
388
330
383
100
AcDbEntity
  8
Visible (ISO)
100
AcDbVertex
100
AcDb2dVertex
 10
773.2639310167301
 20
456.7126586602874
 30
0.0
  0
VERTEX
  5
389
330
383
100
AcDbEntity
  8
Visible (ISO)
100
AcDbVertex
100
AcDb2dVertex
 10
773.2209591225851
 20
456.7728736566254
 30
0.0
  0
VERTEX
  5
38A
330
383
100
AcDbEntity
  8
Visible (ISO)
100
AcDbVertex
100
AcDb2dVertex
 10
773.1712647185791
 20
456.8344762490936
 30
0.0
  0
VERTEX
  5
38B
330
383
100
AcDbEntity
  8
Visible (ISO)
100
AcDbVertex
100
AcDb2dVertex
 10
773.1149315119851
 20
456.8970229791353
 30
0.0
  0
VERTEX
  5
38C
330
383
100
AcDbEntity
  8
Visible (ISO)
100
AcDbVertex
100
AcDb2dVertex
 10
773.0520432100761
 20
456.9600703881929
 30
0.0
  0
VERTEX
  5
38D
330
383
100
AcDbEntity
  8
Visible (ISO)
100
AcDbVertex
100
AcDb2dVertex
 10
772.982683594631
 20
457.0231726335237
 30
0.0
  0
VERTEX
  5
38E
330
383
100
AcDbEntity
  8
Visible (ISO)
100
AcDbVertex
100
AcDb2dVertex
 10
772.9071604491341
 20
457.0858886407564
 30
0.0
  0
VERTEX
  5
38F
330
383
100
AcDbEntity
  8
Visible (ISO)
100
AcDbVertex
100
AcDb2dVertex
 10
772.8268335417974
 20
457.1477725671481
 30
0.0
  0
VERTEX
  5
390
330
383
100
AcDbEntity
  8
Visible (ISO)
100
AcDbVertex
100
AcDb2dVertex
 10
772.7430043027866
 20
457.2083833383273
 30
0.0
  0
VERTEX
  5
391
330
383
100
AcDbEntity
  8
Visible (ISO)
100
AcDbVertex
100
AcDb2dVertex
 10
772.6569401876199
 20
457.2672774957371
 30
0.0
  0
VERTEX
  5
392
330
383
100
AcDbEntity
  8
Visible (ISO)
100
AcDbVertex
100
AcDb2dVertex
 10
772.5699085400569
 20
457.3240068124485
 30
0.0
  0
VERTEX
  5
393
330
383
100
AcDbEntity
  8
Visible (ISO)
100
AcDbVertex
100
AcDb2dVertex
 10
772.483176778363
 20
457.3781325982761
 30
0.0
  0
VERTEX
  5
394
330
383
100
AcDbEntity
  8
Visible (ISO)
100
AcDbVertex
100
AcDb2dVertex
 10
772.3980123953092
 20
457.4292090104771
 30
0.0
  0
VERTEX
  5
395
330
383
100
AcDbEntity
  8
Visible (ISO)
100
AcDbVertex
100
AcDb2dVertex
 10
772.3156827346551
 20
457.4767925904942
 30
0.0
  0
VERTEX
  5
396
330
383
100
AcDbEntity
  8
Visible (ISO)
100
AcDbVertex
100
AcDb2dVertex
 10
772.237575467037
 20
457.5204374955846
 30
0.0
  0
VERTEX
  5
397
330
383
100
AcDbEntity
  8
Visible (ISO)
100
AcDbVertex
100
AcDb2dVertex
 10
772.1649840132463
 20
457.5597050355626
 30
0.0
  0
VERTEX
  5
398
330
383
100
AcDbEntity
  8
Visible (ISO)
100
AcDbVertex
100
AcDb2dVertex
 10
772.0988344804514
 20
457.5941469834996
 30
0.0
  0
VERTEX
  5
399
330
383
100
AcDbEntity
  8
Visible (ISO)
100
AcDbVertex
100
AcDb2dVertex
 10
772.0400462702977
 20
457.6233222650243
 30
0.0
  0
VERTEX
  5
39A
330
383
100
AcDbEntity
  8
Visible (ISO)
100
AcDbVertex
100
AcDb2dVertex
 10
771.9895387844312
 20
457.6467874215794
 30
0.0
  0
VERTEX
  5
39B
330
383
100
AcDbEntity
  8
Visible (ISO)
100
AcDbVertex
100
AcDb2dVertex
 10
771.9482317225206
 20
457.6640966104222
 30
0.0
  0
VERTEX
  5
39C
330
383
100
AcDbEntity
  8
Visible (ISO)
100
AcDbVertex
100
AcDb2dVertex
 10
771.9170444862116
 20
457.6748087571813
 30
0.0
  0
VERTEX
  5
39D
330
383
100
AcDbEntity
  8
Visible (ISO)
100
AcDbVertex
100
AcDb2dVertex
 10
771.8968964771497
 20
457.6784756349278
 30
0.0
  0
SEQEND
  5
386
330
383
100
AcDbEntity
  8
Visible (ISO)
  0
POLYLINE
  5
39E
330
75
100
AcDbEntity
  8
Visible (ISO)
100
AcDb2dPolyline
 66
     1
 10
0.0
 20
0.0
 30
0.0
 70
   128
  0
VERTEX
  5
39F
330
39E
100
AcDbEntity
  8
Visible (ISO)
100
AcDbVertex
100
AcDb2dVertex
 10
771.8968964771497
 20
457.6784756349288
 30
0.0
  0
VERTEX
  5
3A0
330
39E
100
AcDbEntity
  8
Visible (ISO)
100
AcDbVertex
100
AcDb2dVertex
 10
771.9539947466123
 20
457.6722624467573
 30
0.0
  0
VERTEX
  5
3A2
330
39E
100
AcDbEntity
  8
Visible (ISO)
100
AcDbVertex
100
AcDb2dVertex
 10
772.0477686480749
 20
457.6542737649641
 30
0.0
  0
VERTEX
  5
3A3
330
39E
100
AcDbEntity
  8
Visible (ISO)
100
AcDbVertex
100
AcDb2dVertex
 10
772.1741257266272
 20
457.6255014108381
 30
0.0
  0
VERTEX
  5
3A4
330
39E
100
AcDbEntity
  8
Visible (ISO)
100
AcDbVertex
100
AcDb2dVertex
 10
772.3289735273588
 20
457.5869300531111
 30
0.0
  0
VERTEX
  5
3A5
330
39E
100
AcDbEntity
  8
Visible (ISO)
100
AcDbVertex
100
AcDb2dVertex
 10
772.5082195953596
 20
457.5395491288862
 30
0.0
  0
VERTEX
  5
3A6
330
39E
100
AcDbEntity
  8
Visible (ISO)
100
AcDbVertex
100
AcDb2dVertex
 10
772.7077714757192
 20
457.484345691081
 30
0.0
  0
VERTEX
  5
3A7
330
39E
100
AcDbEntity
  8
Visible (ISO)
100
AcDbVertex
100
AcDb2dVertex
 10
772.9225240306127
 20
457.4223067926129
 30
0.0
  0
VERTEX
  5
3A8
330
39E
100
AcDbEntity
  8
Visible (ISO)
100
AcDbVertex
100
AcDb2dVertex
 10
773.1463396580088
 20
457.3544194863996
 30
0.0
  0
VERTEX
  5
3A9
330
39E
100
AcDbEntity
  8
Visible (ISO)
100
AcDbVertex
100
AcDb2dVertex
 10
773.3735774790998
 20
457.2816708253582
 30
0.0
  0
VERTEX
  5
3AA
330
39E
100
AcDbEntity
  8
Visible (ISO)
100
AcDbVertex
100
AcDb2dVertex
 10
773.5985965498853
 20
457.2050478624064
 30
0.0
  0
VERTEX
  5
3AB
330
39E
100
AcDbEntity
  8
Visible (ISO)
100
AcDbVertex
100
AcDb2dVertex
 10
773.8157559217084
 20
457.1255376504618
 30
0.0
  0
VERTEX
  5
3AC
330
39E
100
AcDbEntity
  8
Visible (ISO)
100
AcDbVertex
100
AcDb2dVertex
 10
774.0194147111046
 20
457.0441296266274
 30
0.0
  0
VERTEX
  5
3AD
330
39E
100
AcDbEntity
  8
Visible (ISO)
100
AcDbVertex
100
AcDb2dVertex
 10
774.2035404251087
 20
456.9618108438209
 30
0.0
  0
VERTEX
  5
3AE
330
39E
100
AcDbEntity
  8
Visible (ISO)
100
AcDbVertex
100
AcDb2dVertex
 10
774.3656129793394
 20
456.8795659707739
 30
0.0
  0
VERTEX
  5
3AF
330
39E
100
AcDbEntity
  8
Visible (ISO)
100
AcDbVertex
100
AcDb2dVertex
 10
774.5052595839966
 20
456.7983820604039
 30
0.0
  0
VERTEX
  5
3B0
330
39E
100
AcDbEntity
  8
Visible (ISO)
100
AcDbVertex
100
AcDb2dVertex
 10
774.6221077100504
 20
456.7192509339999
 30
0.0
  0
VERTEX
  5
3B1
330
39E
100
AcDbEntity
  8
Visible (ISO)
100
AcDbVertex
100
AcDb2dVertex
 10
774.7157847539652
 20
456.6431572602938
 30
0.0
  0
VERTEX
  5
3B2
330
39E
100
AcDbEntity
  8
Visible (ISO)
100
AcDbVertex
100
AcDb2dVertex
 10
774.7859179631936
 20
456.5710857080171
 30
0.0
  0
VERTEX
  5
3B3
330
39E
100
AcDbEntity
  8
Visible (ISO)
100
AcDbVertex
100
AcDb2dVertex
 10
774.8345811323392
 20
456.5040280984589
 30
0.0
  0
VERTEX
  5
3B4
330
39E
100
AcDbEntity
  8
Visible (ISO)
100
AcDbVertex
100
AcDb2dVertex
 10
774.8664565042722
 20
456.4429714845366
 30
0.0
  0
VERTEX
  5
3B5
330
39E
100
AcDbEntity
  8
Visible (ISO)
100
AcDbVertex
100
AcDb2dVertex
 10
774.8850851909387
 20
456.3888981507963
 30
0.0
  0
VERTEX
  5
3B6
330
39E
100
AcDbEntity
  8
Visible (ISO)
100
AcDbVertex
100
AcDb2dVertex
 10
774.8940075592267
 20
456.3427999185269
 30
0.0
  0
VERTEX
  5
3B7
330
39E
100
AcDbEntity
  8
Visible (ISO)
100
AcDbVertex
100
AcDb2dVertex
 10
774.8967644230592
 20
456.3056638406459
 30
0.0
  0
VERTEX
  5
3B8
330
39E
100
AcDbEntity
  8
Visible (ISO)
100
AcDbVertex
100
AcDb2dVertex
 10
774.896896596359
 20
456.278476970071
 30
0.0
  0
SEQEND
  5
3A1
330
39E
100
AcDbEntity
  8
Visible (ISO)
  0
POLYLINE
  5
3B9
330
75
100
AcDbEntity
  8
Visible (ISO)
100
AcDb2dPolyline
 66
     1
 10
0.0
 20
0.0
 30
0.0
 70
   128
  0
VERTEX
  5
3BA
330
3B9
100
AcDbEntity
  8
Visible (ISO)
100
AcDbVertex
100
AcDb2dVertex
 10
771.8968964771497
 20
457.6784756349278
 30
0.0
  0
VERTEX
  5
3BB
330
3B9
100
AcDbEntity
  8
Visible (ISO)
100
AcDbVertex
100
AcDb2dVertex
 10
771.9097651199567
 20
457.6443007157994
 30
0.0
  0
VERTEX
  5
3BD
330
3B9
100
AcDbEntity
  8
Visible (ISO)
100
AcDbVertex
100
AcDb2dVertex
 10
771.947038884567
 20
457.5931146310521
 30
0.0
  0
VERTEX
  5
3BE
330
3B9
100
AcDbEntity
  8
Visible (ISO)
100
AcDbVertex
100
AcDb2dVertex
 10
772.0067192272413
 20
457.5268724130345
 30
0.0
  0
VERTEX
  5
3BF
330
3B9
100
AcDbEntity
  8
Visible (ISO)
100
AcDbVertex
100
AcDb2dVertex
 10
772.0868079022634
 20
457.4475219415379
 30
0.0
  0
VERTEX
  5
3C0
330
3B9
100
AcDbEntity
  8
Visible (ISO)
100
AcDbVertex
100
AcDb2dVertex
 10
772.1853066639173
 20
457.357018248911
 30
0.0
  0
VERTEX
  5
3C1
330
3B9
100
AcDbEntity
  8
Visible (ISO)
100
AcDbVertex
100
AcDb2dVertex
 10
772.3002171174753
 20
457.2573115991307
 30
0.0
  0
VERTEX
  5
3C2
330
3B9
100
AcDbEntity
  8
Visible (ISO)
100
AcDbVertex
100
AcDb2dVertex
 10
772.4295408682096
 20
457.1508457826328
 30
0.0
  0
VERTEX
  5
3C3
330
3B9
100
AcDbEntity
  8
Visible (ISO)
100
AcDbVertex
100
AcDb2dVertex
 10
772.5712796704042
 20
457.0405152009678
 30
0.0
  0
VERTEX
  5
3C4
330
3B9
100
AcDbEntity
  8
Visible (ISO)
100
AcDbVertex
100
AcDb2dVertex
 10
772.7234350548256
 20
456.9289519952488
 30
0.0
  0
VERTEX
  5
3C5
330
3B9
100
AcDbEntity
  8
Visible (ISO)
100
AcDbVertex
100
AcDb2dVertex
 10
772.8840088502634
 20
456.8187906907748
 30
0.0
  0
VERTEX
  5
3C6
330
3B9
100
AcDbEntity
  8
Visible (ISO)
100
AcDbVertex
100
AcDb2dVertex
 10
773.0510026247371
 20
456.7126634286593
 30
0.0
  0
VERTEX
  5
3C7
330
3B9
100
AcDbEntity
  8
Visible (ISO)
100
AcDbVertex
100
AcDb2dVertex
 10
773.2224180207717
 20
456.6131999658296
 30
0.0
  0
VERTEX
  5
3C8
330
3B9
100
AcDbEntity
  8
Visible (ISO)
100
AcDbVertex
100
AcDb2dVertex
 10
773.3962567447756
 20
456.523194568033
 30
0.0
  0
VERTEX
  5
3C9
330
3B9
100
AcDbEntity
  8
Visible (ISO)
100
AcDbVertex
100
AcDb2dVertex
 10
773.5705204338897
 20
456.4438059495637
 30
0.0
  0
VERTEX
  5
3CA
330
3B9
100
AcDbEntity
  8
Visible (ISO)
100
AcDbVertex
100
AcDb2dVertex
 10
773.7432107732761
 20
456.3752176927277
 30
0.0
  0
VERTEX
  5
3CB
330
3B9
100
AcDbEntity
  8
Visible (ISO)
100
AcDbVertex
100
AcDb2dVertex
 10
773.9123294160831
 20
456.3176109956451
 30
0.0
  0
VERTEX
  5
3CC
330
3B9
100
AcDbEntity
  8
Visible (ISO)
100
AcDbVertex
100
AcDb2dVertex
 10
774.0758780048358
 20
456.2711765931792
 30
0.0
  0
VERTEX
  5
3CD
330
3B9
100
AcDbEntity
  8
Visible (ISO)
100
AcDbVertex
100
AcDb2dVertex
 10
774.2318582193124
 20
456.2360909150785
 30
0.0
  0
VERTEX
  5
3CE
330
3B9
100
AcDbEntity
  8
Visible (ISO)
100
AcDbVertex
100
AcDb2dVertex
 10
774.3782716647851
 20
456.2114455865567
 30
0.0
  0
VERTEX
  5
3CF
330
3B9
100
AcDbEntity
  8
Visible (ISO)
100
AcDbVertex
100
AcDb2dVertex
 10
774.5131201700437
 20
456.1950686143583
 30
0.0
  0
VERTEX
  5
3D0
330
3B9
100
AcDbEntity
  8
Visible (ISO)
100
AcDbVertex
100
AcDb2dVertex
 10
774.6344051913488
 20
456.1852743791287
 30
0.0
  0
VERTEX
  5
3D1
330
3B9
100
AcDbEntity
  8
Visible (ISO)
100
AcDbVertex
100
AcDb2dVertex
 10
774.7401284829843
 20
456.1803724931423
 30
0.0
  0
VERTEX
  5
3D2
330
3B9
100
AcDbEntity
  8
Visible (ISO)
100
AcDbVertex
100
AcDb2dVertex
 10
774.8282916502225
 20
456.1786678003017
 30
0.0
  0
VERTEX
  5
3D3
330
3B9
100
AcDbEntity
  8
Visible (ISO)
100
AcDbVertex
100
AcDb2dVertex
 10
774.896896596359
 20
456.1784770654385
 30
0.0
  0
SEQEND
  5
3BC
330
3B9
100
AcDbEntity
  8
Visible (ISO)
  0
POLYLINE
  5
3D4
330
75
100
AcDbEntity
  8
Visible (ISO)
100
AcDb2dPolyline
 66
     1
 10
0.0
 20
0.0
 30
0.0
 70
   128
  0
VERTEX
  5
3D5
330
3D4
100
AcDbEntity
  8
Visible (ISO)
100
AcDbVertex
100
AcDb2dVertex
 10
774.896896596359
 20
454.6784761117641
 30
0.0
  0
VERTEX
  5
3D6
330
3D4
100
AcDbEntity
  8
Visible (ISO)
100
AcDbVertex
100
AcDb2dVertex
 10
774.8282916502225
 20
454.6788599656765
 30
0.0
  0
VERTEX
  5
3D8
330
3D4
100
AcDbEntity
  8
Visible (ISO)
100
AcDbVertex
100
AcDb2dVertex
 10
774.7401284829843
 20
454.6822669671719
 30
0.0
  0
VERTEX
  5
3D9
330
3D4
100
AcDbEntity
  8
Visible (ISO)
100
AcDbVertex
100
AcDb2dVertex
 10
774.6344051913488
 20
454.6920731233305
 30
0.0
  0
VERTEX
  5
3DA
330
3D4
100
AcDbEntity
  8
Visible (ISO)
100
AcDbVertex
100
AcDb2dVertex
 10
774.5131201700437
 20
454.7116615937896
 30
0.0
  0
VERTEX
  5
3DB
330
3D4
100
AcDbEntity
  8
Visible (ISO)
100
AcDbVertex
100
AcDb2dVertex
 10
774.3782716647851
 20
454.7444131540008
 30
0.0
  0
VERTEX
  5
3DC
330
3D4
100
AcDbEntity
  8
Visible (ISO)
100
AcDbVertex
100
AcDb2dVertex
 10
774.2318582193124
 20
454.7937061952302
 30
0.0
  0
VERTEX
  5
3DD
330
3D4
100
AcDbEntity
  8
Visible (ISO)
100
AcDbVertex
100
AcDb2dVertex
 10
774.0758780048358
 20
454.8638751672457
 30
0.0
  0
VERTEX
  5
3DE
330
3D4
100
AcDbEntity
  8
Visible (ISO)
100
AcDbVertex
100
AcDb2dVertex
 10
773.9123294160831
 20
454.9567463563632
 30
0.0
  0
VERTEX
  5
3DF
330
3D4
100
AcDbEntity
  8
Visible (ISO)
100
AcDbVertex
100
AcDb2dVertex
 10
773.7432107732761
 20
455.0719573663426
 30
0.0
  0
VERTEX
  5
3E0
330
3D4
100
AcDbEntity
  8
Visible (ISO)
100
AcDbVertex
100
AcDb2dVertex
 10
773.5705204338897
 20
455.2091362642005
 30
0.0
  0
VERTEX
  5
3E1
330
3D4
100
AcDbEntity
  8
Visible (ISO)
100
AcDbVertex
100
AcDb2dVertex
 10
773.3962567447756
 20
455.3679135011391
 30
0.0
  0
VERTEX
  5
3E2
330
3D4
100
AcDbEntity
  8
Visible (ISO)
100
AcDbVertex
100
AcDb2dVertex
 10
773.2224180207717
 20
455.5479242967323
 30
0.0
  0
VERTEX
  5
3E3
330
3D4
100
AcDbEntity
  8
Visible (ISO)
100
AcDbVertex
100
AcDb2dVertex
 10
773.0510026247371
 20
455.7468488382059
 30
0.0
  0
VERTEX
  5
3E4
330
3D4
100
AcDbEntity
  8
Visible (ISO)
100
AcDbVertex
100
AcDb2dVertex
 10
772.8840088502634
 20
455.9591057466227
 30
0.0
  0
VERTEX
  5
3E5
330
3D4
100
AcDbEntity
  8
Visible (ISO)
100
AcDbVertex
100
AcDb2dVertex
 10
772.7234350548256
 20
456.1794283555705
 30
0.0
  0
VERTEX
  5
3E6
330
3D4
100
AcDbEntity
  8
Visible (ISO)
100
AcDbVertex
100
AcDb2dVertex
 10
772.5712796704042
 20
456.4025547670087
 30
0.0
  0
VERTEX
  5
3E7
330
3D4
100
AcDbEntity
  8
Visible (ISO)
100
AcDbVertex
100
AcDb2dVertex
 10
772.4295408682096
 20
456.6232159303388
 30
0.0
  0
VERTEX
  5
3E8
330
3D4
100
AcDbEntity
  8
Visible (ISO)
100
AcDbVertex
100
AcDb2dVertex
 10
772.3002171174753
 20
456.8361475633344
 30
0.0
  0
VERTEX
  5
3E9
330
3D4
100
AcDbEntity
  8
Visible (ISO)
100
AcDbVertex
100
AcDb2dVertex
 10
772.1853066639173
 20
457.0355584787092
 30
0.0
  0
VERTEX
  5
3EA
330
3D4
100
AcDbEntity
  8
Visible (ISO)
100
AcDbVertex
100
AcDb2dVertex
 10
772.0868079022634
 20
457.2165658639631
 30
0.0
  0
VERTEX
  5
3EB
330
3D4
100
AcDbEntity
  8
Visible (ISO)
100
AcDbVertex
100
AcDb2dVertex
 10
772.0067192272413
 20
457.3752668069563
 30
0.0
  0
VERTEX
  5
3EC
330
3D4
100
AcDbEntity
  8
Visible (ISO)
100
AcDbVertex
100
AcDb2dVertex
 10
771.947038884567
 20
457.5077536271773
 30
0.0
  0
VERTEX
  5
3ED
330
3D4
100
AcDbEntity
  8
Visible (ISO)
100
AcDbVertex
100
AcDb2dVertex
 10
771.9097651199567
 20
457.6101257966719
 30
0.0
  0
VERTEX
  5
3EE
330
3D4
100
AcDbEntity
  8
Visible (ISO)
100
AcDbVertex
100
AcDb2dVertex
 10
771.8968964771497
 20
457.6784756349288
 30
0.0
  0
SEQEND
  5
3D7
330
3D4
100
AcDbEntity
  8
Visible (ISO)
  0
LINE
  5
3EF
330
75
100
AcDbEntity
  8
Visible (ISO)
100
AcDbLine
 10
774.0449139879215
 20
494.0784765908364
 30
0.0
 11
774.896896596359
 21
494.0784765908364
 31
0.0
  0
LINE
  5
3F0
330
75
100
AcDbEntity
  8
Visible (ISO)
100
AcDbLine
 10
774.896896596359
 20
495.6784766482059
 30
0.0
 11
774.896896596359
 21
494.1784765886012
 31
0.0
  0
POLYLINE
  5
3F1
330
75
100
AcDbEntity
  8
Visible (ISO)
100
AcDb2dPolyline
 66
     1
 10
0.0
 20
0.0
 30
0.0
 70
   128
  0
VERTEX
  5
3F2
330
3F1
100
AcDbEntity
  8
Visible (ISO)
100
AcDbVertex
100
AcDb2dVertex
 10
771.8968964771497
 20
492.6784765289974
 30
0.0
  0
VERTEX
  5
3F3
330
3F1
100
AcDbEntity
  8
Visible (ISO)
100
AcDbVertex
100
AcDb2dVertex
 10
771.9170444862116
 20
492.6821454929066
 30
0.0
  0
VERTEX
  5
3F5
330
3F1
100
AcDbEntity
  8
Visible (ISO)
100
AcDbVertex
100
AcDb2dVertex
 10
771.9482317225206
 20
492.6928565965844
 30
0.0
  0
VERTEX
  5
3F6
330
3F1
100
AcDbEntity
  8
Visible (ISO)
100
AcDbVertex
100
AcDb2dVertex
 10
771.9895387844312
 20
492.7101660834503
 30
0.0
  0
VERTEX
  5
3F7
330
3F1
100
AcDbEntity
  8
Visible (ISO)
100
AcDbVertex
100
AcDb2dVertex
 10
772.0400462702977
 20
492.7336301969242
 30
0.0
  0
VERTEX
  5
3F8
330
3F1
100
AcDbEntity
  8
Visible (ISO)
100
AcDbVertex
100
AcDb2dVertex
 10
772.0988344804514
 20
492.7628056274605
 30
0.0
  0
VERTEX
  5
3F9
330
3F1
100
AcDbEntity
  8
Visible (ISO)
100
AcDbVertex
100
AcDb2dVertex
 10
772.1649840132463
 20
492.7972484694672
 30
0.0
  0
VERTEX
  5
3FA
330
3F1
100
AcDbEntity
  8
Visible (ISO)
100
AcDbVertex
100
AcDb2dVertex
 10
772.237575467037
 20
492.836514966364
 30
0.0
  0
VERTEX
  5
3FB
330
3F1
100
AcDbEntity
  8
Visible (ISO)
100
AcDbVertex
100
AcDb2dVertex
 10
772.3156827346551
 20
492.8801616595936
 30
0.0
  0
VERTEX
  5
3FC
330
3F1
100
AcDbEntity
  8
Visible (ISO)
100
AcDbVertex
100
AcDb2dVertex
 10
772.3980123953092
 20
492.9277447925758
 30
0.0
  0
VERTEX
  5
3FD
330
3F1
100
AcDbEntity
  8
Visible (ISO)
100
AcDbVertex
100
AcDb2dVertex
 10
772.483176778363
 20
492.9788208322476
 30
0.0
  0
VERTEX
  5
3FE
330
3F1
100
AcDbEntity
  8
Visible (ISO)
100
AcDbVertex
100
AcDb2dVertex
 10
772.5699085400569
 20
493.032945947523
 30
0.0
  0
VERTEX
  5
3FF
330
3F1
100
AcDbEntity
  8
Visible (ISO)
100
AcDbVertex
100
AcDb2dVertex
 10
772.6569401876199
 20
493.0896765308331
 30
0.0
  0
VERTEX
  5
400
330
3F1
100
AcDbEntity
  8
Visible (ISO)
100
AcDbVertex
100
AcDb2dVertex
 10
772.7430043027866
 20
493.1485689001034
 30
0.0
  0
VERTEX
  5
401
330
3F1
100
AcDbEntity
  8
Visible (ISO)
100
AcDbVertex
100
AcDb2dVertex
 10
772.8268335417974
 20
493.2091794477652
 30
0.0
  0
VERTEX
  5
402
330
3F1
100
AcDbEntity
  8
Visible (ISO)
100
AcDbVertex
100
AcDb2dVertex
 10
772.9071604491341
 20
493.2710644917438
 30
0.0
  0
VERTEX
  5
403
330
3F1
100
AcDbEntity
  8
Visible (ISO)
100
AcDbVertex
100
AcDb2dVertex
 10
772.982683594631
 20
493.3337803499648
 30
0.0
  0
VERTEX
  5
404
330
3F1
100
AcDbEntity
  8
Visible (ISO)
100
AcDbVertex
100
AcDb2dVertex
 10
773.0520432100761
 20
493.3968834148595
 30
0.0
  0
VERTEX
  5
405
330
3F1
100
AcDbEntity
  8
Visible (ISO)
100
AcDbVertex
100
AcDb2dVertex
 10
773.1149315119851
 20
493.4599299298474
 30
0.0
  0
VERTEX
  5
406
330
3F1
100
AcDbEntity
  8
Visible (ISO)
100
AcDbVertex
100
AcDb2dVertex
 10
773.1712647185791
 20
493.5224762873598
 30
0.0
  0
VERTEX
  5
407
330
3F1
100
AcDbEntity
  8
Visible (ISO)
100
AcDbVertex
100
AcDb2dVertex
 10
773.2209591225851
 20
493.584078879828
 30
0.0
  0
VERTEX
  5
408
330
3F1
100
AcDbEntity
  8
Visible (ISO)
100
AcDbVertex
100
AcDb2dVertex
 10
773.2639310167301
 20
493.6442939506717
 30
0.0
  0
VERTEX
  5
409
330
3F1
100
AcDbEntity
  8
Visible (ISO)
100
AcDbVertex
100
AcDb2dVertex
 10
773.3000966751147
 20
493.702677892322
 30
0.0
  0
VERTEX
  5
40A
330
3F1
100
AcDbEntity
  8
Visible (ISO)
100
AcDbVertex
100
AcDb2dVertex
 10
773.3293723578695
 20
493.7587870227045
 30
0.0
  0
VERTEX
  5
40B
330
3F1
100
AcDbEntity
  8
Visible (ISO)
100
AcDbVertex
100
AcDb2dVertex
 10
773.3518240445423
 20
493.8121776969975
 30
0.0
  0
SEQEND
  5
3F4
330
3F1
100
AcDbEntity
  8
Visible (ISO)
  0
POLYLINE
  5
40C
330
75
100
AcDbEntity
  8
Visible (ISO)
100
AcDb2dPolyline
 66
     1
 10
0.0
 20
0.0
 30
0.0
 70
   128
  0
VERTEX
  5
40D
330
40C
100
AcDbEntity
  8
Visible (ISO)
100
AcDbVertex
100
AcDb2dVertex
 10
774.896896596359
 20
494.0784765908364
 30
0.0
  0
VERTEX
  5
40E
330
40C
100
AcDbEntity
  8
Visible (ISO)
100
AcDbVertex
100
AcDb2dVertex
 10
774.8967644230592
 20
494.0512887144331
 30
0.0
  0
VERTEX
  5
410
330
40C
100
AcDbEntity
  8
Visible (ISO)
100
AcDbVertex
100
AcDb2dVertex
 10
774.8940075592267
 20
494.0141522453968
 30
0.0
  0
VERTEX
  5
411
330
40C
100
AcDbEntity
  8
Visible (ISO)
100
AcDbVertex
100
AcDb2dVertex
 10
774.8850851909387
 20
493.9680544601624
 30
0.0
  0
VERTEX
  5
412
330
40C
100
AcDbEntity
  8
Visible (ISO)
100
AcDbVertex
100
AcDb2dVertex
 10
774.8664565042722
 20
493.9139827096707
 30
0.0
  0
VERTEX
  5
413
330
40C
100
AcDbEntity
  8
Visible (ISO)
100
AcDbVertex
100
AcDb2dVertex
 10
774.8345811323392
 20
493.8529242889829
 30
0.0
  0
VERTEX
  5
414
330
40C
100
AcDbEntity
  8
Visible (ISO)
100
AcDbVertex
100
AcDb2dVertex
 10
774.7859179631936
 20
493.7858665304132
 30
0.0
  0
VERTEX
  5
415
330
40C
100
AcDbEntity
  8
Visible (ISO)
100
AcDbVertex
100
AcDb2dVertex
 10
774.7157847539652
 20
493.7137967290232
 30
0.0
  0
VERTEX
  5
416
330
40C
100
AcDbEntity
  8
Visible (ISO)
100
AcDbVertex
100
AcDb2dVertex
 10
774.6221077100504
 20
493.6377021985005
 30
0.0
  0
VERTEX
  5
417
330
40C
100
AcDbEntity
  8
Visible (ISO)
100
AcDbVertex
100
AcDb2dVertex
 10
774.5052595839966
 20
493.5585702897859
 30
0.0
  0
VERTEX
  5
418
330
40C
100
AcDbEntity
  8
Visible (ISO)
100
AcDbVertex
100
AcDb2dVertex
 10
774.3656129793394
 20
493.4773882793142
 30
0.0
  0
VERTEX
  5
419
330
40C
100
AcDbEntity
  8
Visible (ISO)
100
AcDbVertex
100
AcDb2dVertex
 10
774.2035404251087
 20
493.3951434807733
 30
0.0
  0
VERTEX
  5
41A
330
40C
100
AcDbEntity
  8
Visible (ISO)
100
AcDbVertex
100
AcDb2dVertex
 10
774.0194147111046
 20
493.3128232078509
 30
0.0
  0
VERTEX
  5
41B
330
40C
100
AcDbEntity
  8
Visible (ISO)
100
AcDbVertex
100
AcDb2dVertex
 10
773.8157559217084
 20
493.2314148114877
 30
0.0
  0
VERTEX
  5
41C
330
40C
100
AcDbEntity
  8
Visible (ISO)
100
AcDbVertex
100
AcDb2dVertex
 10
773.5985965498853
 20
493.1519055681187
 30
0.0
  0
VERTEX
  5
41D
330
40C
100
AcDbEntity
  8
Visible (ISO)
100
AcDbVertex
100
AcDb2dVertex
 10
773.3735774790998
 20
493.0752828286846
 30
0.0
  0
VERTEX
  5
41E
330
40C
100
AcDbEntity
  8
Visible (ISO)
100
AcDbVertex
100
AcDb2dVertex
 10
773.1463396580088
 20
493.0025338696202
 30
0.0
  0
VERTEX
  5
41F
330
40C
100
AcDbEntity
  8
Visible (ISO)
100
AcDbVertex
100
AcDb2dVertex
 10
772.9225240306127
 20
492.9346459673604
 30
0.0
  0
VERTEX
  5
420
330
40C
100
AcDbEntity
  8
Visible (ISO)
100
AcDbVertex
100
AcDb2dVertex
 10
772.7077714757192
 20
492.8726066218575
 30
0.0
  0
VERTEX
  5
421
330
40C
100
AcDbEntity
  8
Visible (ISO)
100
AcDbVertex
100
AcDb2dVertex
 10
772.5082195953596
 20
492.8174028860292
 30
0.0
  0
VERTEX
  5
422
330
40C
100
AcDbEntity
  8
Visible (ISO)
100
AcDbVertex
100
AcDb2dVertex
 10
772.3289735273588
 20
492.7700222598276
 30
0.0
  0
VERTEX
  5
423
330
40C
100
AcDbEntity
  8
Visible (ISO)
100
AcDbVertex
100
AcDb2dVertex
 10
772.1741257266272
 20
492.7314519451818
 30
0.0
  0
VERTEX
  5
424
330
40C
100
AcDbEntity
  8
Visible (ISO)
100
AcDbVertex
100
AcDb2dVertex
 10
772.0477686480749
 20
492.7026794420442
 30
0.0
  0
VERTEX
  5
425
330
40C
100
AcDbEntity
  8
Visible (ISO)
100
AcDbVertex
100
AcDb2dVertex
 10
771.9539947466123
 20
492.6846918033323
 30
0.0
  0
VERTEX
  5
426
330
40C
100
AcDbEntity
  8
Visible (ISO)
100
AcDbVertex
100
AcDb2dVertex
 10
771.8968964771497
 20
492.6784765289983
 30
0.0
  0
SEQEND
  5
40F
330
40C
100
AcDbEntity
  8
Visible (ISO)
  0
POLYLINE
  5
427
330
75
100
AcDbEntity
  8
Visible (ISO)
100
AcDb2dPolyline
 66
     1
 10
0.0
 20
0.0
 30
0.0
 70
   128
  0
VERTEX
  5
428
330
427
100
AcDbEntity
  8
Visible (ISO)
100
AcDbVertex
100
AcDb2dVertex
 10
774.896896596359
 20
494.1784765886012
 30
0.0
  0
VERTEX
  5
429
330
427
100
AcDbEntity
  8
Visible (ISO)
100
AcDbVertex
100
AcDb2dVertex
 10
774.8282916502225
 20
494.1782845961796
 30
0.0
  0
VERTEX
  5
42B
330
427
100
AcDbEntity
  8
Visible (ISO)
100
AcDbVertex
100
AcDb2dVertex
 10
774.7401284829843
 20
494.176581871322
 30
0.0
  0
VERTEX
  5
42C
330
427
100
AcDbEntity
  8
Visible (ISO)
100
AcDbVertex
100
AcDb2dVertex
 10
774.6344051913488
 20
494.1716782923657
 30
0.0
  0
VERTEX
  5
42D
330
427
100
AcDbEntity
  8
Visible (ISO)
100
AcDbVertex
100
AcDb2dVertex
 10
774.5131201700437
 20
494.1618837381583
 30
0.0
  0
VERTEX
  5
42E
330
427
100
AcDbEntity
  8
Visible (ISO)
100
AcDbVertex
100
AcDb2dVertex
 10
774.3782716647851
 20
494.145508088438
 30
0.0
  0
VERTEX
  5
42F
330
427
100
AcDbEntity
  8
Visible (ISO)
100
AcDbVertex
100
AcDb2dVertex
 10
774.2318582193124
 20
494.1208612162491
 30
0.0
  0
VERTEX
  5
430
330
427
100
AcDbEntity
  8
Visible (ISO)
100
AcDbVertex
100
AcDb2dVertex
 10
774.0758780048358
 20
494.0857775824016
 30
0.0
  0
VERTEX
  5
431
330
427
100
AcDbEntity
  8
Visible (ISO)
100
AcDbVertex
100
AcDb2dVertex
 10
773.9123294160831
 20
494.0393412148453
 30
0.0
  0
VERTEX
  5
432
330
427
100
AcDbEntity
  8
Visible (ISO)
100
AcDbVertex
100
AcDb2dVertex
 10
773.7432107732761
 20
493.9817363524683
 30
0.0
  0
VERTEX
  5
433
330
427
100
AcDbEntity
  8
Visible (ISO)
100
AcDbVertex
100
AcDb2dVertex
 10
773.5705204338897
 20
493.9131472015628
 30
0.0
  0
VERTEX
  5
434
330
427
100
AcDbEntity
  8
Visible (ISO)
100
AcDbVertex
100
AcDb2dVertex
 10
773.3962567447756
 20
493.8337580429265
 30
0.0
  0
VERTEX
  5
435
330
427
100
AcDbEntity
  8
Visible (ISO)
100
AcDbVertex
100
AcDb2dVertex
 10
773.2224180207717
 20
493.7437530549119
 30
0.0
  0
VERTEX
  5
436
330
427
100
AcDbEntity
  8
Visible (ISO)
100
AcDbVertex
100
AcDb2dVertex
 10
773.0510026247371
 20
493.644290858681
 30
0.0
  0
VERTEX
  5
437
330
427
100
AcDbEntity
  8
Visible (ISO)
100
AcDbVertex
100
AcDb2dVertex
 10
772.8840088502634
 20
493.5381624417256
 30
0.0
  0
VERTEX
  5
438
330
427
100
AcDbEntity
  8
Visible (ISO)
100
AcDbVertex
100
AcDb2dVertex
 10
772.7234350548256
 20
493.4280004666995
 30
0.0
  0
VERTEX
  5
439
330
427
100
AcDbEntity
  8
Visible (ISO)
100
AcDbVertex
100
AcDb2dVertex
 10
772.5712796704042
 20
493.3164377080154
 30
0.0
  0
VERTEX
  5
43A
330
427
100
AcDbEntity
  8
Visible (ISO)
100
AcDbVertex
100
AcDb2dVertex
 10
772.4295408682096
 20
493.2061069773388
 30
0.0
  0
VERTEX
  5
43B
330
427
100
AcDbEntity
  8
Visible (ISO)
100
AcDbVertex
100
AcDb2dVertex
 10
772.3002171174753
 20
493.0996408628177
 30
0.0
  0
VERTEX
  5
43C
330
427
100
AcDbEntity
  8
Visible (ISO)
100
AcDbVertex
100
AcDb2dVertex
 10
772.1853066639173
 20
492.9999351071072
 30
0.0
  0
VERTEX
  5
43D
330
427
100
AcDbEntity
  8
Visible (ISO)
100
AcDbVertex
100
AcDb2dVertex
 10
772.0868079022634
 20
492.9094314144802
 30
0.0
  0
VERTEX
  5
43E
330
427
100
AcDbEntity
  8
Visible (ISO)
100
AcDbVertex
100
AcDb2dVertex
 10
772.0067192272413
 20
492.8300816880417
 30
0.0
  0
VERTEX
  5
43F
330
427
100
AcDbEntity
  8
Visible (ISO)
100
AcDbVertex
100
AcDb2dVertex
 10
771.947038884567
 20
492.763837979908
 30
0.0
  0
VERTEX
  5
440
330
427
100
AcDbEntity
  8
Visible (ISO)
100
AcDbVertex
100
AcDb2dVertex
 10
771.9097651199567
 20
492.7126523421955
 30
0.0
  0
VERTEX
  5
441
330
427
100
AcDbEntity
  8
Visible (ISO)
100
AcDbVertex
100
AcDb2dVertex
 10
771.8968964771497
 20
492.6784765289974
 30
0.0
  0
SEQEND
  5
42A
330
427
100
AcDbEntity
  8
Visible (ISO)
  0
POLYLINE
  5
442
330
75
100
AcDbEntity
  8
Visible (ISO)
100
AcDb2dPolyline
 66
     1
 10
0.0
 20
0.0
 30
0.0
 70
   128
  0
VERTEX
  5
443
330
442
100
AcDbEntity
  8
Visible (ISO)
100
AcDbVertex
100
AcDb2dVertex
 10
771.8968964771497
 20
492.6784765289983
 30
0.0
  0
VERTEX
  5
444
330
442
100
AcDbEntity
  8
Visible (ISO)
100
AcDbVertex
100
AcDb2dVertex
 10
771.9097651199567
 20
492.7468280063829
 30
0.0
  0
VERTEX
  5
446
330
442
100
AcDbEntity
  8
Visible (ISO)
100
AcDbVertex
100
AcDb2dVertex
 10
771.947038884567
 20
492.8491994308195
 30
0.0
  0
VERTEX
  5
447
330
442
100
AcDbEntity
  8
Visible (ISO)
100
AcDbVertex
100
AcDb2dVertex
 10
772.0067192272413
 20
492.9816868470869
 30
0.0
  0
VERTEX
  5
448
330
442
100
AcDbEntity
  8
Visible (ISO)
100
AcDbVertex
100
AcDb2dVertex
 10
772.0868079022634
 20
493.1403862254581
 30
0.0
  0
VERTEX
  5
449
330
442
100
AcDbEntity
  8
Visible (ISO)
100
AcDbVertex
100
AcDb2dVertex
 10
772.1853066639173
 20
493.321393610712
 30
0.0
  0
VERTEX
  5
44A
330
442
100
AcDbEntity
  8
Visible (ISO)
100
AcDbVertex
100
AcDb2dVertex
 10
772.3002171174753
 20
493.520805196639
 30
0.0
  0
VERTEX
  5
44B
330
442
100
AcDbEntity
  8
Visible (ISO)
100
AcDbVertex
100
AcDb2dVertex
 10
772.4295408682096
 20
493.7337373139222
 30
0.0
  0
VERTEX
  5
44C
330
442
100
AcDbEntity
  8
Visible (ISO)
100
AcDbVertex
100
AcDb2dVertex
 10
772.5712796704042
 20
493.9543988497813
 30
0.0
  0
VERTEX
  5
44D
330
442
100
AcDbEntity
  8
Visible (ISO)
100
AcDbVertex
100
AcDb2dVertex
 10
772.7234350548256
 20
494.1775243402286
 30
0.0
  0
VERTEX
  5
44E
330
442
100
AcDbEntity
  8
Visible (ISO)
100
AcDbVertex
100
AcDb2dVertex
 10
772.8840088502634
 20
494.3978482799488
 30
0.0
  0
VERTEX
  5
44F
330
442
100
AcDbEntity
  8
Visible (ISO)
100
AcDbVertex
100
AcDb2dVertex
 10
773.0510026247371
 20
494.6101051511126
 30
0.0
  0
VERTEX
  5
450
330
442
100
AcDbEntity
  8
Visible (ISO)
100
AcDbVertex
100
AcDb2dVertex
 10
773.2224180207717
 20
494.8090295063214
 30
0.0
  0
VERTEX
  5
451
330
442
100
AcDbEntity
  8
Visible (ISO)
100
AcDbVertex
100
AcDb2dVertex
 10
773.3962567447756
 20
494.9890394823507
 30
0.0
  0
VERTEX
  5
452
330
442
100
AcDbEntity
  8
Visible (ISO)
100
AcDbVertex
100
AcDb2dVertex
 10
773.5705204338897
 20
495.1478178368761
 30
0.0
  0
VERTEX
  5
453
330
442
100
AcDbEntity
  8
Visible (ISO)
100
AcDbVertex
100
AcDb2dVertex
 10
773.7432107732761
 20
495.2849960641813
 30
0.0
  0
VERTEX
  5
454
330
442
100
AcDbEntity
  8
Visible (ISO)
100
AcDbVertex
100
AcDb2dVertex
 10
773.9123294160831
 20
495.4002058075617
 30
0.0
  0
VERTEX
  5
455
330
442
100
AcDbEntity
  8
Visible (ISO)
100
AcDbVertex
100
AcDb2dVertex
 10
774.0758780048358
 20
495.4930786358068
 30
0.0
  0
VERTEX
  5
456
330
442
100
AcDbEntity
  8
Visible (ISO)
100
AcDbVertex
100
AcDb2dVertex
 10
774.2318582193124
 20
495.5632458196827
 30
0.0
  0
VERTEX
  5
457
330
442
100
AcDbEntity
  8
Visible (ISO)
100
AcDbVertex
100
AcDb2dVertex
 10
774.3782716647851
 20
495.6125396059698
 30
0.0
  0
VERTEX
  5
458
330
442
100
AcDbEntity
  8
Visible (ISO)
100
AcDbVertex
100
AcDb2dVertex
 10
774.5131201700437
 20
495.6452908681578
 30
0.0
  0
VERTEX
  5
459
330
442
100
AcDbEntity
  8
Visible (ISO)
100
AcDbVertex
100
AcDb2dVertex
 10
774.6344051913488
 20
495.6648799346631
 30
0.0
  0
VERTEX
  5
45A
330
442
100
AcDbEntity
  8
Visible (ISO)
100
AcDbVertex
100
AcDb2dVertex
 10
774.7401284829843
 20
495.6746871339027
 30
0.0
  0
VERTEX
  5
45B
330
442
100
AcDbEntity
  8
Visible (ISO)
100
AcDbVertex
100
AcDb2dVertex
 10
774.8282916502225
 20
495.6780926452819
 30
0.0
  0
VERTEX
  5
45C
330
442
100
AcDbEntity
  8
Visible (ISO)
100
AcDbVertex
100
AcDb2dVertex
 10
774.896896596359
 20
495.6784766482059
 30
0.0
  0
SEQEND
  5
445
330
442
100
AcDbEntity
  8
Visible (ISO)
  0
LINE
  5
45D
330
75
100
AcDbEntity
  8
Visible (ISO)
100
AcDbLine
 10
103.2968965367553
 20
495.6784765886011
 30
0.0
 11
103.2968965367553
 21
492.6784765886028
 31
0.0
  0
LINE
  5
45E
330
75
100
AcDbEntity
  8
Visible (ISO)
100
AcDbLine
 10
100.2968965367552
 20
457.6784765886012
 30
0.0
 11
103.2968965367554
 21
457.678476588603
 31
0.0
  0
LINE
  5
45F
330
75
100
AcDbEntity
  8
Visible (ISO)
100
AcDbLine
 10
103.2968965367553
 20
492.6784765886028
 30
0.0
 11
100.2968965367551
 21
492.678476588601
 31
0.0
  0
LINE
  5
460
330
75
100
AcDbEntity
  8
Visible (ISO)
100
AcDbLine
 10
103.2968965367553
 20
457.678476588603
 30
0.0
 11
103.2968965367553
 21
454.6784765886012
 31
0.0
  0
LINE
  5
461
330
75
100
AcDbEntity
  8
Visible (ISO)
100
AcDbLine
 10
556.8468965367546
 20
495.6784765886011
 30
0.0
 11
556.8468965367546
 21
492.6784765886029
 31
0.0
  0
LINE
  5
462
330
75
100
AcDbEntity
  8
Visible (ISO)
100
AcDbLine
 10
556.8468965367546
 20
492.4284765886029
 30
0.0
 11
556.8468965367547
 21
492.6784765886029
 31
0.0
  0
LINE
  5
463
330
75
100
AcDbEntity
  8
Visible (ISO)
100
AcDbLine
 10
617.8468965367545
 20
492.4284765886029
 30
0.0
 11
556.8468965367546
 21
492.4284765886029
 31
0.0
  0
LINE
  5
464
330
75
100
AcDbEntity
  8
Visible (ISO)
100
AcDbLine
 10
617.8468965367545
 20
492.6784765886029
 30
0.0
 11
617.8468965367545
 21
495.6784765886011
 31
0.0
  0
LINE
  5
465
330
75
100
AcDbEntity
  8
Visible (ISO)
100
AcDbLine
 10
617.8468965367547
 20
492.6784765886029
 30
0.0
 11
617.8468965367545
 21
492.4284765886029
 31
0.0
  0
LINE
  5
466
330
75
100
AcDbEntity
  8
Visible (ISO)
100
AcDbLine
 10
257.3468965367551
 20
495.6784765886011
 30
0.0
 11
257.3468965367551
 21
492.6784765886028
 31
0.0
  0
LINE
  5
467
330
75
100
AcDbEntity
  8
Visible (ISO)
100
AcDbLine
 10
257.3468965367551
 20
492.4284765886029
 30
0.0
 11
257.3468965367551
 21
492.6784765886028
 31
0.0
  0
LINE
  5
468
330
75
100
AcDbEntity
  8
Visible (ISO)
100
AcDbLine
 10
318.346896536755
 20
492.4284765886029
 30
0.0
 11
257.346896536755
 21
492.4284765886029
 31
0.0
  0
LINE
  5
469
330
75
100
AcDbEntity
  8
Visible (ISO)
100
AcDbLine
 10
318.346896536755
 20
492.6784765886028
 30
0.0
 11
318.346896536755
 21
495.6784765886011
 31
0.0
  0
LINE
  5
46A
330
75
100
AcDbEntity
  8
Visible (ISO)
100
AcDbLine
 10
318.346896536755
 20
492.6784765886028
 30
0.0
 11
318.346896536755
 21
492.4284765886029
 31
0.0
  0
LINE
  5
46B
330
75
100
AcDbEntity
  8
Visible (ISO)
100
AcDbLine
 10
103.2968965367553
 20
495.6784765886011
 30
0.0
 11
257.3468965367551
 21
495.6784765886011
 31
0.0
  0
LINE
  5
46C
330
75
100
AcDbEntity
  8
Visible (ISO)
100
AcDbLine
 10
774.8968965367544
 20
495.6784765886012
 30
0.0
 11
617.8468965367547
 21
495.6784765886012
 31
0.0
  0
LINE
  5
46D
330
75
100
AcDbEntity
  8
Visible (ISO)
100
AcDbLine
 10
318.346896536755
 20
495.6784765886011
 30
0.0
 11
556.8468965367547
 21
495.6784765886011
 31
0.0
  0
LINE
  5
46E
330
75
100
AcDbEntity
  8
Visible (ISO)
100
AcDbLine
 10
774.8968965367542
 20
456.2784765886013
 30
0.0
 11
774.8968965367542
 21
494.0784765886013
 31
0.0
  0
LINE
  5
46F
330
75
100
AcDbEntity
  8
Visible (ISO)
100
AcDbLine
 10
100.2968965367553
 20
457.6784765886012
 30
0.0
 11
100.2968965367553
 21
492.678476588601
 31
0.0
  0
LINE
  5
470
330
75
100
AcDbEntity
  8
Visible (ISO)
100
AcDbLine
 10
774.8968965367544
 20
454.6784765886012
 30
0.0
 11
103.2968965367553
 21
454.6784765886012
 31
0.0
  0
LINE
  5
471
330
75
100
AcDbEntity
  8
Trait d'axe (ISO)
  6
CHAIN
 48
23.99096870422363
100
AcDbLine
 10
220.117392332883
 20
329.8695408201366
 30
0.0
 11
505.3573923328843
 21
329.8695408201366
 31
0.0
  0
LINE
  5
472
330
75
100
AcDbEntity
  8
Trait d'axe (ISO)
  6
CHAIN
 48
23.99096870422363
100
AcDbLine
 10
770.1123923328856
 20
381.8695408201353
 30
0.0
 11
105.1123923329019
 21
381.869540820133
 31
0.0
  0
LINE
  5
473
330
75
100
AcDbEntity
  8
Trait d'axe (ISO)
  6
CHAIN
 48
23.99096870422363
100
AcDbLine
 10
369.8673923328836
 20
329.8695408201366
 30
0.0
 11
655.1073923328852
 21
329.8695408201368
 31
0.0
  0
LINE
  5
474
330
75
100
AcDbEntity
  8
Trait d'axe (ISO)
  6
CHAIN
 48
23.99096870422363
100
AcDbLine
 10
779.9123923328854
 20
329.8695408201366
 30
0.0
 11
354.0873923328858
 21
329.8695408201366
 31
0.0
  0
LINE
  5
475
330
75
100
AcDbEntity
  8
Trait d'axe (ISO)
  6
CHAIN
 48
12.22318172454834
100
AcDbLine
 10
249.862392332883
 20
318.8695408201351
 30
0.0
 11
249.8623923328832
 21
340.8695408201351
 31
0.0
  0
LINE
  5
476
330
75
100
AcDbEntity
  8
Trait d'axe (ISO)
  6
CHAIN
 48
12.22318172454834
100
AcDbLine
 10
325.8623923328835
 20
318.8695408201351
 30
0.0
 11
325.8623923328835
 21
340.8695408201351
 31
0.0
  0
LINE
  5
477
330
75
100
AcDbEntity
  8
Trait d'axe (ISO)
  6
CHAIN
 48
12.22318172454834
100
AcDbLine
 10
549.3623923328844
 20
318.8695408201342
 30
0.0
 11
549.3623923328844
 21
340.8695408201343
 31
0.0
  0
LINE
  5
478
330
75
100
AcDbEntity
  8
Trait d'axe (ISO)
  6
CHAIN
 48
12.22318172454834
100
AcDbLine
 10
625.3623923328847
 20
318.8695408201338
 30
0.0
 11
625.362392332885
 21
340.8695408201338
 31
0.0
  0
LINE
  5
479
330
75
100
AcDbEntity
  8
Trait d'axe (ISO)
  6
CHAIN
 48
12.22318172454834
100
AcDbLine
 10
713.3368584269539
 20
374.0912255399637
 30
0.0
 11
728.8932076130578
 21
389.6475747260677
 31
0.0
  0
LINE
  5
47A
330
75
100
AcDbEntity
  8
Trait d'axe (ISO)
  6
CHAIN
 48
12.22318172454834
100
AcDbLine
 10
631.1123923328888
 20
392.8695408201345
 30
0.0
 11
631.1123923328888
 21
370.8695408201346
 31
0.0
  0
LINE
  5
47B
330
75
100
AcDbEntity
  8
Trait d'axe (ISO)
  6
CHAIN
 48
12.22318172454834
100
AcDbLine
 10
244.1123923328984
 20
370.8695408201332
 30
0.0
 11
244.1123923328984
 21
392.8695408201331
 31
0.0
  0
LINE
  5
47C
330
75
100
AcDbEntity
  8
Trait d'axe (ISO)
  6
CHAIN
 48
12.22318172454834
100
AcDbLine
 10
161.8879262388333
 20
374.0912255399616
 30
0.0
 11
146.3315770527294
 21
389.6475747260656
 31
0.0
  0
LINE
  5
47D
330
75
100
AcDbEntity
  8
Trait d'axe (ISO)
  6
CHAIN
 48
23.99096870422363
100
AcDbLine
 10
437.612392332884
 20
353.1195408201368
 30
0.0
 11
437.612392332884
 21
312.6195408201366
 31
0.0
  0
LINE
  5
47E
330
75
100
AcDbEntity
  8
Marque de centre (ISO)
  6
CHAIN
 48
11.11197376251221
100
AcDbLine
 10
403.4268965367498
 20
527.2684765886033
 30
0.0
 11
383.4268965367501
 21
527.2684765886033
 31
0.0
  0
LINE
  5
47F
330
75
100
AcDbEntity
  8
Marque de centre (ISO)
  6
CHAIN
 48
23.99096870422363
100
AcDbLine
 10
388.4268965367501
 20
542.2684765886031
 30
0.0
 11
388.4268965367501
 21
512.2684765886035
 31
0.0
  0
LINE
  5
480
330
75
100
AcDbEntity
  8
Marque de centre (ISO)
  6
CHAIN
 48
9.167361259460449
100
AcDbLine
 10
373.9268965367504
 20
527.2684765886032
 30
0.0
 11
357.4268965367506
 21
527.2684765886032
 31
0.0
  0
LINE
  5
481
330
75
100
AcDbEntity
  8
Marque de centre (ISO)
  6
CHAIN
 48
12.7787857055664
100
AcDbLine
 10
368.9268965367504
 20
538.768476588603
 30
0.0
 11
368.9268965367504
 21
515.7684765886034
 31
0.0
  0
LINE
  5
482
330
75
100
AcDbEntity
  8
Marque de centre (ISO)
  6
CHAIN
 48
11.11197376251221
100
AcDbLine
 10
492.3123923328923
 20
381.8695408201342
 30
0.0
 11
472.3123923328925
 21
381.8695408201342
 31
0.0
  0
LINE
  5
483
330
75
100
AcDbEntity
  8
Marque de centre (ISO)
  6
CHAIN
 48
23.99096870422363
100
AcDbLine
 10
487.3123923328923
 20
396.8695408201339
 30
0.0
 11
487.3123923328923
 21
366.8695408201344
 31
0.0
  0
LINE
  5
484
330
75
100
AcDbEntity
  8
Marque de centre (ISO)
  6
CHAIN
 48
9.167361259460449
100
AcDbLine
 10
518.3123923328917
 20
381.8695408201342
 30
0.0
 11
501.8123923328918
 21
381.8695408201342
 31
0.0
  0
LINE
  5
485
330
75
100
AcDbEntity
  8
Marque de centre (ISO)
  6
CHAIN
 48
12.7787857055664
100
AcDbLine
 10
506.8123923328918
 20
393.369540820134
 30
0.0
 11
506.8123923328918
 21
370.3695408201343
 31
0.0
  0
LINE
  5
486
330
75
100
AcDbEntity
  8
Marque de centre (ISO)
  6
CHAIN
 48
8.889559745788574
100
AcDbLine
 10
445.6123923328934
 20
387.8695408201338
 30
0.0
 11
429.6123923328937
 21
387.8695408201338
 31
0.0
  0
LINE
  5
487
330
75
100
AcDbEntity
  8
Marque de centre (ISO)
  6
CHAIN
 48
7.222748279571533
100
AcDbLine
 10
437.6123923328935
 20
395.8695408201337
 30
0.0
 11
437.6123923328935
 21
382.8695408201338
 31
0.0
  0
LINE
  5
488
330
75
100
AcDbEntity
  8
Marque de centre (ISO)
  6
CHAIN
 48
8.889559745788574
100
AcDbLine
 10
445.6123923328935
 20
375.8695408201339
 30
0.0
 11
429.6123923328937
 21
375.8695408201339
 31
0.0
  0
LINE
  5
489
330
75
100
AcDbEntity
  8
Marque de centre (ISO)
  6
CHAIN
 48
7.222748279571533
100
AcDbLine
 10
437.6123923328936
 20
380.8695408201339
 30
0.0
 11
437.6123923328936
 21
367.869540820134
 31
0.0
  0
LINE
  5
48A
330
75
100
AcDbEntity
  8
Marque de centre (ISO)
  6
CHAIN
 48
7.222748279571533
100
AcDbLine
 10
544.1123923328911
 20
381.8695408201343
 30
0.0
 11
531.1123923328911
 21
381.8695408201343
 31
0.0
  0
LINE
  5
48B
330
75
100
AcDbEntity
  8
Marque de centre (ISO)
  6
CHAIN
 48
8.889559745788574
100
AcDbLine
 10
539.1123923328911
 20
389.8695408201342
 30
0.0
 11
539.1123923328911
 21
373.8695408201343
 31
0.0
  0
LINE
  5
48C
330
75
100
AcDbEntity
  8
Marque de centre (ISO)
  6
CHAIN
 48
7.222748279571533
100
AcDbLine
 10
559.1123923328907
 20
381.8695408201343
 30
0.0
 11
546.1123923328907
 21
381.8695408201343
 31
0.0
  0
LINE
  5
48D
330
75
100
AcDbEntity
  8
Marque de centre (ISO)
  6
CHAIN
 48
8.889559745788574
100
AcDbLine
 10
551.1123923328907
 20
389.8695408201342
 30
0.0
 11
551.1123923328907
 21
373.8695408201343
 31
0.0
  0
LINE
  5
48E
330
75
100
AcDbEntity
  8
Marque de centre (ISO)
  6
CHAIN
 48
8.889559745788574
100
AcDbLine
 10
639.1123923328887
 20
387.8695408201345
 30
0.0
 11
623.1123923328889
 21
387.8695408201345
 31
0.0
  0
LINE
  5
48F
330
75
100
AcDbEntity
  8
Marque de centre (ISO)
  6
CHAIN
 48
7.222748279571533
100
AcDbLine
 10
631.1123923328888
 20
395.8695408201344
 30
0.0
 11
631.1123923328888
 21
382.8695408201345
 31
0.0
  0
LINE
  5
490
330
75
100
AcDbEntity
  8
Marque de centre (ISO)
  6
CHAIN
 48
8.889559745788574
100
AcDbLine
 10
639.1123923328887
 20
375.8695408201346
 30
0.0
 11
623.1123923328889
 21
375.8695408201346
 31
0.0
  0
LINE
  5
491
330
75
100
AcDbEntity
  8
Marque de centre (ISO)
  6
CHAIN
 48
7.222748279571533
100
AcDbLine
 10
631.1123923328888
 20
380.8695408201346
 30
0.0
 11
631.1123923328888
 21
367.8695408201347
 31
0.0
  0
LINE
  5
492
330
75
100
AcDbEntity
  8
Marque de centre (ISO)
  6
CHAIN
 48
7.222748279571533
100
AcDbLine
 10
721.8723923328866
 20
377.6267594458965
 30
0.0
 11
708.8723923328866
 21
377.6267594458965
 31
0.0
  0
LINE
  5
493
330
75
100
AcDbEntity
  8
Marque de centre (ISO)
  6
CHAIN
 48
7.222748279571533
100
AcDbLine
 10
716.8723923328866
 20
382.6267594458965
 30
0.0
 11
716.8723923328866
 21
369.6267594458965
 31
0.0
  0
LINE
  5
494
330
75
100
AcDbEntity
  8
Marque de centre (ISO)
  6
CHAIN
 48
7.222748279571533
100
AcDbLine
 10
733.3576737071251
 20
386.112040820135
 30
0.0
 11
720.3576737071251
 21
386.112040820135
 31
0.0
  0
LINE
  5
495
330
75
100
AcDbEntity
  8
Marque de centre (ISO)
  6
CHAIN
 48
7.222748279571533
100
AcDbLine
 10
725.357673707125
 20
394.1120408201349
 30
0.0
 11
725.357673707125
 21
381.1120408201349
 31
0.0
  0
LINE
  5
496
330
75
100
AcDbEntity
  8
Marque de centre (ISO)
  6
CHAIN
 48
8.889559745788574
100
AcDbLine
 10
633.3623923328848
 20
323.8695408201337
 30
0.0
 11
617.3623923328847
 21
323.8695408201337
 31
0.0
  0
LINE
  5
497
330
75
100
AcDbEntity
  8
Marque de centre (ISO)
  6
CHAIN
 48
7.222748279571533
100
AcDbLine
 10
625.3623923328847
 20
328.8695408201338
 30
0.0
 11
625.3623923328847
 21
315.8695408201337
 31
0.0
  0
LINE
  5
498
330
75
100
AcDbEntity
  8
Marque de centre (ISO)
  6
CHAIN
 48
8.889559745788574
100
AcDbLine
 10
633.3623923328848
 20
335.8695408201338
 30
0.0
 11
617.3623923328848
 21
335.8695408201338
 31
0.0
  0
LINE
  5
499
330
75
100
AcDbEntity
  8
Marque de centre (ISO)
  6
CHAIN
 48
7.222748279571533
100
AcDbLine
 10
625.3623923328848
 20
343.8695408201338
 30
0.0
 11
625.3623923328848
 21
330.8695408201338
 31
0.0
  0
LINE
  5
49A
330
75
100
AcDbEntity
  8
Marque de centre (ISO)
  6
CHAIN
 48
7.222748279571533
100
AcDbLine
 10
601.3623923328848
 20
329.869540820134
 30
0.0
 11
588.3623923328847
 21
329.869540820134
 31
0.0
  0
LINE
  5
49B
330
75
100
AcDbEntity
  8
Marque de centre (ISO)
  6
CHAIN
 48
8.889559745788574
100
AcDbLine
 10
593.3623923328847
 20
337.869540820134
 30
0.0
 11
593.3623923328847
 21
321.8695408201339
 31
0.0
  0
LINE
  5
49C
330
75
100
AcDbEntity
  8
Marque de centre (ISO)
  6
CHAIN
 48
7.222748279571533
100
AcDbLine
 10
586.3623923328845
 20
329.869540820134
 30
0.0
 11
573.3623923328845
 21
329.869540820134
 31
0.0
  0
LINE
  5
49D
330
75
100
AcDbEntity
  8
Marque de centre (ISO)
  6
CHAIN
 48
8.889559745788574
100
AcDbLine
 10
581.3623923328846
 20
337.8695408201341
 30
0.0
 11
581.3623923328846
 21
321.8695408201341
 31
0.0
  0
LINE
  5
49E
330
75
100
AcDbEntity
  8
Marque de centre (ISO)
  6
CHAIN
 48
8.889559745788574
100
AcDbLine
 10
557.3623923328844
 20
323.8695408201341
 30
0.0
 11
541.3623923328843
 21
323.8695408201341
 31
0.0
  0
LINE
  5
49F
330
75
100
AcDbEntity
  8
Marque de centre (ISO)
  6
CHAIN
 48
7.222748279571533
100
AcDbLine
 10
549.3623923328843
 20
328.8695408201342
 30
0.0
 11
549.3623923328843
 21
315.8695408201341
 31
0.0
  0
LINE
  5
4A0
330
75
100
AcDbEntity
  8
Marque de centre (ISO)
  6
CHAIN
 48
8.889559745788574
100
AcDbLine
 10
557.3623923328845
 20
335.8695408201342
 30
0.0
 11
541.3623923328844
 21
335.8695408201342
 31
0.0
  0
LINE
  5
4A1
330
75
100
AcDbEntity
  8
Marque de centre (ISO)
  6
CHAIN
 48
7.222748279571533
100
AcDbLine
 10
549.3623923328844
 20
343.8695408201343
 30
0.0
 11
549.3623923328844
 21
330.8695408201343
 31
0.0
  0
LINE
  5
4A2
330
75
100
AcDbEntity
  8
Marque de centre (ISO)
  6
CHAIN
 48
8.889559745788574
100
AcDbLine
 10
333.8623923328836
 20
335.869540820135
 30
0.0
 11
317.8623923328836
 21
335.869540820135
 31
0.0
  0
LINE
  5
4A3
330
75
100
AcDbEntity
  8
Marque de centre (ISO)
  6
CHAIN
 48
7.222748279571533
100
AcDbLine
 10
325.8623923328835
 20
343.8695408201351
 30
0.0
 11
325.8623923328835
 21
330.8695408201351
 31
0.0
  0
LINE
  5
4A4
330
75
100
AcDbEntity
  8
Marque de centre (ISO)
  6
CHAIN
 48
8.889559745788574
100
AcDbLine
 10
333.8623923328836
 20
323.8695408201351
 30
0.0
 11
317.8623923328836
 21
323.8695408201351
 31
0.0
  0
LINE
  5
4A5
330
75
100
AcDbEntity
  8
Marque de centre (ISO)
  6
CHAIN
 48
7.222748279571533
100
AcDbLine
 10
325.8623923328835
 20
328.8695408201351
 30
0.0
 11
325.8623923328835
 21
315.869540820135
 31
0.0
  0
LINE
  5
4A6
330
75
100
AcDbEntity
  8
Marque de centre (ISO)
  6
CHAIN
 48
7.222748279571533
100
AcDbLine
 10
301.8623923328834
 20
329.869540820135
 30
0.0
 11
288.8623923328834
 21
329.869540820135
 31
0.0
  0
LINE
  5
4A7
330
75
100
AcDbEntity
  8
Marque de centre (ISO)
  6
CHAIN
 48
8.889559745788574
100
AcDbLine
 10
293.8623923328833
 20
337.869540820135
 30
0.0
 11
293.8623923328833
 21
321.869540820135
 31
0.0
  0
LINE
  5
4A8
330
75
100
AcDbEntity
  8
Marque de centre (ISO)
  6
CHAIN
 48
7.222748279571533
100
AcDbLine
 10
286.8623923328832
 20
329.8695408201351
 30
0.0
 11
273.8623923328832
 21
329.8695408201351
 31
0.0
  0
LINE
  5
4A9
330
75
100
AcDbEntity
  8
Marque de centre (ISO)
  6
CHAIN
 48
8.889559745788574
100
AcDbLine
 10
281.8623923328832
 20
337.8695408201352
 30
0.0
 11
281.8623923328832
 21
321.8695408201351
 31
0.0
  0
LINE
  5
4AA
330
75
100
AcDbEntity
  8
Marque de centre (ISO)
  6
CHAIN
 48
8.889559745788574
100
AcDbLine
 10
257.8623923328832
 20
323.8695408201351
 30
0.0
 11
241.8623923328832
 21
323.8695408201351
 31
0.0
  0
LINE
  5
4AB
330
75
100
AcDbEntity
  8
Marque de centre (ISO)
  6
CHAIN
 48
7.222748279571533
100
AcDbLine
 10
249.8623923328832
 20
328.8695408201351
 30
0.0
 11
249.8623923328832
 21
315.869540820135
 31
0.0
  0
LINE
  5
4AC
330
75
100
AcDbEntity
  8
Marque de centre (ISO)
  6
CHAIN
 48
8.889559745788574
100
AcDbLine
 10
257.8623923328832
 20
335.869540820135
 30
0.0
 11
241.8623923328832
 21
335.869540820135
 31
0.0
  0
LINE
  5
4AD
330
75
100
AcDbEntity
  8
Marque de centre (ISO)
  6
CHAIN
 48
7.222748279571533
100
AcDbLine
 10
249.8623923328832
 20
343.8695408201351
 30
0.0
 11
249.8623923328832
 21
330.8695408201351
 31
0.0
  0
LINE
  5
4AE
330
75
100
AcDbEntity
  8
Marque de centre (ISO)
  6
CHAIN
 48
8.889559745788574
100
AcDbLine
 10
252.1123923328983
 20
387.8695408201331
 30
0.0
 11
236.1123923328985
 21
387.8695408201331
 31
0.0
  0
LINE
  5
4AF
330
75
100
AcDbEntity
  8
Marque de centre (ISO)
  6
CHAIN
 48
7.222748279571533
100
AcDbLine
 10
244.1123923328984
 20
395.869540820133
 30
0.0
 11
244.1123923328984
 21
382.8695408201331
 31
0.0
  0
LINE
  5
4B0
330
75
100
AcDbEntity
  8
Marque de centre (ISO)
  6
CHAIN
 48
8.889559745788574
100
AcDbLine
 10
252.1123923328984
 20
375.8695408201333
 30
0.0
 11
236.1123923328985
 21
375.8695408201333
 31
0.0
  0
LINE
  5
4B1
330
75
100
AcDbEntity
  8
Marque de centre (ISO)
  6
CHAIN
 48
7.222748279571533
100
AcDbLine
 10
244.1123923328985
 20
380.8695408201332
 30
0.0
 11
244.1123923328985
 21
367.8695408201333
 31
0.0
  0
LINE
  5
4B2
330
75
100
AcDbEntity
  8
Marque de centre (ISO)
  6
CHAIN
 48
7.222748279571533
100
AcDbLine
 10
329.1123923328965
 20
381.8695408201335
 30
0.0
 11
316.1123923328966
 21
381.8695408201335
 31
0.0
  0
LINE
  5
4B3
330
75
100
AcDbEntity
  8
Marque de centre (ISO)
  6
CHAIN
 48
8.889559745788574
100
AcDbLine
 10
324.1123923328965
 20
389.8695408201334
 30
0.0
 11
324.1123923328965
 21
373.8695408201335
 31
0.0
  0
LINE
  5
4B4
330
75
100
AcDbEntity
  8
Marque de centre (ISO)
  6
CHAIN
 48
7.222748279571533
100
AcDbLine
 10
344.1123923328961
 20
381.8695408201336
 30
0.0
 11
331.1123923328961
 21
381.8695408201336
 31
0.0
  0
LINE
  5
4B5
330
75
100
AcDbEntity
  8
Marque de centre (ISO)
  6
CHAIN
 48
8.889559745788574
100
AcDbLine
 10
336.1123923328961
 20
389.8695408201336
 30
0.0
 11
336.1123923328961
 21
373.8695408201336
 31
0.0
  0
LINE
  5
4B6
330
75
100
AcDbEntity
  8
Marque de centre (ISO)
  6
CHAIN
 48
7.222748279571533
100
AcDbLine
 10
166.3523923329005
 20
377.6267594458944
 30
0.0
 11
153.3523923329006
 21
377.6267594458944
 31
0.0
  0
LINE
  5
4B7
330
75
100
AcDbEntity
  8
Marque de centre (ISO)
  6
CHAIN
 48
7.222748279571533
100
AcDbLine
 10
158.3523923329006
 20
382.6267594458944
 30
0.0
 11
158.3523923329006
 21
369.6267594458944
 31
0.0
  0
LINE
  5
4B8
330
75
100
AcDbEntity
  8
Marque de centre (ISO)
  6
CHAIN
 48
7.222748279571533
100
AcDbLine
 10
154.8671109586622
 20
386.1120408201328
 30
0.0
 11
141.8671109586622
 21
386.1120408201328
 31
0.0
  0
LINE
  5
4B9
330
75
100
AcDbEntity
  8
Marque de centre (ISO)
  6
CHAIN
 48
7.222748279571533
100
AcDbLine
 10
149.8671109586622
 20
394.1120408201328
 30
0.0
 11
149.8671109586622
 21
381.1120408201328
 31
0.0
  0
LINE
  5
4BA
330
75
100
AcDbEntity
  8
Marque de centre (ISO)
  6
CHAIN
 48
11.11197376251221
100
AcDbLine
 10
139.1123923329019
 20
381.8695408201329
 30
0.0
 11
119.112392332902
 21
381.8695408201329
 31
0.0
  0
LINE
  5
4BB
330
75
100
AcDbEntity
  8
Marque de centre (ISO)
  6
CHAIN
 48
23.99096870422363
100
AcDbLine
 10
124.112392332902
 20
396.8695408201327
 30
0.0
 11
124.112392332902
 21
366.869540820133
 31
0.0
  0
LINE
  5
4BC
330
75
100
AcDbEntity
  8
Marque de centre (ISO)
  6
CHAIN
 48
11.66757774353027
100
AcDbLine
 10
756.1123923328858
 20
381.869540820135
 30
0.0
 11
735.112392332886
 21
381.869540820135
 31
0.0
  0
LINE
  5
4BD
330
75
100
AcDbEntity
  8
Marque de centre (ISO)
  6
CHAIN
 48
23.99096870422363
100
AcDbLine
 10
751.1123923328859
 20
397.869540820135
 30
0.0
 11
751.1123923328859
 21
365.8695408201352
 31
0.0
  0
LINE
  5
4BE
330
75
100
AcDbEntity
  8
Trait d'axe (ISO)
  6
CHAIN
 48
23.99096870422363
100
AcDbLine
 10
437.6123923328936
 20
407.8695408201339
 30
0.0
 11
437.6123923328936
 21
361.8695408201341
 31
0.0
  0
DIMENSION
  5
4BF
330
75
100
AcDbEntity
  8
Cote (ISO)
 62
   150
420
    33023
100
AcDbDimension
  2
*D8
 10
287.8623923328833
 20
298.1640739779694
 30
0.0
 11
268.8623923328833
 21
298.1640739779694
 31
0.0
 70
   160
  1
<>
 42
38.00000000000014
  3
Groom
100
AcDbAlignedDimension
 13
249.8623923328832
 23
323.8695408201351
 33
0.0
 14
287.8623923328833
 24
326.869540820135
 34
0.0
 50
180.0
100
AcDbRotatedDimension
1001
ACAD
1000
DSTYLE
1002
{
1070
   289
1070
     2
1070
    74
1070
     0
1070
   271
1070
     2
1070
   272
1070
     2
1070
    48
1040
0.0
1070
    47
1040
0.0
1002
}
  0
DIMENSION
  5
592
330
75
100
AcDbEntity
  8
Cote (ISO)
 62
   150
420
    33023
100
AcDbDimension
  2
*D9
 10
325.8623923328835
 20
298.1640739779694
 30
0.0
 11
306.8623923328834
 21
298.1640739779694
 31
0.0
 70
   160
  1
<>
 42
38.00000000000023
  3
Groom
100
AcDbAlignedDimension
 13
287.8623923328833
 23
326.869540820135
 33
0.0
 14
325.8623923328835
 24
323.8695408201351
 34
0.0
 50
180.0
100
AcDbRotatedDimension
1001
ACAD
1000
DSTYLE
1002
{
1070
   289
1070
     2
1070
    74
1070
     0
1070
   271
1070
     2
1070
   272
1070
     2
1070
    48
1040
0.0
1070
    47
1040
0.0
1002
}
  0
DIMENSION
  5
664
330
75
100
AcDbEntity
  8
Cote (ISO)
 62
   150
420
    33023
100
AcDbDimension
  2
*D10
 10
587.3623923328847
 20
298.1640739779694
 30
0.0
 11
568.3623923328845
 21
298.1640739779694
 31
0.0
 70
   160
  1
<>
 42
38.00000000000034
  3
Groom
100
AcDbAlignedDimension
 13
549.3623923328843
 23
323.8695408201341
 33
0.0
 14
587.3623923328847
 24
326.869540820134
 34
0.0
 50
180.0
100
AcDbRotatedDimension
1001
ACAD
1000
DSTYLE
1002
{
1070
   289
1070
     2
1070
    74
1070
     0
1070
   271
1070
     2
1070
   272
1070
     2
1070
    48
1040
0.0
1070
    47
1040
0.0
1002
}
  0
DIMENSION
  5
736
330
75
100
AcDbEntity
  8
Cote (ISO)
 62
   150
420
    33023
100
AcDbDimension
  2
*D11
 10
625.3623923328847
 20
298.1640739779694
 30
0.0
 11
606.3623923328848
 21
298.1640739779694
 31
0.0
 70
   160
  1
<>
 42
38.0
  3
Groom
100
AcDbAlignedDimension
 13
587.3623923328847
 23
326.869540820134
 33
0.0
 14
625.3623923328847
 24
323.8695408201337
 34
0.0
 50
180.0
100
AcDbRotatedDimension
1001
ACAD
1000
DSTYLE
1002
{
1070
   289
1070
     2
1070
    74
1070
     0
1070
   271
1070
     2
1070
   272
1070
     2
1070
    48
1040
0.0
1070
    47
1040
0.0
1002
}
  0
DIMENSION
  5
808
330
75
100
AcDbEntity
  8
Cote (ISO)
 62
   150
420
    33023
100
AcDbDimension
  2
*D12
 10
545.1123923328908
 20
427.0668816668527
 30
0.0
 11
491.3623923328922
 21
427.0668816668527
 31
0.0
 70
   160
  1
<>
 42
107.4999999999972
  3
Groom
100
AcDbAlignedDimension
 13
437.6123923328935
 23
387.8695408201338
 33
0.0
 14
545.1123923328908
 24
384.8695408201343
 34
0.0
 50
180.0
100
AcDbRotatedDimension
1001
ACAD
1000
DSTYLE
1002
{
1070
   289
1070
     2
1070
    74
1070
     0
1070
   271
1070
     2
1070
   272
1070
     2
1070
    48
1040
0.0
1070
    47
1040
0.0
1002
}
  0
DIMENSION
  5
8DA
330
75
100
AcDbEntity
  8
Cote (ISO)
 62
   150
420
    33023
100
AcDbDimension
  2
*D13
 10
631.1123923328888
 20
427.0668816668527
 30
0.0
 11
588.1123923328898
 21
427.0668816668527
 31
0.0
 70
   160
  1
<>
 42
85.99999999999795
  3
Groom
100
AcDbAlignedDimension
 13
545.1123923328908
 23
384.8695408201343
 33
0.0
 14
631.1123923328888
 24
387.8695408201345
 34
0.0
 50
180.0
100
AcDbRotatedDimension
1001
ACAD
1000
DSTYLE
1002
{
1070
   289
1070
     2
1070
    74
1070
     0
1070
   271
1070
     2
1070
   272
1070
     2
1070
    48
1040
0.0
1070
    47
1040
0.0
1002
}
  0
DIMENSION
  5
9AC
330
75
100
AcDbEntity
  8
Cote (ISO)
 62
   150
420
    33023
100
AcDbDimension
  2
*D14
 10
721.1150330200058
 20
427.0668816668527
 30
0.0
 11
676.1137126764472
 21
427.0668816668527
 31
0.0
 70
   160
  1
<>
 42
90.00264068711704
  3
Groom
100
AcDbAlignedDimension
 13
631.1123923328888
 23
387.8695408201345
 33
0.0
 14
721.1150330200058
 24
381.8694001330157
 34
0.0
 50
180.0
100
AcDbRotatedDimension
1001
ACAD
1000
DSTYLE
1002
{
1070
   289
1070
     2
1070
    74
1070
     0
1070
   271
1070
     2
1070
   272
1070
     2
1070
    48
1040
0.0
1070
    47
1040
0.0
1002
}
  0
DIMENSION
  5
A7E
330
75
100
AcDbEntity
  8
Cote (ISO)
 62
   150
420
    33023
100
AcDbDimension
  2
*D15
 10
751.1123923328859
 20
427.0668816668527
 30
0.0
 11
736.1137126764458
 21
427.0668816668527
 31
0.0
 70
   160
  1
<>
 42
29.99735931288001
  3
Groom
100
AcDbAlignedDimension
 13
721.1150330200058
 23
381.8694001330157
 33
0.0
 14
751.1123923328859
 24
381.869540820135
 34
0.0
 50
180.0
100
AcDbRotatedDimension
1001
ACAD
1000
DSTYLE
1002
{
1070
   289
1070
     2
1070
    74
1070
     0
1070
   271
1070
     2
1070
   272
1070
     2
1070
    48
1040
0.0
1070
    47
1040
0.0
1002
}
  0
LINE
  5
B50
330
75
100
AcDbEntity
  8
Trait d'axe (ISO)
  6
CHAIN
 48
23.99096870422363
100
AcDbLine
 10
300.0968965367522
 20
491.1145771970828
 30
0.0
 11
300.0968965367522
 21
527.6145771970828
 31
0.0
  0
LINE
  5
B51
330
75
100
AcDbEntity
  8
Trait d'axe (ISO)
  6
CHAIN
 48
23.99096870422363
100
AcDbLine
 10
575.0968965367486
 20
491.0954854990451
 30
0.0
 11
575.0968965367487
 21
527.5954854990451
 31
0.0
  0
DIMENSION
  5
B52
330
75
100
AcDbEntity
  8
Cote (ISO)
 62
   150
420
    33023
100
AcDbDimension
  2
*D16
 10
300.0968965367522
 20
471.1145771970827
 30
0.0
 11
437.5968965367504
 21
471.1145771970827
 31
0.0
 70
   160
  1
<>
 42
274.9999999999965
  3
Groom
100
AcDbAlignedDimension
 13
575.0968965367486
 23
491.0954854990451
 33
0.0
 14
300.0968965367522
 24
491.1145771970828
 34
0.0
100
AcDbRotatedDimension
1001
ACAD
1000
DSTYLE
1002
{
1070
   289
1070
     2
1070
    74
1070
     0
1070
   271
1070
     2
1070
   272
1070
     2
1070
    48
1040
0.0
1070
    47
1040
0.0
1002
}
  0
ELLIPSE
  5
C24
330
75
100
AcDbEntity
  8
Visible (ISO)
100
AcDbEllipse
 10
373.977472887468
 20
261.3525345901307
 30
0.0
 11
0.5662518504844937
 21
-0.9833122249940965
 31
0.0
210
0.0
220
0.0
230
0.9999999999999998
 40
0.5780931159156393
 41
0.8155833638046852
 42
2.326009289786338
  0
LINE
  5
C25
330
75
100
AcDbEntity
  8
Visible (ISO)
100
AcDbLine
 10
167.6871733062447
 20
161.9569351636769
 30
0.0
 11
161.7966481635833
 21
158.5648073353281
 31
0.0
  0
LINE
  5
C26
330
75
100
AcDbEntity
  8
Visible (ISO)
100
AcDbLine
 10
167.1921985594142
 20
162.2419721633319
 30
0.0
 11
167.6871733062447
 21
161.9569351636769
 31
0.0
  0
LINE
  5
C27
330
75
100
AcDbEntity
  8
Visible (ISO)
100
AcDbLine
 10
161.3016734167528
 20
158.8498443349832
 30
0.0
 11
167.1921985594142
 21
162.2419721633319
 31
0.0
  0
LINE
  5
C28
330
75
100
AcDbEntity
  8
Etroit visible (ISO)
100
AcDbLine
 10
161.3016734167528
 20
158.8498443349832
 30
0.0
 11
161.7966481635833
 21
158.5648073353281
 31
0.0
  0
ELLIPSE
  5
C29
330
75
100
AcDbEntity
  8
Visible (ISO)
100
AcDbEllipse
 10
171.448655726779
 20
160.4031894105602
 30
0.0
 11
-3.493225481093535
 21
-6.066084053014544
 31
0.0
210
0.0
220
0.0
230
1.0
 40
0.5780931159154665
 41
3.655556552105778
 42
4.788268998634018
  0
ELLIPSE
  5
C2A
330
75
100
AcDbEntity
  8
Visible (ISO)
100
AcDbEllipse
 10
170.9536809799485
 20
160.6882264102153
 30
0.0
 11
3.493225481093888
 21
6.066084053014322
 31
0.0
210
0.0
220
0.0
230
0.9999999999999998
 40
0.5780931159154669
 41
0.4332947212727607
 42
1.646676345044404
  0
ELLIPSE
  5
C2B
330
75
100
AcDbEntity
  8
Visible (ISO)
100
AcDbEllipse
 10
161.7966481635814
 20
154.8449679172958
 30
0.0
 11
-2.270596562710815
 21
-3.942954634459479
 31
0.0
210
0.0
220
0.0
230
1.0
 40
0.5780931159154665
 41
3.925057108564413
 42
5.409132424849986
  0
ELLIPSE
  5
C2C
330
75
100
AcDbEntity
  8
Visible (ISO)
100
AcDbEllipse
 10
161.3016734167509
 20
155.1300049169508
 30
0.0
 11
2.270596562711274
 21
3.94295463445919
 31
0.0
210
0.0
220
0.0
230
1.0
 40
0.5780931159154665
 41
0.7834644549751202
 42
2.418136442848622
  0
ELLIPSE
  5
C2D
330
75
100
AcDbEntity
  8
Visible (ISO)
100
AcDbEllipse
 10
375.4623971279624
 20
262.2076455890973
 30
0.0
 11
1.135298281353911
 21
-1.971477317230562
 31
0.0
210
0.0
220
0.0
230
1.0
 40
0.5780931159156407
 41
0.0000000000002048
 42
6.283185307179586
  0
ELLIPSE
  5
C2E
330
75
100
AcDbEntity
  8
Visible (ISO)
100
AcDbEllipse
 10
374.9674223811318
 20
261.9226085894427
 30
0.0
 11
0.7859757332450972
 21
-1.364868911928804
 31
0.0
210
0.0
220
0.0
230
1.0
 40
0.5780931159156407
 41
5.698127635748505
 42
10.00983563220041
  0
ELLIPSE
  5
C2F
330
75
100
AcDbEntity
  8
Visible (ISO)
100
AcDbEllipse
 10
374.7199350077165
 20
261.7800900896154
 30
0.0
 11
0.7859757332450986
 21
-1.364868911928806
 31
0.0
210
0.0
220
0.0
230
1.0
 40
0.5780931159156406
 41
0.1574820006976205
 42
2.984110652892053
  0
LINE
  5
C30
330
75
100
AcDbEntity
  8
Visible (ISO)
100
AcDbLine
 10
164.2223500784269
 20
156.5640207940625
 30
0.0
 11
158.3318249357654
 21
153.1718929657138
 31
0.0
  0
LINE
  5
C31
330
75
100
AcDbEntity
  8
Visible (ISO)
100
AcDbLine
 10
164.2223500784269
 20
156.5640207940625
 30
0.0
 11
164.7810678894521
 21
156.2422766050343
 31
0.0
  0
ELLIPSE
  5
C32
330
75
100
AcDbEntity
  8
Visible (ISO)
100
AcDbEllipse
 10
168.7262946192108
 20
162.0223983775281
 30
0.0
 11
3.493225481094012
 21
6.066084053014249
 31
0.0
210
0.0
220
0.0
230
1.0
 40
0.5780931159154648
 41
0.106060239410288
 42
1.646676345044434
  0
ELLIPSE
  5
C33
330
75
100
AcDbEntity
  8
Visible (ISO)
100
AcDbEllipse
 10
167.9838324989651
 20
162.4499538770106
 30
0.0
 11
3.493225481094005
 21
6.066084053014242
 31
0.0
210
0.0
220
0.0
230
1.0
 40
0.5780931159154643
 41
3.061845218495152
 42
7.929861652224034
  0
LINE
  5
C34
330
75
100
AcDbEntity
  8
Visible (ISO)
100
AcDbLine
 10
164.2223500784306
 20
164.0036996301271
 30
0.0
 11
164.9648121986763
 21
163.5761441306446
 31
0.0
  0
LINE
  5
C35
330
75
100
AcDbEntity
  8
Visible (ISO)
100
AcDbLine
 10
164.9648121986763
 20
163.5761441306446
 30
0.0
 11
159.0742870560151
 21
160.1840163022959
 31
0.0
  0
LINE
  5
C36
330
75
100
AcDbEntity
  8
Visible (ISO)
100
AcDbLine
 10
158.3318249357693
 20
160.6115718017784
 30
0.0
 11
164.2223500784306
 21
164.0036996301271
 31
0.0
  0
LINE
  5
C37
330
75
100
AcDbEntity
  8
Etroit visible (ISO)
100
AcDbLine
 10
158.3318249357693
 20
160.6115718017784
 30
0.0
 11
159.0742870560151
 21
160.1840163022959
 31
0.0
  0
ELLIPSE
  5
C38
330
75
100
AcDbEntity
  8
Visible (ISO)
100
AcDbEllipse
 10
159.0742870560132
 20
156.4641768842636
 30
0.0
 11
-2.27059656271085
 21
-3.942954634459362
 31
0.0
210
0.0
220
0.0
230
1.0
 40
0.5780931159154646
 41
3.92505710856442
 42
6.119592729626674
  0
ELLIPSE
  5
C39
330
75
100
AcDbEntity
  8
Visible (ISO)
100
AcDbEllipse
 10
158.3318249357674
 20
156.8917323837461
 30
0.0
 11
-2.270596562711088
 21
-3.94295463445923
 31
0.0
210
0.0
220
0.0
230
0.9999999999999998
 40
0.5780931159154646
 41
3.925057108564671
 42
7.066649762154464
  0
LINE
  5
C3A
330
75
100
AcDbEntity
  8
Visible (ISO)
100
AcDbLine
 10
359.6232052293939
 20
285.5822103449866
 30
0.0
 11
359.5737077547109
 21
285.6107140449521
 31
0.0
  0
LINE
  5
C3B
330
75
100
AcDbEntity
  8
Visible (ISO)
100
AcDbLine
 10
359.5737077547105
 20
284.7522895638677
 30
0.0
 11
359.6232052293935
 21
284.7237858639022
 31
0.0
  0
LINE
  5
C3C
330
75
100
AcDbEntity
  8
Visible (ISO)
100
AcDbLine
 10
360.3656673496399
 20
286.0667732443994
 30
0.0
 11
385.3618920645805
 21
271.6724047618213
 31
0.0
  0
LINE
  5
C3D
330
75
100
AcDbEntity
  8
Visible (ISO)
100
AcDbLine
 10
359.5737077546955
 20
255.8519987006935
 30
0.0
 11
384.569932469636
 21
241.4576302181152
 31
0.0
  0
LINE
  5
C3E
330
75
100
AcDbEntity
  8
Visible (ISO)
100
AcDbLine
 10
359.5737077546959
 20
256.7104231817779
 30
0.0
 11
359.6232052293789
 21
256.6819194818124
 31
0.0
  0
LINE
  5
C3F
330
75
100
AcDbEntity
  8
Visible (ISO)
100
AcDbLine
 10
385.361892064565
 20
241.9136894175626
 30
0.0
 11
360.3656673496244
 21
256.3080579001408
 31
0.0
  0
LINE
  5
C40
330
75
100
AcDbEntity
  8
Visible (ISO)
100
AcDbLine
 10
384.6194299443191
 20
241.4861339180807
 30
0.0
 11
359.6232052293786
 21
255.880502400659
 31
0.0
  0
LINE
  5
C41
330
75
100
AcDbEntity
  8
Visible (ISO)
100
AcDbLine
 10
30.94370388374578
 20
63.26186698728513
 30
0.0
 11
28.03962232752788
 21
64.93421633205134
 31
0.0
  0
LINE
  5
C42
330
75
100
AcDbEntity
  8
Visible (ISO)
100
AcDbLine
 10
27.24766273259874
 20
64.47815713260394
 30
0.0
 11
30.15174428881664
 21
62.80580778783772
 31
0.0
  0
LINE
  5
C43
330
75
100
AcDbEntity
  8
Visible (ISO)
100
AcDbLine
 10
27.99012485284479
 20
64.90571263208586
 30
0.0
 11
30.89420640906269
 21
63.23336328731965
 31
0.0
  0
ELLIPSE
  5
C44
330
75
100
AcDbEntity
  8
Visible (ISO)
100
AcDbEllipse
 10
358.8807431091471
 20
283.4948132832669
 30
0.0
 11
2.099999999999972
 21
-0.0000000000012239
 31
0.0
210
0.0
220
0.0
230
1.0
 40
0.5758617009856578
 41
0.7853981633978649
 42
2.356194490192816
  0
ELLIPSE
  5
C45
330
75
100
AcDbEntity
  8
Visible (ISO)
100
AcDbEllipse
 10
358.8807431091335
 20
257.169795863346
 30
0.0
 11
-2.099999999999973
 21
0.0000000000009742
 31
0.0
210
0.0
220
0.0
230
1.0
 40
0.5758617009856579
 41
3.926990816987178
 42
5.49778714378204
  0
LINE
  5
C46
330
75
100
AcDbEntity
  8
Visible (ISO)
100
AcDbLine
 10
358.1382809888878
 20
257.5973513628285
 30
0.0
 11
357.395818868642
 21
258.024906862311
 31
0.0
  0
ELLIPSE
  5
C47
330
75
100
AcDbEntity
  8
Visible (ISO)
100
AcDbEllipse
 10
358.8807431091335
 20
257.169795863346
 30
0.0
 11
1.049999999999988
 21
-0.0000000000006125
 31
0.0
210
0.0
220
0.0
230
1.0
 40
0.5758617009856578
 41
0.7853981633978453
 42
2.356194490192702
  0
ELLIPSE
  5
C48
330
75
100
AcDbEntity
  8
Visible (ISO)
100
AcDbEllipse
 10
28.73258697309133
 20
67.0501170937365
 30
0.0
 11
-2.099999999999862
 21
0.000000000001099
 31
0.0
210
0.0
220
0.0
230
1.0
 40
0.5758617009856576
 41
5.497787143782297
 42
7.068583470577237
  0
ELLIPSE
  5
C49
330
75
100
AcDbEntity
  8
Visible (ISO)
100
AcDbEllipse
 10
28.73258697310518
 20
93.37513451365749
 30
0.0
 11
-2.100000000000143
 21
0.0000000000011114
 31
0.0
210
0.0
220
0.0
230
1.0
 40
0.5758617009856578
 41
5.497787143782334
 42
6.283185307179615
  0
ELLIPSE
  5
C4A
330
75
100
AcDbEntity
  8
Visible (ISO)
100
AcDbEllipse
 10
358.8807431091335
 20
257.169795863346
 30
0.0
 11
1.047967644326907
 21
-1.819825215905012
 31
0.0
210
0.0
220
0.0
230
1.0
 40
0.5780931159156406
 41
3.928924525409424
 42
5.499720852204353
  0
ELLIPSE
  5
C4B
330
75
100
AcDbEntity
  8
Visible (ISO)
100
AcDbEllipse
 10
28.73258697309147
 20
67.05011709373647
 30
0.0
 11
-1.047967644326689
 21
1.819825215905137
 31
0.0
210
0.0
220
0.0
230
1.0
 40
0.5780931159156406
 41
0.7873318718200979
 42
2.358128198614995
  0
ELLIPSE
  5
C4C
330
75
100
AcDbEntity
  8
Visible (ISO)
100
AcDbEllipse
 10
358.8807431091335
 20
257.169795863346
 30
0.0
 11
0.5239838221634545
 21
-0.9099126079525074
 31
0.0
210
0.0
220
0.0
230
1.0
 40
0.5780931159156405
 41
3.928924525409383
 42
5.499720852204305
  0
ELLIPSE
  5
C4D
330
75
100
AcDbEntity
  8
Visible (ISO)
100
AcDbEllipse
 10
28.73258697310511
 20
93.37513451365751
 30
0.0
 11
-1.047967644326811
 21
1.819825215905098
 31
0.0
210
0.0
220
0.0
230
1.0
 40
0.5780931159156406
 41
0.0
 42
0.787331871819851
  0
ELLIPSE
  5
C4E
330
75
100
AcDbEntity
  8
Visible (ISO)
100
AcDbEllipse
 10
358.8807431091471
 20
283.494813283267
 30
0.0
 11
-1.04796764432679
 21
1.81982521590506
 31
0.0
210
0.0
220
0.0
230
1.0
 40
0.5780931159156406
 41
5.499720852204574
 42
7.070517178999472
  0
LINE
  5
C4F
330
75
100
AcDbEntity
  8
Visible (ISO)
100
AcDbLine
 10
359.5737077547105
 20
284.7522895638677
 30
0.0
 11
359.5737077547109
 21
285.6107140449521
 31
0.0
  0
LINE
  5
C50
330
75
100
AcDbEntity
  8
Visible (ISO)
100
AcDbLine
 10
359.623205229394
 20
285.6392177449176
 30
0.0
 11
360.3656673496399
 21
286.0667732443994
 31
0.0
  0
LINE
  5
C51
330
75
100
AcDbEntity
  8
Visible (ISO)
100
AcDbLine
 10
384.6194299443191
 20
241.4861339180807
 30
0.0
 11
385.361892064565
 21
241.9136894175626
 31
0.0
  0
LINE
  5
C52
330
75
100
AcDbEntity
  8
Visible (ISO)
100
AcDbLine
 10
359.6232052293934
 20
284.6260188065744
 30
0.0
 11
359.623205229394
 21
285.6392177449176
 31
0.0
  0
LINE
  5
C53
330
75
100
AcDbEntity
  8
Visible (ISO)
100
AcDbLine
 10
360.3656673496391
 20
284.3499242822306
 30
0.0
 11
360.3656673496399
 21
286.0667732443994
 31
0.0
  0
LINE
  5
C54
330
75
100
AcDbEntity
  8
Visible (ISO)
100
AcDbLine
 10
385.3618920645806
 20
271.6724047618214
 30
0.0
 11
385.361892064565
 21
241.9136894175626
 31
0.0
  0
LINE
  5
C55
330
75
100
AcDbEntity
  8
Visible (ISO)
100
AcDbLine
 10
359.4197208064542
 20
284.6636143779154
 30
0.0
 11
359.5737077547105
 21
284.7522895638677
 31
0.0
  0
LINE
  5
C56
330
75
100
AcDbEntity
  8
Visible (ISO)
100
AcDbLine
 10
359.5737077547109
 20
285.6107140449521
 30
0.0
 11
358.8807431091481
 21
285.2116622454357
 31
0.0
  0
LINE
  5
C57
330
75
100
AcDbEntity
  8
Visible (ISO)
100
AcDbLine
 10
358.8807431091478
 20
284.7041228553367
 30
0.0
 11
358.8807431091481
 21
285.2116622454357
 31
0.0
  0
LINE
  5
C58
330
75
100
AcDbEntity
  8
Visible (ISO)
100
AcDbLine
 10
384.569932469636
 20
241.5146376180462
 30
0.0
 11
384.569932469636
 21
241.4576302181152
 31
0.0
  0
LINE
  5
C59
330
75
100
AcDbEntity
  8
Visible (ISO)
100
AcDbLine
 10
359.5737077546959
 20
256.7104231817779
 30
0.0
 11
359.5737077546955
 21
255.8519987006935
 31
0.0
  0
LINE
  5
C5A
330
75
100
AcDbEntity
  8
Visible (ISO)
100
AcDbLine
 10
359.6232052293786
 20
255.880502400659
 30
0.0
 11
360.3656673496244
 21
256.3080579001408
 31
0.0
  0
LINE
  5
C5B
330
75
100
AcDbEntity
  8
Visible (ISO)
100
AcDbLine
 10
359.6232052293794
 20
257.5973513628278
 30
0.0
 11
359.6232052293786
 21
255.880502400659
 31
0.0
  0
LINE
  5
C5C
330
75
100
AcDbEntity
  8
Visible (ISO)
100
AcDbLine
 10
360.3656673496244
 20
256.3080579001408
 30
0.0
 11
360.3656673496254
 21
258.0249068623096
 31
0.0
  0
LINE
  5
C5D
330
75
100
AcDbEntity
  8
Visible (ISO)
100
AcDbLine
 10
359.6232052293794
 20
257.5973513628278
 30
0.0
 11
360.3656673496254
 21
258.0249068623096
 31
0.0
  0
LINE
  5
C5E
330
75
100
AcDbEntity
  8
Visible (ISO)
100
AcDbLine
 10
358.8807431091331
 20
256.3113713822616
 30
0.0
 11
359.5737077546959
 21
256.7104231817779
 31
0.0
  0
LINE
  5
C5F
330
75
100
AcDbEntity
  8
Visible (ISO)
100
AcDbLine
 10
358.8807431091331
 20
256.3113713822616
 30
0.0
 11
358.8807431091325
 21
255.4529469011771
 31
0.0
  0
LINE
  5
C60
330
75
100
AcDbEntity
  8
Visible (ISO)
100
AcDbLine
 10
358.8807431091325
 20
255.4529469011771
 30
0.0
 11
359.5737077546955
 21
255.8519987006935
 31
0.0
  0
LINE
  5
C61
330
75
100
AcDbEntity
  8
Visible (ISO)
100
AcDbLine
 10
384.569932469636
 20
241.4576302181152
 30
0.0
 11
383.2734082034422
 21
240.7110115488164
 31
0.0
  0
LINE
  5
C62
330
75
100
AcDbEntity
  8
Visible (ISO)
100
AcDbLine
 10
28.0396223275283
 20
65.79264081313571
 30
0.0
 11
28.03962232752788
 21
64.93421633205134
 31
0.0
  0
LINE
  5
C63
330
75
100
AcDbEntity
  8
Visible (ISO)
100
AcDbLine
 10
27.99012485284479
 20
64.90571263208586
 30
0.0
 11
27.24766273259874
 21
64.47815713260394
 31
0.0
  0
LINE
  5
C64
330
75
100
AcDbEntity
  8
Visible (ISO)
100
AcDbLine
 10
27.99012485284528
 20
65.99083777751954
 30
0.0
 11
27.99012485284479
 21
64.90571263208586
 31
0.0
  0
LINE
  5
C65
330
75
100
AcDbEntity
  8
Visible (ISO)
100
AcDbLine
 10
27.68055854360703
 20
66.44429421284883
 30
0.0
 11
27.24766273259959
 21
66.19500609477274
 31
0.0
  0
LINE
  5
C66
330
75
100
AcDbEntity
  8
Visible (ISO)
100
AcDbLine
 10
27.24766273259959
 20
66.19500609477274
 30
0.0
 11
27.24766273259874
 21
64.47815713260394
 31
0.0
  0
LINE
  5
C67
330
75
100
AcDbEntity
  8
Visible (ISO)
100
AcDbLine
 10
28.12000465473531
 20
65.83892991681029
 30
0.0
 11
28.0396223275283
 21
65.79264081313571
 31
0.0
  0
LINE
  5
C68
330
75
100
AcDbEntity
  8
Visible (ISO)
100
AcDbLine
 10
28.03962232752788
 20
64.93421633205134
 30
0.0
 11
28.73258697309062
 21
65.33326813156769
 31
0.0
  0
LINE
  5
C69
330
75
100
AcDbEntity
  8
Visible (ISO)
100
AcDbLine
 10
27.2476738375412
 20
94.23687887176473
 30
0.0
 11
27.24766273261423
 21
94.23687247686258
 31
0.0
  0
LINE
  5
C6A
330
75
100
AcDbEntity
  8
Visible (ISO)
100
AcDbLine
 10
27.24766273261423
 20
94.23687247686258
 30
0.0
 11
27.24766273261423
 21
94.23024551262262
 31
0.0
  0
LINE
  5
C6B
330
75
100
AcDbEntity
  8
Etroit visible (ISO)
100
AcDbLine
 10
360.3656673496391
 20
284.3499242822306
 30
0.0
 11
360.3656673496254
 21
258.0249068623096
 31
0.0
  0
LINE
  5
C6C
330
75
100
AcDbEntity
  8
Etroit visible (ISO)
100
AcDbLine
 10
357.395818868642
 20
258.024906862311
 30
0.0
 11
357.3958188686555
 21
284.349924282232
 31
0.0
  0
LINE
  5
C6D
330
75
100
AcDbEntity
  8
Etroit visible (ISO)
100
AcDbLine
 10
27.24766273261359
 20
94.23024551262258
 30
0.0
 11
27.24766273259988
 21
67.90522809270147
 31
0.0
  0
LINE
  5
C6E
330
75
100
AcDbEntity
  8
Etroit visible (ISO)
100
AcDbLine
 10
358.8807431091325
 20
255.4529469011771
 30
0.0
 11
28.73258697309062
 21
65.33326813156773
 31
0.0
  0
LINE
  5
C6F
330
75
100
AcDbEntity
  8
Etroit visible (ISO)
100
AcDbLine
 10
27.24766273259988
 20
67.90522809270147
 30
0.0
 11
357.395818868642
 21
258.024906862311
 31
0.0
  0
LINE
  5
C70
330
75
100
AcDbEntity
  8
Etroit visible (ISO)
100
AcDbLine
 10
357.3958188686555
 20
284.349924282232
 30
0.0
 11
27.24766273261359
 21
94.23024551262262
 31
0.0
  0
LINE
  5
C71
330
75
100
AcDbEntity
  8
Visible (ISO)
100
AcDbLine
 10
26.63258697310518
 20
93.37513451365857
 30
0.0
 11
26.63258697309153
 21
67.05011709373756
 31
0.0
  0
LINE
  5
C72
330
75
100
AcDbEntity
  8
Visible (ISO)
100
AcDbLine
 10
357.8327754648204
 20
285.314638499172
 30
0.0
 11
27.68461932877834
 21
95.19495972956264
 31
0.0
  0
LINE
  5
C73
330
75
100
AcDbEntity
  8
Visible (ISO)
100
AcDbLine
 10
27.88469523176772
 20
60.7872134134125
 30
0.0
 11
27.88469523176772
 21
60.79384037765251
 31
0.0
  0
LINE
  5
C74
330
75
100
AcDbEntity
  8
Visible (ISO)
100
AcDbLine
 10
27.88470633669483
 20
60.79384677255472
 30
0.0
 11
27.88469523176772
 21
60.79384037765251
 31
0.0
  0
LINE
  5
C75
330
75
100
AcDbEntity
  8
Visible (ISO)
100
AcDbLine
 10
27.88469523175614
 20
38.24589067450194
 30
0.0
 11
27.934384504928
 21
38.21727652513243
 31
0.0
  0
LINE
  5
C76
330
75
100
AcDbEntity
  8
Visible (ISO)
100
AcDbLine
 10
28.62715735200218
 20
38.67344617398384
 30
0.0
 11
28.67684662517405
 21
38.64483202461432
 31
0.0
  0
LINE
  5
C77
330
75
100
AcDbEntity
  8
Visible (ISO)
100
AcDbLine
 10
51.84790765006106
 20
23.53074163038027
 30
0.0
 11
27.88469523175571
 21
37.33023789467857
 31
0.0
  0
LINE
  5
C78
330
75
100
AcDbEntity
  8
Visible (ISO)
100
AcDbLine
 10
385.7578718620222
 20
216.7323543771908
 30
0.0
 11
361.7946594437168
 21
230.531850641489
 31
0.0
  0
LINE
  5
C79
330
75
100
AcDbEntity
  8
Visible (ISO)
100
AcDbLine
 10
361.7946595322251
 20
230.5318508428082
 30
0.0
 11
361.655294529156
 21
230.4515958750831
 31
0.0
  0
LINE
  5
C7A
330
75
100
AcDbEntity
  8
Visible (ISO)
100
AcDbLine
 10
361.7946594437163
 20
229.6161978616658
 30
0.0
 11
385.7578718620217
 21
215.8167015973674
 31
0.0
  0
LINE
  5
C7B
330
75
100
AcDbEntity
  8
Visible (ISO)
100
AcDbLine
 10
361.7946594437169
 20
230.4746223427502
 30
0.0
 11
385.7578718620221
 21
216.6751260784519
 31
0.0
  0
LINE
  5
C7C
330
75
100
AcDbEntity
  8
Visible (ISO)
100
AcDbLine
 10
361.7946595322251
 20
230.4746225986464
 30
0.0
 11
361.7946595322247
 21
229.6161975717904
 31
0.0
  0
POLYLINE
  5
C7D
330
75
100
AcDbEntity
  8
Visible (ISO)
100
AcDb2dPolyline
 66
     1
 10
0.0
 20
0.0
 30
0.0
 70
   128
  0
VERTEX
  5
C7E
330
C7D
100
AcDbEntity
  8
Visible (ISO)
100
AcDbVertex
100
AcDb2dVertex
 10
360.6730353665305
 20
230.4970199012272
 30
0.0
  0
VERTEX
  5
C7F
330
C7D
100
AcDbEntity
  8
Visible (ISO)
100
AcDbVertex
100
AcDb2dVertex
 10
360.616895053086
 20
230.5377841663993
 30
0.0
  0
VERTEX
  5
C81
330
C7D
100
AcDbEntity
  8
Visible (ISO)
100
AcDbVertex
100
AcDb2dVertex
 10
360.5582923258222
 20
230.5776703516638
 30
0.0
  0
VERTEX
  5
C82
330
C7D
100
AcDbEntity
  8
Visible (ISO)
100
AcDbVertex
100
AcDb2dVertex
 10
360.4976656884537
 20
230.6162907611625
 30
0.0
  0
VERTEX
  5
C83
330
C7D
100
AcDbEntity
  8
Visible (ISO)
100
AcDbVertex
100
AcDb2dVertex
 10
360.4354537922089
 20
230.6532576140892
 30
0.0
  0
VERTEX
  5
C84
330
C7D
100
AcDbEntity
  8
Visible (ISO)
100
AcDbVertex
100
AcDb2dVertex
 10
360.3720952329985
 20
230.6881831827302
 30
0.0
  0
VERTEX
  5
C85
330
C7D
100
AcDbEntity
  8
Visible (ISO)
100
AcDbVertex
100
AcDb2dVertex
 10
360.3080289017609
 20
230.7206811038008
 30
0.0
  0
VERTEX
  5
C86
330
C7D
100
AcDbEntity
  8
Visible (ISO)
100
AcDbVertex
100
AcDb2dVertex
 10
360.2439915938969
 20
230.7504437074765
 30
0.0
  0
VERTEX
  5
C87
330
C7D
100
AcDbEntity
  8
Visible (ISO)
100
AcDbVertex
100
AcDb2dVertex
 10
360.1806817142966
 20
230.7774601203028
 30
0.0
  0
VERTEX
  5
C88
330
C7D
100
AcDbEntity
  8
Visible (ISO)
100
AcDbVertex
100
AcDb2dVertex
 10
360.1185390205428
 20
230.8017828823278
 30
0.0
  0
VERTEX
  5
C89
330
C7D
100
AcDbEntity
  8
Visible (ISO)
100
AcDbVertex
100
AcDb2dVertex
 10
360.058002827677
 20
230.8234660679239
 30
0.0
  0
VERTEX
  5
C8A
330
C7D
100
AcDbEntity
  8
Visible (ISO)
100
AcDbVertex
100
AcDb2dVertex
 10
359.9995128010862
 20
230.8425650628002
 30
0.0
  0
VERTEX
  5
C8B
330
C7D
100
AcDbEntity
  8
Visible (ISO)
100
AcDbVertex
100
AcDb2dVertex
 10
359.9435084586434
 20
230.85913243886
 30
0.0
  0
VERTEX
  5
C8C
330
C7D
100
AcDbEntity
  8
Visible (ISO)
100
AcDbVertex
100
AcDb2dVertex
 10
359.8904292813427
 20
230.8732236455232
 30
0.0
  0
VERTEX
  5
C8D
330
C7D
100
AcDbEntity
  8
Visible (ISO)
100
AcDbVertex
100
AcDb2dVertex
 10
359.8407147501792
 20
230.8848913184041
 30
0.0
  0
VERTEX
  5
C8E
330
C7D
100
AcDbEntity
  8
Visible (ISO)
100
AcDbVertex
100
AcDb2dVertex
 10
359.7948044936609
 20
230.8941908219746
 30
0.0
  0
VERTEX
  5
C8F
330
C7D
100
AcDbEntity
  8
Visible (ISO)
100
AcDbVertex
100
AcDb2dVertex
 10
359.7529505025269
 20
230.9013585336065
 30
0.0
  0
VERTEX
  5
C90
330
C7D
100
AcDbEntity
  8
Visible (ISO)
100
AcDbVertex
100
AcDb2dVertex
 10
359.7151465074335
 20
230.9066888816833
 30
0.0
  0
VERTEX
  5
C91
330
C7D
100
AcDbEntity
  8
Visible (ISO)
100
AcDbVertex
100
AcDb2dVertex
 10
359.6814324477878
 20
230.9103359770485
 30
0.0
  0
VERTEX
  5
C92
330
C7D
100
AcDbEntity
  8
Visible (ISO)
100
AcDbVertex
100
AcDb2dVertex
 10
359.6518483736328
 20
230.9124526298274
 30
0.0
  0
VERTEX
  5
C93
330
C7D
100
AcDbEntity
  8
Visible (ISO)
100
AcDbVertex
100
AcDb2dVertex
 10
359.6264340031048
 20
230.9131942728185
 30
0.0
  0
VERTEX
  5
C94
330
C7D
100
AcDbEntity
  8
Visible (ISO)
100
AcDbVertex
100
AcDb2dVertex
 10
359.6052293862467
 20
230.912715080576
 30
0.0
  0
VERTEX
  5
C95
330
C7D
100
AcDbEntity
  8
Visible (ISO)
100
AcDbVertex
100
AcDb2dVertex
 10
359.5882743518302
 20
230.9111691002327
 30
0.0
  0
VERTEX
  5
C96
330
C7D
100
AcDbEntity
  8
Visible (ISO)
100
AcDbVertex
100
AcDb2dVertex
 10
359.5756090236552
 20
230.9087091843878
 30
0.0
  0
VERTEX
  5
C97
330
C7D
100
AcDbEntity
  8
Visible (ISO)
100
AcDbVertex
100
AcDb2dVertex
 10
359.5672730829794
 20
230.9054907446027
 30
0.0
  0
SEQEND
  5
C80
330
C7D
100
AcDbEntity
  8
Visible (ISO)
  0
POLYLINE
  5
C98
330
75
100
AcDbEntity
  8
Visible (ISO)
100
AcDb2dPolyline
 66
     1
 10
0.0
 20
0.0
 30
0.0
 70
   128
  0
VERTEX
  5
C99
330
C98
100
AcDbEntity
  8
Visible (ISO)
100
AcDbVertex
100
AcDb2dVertex
 10
358.8248109332309
 20
231.3330462610748
 30
0.0
  0
VERTEX
  5
C9A
330
C98
100
AcDbEntity
  8
Visible (ISO)
100
AcDbVertex
100
AcDb2dVertex
 10
358.8531463220471
 20
231.3457235328112
 30
0.0
  0
VERTEX
  5
C9C
330
C98
100
AcDbEntity
  8
Visible (ISO)
100
AcDbVertex
100
AcDb2dVertex
 10
358.9009512944201
 20
231.3613579265867
 30
0.0
  0
VERTEX
  5
C9D
330
C98
100
AcDbEntity
  8
Visible (ISO)
100
AcDbVertex
100
AcDb2dVertex
 10
358.9679547348218
 20
231.378340167763
 30
0.0
  0
VERTEX
  5
C9E
330
C98
100
AcDbEntity
  8
Visible (ISO)
100
AcDbVertex
100
AcDb2dVertex
 10
359.0538855267337
 20
231.3950568889851
 30
0.0
  0
VERTEX
  5
C9F
330
C98
100
AcDbEntity
  8
Visible (ISO)
100
AcDbVertex
100
AcDb2dVertex
 10
359.1584725556139
 20
231.4098974506182
 30
0.0
  0
VERTEX
  5
CA0
330
C98
100
AcDbEntity
  8
Visible (ISO)
100
AcDbVertex
100
AcDb2dVertex
 10
359.2814447046151
 20
231.4212498499255
 30
0.0
  0
VERTEX
  5
CA1
330
C98
100
AcDbEntity
  8
Visible (ISO)
100
AcDbVertex
100
AcDb2dVertex
 10
359.4225903856921
 20
231.4268904996142
 30
0.0
  0
VERTEX
  5
CA2
330
C98
100
AcDbEntity
  8
Visible (ISO)
100
AcDbVertex
100
AcDb2dVertex
 10
359.5798889755355
 20
231.4250489855163
 30
0.0
  0
VERTEX
  5
CA3
330
C98
100
AcDbEntity
  8
Visible (ISO)
100
AcDbVertex
100
AcDb2dVertex
 10
359.7503559311728
 20
231.4147931468755
 30
0.0
  0
VERTEX
  5
CA4
330
C98
100
AcDbEntity
  8
Visible (ISO)
100
AcDbVertex
100
AcDb2dVertex
 10
359.931006695802
 20
231.3951907937346
 30
0.0
  0
VERTEX
  5
CA5
330
C98
100
AcDbEntity
  8
Visible (ISO)
100
AcDbVertex
100
AcDb2dVertex
 10
360.1188566734376
 20
231.3653097560463
 30
0.0
  0
VERTEX
  5
CA6
330
C98
100
AcDbEntity
  8
Visible (ISO)
100
AcDbVertex
100
AcDb2dVertex
 10
360.3109213372414
 20
231.3242192255373
 30
0.0
  0
VERTEX
  5
CA7
330
C98
100
AcDbEntity
  8
Visible (ISO)
100
AcDbVertex
100
AcDb2dVertex
 10
360.5029578074379
 20
231.2714884203739
 30
0.0
  0
VERTEX
  5
CA8
330
C98
100
AcDbEntity
  8
Visible (ISO)
100
AcDbVertex
100
AcDb2dVertex
 10
360.6907276020113
 20
231.2086849946009
 30
0.0
  0
VERTEX
  5
CA9
330
C98
100
AcDbEntity
  8
Visible (ISO)
100
AcDbVertex
100
AcDb2dVertex
 10
360.871252432351
 20
231.1378763863837
 30
0.0
  0
VERTEX
  5
CAA
330
C98
100
AcDbEntity
  8
Visible (ISO)
100
AcDbVertex
100
AcDb2dVertex
 10
361.0415543233135
 20
231.0611327308903
 30
0.0
  0
VERTEX
  5
CAB
330
C98
100
AcDbEntity
  8
Visible (ISO)
100
AcDbVertex
100
AcDb2dVertex
 10
361.198655152241
 20
230.9805201124758
 30
0.0
  0
VERTEX
  5
CAC
330
C98
100
AcDbEntity
  8
Visible (ISO)
100
AcDbVertex
100
AcDb2dVertex
 10
361.3395766489623
 20
230.898104615495
 30
0.0
  0
VERTEX
  5
CAD
330
C98
100
AcDbEntity
  8
Visible (ISO)
100
AcDbVertex
100
AcDb2dVertex
 10
361.4623094519378
 20
230.8167931731355
 30
0.0
  0
VERTEX
  5
CAE
330
C98
100
AcDbEntity
  8
Visible (ISO)
100
AcDbVertex
100
AcDb2dVertex
 10
361.5666489592913
 20
230.7399377062929
 30
0.0
  0
VERTEX
  5
CAF
330
C98
100
AcDbEntity
  8
Visible (ISO)
100
AcDbVertex
100
AcDb2dVertex
 10
361.6523244091314
 20
230.6702749769542
 30
0.0
  0
VERTEX
  5
CB0
330
C98
100
AcDbEntity
  8
Visible (ISO)
100
AcDbVertex
100
AcDb2dVertex
 10
361.7190652608374
 20
230.6105466526623
 30
0.0
  0
VERTEX
  5
CB1
330
C98
100
AcDbEntity
  8
Visible (ISO)
100
AcDbVertex
100
AcDb2dVertex
 10
361.7666003837328
 20
230.563492266736
 30
0.0
  0
VERTEX
  5
CB2
330
C98
100
AcDbEntity
  8
Visible (ISO)
100
AcDbVertex
100
AcDb2dVertex
 10
361.7946595322251
 20
230.5318508428082
 30
0.0
  0
SEQEND
  5
C9B
330
C98
100
AcDbEntity
  8
Visible (ISO)
  0
LINE
  5
CB3
330
75
100
AcDbEntity
  8
Visible (ISO)
100
AcDbLine
 10
359.5672730829794
 20
230.9054913243533
 30
0.0
 11
358.8248109627337
 21
231.3330468238358
 31
0.0
  0
POLYLINE
  5
CB4
330
75
100
AcDbEntity
  8
Visible (ISO)
100
AcDb2dPolyline
 66
     1
 10
0.0
 20
0.0
 30
0.0
 70
   128
  0
VERTEX
  5
CB5
330
CB4
100
AcDbEntity
  8
Visible (ISO)
100
AcDbVertex
100
AcDb2dVertex
 10
359.5672730829794
 20
230.9054907446027
 30
0.0
  0
VERTEX
  5
CB6
330
CB4
100
AcDbEntity
  8
Visible (ISO)
100
AcDbVertex
100
AcDb2dVertex
 10
359.5737704095358
 20
230.8895275369382
 30
0.0
  0
VERTEX
  5
CB8
330
CB4
100
AcDbEntity
  8
Visible (ISO)
100
AcDbVertex
100
AcDb2dVertex
 10
359.5931645874427
 20
230.8703150512283
 30
0.0
  0
VERTEX
  5
CB9
330
CB4
100
AcDbEntity
  8
Visible (ISO)
100
AcDbVertex
100
AcDb2dVertex
 10
359.6253087665433
 20
230.8479173667846
 30
0.0
  0
VERTEX
  5
CBA
330
CB4
100
AcDbEntity
  8
Visible (ISO)
100
AcDbVertex
100
AcDb2dVertex
 10
359.6700560966807
 20
230.8223946395275
 30
0.0
  0
VERTEX
  5
CBB
330
CB4
100
AcDbEntity
  8
Visible (ISO)
100
AcDbVertex
100
AcDb2dVertex
 10
359.727259948969
 20
230.7938109912425
 30
0.0
  0
VERTEX
  5
CBC
330
CB4
100
AcDbEntity
  8
Visible (ISO)
100
AcDbVertex
100
AcDb2dVertex
 10
359.7967733994941
 20
230.7622278998051
 30
0.0
  0
VERTEX
  5
CBD
330
CB4
100
AcDbEntity
  8
Visible (ISO)
100
AcDbVertex
100
AcDb2dVertex
 10
359.8786690988863
 20
230.7278628353163
 30
0.0
  0
VERTEX
  5
CBE
330
CB4
100
AcDbEntity
  8
Visible (ISO)
100
AcDbVertex
100
AcDb2dVertex
 10
359.9723773481941
 20
230.6915611344221
 30
0.0
  0
VERTEX
  5
CBF
330
CB4
100
AcDbEntity
  8
Visible (ISO)
100
AcDbVertex
100
AcDb2dVertex
 10
360.0767877728887
 20
230.6543292735188
 30
0.0
  0
VERTEX
  5
CC0
330
CB4
100
AcDbEntity
  8
Visible (ISO)
100
AcDbVertex
100
AcDb2dVertex
 10
360.1907902197116
 20
230.6171751359052
 30
0.0
  0
VERTEX
  5
CC1
330
CB4
100
AcDbEntity
  8
Visible (ISO)
100
AcDbVertex
100
AcDb2dVertex
 10
360.3132743325733
 20
230.581105208596
 30
0.0
  0
VERTEX
  5
CC2
330
CB4
100
AcDbEntity
  8
Visible (ISO)
100
AcDbVertex
100
AcDb2dVertex
 10
360.4431297922622
 20
230.5471246354137
 30
0.0
  0
VERTEX
  5
CC3
330
CB4
100
AcDbEntity
  8
Visible (ISO)
100
AcDbVertex
100
AcDb2dVertex
 10
360.5787587775174
 20
230.5166134759572
 30
0.0
  0
VERTEX
  5
CC4
330
CB4
100
AcDbEntity
  8
Visible (ISO)
100
AcDbVertex
100
AcDb2dVertex
 10
360.7177711352605
 20
230.4904720256145
 30
0.0
  0
VERTEX
  5
CC5
330
CB4
100
AcDbEntity
  8
Visible (ISO)
100
AcDbVertex
100
AcDb2dVertex
 10
360.8578682686009
 20
230.4689898320001
 30
0.0
  0
VERTEX
  5
CC6
330
CB4
100
AcDbEntity
  8
Visible (ISO)
100
AcDbVertex
100
AcDb2dVertex
 10
360.9967517860726
 20
230.4524549417526
 30
0.0
  0
VERTEX
  5
CC7
330
CB4
100
AcDbEntity
  8
Visible (ISO)
100
AcDbVertex
100
AcDb2dVertex
 10
361.1321229959236
 20
230.4411610260942
 30
0.0
  0
VERTEX
  5
CC8
330
CB4
100
AcDbEntity
  8
Visible (ISO)
100
AcDbVertex
100
AcDb2dVertex
 10
361.2616833723553
 20
230.4353934953437
 30
0.0
  0
VERTEX
  5
CC9
330
CB4
100
AcDbEntity
  8
Visible (ISO)
100
AcDbVertex
100
AcDb2dVertex
 10
361.3830173003552
 20
230.43488432936
 30
0.0
  0
VERTEX
  5
CCA
330
CB4
100
AcDbEntity
  8
Visible (ISO)
100
AcDbVertex
100
AcDb2dVertex
 10
361.4939446340855
 20
230.4385068903918
 30
0.0
  0
VERTEX
  5
CCB
330
CB4
100
AcDbEntity
  8
Visible (ISO)
100
AcDbVertex
100
AcDb2dVertex
 10
361.5925187792009
 20
230.4452781784679
 30
0.0
  0
VERTEX
  5
CCC
330
CB4
100
AcDbEntity
  8
Visible (ISO)
100
AcDbVertex
100
AcDb2dVertex
 10
361.6767934363839
 20
230.4542124647591
 30
0.0
  0
VERTEX
  5
CCD
330
CB4
100
AcDbEntity
  8
Visible (ISO)
100
AcDbVertex
100
AcDb2dVertex
 10
361.7448223800741
 20
230.4643211641573
 30
0.0
  0
VERTEX
  5
CCE
330
CB4
100
AcDbEntity
  8
Visible (ISO)
100
AcDbVertex
100
AcDb2dVertex
 10
361.7946595322251
 20
230.4746225986464
 30
0.0
  0
SEQEND
  5
CB7
330
CB4
100
AcDbEntity
  8
Visible (ISO)
  0
POLYLINE
  5
CCF
330
75
100
AcDbEntity
  8
Visible (ISO)
100
AcDb2dPolyline
 66
     1
 10
0.0
 20
0.0
 30
0.0
 70
   128
  0
VERTEX
  5
CD0
330
CCF
100
AcDbEntity
  8
Visible (ISO)
100
AcDbVertex
100
AcDb2dVertex
 10
361.7946595322247
 20
229.6161975717904
 30
0.0
  0
VERTEX
  5
CD1
330
CCF
100
AcDbEntity
  8
Visible (ISO)
100
AcDbVertex
100
AcDb2dVertex
 10
361.7289429437679
 20
229.6151510152494
 30
0.0
  0
VERTEX
  5
CD3
330
CCF
100
AcDbEntity
  8
Visible (ISO)
100
AcDbVertex
100
AcDb2dVertex
 10
361.636523597771
 20
229.6200620166937
 30
0.0
  0
VERTEX
  5
CD4
330
CCF
100
AcDbEntity
  8
Visible (ISO)
100
AcDbVertex
100
AcDb2dVertex
 10
361.5203044954025
 20
229.6323299433291
 30
0.0
  0
VERTEX
  5
CD5
330
CCF
100
AcDbEntity
  8
Visible (ISO)
100
AcDbVertex
100
AcDb2dVertex
 10
361.3831893754006
 20
229.6533580008051
 30
0.0
  0
VERTEX
  5
CD6
330
CCF
100
AcDbEntity
  8
Visible (ISO)
100
AcDbVertex
100
AcDb2dVertex
 10
361.2280815339617
 20
229.6845482002381
 30
0.0
  0
VERTEX
  5
CD7
330
CCF
100
AcDbEntity
  8
Visible (ISO)
100
AcDbVertex
100
AcDb2dVertex
 10
361.0578843410393
 20
229.7273013157363
 30
0.0
  0
VERTEX
  5
CD8
330
CCF
100
AcDbEntity
  8
Visible (ISO)
100
AcDbVertex
100
AcDb2dVertex
 10
360.8759699291042
 20
229.7832951026744
 30
0.0
  0
VERTEX
  5
CD9
330
CCF
100
AcDbEntity
  8
Visible (ISO)
100
AcDbVertex
100
AcDb2dVertex
 10
360.6861800044715
 20
229.8525016549822
 30
0.0
  0
VERTEX
  5
CDA
330
CCF
100
AcDbEntity
  8
Visible (ISO)
100
AcDbVertex
100
AcDb2dVertex
 10
360.4921225006928
 20
229.9337750991057
 30
0.0
  0
VERTEX
  5
CDB
330
CCF
100
AcDbEntity
  8
Visible (ISO)
100
AcDbVertex
100
AcDb2dVertex
 10
360.297405443516
 20
230.0259640719191
 30
0.0
  0
VERTEX
  5
CDC
330
CCF
100
AcDbEntity
  8
Visible (ISO)
100
AcDbVertex
100
AcDb2dVertex
 10
360.1056368534307
 20
230.1279185716983
 30
0.0
  0
VERTEX
  5
CDD
330
CCF
100
AcDbEntity
  8
Visible (ISO)
100
AcDbVertex
100
AcDb2dVertex
 10
359.9204247350806
 20
230.2384913164514
 30
0.0
  0
VERTEX
  5
CDE
330
CCF
100
AcDbEntity
  8
Visible (ISO)
100
AcDbVertex
100
AcDb2dVertex
 10
359.7455601079579
 20
230.3553108285674
 30
0.0
  0
VERTEX
  5
CDF
330
CCF
100
AcDbEntity
  8
Visible (ISO)
100
AcDbVertex
100
AcDb2dVertex
 10
359.5832496203554
 20
230.4750514308148
 30
0.0
  0
VERTEX
  5
CE0
330
CCF
100
AcDbEntity
  8
Visible (ISO)
100
AcDbVertex
100
AcDb2dVertex
 10
359.4347247188932
 20
230.5951291682983
 30
0.0
  0
VERTEX
  5
CE1
330
CCF
100
AcDbEntity
  8
Visible (ISO)
100
AcDbVertex
100
AcDb2dVertex
 10
359.301216896289
 20
230.7129628309078
 30
0.0
  0
VERTEX
  5
CE2
330
CCF
100
AcDbEntity
  8
Visible (ISO)
100
AcDbVertex
100
AcDb2dVertex
 10
359.1839575254056
 20
230.8259670356083
 30
0.0
  0
VERTEX
  5
CE3
330
CCF
100
AcDbEntity
  8
Visible (ISO)
100
AcDbVertex
100
AcDb2dVertex
 10
359.0841781127903
 20
230.931559221134
 30
0.0
  0
VERTEX
  5
CE4
330
CCF
100
AcDbEntity
  8
Visible (ISO)
100
AcDbVertex
100
AcDb2dVertex
 10
359.0020289336901
 20
231.0274777996918
 30
0.0
  0
VERTEX
  5
CE5
330
CCF
100
AcDbEntity
  8
Visible (ISO)
100
AcDbVertex
100
AcDb2dVertex
 10
358.9363756725197
 20
231.1127208625343
 30
0.0
  0
VERTEX
  5
CE6
330
CCF
100
AcDbEntity
  8
Visible (ISO)
100
AcDbVertex
100
AcDb2dVertex
 10
358.8865228170456
 20
231.186594591175
 30
0.0
  0
VERTEX
  5
CE7
330
CCF
100
AcDbEntity
  8
Visible (ISO)
100
AcDbVertex
100
AcDb2dVertex
 10
358.851774776812
 20
231.2484023983671
 30
0.0
  0
VERTEX
  5
CE8
330
CCF
100
AcDbEntity
  8
Visible (ISO)
100
AcDbVertex
100
AcDb2dVertex
 10
358.8314359626417
 20
231.2974517894147
 30
0.0
  0
VERTEX
  5
CE9
330
CCF
100
AcDbEntity
  8
Visible (ISO)
100
AcDbVertex
100
AcDb2dVertex
 10
358.8248109332309
 20
231.3330462610748
 30
0.0
  0
SEQEND
  5
CD2
330
CCF
100
AcDbEntity
  8
Visible (ISO)
  0
LINE
  5
CEA
330
75
100
AcDbEntity
  8
Visible (ISO)
100
AcDbLine
 10
361.7946594437278
 20
252.1641475648163
 30
0.0
 11
385.7578718620333
 21
238.364651300518
 31
0.0
  0
LINE
  5
CEB
330
75
100
AcDbEntity
  8
Visible (ISO)
100
AcDbLine
 10
385.7578718620338
 20
239.2803040803414
 30
0.0
 11
361.7946594437283
 21
253.0798003446397
 31
0.0
  0
LINE
  5
CEC
330
75
100
AcDbEntity
  8
Visible (ISO)
100
AcDbLine
 10
361.7946595322367
 20
253.0798003617609
 30
0.0
 11
361.7946595322363
 21
252.2213758465658
 31
0.0
  0
LINE
  5
CED
330
75
100
AcDbEntity
  8
Visible (ISO)
100
AcDbLine
 10
361.7946594437279
 20
252.2213758635553
 30
0.0
 11
385.7578718620333
 21
238.421879599257
 31
0.0
  0
POLYLINE
  5
CEE
330
75
100
AcDbEntity
  8
Visible (ISO)
100
AcDb2dPolyline
 66
     1
 10
0.0
 20
0.0
 30
0.0
 70
   128
  0
VERTEX
  5
CEF
330
CEE
100
AcDbEntity
  8
Visible (ISO)
100
AcDbVertex
100
AcDb2dVertex
 10
361.7946595322363
 20
252.164147549106
 30
0.0
  0
VERTEX
  5
CF0
330
CEE
100
AcDbEntity
  8
Visible (ISO)
100
AcDbVertex
100
AcDb2dVertex
 10
361.7666003837439
 20
252.1646712303944
 30
0.0
  0
VERTEX
  5
CF2
330
CEE
100
AcDbEntity
  8
Visible (ISO)
100
AcDbVertex
100
AcDb2dVertex
 10
361.7190652608485
 20
252.1692207012899
 30
0.0
  0
VERTEX
  5
CF3
330
CEE
100
AcDbEntity
  8
Visible (ISO)
100
AcDbVertex
100
AcDb2dVertex
 10
361.6523244091425
 20
252.1761868132593
 30
0.0
  0
VERTEX
  5
CF4
330
CEE
100
AcDbEntity
  8
Visible (ISO)
100
AcDbVertex
100
AcDb2dVertex
 10
361.5666489593024
 20
252.1839599507222
 30
0.0
  0
VERTEX
  5
CF5
330
CEE
100
AcDbEntity
  8
Visible (ISO)
100
AcDbVertex
100
AcDb2dVertex
 10
361.4623094519488
 20
252.190931060753
 30
0.0
  0
VERTEX
  5
CF6
330
CEE
100
AcDbEntity
  8
Visible (ISO)
100
AcDbVertex
100
AcDb2dVertex
 10
361.3395766489733
 20
252.1954905595854
 30
0.0
  0
VERTEX
  5
CF7
330
CEE
100
AcDbEntity
  8
Visible (ISO)
100
AcDbVertex
100
AcDb2dVertex
 10
361.198655152252
 20
252.1954164120834
 30
0.0
  0
VERTEX
  5
CF8
330
CEE
100
AcDbEntity
  8
Visible (ISO)
100
AcDbVertex
100
AcDb2dVertex
 10
361.0415543233242
 20
252.1889343103364
 30
0.0
  0
VERTEX
  5
CF9
330
CEE
100
AcDbEntity
  8
Visible (ISO)
100
AcDbVertex
100
AcDb2dVertex
 10
360.8712524323617
 20
252.1751067232987
 30
0.0
  0
VERTEX
  5
CFA
330
CEE
100
AcDbEntity
  8
Visible (ISO)
100
AcDbVertex
100
AcDb2dVertex
 10
360.690727602022
 20
252.1529960772864
 30
0.0
  0
VERTEX
  5
CFB
330
CEE
100
AcDbEntity
  8
Visible (ISO)
100
AcDbVertex
100
AcDb2dVertex
 10
360.5029578074485
 20
252.1216648624083
 30
0.0
  0
VERTEX
  5
CFC
330
CEE
100
AcDbEntity
  8
Visible (ISO)
100
AcDbVertex
100
AcDb2dVertex
 10
360.3109213372521
 20
252.0801755369181
 30
0.0
  0
VERTEX
  5
CFD
330
CEE
100
AcDbEntity
  8
Visible (ISO)
100
AcDbVertex
100
AcDb2dVertex
 10
360.1188566734482
 20
252.0280890000805
 30
0.0
  0
VERTEX
  5
CFE
330
CEE
100
AcDbEntity
  8
Visible (ISO)
100
AcDbVertex
100
AcDb2dVertex
 10
359.9310066958125
 20
251.9669659088288
 30
0.0
  0
VERTEX
  5
CFF
330
CEE
100
AcDbEntity
  8
Visible (ISO)
100
AcDbVertex
100
AcDb2dVertex
 10
359.7503559311832
 20
251.8988683536036
 30
0.0
  0
VERTEX
  5
D00
330
CEE
100
AcDbEntity
  8
Visible (ISO)
100
AcDbVertex
100
AcDb2dVertex
 10
359.5798889755459
 20
251.8258583795522
 30
0.0
  0
VERTEX
  5
D01
330
CEE
100
AcDbEntity
  8
Visible (ISO)
100
AcDbVertex
100
AcDb2dVertex
 10
359.4225903857025
 20
251.7499980517316
 30
0.0
  0
VERTEX
  5
D02
330
CEE
100
AcDbEntity
  8
Visible (ISO)
100
AcDbVertex
100
AcDb2dVertex
 10
359.2814447046255
 20
251.6733495339133
 30
0.0
  0
VERTEX
  5
D03
330
CEE
100
AcDbEntity
  8
Visible (ISO)
100
AcDbVertex
100
AcDb2dVertex
 10
359.1584725556243
 20
251.5988129874497
 30
0.0
  0
VERTEX
  5
D04
330
CEE
100
AcDbEntity
  8
Visible (ISO)
100
AcDbVertex
100
AcDb2dVertex
 10
359.0538855267441
 20
251.5297420026489
 30
0.0
  0
VERTEX
  5
D05
330
CEE
100
AcDbEntity
  8
Visible (ISO)
100
AcDbVertex
100
AcDb2dVertex
 10
358.9679547348321
 20
251.468878414709
 30
0.0
  0
VERTEX
  5
D06
330
CEE
100
AcDbEntity
  8
Visible (ISO)
100
AcDbVertex
100
AcDb2dVertex
 10
358.9009512944304
 20
251.418964230709
 30
0.0
  0
VERTEX
  5
D07
330
CEE
100
AcDbEntity
  8
Visible (ISO)
100
AcDbVertex
100
AcDb2dVertex
 10
358.8531463220574
 20
251.3827412007595
 30
0.0
  0
VERTEX
  5
D08
330
CEE
100
AcDbEntity
  8
Visible (ISO)
100
AcDbVertex
100
AcDb2dVertex
 10
358.8248109332412
 20
251.3629513313719
 30
0.0
  0
SEQEND
  5
CF1
330
CEE
100
AcDbEntity
  8
Visible (ISO)
  0
POLYLINE
  5
D09
330
75
100
AcDbEntity
  8
Visible (ISO)
100
AcDb2dPolyline
 66
     1
 10
0.0
 20
0.0
 30
0.0
 70
   128
  0
VERTEX
  5
D0A
330
D09
100
AcDbEntity
  8
Visible (ISO)
100
AcDbVertex
100
AcDb2dVertex
 10
361.7946595322363
 20
252.2213758465658
 30
0.0
  0
VERTEX
  5
D0B
330
D09
100
AcDbEntity
  8
Visible (ISO)
100
AcDbVertex
100
AcDb2dVertex
 10
361.7893001284429
 20
252.2200670166622
 30
0.0
  0
VERTEX
  5
D0D
330
D09
100
AcDbEntity
  8
Visible (ISO)
100
AcDbVertex
100
AcDb2dVertex
 10
361.7836075643487
 20
252.2187462129138
 30
0.0
  0
VERTEX
  5
D0E
330
D09
100
AcDbEntity
  8
Visible (ISO)
100
AcDbVertex
100
AcDb2dVertex
 10
361.7775856015601
 20
252.2174114631115
 30
0.0
  0
VERTEX
  5
D0F
330
D09
100
AcDbEntity
  8
Visible (ISO)
100
AcDbVertex
100
AcDb2dVertex
 10
361.77123881301
 20
252.2160605826774
 30
0.0
  0
VERTEX
  5
D10
330
D09
100
AcDbEntity
  8
Visible (ISO)
100
AcDbVertex
100
AcDb2dVertex
 10
361.7645713290895
 20
252.2146916418753
 30
0.0
  0
VERTEX
  5
D11
330
D09
100
AcDbEntity
  8
Visible (ISO)
100
AcDbVertex
100
AcDb2dVertex
 10
361.757587206433
 20
252.2133024986037
 30
0.0
  0
VERTEX
  5
D12
330
D09
100
AcDbEntity
  8
Visible (ISO)
100
AcDbVertex
100
AcDb2dVertex
 10
361.7502909442162
 20
252.2118910957001
 30
0.0
  0
VERTEX
  5
D13
330
D09
100
AcDbEntity
  8
Visible (ISO)
100
AcDbVertex
100
AcDb2dVertex
 10
361.7426865990737
 20
252.2104554609644
 30
0.0
  0
VERTEX
  5
D14
330
D09
100
AcDbEntity
  8
Visible (ISO)
100
AcDbVertex
100
AcDb2dVertex
 10
361.7347784489103
 20
252.2089934098045
 30
0.0
  0
VERTEX
  5
D15
330
D09
100
AcDbEntity
  8
Visible (ISO)
100
AcDbVertex
100
AcDb2dVertex
 10
361.7265706978743
 20
252.2075028850857
 30
0.0
  0
VERTEX
  5
D16
330
D09
100
AcDbEntity
  8
Visible (ISO)
100
AcDbVertex
100
AcDb2dVertex
 10
361.7180675501138
 20
252.2059819995375
 30
0.0
  0
VERTEX
  5
D17
330
D09
100
AcDbEntity
  8
Visible (ISO)
100
AcDbVertex
100
AcDb2dVertex
 10
361.7092733572909
 20
252.2044284411409
 30
0.0
  0
VERTEX
  5
D18
330
D09
100
AcDbEntity
  8
Visible (ISO)
100
AcDbVertex
100
AcDb2dVertex
 10
361.7001921022828
 20
252.2028403651096
 30
0.0
  0
VERTEX
  5
D19
330
D09
100
AcDbEntity
  8
Visible (ISO)
100
AcDbVertex
100
AcDb2dVertex
 10
361.6908282105086
 20
252.2012156718769
 30
0.0
  0
VERTEX
  5
D1A
330
D09
100
AcDbEntity
  8
Visible (ISO)
100
AcDbVertex
100
AcDb2dVertex
 10
361.6811857386025
 20
252.1995522191941
 30
0.0
  0
VERTEX
  5
D1B
330
D09
100
AcDbEntity
  8
Visible (ISO)
100
AcDbVertex
100
AcDb2dVertex
 10
361.6712691857404
 20
252.1978479500516
 30
0.0
  0
VERTEX
  5
D1C
330
D09
100
AcDbEntity
  8
Visible (ISO)
100
AcDbVertex
100
AcDb2dVertex
 10
361.6610826085568
 20
252.1961008922626
 30
0.0
  0
VERTEX
  5
D1D
330
D09
100
AcDbEntity
  8
Visible (ISO)
100
AcDbVertex
100
AcDb2dVertex
 10
361.6506301374425
 20
252.1943089460521
 30
0.0
  0
VERTEX
  5
D1E
330
D09
100
AcDbEntity
  8
Visible (ISO)
100
AcDbVertex
100
AcDb2dVertex
 10
361.6399161240598
 20
252.1924699693379
 30
0.0
  0
VERTEX
  5
D1F
330
D09
100
AcDbEntity
  8
Visible (ISO)
100
AcDbVertex
100
AcDb2dVertex
 10
361.6289447725568
 20
252.1905820750473
 30
0.0
  0
VERTEX
  5
D20
330
D09
100
AcDbEntity
  8
Visible (ISO)
100
AcDbVertex
100
AcDb2dVertex
 10
361.6177202870816
 20
252.1886430358176
 30
0.0
  0
VERTEX
  5
D21
330
D09
100
AcDbEntity
  8
Visible (ISO)
100
AcDbVertex
100
AcDb2dVertex
 10
361.6062467980254
 20
252.1866509221021
 30
0.0
  0
VERTEX
  5
D22
330
D09
100
AcDbEntity
  8
Visible (ISO)
100
AcDbVertex
100
AcDb2dVertex
 10
361.5945288414429
 20
252.1846035282745
 30
0.0
  0
VERTEX
  5
D23
330
D09
100
AcDbEntity
  8
Visible (ISO)
100
AcDbVertex
100
AcDb2dVertex
 10
361.5825702895756
 20
252.1824989455256
 30
0.0
  0
SEQEND
  5
D0C
330
D09
100
AcDbEntity
  8
Visible (ISO)
  0
POLYLINE
  5
D24
330
75
100
AcDbEntity
  8
Visible (ISO)
100
AcDb2dPolyline
 66
     1
 10
0.0
 20
0.0
 30
0.0
 70
   128
  0
VERTEX
  5
D25
330
D24
100
AcDbEntity
  8
Visible (ISO)
100
AcDbVertex
100
AcDb2dVertex
 10
358.8248109332412
 20
251.3629513313719
 30
0.0
  0
VERTEX
  5
D26
330
D24
100
AcDbEntity
  8
Visible (ISO)
100
AcDbVertex
100
AcDb2dVertex
 10
358.8314359626519
 20
251.4055886970071
 30
0.0
  0
VERTEX
  5
D28
330
D24
100
AcDbEntity
  8
Visible (ISO)
100
AcDbVertex
100
AcDb2dVertex
 10
358.8517747768224
 20
251.4737105815435
 30
0.0
  0
VERTEX
  5
D29
330
D24
100
AcDbEntity
  8
Visible (ISO)
100
AcDbVertex
100
AcDb2dVertex
 10
358.8865228170561
 20
251.5635430219901
 30
0.0
  0
VERTEX
  5
D2A
330
D24
100
AcDbEntity
  8
Visible (ISO)
100
AcDbVertex
100
AcDb2dVertex
 10
358.9363756725302
 20
251.6713120974583
 30
0.0
  0
VERTEX
  5
D2B
330
D24
100
AcDbEntity
  8
Visible (ISO)
100
AcDbVertex
100
AcDb2dVertex
 10
359.0020289337008
 20
251.7932439289611
 30
0.0
  0
VERTEX
  5
D2C
330
D24
100
AcDbEntity
  8
Visible (ISO)
100
AcDbVertex
100
AcDb2dVertex
 10
359.084178112801
 20
251.9255646828865
 30
0.0
  0
VERTEX
  5
D2D
330
D24
100
AcDbEntity
  8
Visible (ISO)
100
AcDbVertex
100
AcDb2dVertex
 10
359.1839575254164
 20
252.0636870765914
 30
0.0
  0
VERTEX
  5
D2E
330
D24
100
AcDbEntity
  8
Visible (ISO)
100
AcDbVertex
100
AcDb2dVertex
 10
359.3012168963
 20
252.2032443445858
 30
0.0
  0
VERTEX
  5
D2F
330
D24
100
AcDbEntity
  8
Visible (ISO)
100
AcDbVertex
100
AcDb2dVertex
 10
359.4347247189044
 20
252.3407930535154
 30
0.0
  0
VERTEX
  5
D30
330
D24
100
AcDbEntity
  8
Visible (ISO)
100
AcDbVertex
100
AcDb2dVertex
 10
359.5832496203668
 20
252.4728898392867
 30
0.0
  0
VERTEX
  5
D31
330
D24
100
AcDbEntity
  8
Visible (ISO)
100
AcDbVertex
100
AcDb2dVertex
 10
359.7455601079693
 20
252.5960912510057
 30
0.0
  0
VERTEX
  5
D32
330
D24
100
AcDbEntity
  8
Visible (ISO)
100
AcDbVertex
100
AcDb2dVertex
 10
359.9204247350921
 20
252.7069538940127
 30
0.0
  0
VERTEX
  5
D33
330
D24
100
AcDbEntity
  8
Visible (ISO)
100
AcDbVertex
100
AcDb2dVertex
 10
360.1056368534424
 20
252.8024149119661
 30
0.0
  0
VERTEX
  5
D34
330
D24
100
AcDbEntity
  8
Visible (ISO)
100
AcDbVertex
100
AcDb2dVertex
 10
360.2974054435277
 20
252.8821920747323
 30
0.0
  0
VERTEX
  5
D35
330
D24
100
AcDbEntity
  8
Visible (ISO)
100
AcDbVertex
100
AcDb2dVertex
 10
360.4921225007046
 20
252.9470130171187
 30
0.0
  0
VERTEX
  5
D36
330
D24
100
AcDbEntity
  8
Visible (ISO)
100
AcDbVertex
100
AcDb2dVertex
 10
360.6861800044833
 20
252.9976054500846
 30
0.0
  0
VERTEX
  5
D37
330
D24
100
AcDbEntity
  8
Visible (ISO)
100
AcDbVertex
100
AcDb2dVertex
 10
360.8759699291161
 20
253.0346970389228
 30
0.0
  0
VERTEX
  5
D38
330
D24
100
AcDbEntity
  8
Visible (ISO)
100
AcDbVertex
100
AcDb2dVertex
 10
361.0578843410513
 20
253.059015246517
 30
0.0
  0
VERTEX
  5
D39
330
D24
100
AcDbEntity
  8
Visible (ISO)
100
AcDbVertex
100
AcDb2dVertex
 10
361.2280815339738
 20
253.0726816951872
 30
0.0
  0
VERTEX
  5
D3A
330
D24
100
AcDbEntity
  8
Visible (ISO)
100
AcDbVertex
100
AcDb2dVertex
 10
361.3831893754126
 20
253.0789776466394
 30
0.0
  0
VERTEX
  5
D3B
330
D24
100
AcDbEntity
  8
Visible (ISO)
100
AcDbVertex
100
AcDb2dVertex
 10
361.5203044954145
 20
253.0803702270558
 30
0.0
  0
VERTEX
  5
D3C
330
D24
100
AcDbEntity
  8
Visible (ISO)
100
AcDbVertex
100
AcDb2dVertex
 10
361.636523597783
 20
253.0793266900404
 30
0.0
  0
VERTEX
  5
D3D
330
D24
100
AcDbEntity
  8
Visible (ISO)
100
AcDbVertex
100
AcDb2dVertex
 10
361.7289429437799
 20
253.0783143738157
 30
0.0
  0
VERTEX
  5
D3E
330
D24
100
AcDbEntity
  8
Visible (ISO)
100
AcDbVertex
100
AcDb2dVertex
 10
361.7946595322367
 20
253.0798003617609
 30
0.0
  0
SEQEND
  5
D27
330
D24
100
AcDbEntity
  8
Visible (ISO)
  0
ELLIPSE
  5
D3F
330
75
100
AcDbEntity
  8
Visible (ISO)
100
AcDbEllipse
 10
29.36961947225882
 20
59.93210241444742
 30
0.0
 11
-1.047967644326784
 21
1.819825215905132
 31
0.0
210
0.0
220
0.0
230
0.9999999999999998
 40
0.5780931159156387
 41
0.0
 42
0.7873318718198857
  0
ELLIPSE
  5
D40
330
75
100
AcDbEntity
  8
Visible (ISO)
100
AcDbEllipse
 10
29.36961947224844
 20
39.90219785581114
 30
0.0
 11
-2.099999999999939
 21
0.0000000000010802
 31
0.0
210
0.0
220
0.0
230
1.0
 40
0.5758617009856553
 41
5.497787143782194
 42
7.068583470577204
  0
ELLIPSE
  5
D41
330
75
100
AcDbEntity
  8
Visible (ISO)
100
AcDbEllipse
 10
29.36961947225875
 20
59.93210241444742
 30
0.0
 11
-2.100000000000011
 21
0.0000000000010118
 31
0.0
210
0.0
220
0.0
230
1.0
 40
0.5758617009856554
 41
5.497787143782074
 42
6.283185307179353
  0
ELLIPSE
  5
D42
330
75
100
AcDbEntity
  8
Visible (ISO)
100
AcDbEllipse
 10
29.36961947224851
 20
39.90219785581114
 30
0.0
 11
-1.047967644326671
 21
1.819825215905189
 31
0.0
210
0.0
220
0.0
230
1.0
 40
0.5780931159156388
 41
0.7873318718201237
 42
2.358128198615029
  0
LINE
  5
D43
330
75
100
AcDbEntity
  8
Visible (ISO)
100
AcDbLine
 10
28.62715735200218
 20
38.67344617398384
 30
0.0
 11
27.88469523175614
 21
38.24589067450194
 31
0.0
  0
LINE
  5
D44
330
75
100
AcDbEntity
  8
Visible (ISO)
100
AcDbLine
 10
27.88469523175614
 20
38.18866237576301
 30
0.0
 11
27.88469523175571
 21
37.33023789467857
 31
0.0
  0
LINE
  5
D45
330
75
100
AcDbEntity
  8
Visible (ISO)
100
AcDbLine
 10
385.7578718620221
 20
216.6751260784519
 30
0.0
 11
385.7578718620217
 21
215.8167015973674
 31
0.0
  0
LINE
  5
D46
330
75
100
AcDbEntity
  8
Visible (ISO)
100
AcDbLine
 10
28.62715735200233
 20
38.84291853959421
 30
0.0
 11
28.62715735200218
 21
38.67344617398384
 31
0.0
  0
LINE
  5
D47
330
75
100
AcDbEntity
  8
Visible (ISO)
100
AcDbLine
 10
28.31759104276408
 20
39.29637497492354
 30
0.0
 11
27.88469523175657
 21
39.04708685684742
 31
0.0
  0
LINE
  5
D48
330
75
100
AcDbEntity
  8
Visible (ISO)
100
AcDbLine
 10
27.88469523175657
 20
39.04708685684742
 30
0.0
 11
27.88469523175614
 21
38.24589067450194
 31
0.0
  0
LINE
  5
D49
330
75
100
AcDbEntity
  8
Visible (ISO)
100
AcDbLine
 10
28.75703715389235
 20
38.69101067888501
 30
0.0
 11
27.88469523175614
 21
38.18866237576301
 31
0.0
  0
LINE
  5
D4A
330
75
100
AcDbEntity
  8
Visible (ISO)
100
AcDbLine
 10
27.88469523175571
 20
37.33023789467857
 30
0.0
 11
29.36961947224766
 21
38.18534889364233
 31
0.0
  0
LINE
  5
D4B
330
75
100
AcDbEntity
  8
Visible (ISO)
100
AcDbLine
 10
385.7578718620217
 20
215.8167015973674
 30
0.0
 11
51.84790765006106
 21
23.53074163038027
 31
0.0
  0
LINE
  5
D4C
330
75
100
AcDbEntity
  8
Visible (ISO)
100
AcDbLine
 10
385.7081825888503
 20
216.7037402278213
 30
0.0
 11
385.7578718620222
 21
216.7323543771908
 31
0.0
  0
LINE
  5
D4D
330
75
100
AcDbEntity
  8
Visible (ISO)
100
AcDbLine
 10
385.7578718620333
 20
238.364651300518
 30
0.0
 11
385.7578718620222
 21
216.7323543771908
 31
0.0
  0
LINE
  5
D4E
330
75
100
AcDbEntity
  8
Visible (ISO)
100
AcDbLine
 10
385.7578718620333
 20
238.421879599257
 30
0.0
 11
385.7578718620338
 21
239.2803040803414
 31
0.0
  0
LINE
  5
D4F
330
75
100
AcDbEntity
  8
Visible (ISO)
100
AcDbLine
 10
385.7081825888614
 20
238.3932654498875
 30
0.0
 11
385.7578718620333
 21
238.421879599257
 31
0.0
  0
ELLIPSE
  5
D50
330
75
100
AcDbEntity
  8
Visible (ISO)
100
AcDbEllipse
 10
253.8654158973029
 20
189.2106336077872
 30
0.0
 11
-1.047967644326784
 21
1.819825215905132
 31
0.0
210
0.0
220
0.0
230
0.9999999999999998
 40
0.5780931159156387
 41
5.499720852204594
 42
7.070517178999475
  0
LINE
  5
D51
330
75
100
AcDbEntity
  8
Visible (ISO)
100
AcDbLine
 10
252.3804916568113
 20
189.9226738599049
 30
0.0
 11
252.3804916568114
 21
190.0657446067523
 31
0.0
  0
LINE
  5
D52
330
75
100
AcDbEntity
  8
Visible (ISO)
100
AcDbLine
 10
253.8654158973038
 20
190.9274825699561
 30
0.0
 11
253.9953930348968
 21
190.8526337144125
 31
0.0
  0
LINE
  5
D53
330
75
100
AcDbEntity
  8
Visible (ISO)
100
AcDbLine
 10
282.5739512134813
 20
207.309930838835
 30
0.0
 11
252.3804916568113
 21
189.9226738599049
 31
0.0
  0
ELLIPSE
  5
D54
330
75
100
AcDbEntity
  8
Visible (ISO)
100
AcDbEllipse
 10
284.0588754539729
 20
206.5978905867173
 30
0.0
 11
-1.047967644326786
 21
1.81982521590513
 31
0.0
210
0.0
220
0.0
230
1.0
 40
0.5780931159156387
 41
0.0
 42
0.7873318718198652
  0
LINE
  5
D55
330
75
100
AcDbEntity
  8
Visible (ISO)
100
AcDbLine
 10
282.5739512134815
 20
207.4530015856824
 30
0.0
 11
282.5739512134813
 21
207.309930838835
 31
0.0
  0
ELLIPSE
  5
D56
330
75
100
AcDbEntity
  8
Visible (ISO)
100
AcDbEllipse
 10
105.6204792215214
 20
103.8420522112372
 30
0.0
 11
-1.047967644326784
 21
1.819825215905132
 31
0.0
210
0.0
220
0.0
230
0.9999999999999998
 40
0.5780931159156387
 41
5.49972085220457
 42
7.070517178999471
  0
LINE
  5
D57
330
75
100
AcDbEntity
  8
Visible (ISO)
100
AcDbLine
 10
104.1355549810298
 20
104.5540924633548
 30
0.0
 11
104.1355549810299
 21
104.6971632102022
 31
0.0
  0
LINE
  5
D58
330
75
100
AcDbEntity
  8
Visible (ISO)
100
AcDbLine
 10
105.6204792215223
 20
105.558901173406
 30
0.0
 11
105.7504563591153
 21
105.4840523178624
 31
0.0
  0
LINE
  5
D59
330
75
100
AcDbEntity
  8
Visible (ISO)
100
AcDbLine
 10
134.3290145376998
 20
121.9413494422849
 30
0.0
 11
104.1355549810298
 21
104.5540924633548
 31
0.0
  0
ELLIPSE
  5
D5A
330
75
100
AcDbEntity
  8
Visible (ISO)
100
AcDbEllipse
 10
135.8139387781914
 20
121.2293091901672
 30
0.0
 11
-1.047967644326767
 21
1.819825215905138
 31
0.0
210
0.0
220
0.0
230
1.0
 40
0.5780931159156388
 41
0.0000000000000645
 42
0.7873318718199506
  0
LINE
  5
D5B
330
75
100
AcDbEntity
  8
Visible (ISO)
100
AcDbLine
 10
134.3290145376998
 20
122.0844201891323
 30
0.0
 11
134.3290145376998
 21
121.9413494422849
 31
0.0
  0
LINE
  5
D5C
330
75
100
AcDbEntity
  8
Etroit visible (ISO)
100
AcDbLine
 10
104.1355549810299
 20
104.6971632102022
 30
0.0
 11
27.8846952317673
 21
60.78721341341246
 31
0.0
  0
LINE
  5
D5D
330
75
100
AcDbEntity
  8
Etroit visible (ISO)
100
AcDbLine
 10
358.8248109627439
 20
251.3629513824721
 30
0.0
 11
282.5739512134815
 21
207.4530015856824
 31
0.0
  0
LINE
  5
D5E
330
75
100
AcDbEntity
  8
Etroit visible (ISO)
100
AcDbLine
 10
252.3804916568114
 20
190.0657446067523
 30
0.0
 11
134.3290145376998
 21
122.0844201891323
 31
0.0
  0
LINE
  5
D5F
330
75
100
AcDbEntity
  8
Etroit visible (ISO)
100
AcDbLine
 10
361.7946594437279
 20
252.2213758635553
 30
0.0
 11
361.7056236886449
 21
252.1701035821847
 31
0.0
  0
LINE
  5
D60
330
75
100
AcDbEntity
  8
Etroit visible (ISO)
100
AcDbLine
 10
361.7946594437168
 20
230.5318506414891
 30
0.0
 11
361.7946594437278
 21
252.1641475648163
 31
0.0
  0
LINE
  5
D61
330
75
100
AcDbEntity
  8
Etroit visible (ISO)
100
AcDbLine
 10
358.8248109627337
 20
231.3330468238358
 30
0.0
 11
358.8248109627439
 21
251.3629513824721
 31
0.0
  0
LINE
  5
D62
330
75
100
AcDbEntity
  8
Etroit visible (ISO)
100
AcDbLine
 10
27.8846952317673
 20
60.78721341341246
 30
0.0
 11
27.88469523175706
 21
40.75730885477621
 31
0.0
  0
LINE
  5
D63
330
75
100
AcDbEntity
  8
Etroit visible (ISO)
100
AcDbLine
 10
361.7946594437163
 20
229.6161978616658
 30
0.0
 11
29.36961947224766
 21
38.18534889364233
 31
0.0
  0
LINE
  5
D64
330
75
100
AcDbEntity
  8
Etroit visible (ISO)
100
AcDbLine
 10
27.88469523175706
 20
40.75730885477621
 30
0.0
 11
358.8248109627337
 21
231.3330468238358
 31
0.0
  0
LINE
  5
D65
330
75
100
AcDbEntity
  8
Visible (ISO)
100
AcDbLine
 10
104.5725115771946
 20
105.6618774271423
 30
0.0
 11
28.32165182793204
 21
61.75192763035255
 31
0.0
  0
LINE
  5
D66
330
75
100
AcDbEntity
  8
Visible (ISO)
100
AcDbLine
 10
359.9155630623061
 20
252.7041613900951
 30
0.0
 11
283.0109078096461
 21
208.4177158026224
 31
0.0
  0
LINE
  5
D67
330
75
100
AcDbEntity
  8
Visible (ISO)
100
AcDbLine
 10
252.8174482529761
 20
191.0304588236923
 30
0.0
 11
134.7659711338646
 21
123.0491344060724
 31
0.0
  0
LINE
  5
D68
330
75
100
AcDbEntity
  8
Visible (ISO)
100
AcDbLine
 10
27.26961947225888
 20
59.93210241444849
 30
0.0
 11
27.26961947224858
 21
39.90219785581225
 31
0.0
  0
DIMENSION
  5
D69
330
75
100
AcDbEntity
  8
Cote (ISO)
 62
   150
420
    33023
100
AcDbDimension
  2
*D17
 10
411.2987801954187
 20
329.8695408201366
 30
0.0
 11
411.6704900974878
 21
366.66694941191
 31
0.0
 70
   160
  1
<>
 42
30.99999999999762
  3
Groom
100
AcDbAlignedDimension
 13
411.2987801954188
 23
360.8695408201342
 33
0.0
 14
411.2987801954187
 24
329.8695408201366
 34
0.0
 50
90.0
100
AcDbRotatedDimension
1001
ACAD
1000
DSTYLE
1002
{
1070
   289
1070
     2
1070
   279
1070
     1
1070
    73
1070
     1
1070
    74
1070
     1
1070
   271
1070
     2
1070
    76
1070
     1
1070
    75
1070
     1
1070
   272
1070
     2
1070
    48
1040
0.0
1070
    47
1040
0.0
1002
}
  0
MTEXT
  5
E53
102
{ACAD_XDICTIONARY
360
E69
102
}
330
75
100
AcDbEntity
  8
Symbole (ISO)
100
AcDbMText
 10
449.3729480797856
 20
245.0381374519167
 30
0.0
 40
6.99999988079071
 41
281.2714862823487
 71
     1
 72
     1
  1
{Mod\U+00E8le:\P \P\fTahoma|b0|i0;\H10.0000;102156\fTahoma|b0|i0;\H7.0000;:Bo\U+00EEtier mise en applique, 2 p\U+00EAnes, verrou avec cylindre}
  7
Texte de note (ISO)
 73
     1
 44
0.8563522100448608
  0
ENDSEC
  0
SECTION
  2
OBJECTS
  0
DICTIONARY
  5
C
330
0
100
AcDbDictionary
281
     1
  3
ACAD_COLOR
350
6B
  3
ACAD_GROUP
350
D
  3
ACAD_IMAGE_DICT
350
169
  3
ACAD_IMAGE_VARS
350
E54
  3
ACAD_LAYOUT
350
6A
  3
ACAD_MATERIAL
350
10
  3
ACAD_MLEADERSTYLE
350
6E
  3
ACAD_MLINESTYLE
350
67
  3
ACAD_PLOTSETTINGS
350
69
  3
ACAD_PLOTSTYLENAME
350
E
  3
ACAD_SCALELIST
350
3A
  3
ACAD_TABLESTYLE
350
6C
  3
ACAD_VISUALSTYLE
350
29
  3
ACDB_RECOMPOSE_DATA
350
E60
  3
AcDbVariableDictionary
350
E57
  0
DICTIONARY
  5
E55
330
75
100
AcDbDictionary
280
     1
281
     1
  3
ACAD_SORTENTS
360
E56
  0
IMAGEDEF_REACTOR
  5
16B
330
168
100
AcDbRasterImageDefReactor
 90
        2
330
168
  0
DICTIONARY
  5
E65
330
180
100
AcDbDictionary
280
     1
281
     1
  3
ACAD_MTEXT_2008_RT
360
E66
  0
DICTIONARY
  5
E67
330
181
100
AcDbDictionary
280
     1
281
     1
  3
ACAD_MTEXT_2008_RT
360
E68
  0
DICTIONARY
  5
E69
330
E53
100
AcDbDictionary
280
     1
281
     1
  3
ACAD_MTEXT_2008_RT
360
E6A
  0
DICTIONARY
  5
6B
102
{ACAD_REACTORS
330
C
102
}
330
C
100
AcDbDictionary
281
     1
  0
DICTIONARY
  5
D
102
{ACAD_REACTORS
330
C
102
}
330
C
100
AcDbDictionary
281
     1
  0
DICTIONARY
  5
169
102
{ACAD_REACTORS
330
C
102
}
330
C
100
AcDbDictionary
281
     1
  3
OAImg2129930240
350
16A
  0
RASTERVARIABLES
  5
E54
102
{ACAD_REACTORS
330
C
102
}
330
C
100
AcDbRasterVariables
 90
        0
 70
     0
 71
     1
 72
     1
  0
DICTIONARY
  5
6A
102
{ACAD_REACTORS
330
C
102
}
330
C
100
AcDbDictionary
281
     1
  3
Layout1
350
74
  3
Layout2
350
7C
  3
Model
350
78
  0
DICTIONARY
  5
10
102
{ACAD_REACTORS
330
C
102
}
330
C
100
AcDbDictionary
281
     1
  3
ByBlock
350
19
  3
ByLayer
350
11
  3
Global
350
21
  0
DICTIONARY
  5
6E
102
{ACAD_REACTORS
330
C
102
}
330
C
100
AcDbDictionary
281
     1
  3
Standard
350
6F
  0
DICTIONARY
  5
67
102
{ACAD_REACTORS
330
C
102
}
330
C
100
AcDbDictionary
281
     1
  3
Standard
350
68
  0
DICTIONARY
  5
69
102
{ACAD_REACTORS
330
C
102
}
330
C
100
AcDbDictionary
281
     1
  0
ACDBDICTIONARYWDFLT
  5
E
102
{ACAD_REACTORS
330
C
102
}
330
C
100
AcDbDictionary
281
     1
  3
Normal
350
F
100
AcDbDictionaryWithDefault
340
F
  0
DICTIONARY
  5
3A
102
{ACAD_REACTORS
330
C
102
}
330
C
100
AcDbDictionary
281
     1
  3
A0
350
3B
  3
A1
350
3C
  3
A2
350
3D
  3
A3
350
3E
  3
A4
350
3F
  3
A5
350
40
  3
A6
350
41
  3
A7
350
42
  3
A8
350
43
  3
A9
350
44
  3
B0
350
45
  3
B1
350
46
  3
B2
350
47
  3
B3
350
48
  3
B4
350
49
  3
B5
350
4A
  3
B6
350
4B
  3
B7
350
4C
  3
B8
350
4D
  3
B9
350
4E
  3
C0
350
4F
  3
C1
350
50
  3
C2
350
51
  3
C3
350
52
  3
C4
350
53
  3
C5
350
54
  3
C6
350
55
  3
C7
350
56
  3
C8
350
57
  3
C9
350
58
  3
D0
350
59
  3
D1
350
5A
  3
D2
350
5B
  0
DICTIONARY
  5
6C
102
{ACAD_REACTORS
330
C
102
}
330
C
100
AcDbDictionary
281
     1
  3
Standard
350
6D
  0
DICTIONARY
  5
29
102
{ACAD_REACTORS
330
C
102
}
330
C
100
AcDbDictionary
281
     1
  3
2dWireframe
350
2F
  3
3D Hidden
350
31
  3
3dWireframe
350
30
  3
Basic
350
2E
  3
Brighten
350
35
  3
ColorChange
350
39
  3
Conceptual
350
32
  3
Dim
350
34
  3
Facepattern
350
38
  3
Flat
350
2A
  3
FlatWithEdges
350
2B
  3
Gouraud
350
2C
  3
GouraudWithEdges
350
2D
  3
Linepattern
350
37
  3
Realistic
350
33
  3
Thicken
350
36
  0
XRECORD
  5
E60
102
{ACAD_REACTORS
330
C
102
}
330
C
100
AcDbXrecord
280
     1
 90
        1
330
6D
  0
DICTIONARY
  5
E57
102
{ACAD_REACTORS
330
C
102
}
330
C
100
AcDbDictionary
281
     1
  3
CANNOSCALE
350
E5B
  3
CMLEADERSTYLE
350
E59
  3
CTABLESTYLE
350
E58
  3
LIGHTINGUNITS
350
E5C
  3
MSLTSCALE
350
E5A
  0
SORTENTSTABLE
  5
E56
102
{ACAD_REACTORS
330
E55
102
}
330
E55
100
AcDbSortentsTable
330
75
331
D60
  5
D60
331
278
  5
278
331
CCF
  5
CCF
331
C71
  5
C71
331
460
  5
460
331
241
  5
241
331
482
  5
482
331
33C
  5
33C
331
C24
  5
C24
331
4A4
  5
4A4
331
356
  5
356
331
C3E
  5
C3E
331
4BE
  5
4BE
331
D4F
  5
D4F
331
378
  5
378
331
267
  5
267
331
C60
  5
C60
331
252
  5
252
331
230
  5
230
331
20E
  5
20E
331
1EC
  5
1EC
331
1D2
  5
1D2
331
471
  5
471
331
493
  5
493
331
32B
  5
32B
331
367
  5
367
331
C4F
  5
C4F
331
21F
  5
21F
331
1FD
  5
1FD
331
1C1
  5
1C1
331
45E
  5
45E
331
480
  5
480
331
33A
  5
33A
331
4A2
  5
4A2
331
354
  5
354
331
C3C
  5
C3C
331
4BC
  5
4BC
331
D4D
  5
D4D
331
376
  5
376
331
265
  5
265
331
C5E
  5
C5E
331
B52
  5
B52
331
46F
  5
46F
331
3D4
  5
3D4
331
491
  5
491
331
329
  5
329
331
250
  5
250
331
22E
  5
22E
331
20C
  5
20C
331
365
  5
365
331
C4D
  5
C4D
331
D5E
  5
D5E
331
276
  5
276
331
C6F
  5
C6F
331
23F
  5
23F
331
21D
  5
21D
331
1FB
  5
1FB
331
1EA
  5
1EA
331
1D0
  5
1D0
331
CED
  5
CED
331
2D2
  5
2D2
331
47E
  5
47E
331
427
  5
427
331
338
  5
338
331
4A0
  5
4A0
331
352
  5
352
331
C3A
  5
C3A
331
4BA
  5
4BA
331
D4B
  5
D4B
331
374
  5
374
331
263
  5
263
331
C5C
  5
C5C
331
B50
  5
B50
331
46D
  5
46D
331
327
  5
327
331
24E
  5
24E
331
22C
  5
22C
331
20A
  5
20A
331
1E8
  5
1E8
331
48F
  5
48F
331
363
  5
363
331
C4B
  5
C4B
331
D5C
  5
D5C
331
274
  5
274
331
C6D
  5
C6D
331
23D
  5
23D
331
21B
  5
21B
331
1F9
  5
1F9
331
1DF
  5
1DF
331
1CE
  5
1CE
331
CEB
  5
CEB
331
47C
  5
47C
331
336
  5
336
331
49E
  5
49E
331
350
  5
350
331
C38
  5
C38
331
4B8
  5
4B8
331
D49
  5
D49
331
372
  5
372
331
261
  5
261
331
C5A
  5
C5A
331
C7C
  5
C7C
331
46B
  5
46B
331
325
  5
325
331
24C
  5
24C
331
22A
  5
22A
331
208
  5
208
331
1E6
  5
1E6
331
48D
  5
48D
331
347
  5
347
331
C2F
  5
C2F
331
4AF
  5
4AF
331
361
  5
361
331
C49
  5
C49
331
D5A
  5
D5A
331
383
  5
383
331
272
  5
272
331
C6B
  5
C6B
331
23B
  5
23B
331
219
  5
219
331
1F7
  5
1F7
331
1DD
  5
1DD
331
1CC
  5
1CC
331
47A
  5
47A
331
334
  5
334
331
49C
  5
49C
331
34E
  5
34E
331
C36
  5
C36
331
4B6
  5
4B6
331
D47
  5
D47
331
370
  5
370
331
25F
  5
25F
331
C58
  5
C58
331
D69
  5
D69
331
281
  5
281
331
C7A
  5
C7A
331
9AC
  5
9AC
331
664
  5
664
331
469
  5
469
331
3F0
  5
3F0
331
323
  5
323
331
24A
  5
24A
331
228
  5
228
331
206
  5
206
331
1E4
  5
1E4
331
48B
  5
48B
331
345
  5
345
331
C2D
  5
C2D
331
4AD
  5
4AD
331
35F
  5
35F
331
C47
  5
C47
331
D58
  5
D58
331
381
  5
381
331
270
  5
270
331
C69
  5
C69
331
239
  5
239
331
217
  5
217
331
1F5
  5
1F5
331
1DB
  5
1DB
331
1CA
  5
1CA
331
D09
  5
D09
331
478
  5
478
331
332
  5
332
331
49A
  5
49A
331
34C
  5
34C
331
C34
  5
C34
331
4B4
  5
4B4
331
D45
  5
D45
331
36E
  5
36E
331
25D
  5
25D
331
C56
  5
C56
331
D67
  5
D67
331
27F
  5
27F
331
CB4
  5
CB4
331
C78
  5
C78
331
808
  5
808
331
467
  5
467
331
248
  5
248
331
226
  5
226
331
204
  5
204
331
1E2
  5
1E2
331
489
  5
489
331
343
  5
343
331
C2B
  5
C2B
331
4AB
  5
4AB
331
35D
  5
35D
331
C45
  5
C45
331
D56
  5
D56
331
37F
  5
37F
331
26E
  5
26E
331
1A6
  5
164
331
C67
  5
C67
331
237
  5
237
331
215
  5
215
331
1F3
  5
1F3
331
1D9
  5
1D9
331
1C8
  5
1C8
331
330
  5
330
331
498
  5
498
331
34A
  5
34A
331
C32
  5
C32
331
4B2
  5
4B2
331
D43
  5
D43
331
36C
  5
36C
331
25B
  5
25B
331
C54
  5
C54
331
D65
  5
D65
331
27D
  5
27D
331
C98
  5
C98
331
C76
  5
C76
331
465
  5
465
331
246
  5
246
331
224
  5
224
331
202
  5
202
331
1E0
  5
1E0
331
487
  5
487
331
341
  5
341
331
C29
  5
C29
331
4A9
  5
4A9
331
35B
  5
35B
331
C43
  5
C43
331
D54
  5
D54
331
37D
  5
37D
331
26C
  5
26C
331
C65
  5
C65
331
257
  5
257
331
235
  5
235
331
213
  5
213
331
1F1
  5
1F1
331
1D7
  5
1D7
331
476
  5
476
331
1C6
  5
1C6
331
348
  5
348
331
C30
  5
C30
331
4B0
  5
4B0
331
D41
  5
D41
331
36A
  5
36A
331
259
  5
259
331
C52
  5
C52
331
D63
  5
D63
331
27B
  5
27B
331
C74
  5
C74
331
463
  5
463
331
40C
  5
40C
331
244
  5
244
331
222
  5
222
331
200
  5
200
331
485
  5
485
331
33F
  5
33F
331
C27
  5
C27
331
4A7
  5
4A7
331
359
  5
359
331
C41
  5
C41
331
D52
  5
D52
331
37B
  5
37B
331
26A
  5
26A
331
C63
  5
C63
331
255
  5
255
331
233
  5
233
331
211
  5
211
331
1EF
  5
1EF
331
1D5
  5
1D5
331
474
  5
474
331
496
  5
496
331
32E
  5
32E
331
1C4
  5
1C4
331
368
  5
368
331
C50
  5
C50
331
D61
  5
D61
331
279
  5
279
331
C72
  5
C72
331
461
  5
461
331
242
  5
242
331
220
  5
220
331
483
  5
483
331
33D
  5
33D
331
C25
  5
C25
331
4A5
  5
4A5
331
357
  5
357
331
C3F
  5
C3F
331
4BF
  5
4BF
331
D50
  5
D50
331
379
  5
379
331
268
  5
268
331
C61
  5
C61
331
164
  5
1A6
331
253
  5
253
331
231
  5
231
331
20F
  5
20F
331
1ED
  5
1ED
331
1D3
  5
1D3
331
472
  5
472
331
494
  5
494
331
32C
  5
32C
331
D3F
  5
D3F
331
1FE
  5
1FE
331
1C2
  5
1C2
331
C70
  5
C70
331
45F
  5
45F
331
240
  5
240
331
592
  5
592
331
481
  5
481
331
33B
  5
33B
331
4A3
  5
4A3
331
355
  5
355
331
C3D
  5
C3D
331
4BD
  5
4BD
331
D4E
  5
D4E
331
377
  5
377
331
266
  5
266
331
C5F
  5
C5F
331
470
  5
470
331
492
  5
492
331
32A
  5
32A
331
308
  5
308
331
251
  5
251
331
22F
  5
22F
331
20D
  5
20D
331
366
  5
366
331
C4E
  5
C4E
331
D5F
  5
D5F
331
277
  5
277
331
21E
  5
21E
331
1FC
  5
1FC
331
1EB
  5
1EB
331
1D1
  5
1D1
331
CEE
  5
CEE
331
45D
  5
45D
331
47F
  5
47F
331
339
  5
339
331
4A1
  5
4A1
331
353
  5
353
331
C3B
  5
C3B
331
4BB
  5
4BB
331
D4C
  5
D4C
331
375
  5
375
331
264
  5
264
331
C5D
  5
C5D
331
736
  5
736
331
B51
  5
B51
331
46E
  5
46E
331
3B9
  5
3B9
331
490
  5
490
331
328
  5
328
331
24F
  5
24F
331
22D
  5
22D
331
20B
  5
20B
331
364
  5
364
331
C4C
  5
C4C
331
D5D
  5
D5D
331
275
  5
275
331
C6E
  5
C6E
331
23E
  5
23E
331
21C
  5
21C
331
1FA
  5
1FA
331
1E9
  5
1E9
331
1CF
  5
1CF
331
E53
  5
E53
331
CEC
  5
CEC
331
47D
  5
47D
331
337
  5
337
331
49F
  5
49F
331
351
  5
351
331
C39
  5
C39
331
4B9
  5
4B9
331
D4A
  5
D4A
331
373
  5
373
331
262
  5
262
331
C5B
  5
C5B
331
C7D
  5
C7D
331
46C
  5
46C
331
326
  5
326
331
24D
  5
24D
331
22B
  5
22B
331
209
  5
209
331
1E7
  5
1E7
331
48E
  5
48E
331
362
  5
362
331
C4A
  5
C4A
331
D5B
  5
D5B
331
273
  5
273
331
C6C
  5
C6C
331
2B7
  5
2B7
331
23C
  5
23C
331
21A
  5
21A
331
1F8
  5
1F8
331
1DE
  5
1DE
331
1CD
  5
1CD
331
CEA
  5
CEA
331
47B
  5
47B
331
335
  5
335
331
49D
  5
49D
331
34F
  5
34F
331
C37
  5
C37
331
4B7
  5
4B7
331
D48
  5
D48
331
371
  5
371
331
260
  5
260
331
C59
  5
C59
331
C7B
  5
C7B
331
46A
  5
46A
331
3F1
  5
3F1
331
324
  5
324
331
24B
  5
24B
331
229
  5
229
331
207
  5
207
331
1E5
  5
1E5
331
48C
  5
48C
331
346
  5
346
331
C2E
  5
C2E
331
4AE
  5
4AE
331
360
  5
360
331
C48
  5
C48
331
D59
  5
D59
331
382
  5
382
331
271
  5
271
331
C6A
  5
C6A
331
23A
  5
23A
331
218
  5
218
331
1F6
  5
1F6
331
1DC
  5
1DC
331
1CB
  5
1CB
331
479
  5
479
331
333
  5
333
331
D24
  5
D24
331
49B
  5
49B
331
34D
  5
34D
331
C35
  5
C35
331
4B5
  5
4B5
331
D46
  5
D46
331
36F
  5
36F
331
25E
  5
25E
331
C57
  5
C57
331
D68
  5
D68
331
280
  5
280
331
C79
  5
C79
331
A7E
  5
A7E
331
468
  5
468
331
3EF
  5
3EF
331
249
  5
249
331
227
  5
227
331
205
  5
205
331
1E3
  5
1E3
331
48A
  5
48A
331
344
  5
344
331
C2C
  5
C2C
331
4AC
  5
4AC
331
35E
  5
35E
331
C46
  5
C46
331
D57
  5
D57
331
380
  5
380
331
26F
  5
26F
331
C68
  5
C68
331
238
  5
238
331
216
  5
216
331
1F4
  5
1F4
331
1DA
  5
1DA
331
1C9
  5
1C9
331
331
  5
331
331
499
  5
499
331
34B
  5
34B
331
C33
  5
C33
331
4B3
  5
4B3
331
D44
  5
D44
331
36D
  5
36D
331
25C
  5
25C
331
C55
  5
C55
331
D66
  5
D66
331
27E
  5
27E
331
CB3
  5
CB3
331
C77
  5
C77
331
466
  5
466
331
247
  5
247
331
225
  5
225
331
203
  5
203
331
1E1
  5
1E1
331
488
  5
488
331
342
  5
342
331
C2A
  5
C2A
331
4AA
  5
4AA
331
35C
  5
35C
331
C44
  5
C44
331
D55
  5
D55
331
37E
  5
37E
331
26D
  5
26D
331
C66
  5
C66
331
2ED
  5
2ED
331
236
  5
236
331
214
  5
214
331
1F2
  5
1F2
331
1D8
  5
1D8
331
477
  5
477
331
1C7
  5
1C7
331
349
  5
349
331
C31
  5
C31
331
4B1
  5
4B1
331
D42
  5
D42
331
36B
  5
36B
331
25A
  5
25A
331
C53
  5
C53
331
D64
  5
D64
331
27C
  5
27C
331
C75
  5
C75
331
8DA
  5
8DA
331
464
  5
464
331
442
  5
442
331
245
  5
245
331
223
  5
223
331
201
  5
201
331
486
  5
486
331
340
  5
340
331
C28
  5
C28
331
4A8
  5
4A8
331
35A
  5
35A
331
C42
  5
C42
331
D53
  5
D53
331
37C
  5
37C
331
26B
  5
26B
331
C64
  5
C64
331
39E
  5
39E
331
256
  5
256
331
234
  5
234
331
212
  5
212
331
1F0
  5
1F0
331
1D6
  5
1D6
331
475
  5
475
331
497
  5
497
331
32F
  5
32F
331
1C5
  5
1C5
331
D40
  5
D40
331
369
  5
369
331
258
  5
258
331
C51
  5
C51
331
D62
  5
D62
331
27A
  5
27A
331
C73
  5
C73
331
462
  5
462
331
29C
  5
29C
331
243
  5
243
331
221
  5
221
331
484
  5
484
331
33E
  5
33E
331
C26
  5
C26
331
4A6
  5
4A6
331
358
  5
358
331
C40
  5
C40
331
D51
  5
D51
331
37A
  5
37A
331
269
  5
269
331
C62
  5
C62
331
254
  5
254
331
232
  5
232
331
210
  5
210
331
1EE
  5
1EE
331
1D4
  5
1D4
331
473
  5
473
331
495
  5
495
331
32D
  5
32D
331
1FF
  5
1FF
331
1C3
  5
1C3
  0
XRECORD
  5
E66
102
{ACAD_REACTORS
330
E65
102
}
330
E65
100
AcDbXrecord
280
     1
 40
71413.0
  1
\fArial|b0|i0;\H3.5000; Tol. gén. : +/-0.2
  0
XRECORD
  5
E68
102
{ACAD_REACTORS
330
E67
102
}
330
E67
100
AcDbXrecord
280
     1
 40
9066.0
  1
 Matière:
  0
XRECORD
  5
E6A
102
{ACAD_REACTORS
330
E69
102
}
330
E69
100
AcDbXrecord
280
     1
 40
865943.0
  1
{Modèle:\P \P\fTahoma|b0|i0;\H10.0000;102156\fTahoma|b0|i0;\H7.0000;:Boîtier mise en applique, 2 pênes, verrou avec cylindre}
  0
IMAGEDEF
  5
16A
102
{ACAD_REACTORS
330
169
330
16B
102
}
330
169
100
AcDbRasterImageDef
 90
        0
  1
H:\Serrure ML\Plan Dorma\Applique avec cylindre1.bmp
 10
334.0
 20
178.0
 11
0.2645502645502646
 21
0.2645502645502646
280
     1
281
     2
  0
LAYOUT
  5
74
102
{ACAD_REACTORS
330
6A
102
}
330
6A
100
AcDbPlotSettings
  1

  2

  4

  6

 40
0.0
 41
0.0
 42
0.0
 43
0.0
 44
0.0
 45
0.0
 46
0.0
 47
0.0
 48
0.0
 49
0.0
140
0.0
141
0.0
142
1.0
143
1.0
 70
   688
 72
     0
 73
     0
 74
     5
  7

 75
    16
147
1.0
 76
     0
 77
     2
 78
   300
148
0.0
149
0.0
100
AcDbLayout
  1
Layout1
 70
     1
 71
     1
 10
0.0
 20
0.0
 11
12.0
 21
9.0
 12
0.0
 22
0.0
 32
0.0
 14
0.0
 24
0.0
 34
0.0
 15
0.0
 25
0.0
 35
0.0
146
0.0
 13
0.0
 23
0.0
 33
0.0
 16
1.0
 26
0.0
 36
0.0
 17
0.0
 27
1.0
 37
0.0
 76
     0
330
71
  0
LAYOUT
  5
7C
102
{ACAD_REACTORS
330
6A
102
}
330
6A
100
AcDbPlotSettings
  1

  2

  4

  6

 40
0.0
 41
0.0
 42
0.0
 43
0.0
 44
0.0
 45
0.0
 46
0.0
 47
0.0
 48
0.0
 49
0.0
140
0.0
141
0.0
142
1.0
143
1.0
 70
   688
 72
     0
 73
     0
 74
     5
  7

 75
    16
147
1.0
 76
     0
 77
     2
 78
   300
148
0.0
149
0.0
100
AcDbLayout
  1
Layout2
 70
     1
 71
     2
 10
0.0
 20
0.0
 11
12.0
 21
9.0
 12
0.0
 22
0.0
 32
0.0
 14
0.0
 24
0.0
 34
0.0
 15
0.0
 25
0.0
 35
0.0
146
0.0
 13
0.0
 23
0.0
 33
0.0
 16
1.0
 26
0.0
 36
0.0
 17
0.0
 27
1.0
 37
0.0
 76
     0
330
79
  0
LAYOUT
  5
78
102
{ACAD_REACTORS
330
6A
102
}
330
6A
100
AcDbPlotSettings
  1

  2

  4

  6

 40
0.0
 41
0.0
 42
0.0
 43
0.0
 44
0.0
 45
0.0
 46
0.0
 47
0.0
 48
0.0
 49
0.0
140
0.0
141
0.0
142
1.0
143
1.0
 70
  1712
 72
     0
 73
     0
 74
     0
  7

 75
     0
147
1.0
 76
     0
 77
     2
 78
   300
148
0.0
149
0.0
100
AcDbLayout
  1
Model
 70
     1
 71
     0
 10
0.0
 20
0.0
 11
12.0
 21
9.0
 12
0.0
 22
0.0
 32
0.0
 14
0.0
 24
0.0
 34
0.0
 15
0.0
 25
0.0
 35
0.0
146
0.0
 13
0.0
 23
0.0
 33
0.0
 16
1.0
 26
0.0
 36
0.0
 17
0.0
 27
1.0
 37
0.0
 76
     0
330
75
  0
MATERIAL
  5
19
102
{ACAD_XDICTIONARY
360
1A
102
}
102
{ACAD_REACTORS
330
10
102
}
330
10
100
AcDbMaterial
  1
ByBlock
 72
     0
 43
0.0208333333333333
 43
0.0
 43
0.0
 43
0.0
 43
0.0
 43
0.0208333333333333
 43
0.0
 43
0.0
 43
0.0
 43
0.0
 43
1.0
 43
0.0
 43
0.0
 43
0.0
 43
0.0
 43
1.0
 77
     0
 47
0.0208333333333333
 47
0.0
 47
0.0
 47
0.0
 47
0.0
 47
0.0208333333333333
 47
0.0
 47
0.0
 47
0.0
 47
0.0
 47
1.0
 47
0.0
 47
0.0
 47
0.0
 47
0.0
 47
1.0
171
     0
 49
0.0208333333333333
 49
0.0
 49
0.0
 49
0.0
 49
0.0
 49
0.0208333333333333
 49
0.0
 49
0.0
 49
0.0
 49
0.0
 49
1.0
 49
0.0
 49
0.0
 49
0.0
 49
0.0
 49
1.0
175
     0
142
0.0208333333333333
142
0.0
142
0.0
142
0.0
142
0.0
142
0.0208333333333333
142
0.0
142
0.0
142
0.0
142
0.0
142
1.0
142
0.0
142
0.0
142
0.0
142
0.0
142
1.0
179
     0
144
0.0208333333333333
144
0.0
144
0.0
144
0.0
144
0.0
144
0.0208333333333333
144
0.0
144
0.0
144
0.0
144
0.0
144
1.0
144
0.0
144
0.0
144
0.0
144
0.0
144
1.0
147
0.0208333333333333
147
0.0
147
0.0
147
0.0
147
0.0
147
0.0208333333333333
147
0.0
147
0.0
147
0.0
147
0.0
147
1.0
147
0.0
147
0.0
147
0.0
147
0.0
147
1.0
  0
MATERIAL
  5
11
102
{ACAD_XDICTIONARY
360
12
102
}
102
{ACAD_REACTORS
330
10
102
}
330
10
100
AcDbMaterial
  1
ByLayer
 72
     0
 43
0.0208333333333333
 43
0.0
 43
0.0
 43
0.0
 43
0.0
 43
0.0208333333333333
 43
0.0
 43
0.0
 43
0.0
 43
0.0
 43
1.0
 43
0.0
 43
0.0
 43
0.0
 43
0.0
 43
1.0
 77
     0
 47
0.0208333333333333
 47
0.0
 47
0.0
 47
0.0
 47
0.0
 47
0.0208333333333333
 47
0.0
 47
0.0
 47
0.0
 47
0.0
 47
1.0
 47
0.0
 47
0.0
 47
0.0
 47
0.0
 47
1.0
171
     0
 49
0.0208333333333333
 49
0.0
 49
0.0
 49
0.0
 49
0.0
 49
0.0208333333333333
 49
0.0
 49
0.0
 49
0.0
 49
0.0
 49
1.0
 49
0.0
 49
0.0
 49
0.0
 49
0.0
 49
1.0
175
     0
142
0.0208333333333333
142
0.0
142
0.0
142
0.0
142
0.0
142
0.0208333333333333
142
0.0
142
0.0
142
0.0
142
0.0
142
1.0
142
0.0
142
0.0
142
0.0
142
0.0
142
1.0
179
     0
144
0.0208333333333333
144
0.0
144
0.0
144
0.0
144
0.0
144
0.0208333333333333
144
0.0
144
0.0
144
0.0
144
0.0
144
1.0
144
0.0
144
0.0
144
0.0
144
0.0
144
1.0
147
0.0208333333333333
147
0.0
147
0.0
147
0.0
147
0.0
147
0.0208333333333333
147
0.0
147
0.0
147
0.0
147
0.0
147
1.0
147
0.0
147
0.0
147
0.0
147
0.0
147
1.0
  0
MATERIAL
  5
21
102
{ACAD_XDICTIONARY
360
22
102
}
102
{ACAD_REACTORS
330
10
102
}
330
10
100
AcDbMaterial
  1
Global
 72
     0
 43
0.0208333333333333
 43
0.0
 43
0.0
 43
0.0
 43
0.0
 43
0.0208333333333333
 43
0.0
 43
0.0
 43
0.0
 43
0.0
 43
1.0
 43
0.0
 43
0.0
 43
0.0
 43
0.0
 43
1.0
 77
     0
 47
0.0208333333333333
 47
0.0
 47
0.0
 47
0.0
 47
0.0
 47
0.0208333333333333
 47
0.0
 47
0.0
 47
0.0
 47
0.0
 47
1.0
 47
0.0
 47
0.0
 47
0.0
 47
0.0
 47
1.0
171
     0
 49
0.0208333333333333
 49
0.0
 49
0.0
 49
0.0
 49
0.0
 49
0.0208333333333333
 49
0.0
 49
0.0
 49
0.0
 49
0.0
 49
1.0
 49
0.0
 49
0.0
 49
0.0
 49
0.0
 49
1.0
175
     0
142
0.0208333333333333
142
0.0
142
0.0
142
0.0
142
0.0
142
0.0208333333333333
142
0.0
142
0.0
142
0.0
142
0.0
142
1.0
142
0.0
142
0.0
142
0.0
142
0.0
142
1.0
179
     0
144
0.0208333333333333
144
0.0
144
0.0
144
0.0
144
0.0
144
0.0208333333333333
144
0.0
144
0.0
144
0.0
144
0.0
144
1.0
144
0.0
144
0.0
144
0.0
144
0.0
144
1.0
147
0.0208333333333333
147
0.0
147
0.0
147
0.0
147
0.0
147
0.0208333333333333
147
0.0
147
0.0
147
0.0
147
0.0
147
1.0
147
0.0
147
0.0
147
0.0
147
0.0
147
1.0
  0
MLEADERSTYLE
  5
6F
102
{ACAD_REACTORS
330
6E
102
}
330
6E
100
AcDbMLeaderStyle
170
     2
171
     1
172
     0
 90
        2
 40
0.0
 41
0.0
173
     1
 91
-1056964608
340
63
 92
       -2
290
     1
 42
0.09
291
     1
 43
0.36
  3
Standard
 44
0.18
300

342
5D
174
     1
178
     6
175
     1
176
     0
 93
-1056964608
 45
0.18
292
     0
297
     0
 46
0.18
 94
-1056964608
 47
1.0
 49
1.0
140
1.0
293
     1
141
0.0
294
     1
177
     0
142
1.0
295
     0
296
     0
143
0.125
1001
ACAD_MLEADERVER
1070
     2
  0
MLINESTYLE
  5
68
102
{ACAD_REACTORS
330
67
102
}
330
67
100
AcDbMlineStyle
  2
STANDARD
 70
     0
  3

 62
   256
 51
90.0
 52
90.0
 71
     2
 49
0.5
 62
   256
  6
BYLAYER
 49
-0.5
 62
   256
  6
BYLAYER
  0
ACDBPLACEHOLDER
  5
F
102
{ACAD_REACTORS
330
E
102
}
330
E
  0
SCALE
  5
3B
102
{ACAD_REACTORS
330
3A
102
}
330
3A
100
AcDbScale
 70
     0
300
1:1
140
1.0
141
1.0
290
     1
  0
SCALE
  5
3C
102
{ACAD_REACTORS
330
3A
102
}
330
3A
100
AcDbScale
 70
     0
300
1:2
140
1.0
141
2.0
290
     0
  0
SCALE
  5
3D
102
{ACAD_REACTORS
330
3A
102
}
330
3A
100
AcDbScale
 70
     0
300
1:4
140
1.0
141
4.0
290
     0
  0
SCALE
  5
3E
102
{ACAD_REACTORS
330
3A
102
}
330
3A
100
AcDbScale
 70
     0
300
1:5
140
1.0
141
5.0
290
     0
  0
SCALE
  5
3F
102
{ACAD_REACTORS
330
3A
102
}
330
3A
100
AcDbScale
 70
     0
300
1:8
140
1.0
141
8.0
290
     0
  0
SCALE
  5
40
102
{ACAD_REACTORS
330
3A
102
}
330
3A
100
AcDbScale
 70
     0
300
1:10
140
1.0
141
10.0
290
     0
  0
SCALE
  5
41
102
{ACAD_REACTORS
330
3A
102
}
330
3A
100
AcDbScale
 70
     0
300
1:16
140
1.0
141
16.0
290
     0
  0
SCALE
  5
42
102
{ACAD_REACTORS
330
3A
102
}
330
3A
100
AcDbScale
 70
     0
300
1:20
140
1.0
141
20.0
290
     0
  0
SCALE
  5
43
102
{ACAD_REACTORS
330
3A
102
}
330
3A
100
AcDbScale
 70
     0
300
1:30
140
1.0
141
30.0
290
     0
  0
SCALE
  5
44
102
{ACAD_REACTORS
330
3A
102
}
330
3A
100
AcDbScale
 70
     0
300
1:40
140
1.0
141
40.0
290
     0
  0
SCALE
  5
45
102
{ACAD_REACTORS
330
3A
102
}
330
3A
100
AcDbScale
 70
     0
300
1:50
140
1.0
141
50.0
290
     0
  0
SCALE
  5
46
102
{ACAD_REACTORS
330
3A
102
}
330
3A
100
AcDbScale
 70
     0
300
1:100
140
1.0
141
100.0
290
     0
  0
SCALE
  5
47
102
{ACAD_REACTORS
330
3A
102
}
330
3A
100
AcDbScale
 70
     0
300
2:1
140
2.0
141
1.0
290
     0
  0
SCALE
  5
48
102
{ACAD_REACTORS
330
3A
102
}
330
3A
100
AcDbScale
 70
     0
300
4:1
140
4.0
141
1.0
290
     0
  0
SCALE
  5
49
102
{ACAD_REACTORS
330
3A
102
}
330
3A
100
AcDbScale
 70
     0
300
8:1
140
8.0
141
1.0
290
     0
  0
SCALE
  5
4A
102
{ACAD_REACTORS
330
3A
102
}
330
3A
100
AcDbScale
 70
     0
300
10:1
140
10.0
141
1.0
290
     0
  0
SCALE
  5
4B
102
{ACAD_REACTORS
330
3A
102
}
330
3A
100
AcDbScale
 70
     0
300
100:1
140
100.0
141
1.0
290
     0
  0
SCALE
  5
4C
102
{ACAD_REACTORS
330
3A
102
}
330
3A
100
AcDbScale
 70
     0
300
1/128" = 1'-0"
140
0.0078125
141
12.0
290
     0
  0
SCALE
  5
4D
102
{ACAD_REACTORS
330
3A
102
}
330
3A
100
AcDbScale
 70
     0
300
1/64" = 1'-0"
140
0.015625
141
12.0
290
     0
  0
SCALE
  5
4E
102
{ACAD_REACTORS
330
3A
102
}
330
3A
100
AcDbScale
 70
     0
300
1/32" = 1'-0"
140
0.03125
141
12.0
290
     0
  0
SCALE
  5
4F
102
{ACAD_REACTORS
330
3A
102
}
330
3A
100
AcDbScale
 70
     0
300
1/16" = 1'-0"
140
0.0625
141
12.0
290
     0
  0
SCALE
  5
50
102
{ACAD_REACTORS
330
3A
102
}
330
3A
100
AcDbScale
 70
     0
300
3/32" = 1'-0"
140
0.09375
141
12.0
290
     0
  0
SCALE
  5
51
102
{ACAD_REACTORS
330
3A
102
}
330
3A
100
AcDbScale
 70
     0
300
1/8" = 1'-0"
140
0.125
141
12.0
290
     0
  0
SCALE
  5
52
102
{ACAD_REACTORS
330
3A
102
}
330
3A
100
AcDbScale
 70
     0
300
3/16" = 1'-0"
140
0.1875
141
12.0
290
     0
  0
SCALE
  5
53
102
{ACAD_REACTORS
330
3A
102
}
330
3A
100
AcDbScale
 70
     0
300
1/4" = 1'-0"
140
0.25
141
12.0
290
     0
  0
SCALE
  5
54
102
{ACAD_REACTORS
330
3A
102
}
330
3A
100
AcDbScale
 70
     0
300
3/8" = 1'-0"
140
0.375
141
12.0
290
     0
  0
SCALE
  5
55
102
{ACAD_REACTORS
330
3A
102
}
330
3A
100
AcDbScale
 70
     0
300
1/2" = 1'-0"
140
0.5
141
12.0
290
     0
  0
SCALE
  5
56
102
{ACAD_REACTORS
330
3A
102
}
330
3A
100
AcDbScale
 70
     0
300
3/4" = 1'-0"
140
0.75
141
12.0
290
     0
  0
SCALE
  5
57
102
{ACAD_REACTORS
330
3A
102
}
330
3A
100
AcDbScale
 70
     0
300
1" = 1'-0"
140
1.0
141
12.0
290
     0
  0
SCALE
  5
58
102
{ACAD_REACTORS
330
3A
102
}
330
3A
100
AcDbScale
 70
     0
300
1-1/2" = 1'-0"
140
1.5
141
12.0
290
     0
  0
SCALE
  5
59
102
{ACAD_REACTORS
330
3A
102
}
330
3A
100
AcDbScale
 70
     0
300
3" = 1'-0"
140
3.0
141
12.0
290
     0
  0
SCALE
  5
5A
102
{ACAD_REACTORS
330
3A
102
}
330
3A
100
AcDbScale
 70
     0
300
6" = 1'-0"
140
6.0
141
12.0
290
     0
  0
SCALE
  5
5B
102
{ACAD_REACTORS
330
3A
102
}
330
3A
100
AcDbScale
 70
     0
300
1'-0" = 1'-0"
140
12.0
141
12.0
290
     0
  0
TABLESTYLE
  5
6D
102
{ACAD_XDICTIONARY
360
E5D
102
}
102
{ACAD_REACTORS
330
6C
102
}
330
6C
100
AcDbTableStyle
  3
Standard
 70
     0
 71
     0
 40
0.06
 41
0.06
280
     0
281
     0
  7
Standard
140
0.18
170
     2
 62
     0
 63
     7
283
     0
274
    -2
284
     1
 64
     0
275
    -2
285
     1
 65
     0
276
    -2
286
     1
 66
     0
277
    -2
287
     1
 67
     0
278
    -2
288
     1
 68
     0
279
    -2
289
     1
 69
     0
  7
Standard
140
0.25
170
     5
 62
     0
 63
     7
283
     0
274
    -2
284
     1
 64
     0
275
    -2
285
     1
 65
     0
276
    -2
286
     1
 66
     0
277
    -2
287
     1
 67
     0
278
    -2
288
     1
 68
     0
279
    -2
289
     1
 69
     0
  7
Standard
140
0.18
170
     5
 62
     0
 63
     7
283
     0
274
    -2
284
     1
 64
     0
275
    -2
285
     1
 65
     0
276
    -2
286
     1
 66
     0
277
    -2
287
     1
 67
     0
278
    -2
288
     1
 68
     0
279
    -2
289
     1
 69
     0
  0
VISUALSTYLE
  5
2F
102
{ACAD_REACTORS
330
29
102
}
330
29
100
AcDbVisualStyle
  2
2dWireframe
 70
     4
 71
     0
 72
     2
 73
     0
 90
        0
 40
-0.6
 41
-30.0
 62
     5
 63
     7
421
 16777215
 74
     1
 91
        4
 64
     7
 65
   257
 75
     1
175
     1
 42
1.0
 92
        0
 66
   257
 43
1.0
 76
     1
 77
     6
 78
     2
 67
     7
 79
     5
170
     0
171
     0
290
     0
174
     0
 93
        1
 44
0.0
173
     0
291
     0
 45
0.0
1001
ACAD
1000
AcDbSavedByObjectVersion
1070
     0
  0
VISUALSTYLE
  5
31
102
{ACAD_REACTORS
330
29
102
}
330
29
100
AcDbVisualStyle
  2
3D Hidden
 70
     6
 71
     1
 72
     2
 73
     2
 90
        0
 40
-0.6
 41
-30.0
 62
     5
 63
     7
421
 16777215
 74
     2
 91
        2
 64
     7
 65
   257
 75
     2
175
     1
 42
40.0
 92
        0
 66
   257
 43
1.0
 76
     1
 77
     6
 78
     2
 67
     7
 79
     3
170
     0
171
     0
290
     0
174
     0
 93
        1
 44
0.0
173
     0
291
     0
 45
0.0
1001
ACAD
1000
AcDbSavedByObjectVersion
1070
     0
  0
VISUALSTYLE
  5
30
102
{ACAD_REACTORS
330
29
102
}
330
29
100
AcDbVisualStyle
  2
3dWireframe
 70
     5
 71
     0
 72
     2
 73
     0
 90
        0
 40
-0.6
 41
-30.0
 62
     5
 63
     7
421
 16777215
 74
     1
 91
        4
 64
     7
 65
   257
 75
     1
175
     1
 42
1.0
 92
        0
 66
   257
 43
1.0
 76
     1
 77
     6
 78
     2
 67
     7
 79
     5
170
     0
171
     0
290
     0
174
     0
 93
        1
 44
0.0
173
     0
291
     0
 45
0.0
1001
ACAD
1000
AcDbSavedByObjectVersion
1070
     0
  0
VISUALSTYLE
  5
2E
102
{ACAD_REACTORS
330
29
102
}
330
29
100
AcDbVisualStyle
  2
Basic
 70
     7
 71
     1
 72
     0
 73
     1
 90
        0
 40
-0.6
 41
-30.0
 62
     5
 63
     7
421
 16777215
 74
     0
 91
        4
 64
     7
 65
   257
 75
     1
175
     1
 42
1.0
 92
        8
 66
     7
 43
1.0
 76
     1
 77
     6
 78
     2
 67
     7
 79
     5
170
     0
171
     0
290
     0
174
     0
 93
        1
 44
0.0
173
     0
291
     1
 45
0.0
1001
ACAD
1000
AcDbSavedByObjectVersion
1070
     0
  0
VISUALSTYLE
  5
35
102
{ACAD_REACTORS
330
29
102
}
330
29
100
AcDbVisualStyle
  2
Brighten
 70
    12
 71
     2
 72
     2
 73
     0
 90
        0
 40
-0.6
 41
-30.0
 62
     5
 63
     7
421
 16777215
 74
     1
 91
        4
 64
     7
 65
   257
 75
     1
175
     1
 42
1.0
 92
        8
 66
     7
 43
1.0
 76
     1
 77
     6
 78
     2
 67
     7
 79
     5
170
     0
171
     0
290
     0
174
     0
 93
        1
 44
50.0
173
     0
291
     1
 45
0.0
1001
ACAD
1000
AcDbSavedByObjectVersion
1070
     0
  0
VISUALSTYLE
  5
39
102
{ACAD_REACTORS
330
29
102
}
330
29
100
AcDbVisualStyle
  2
ColorChange
 70
    16
 71
     2
 72
     2
 73
     3
 90
        0
 40
-0.6
 41
-30.0
 62
     5
 63
     8
421
  8421504
 74
     1
 91
        4
 64
     7
 65
   257
 75
     1
175
     1
 42
1.0
 92
        8
 66
     8
424
  8421504
 43
1.0
 76
     1
 77
     6
 78
     2
 67
     7
 79
     5
170
     0
171
     0
290
     0
174
     0
 93
        1
 44
0.0
173
     0
291
     1
 45
0.0
1001
ACAD
1000
AcDbSavedByObjectVersion
1070
     0
  0
VISUALSTYLE
  5
32
102
{ACAD_REACTORS
330
29
102
}
330
29
100
AcDbVisualStyle
  2
Conceptual
 70
     9
 71
     3
 72
     2
 73
     0
 90
        0
 40
-0.6
 41
-30.0
 62
     5
 63
     7
421
 16777215
 74
     2
 91
        2
 64
     7
 65
   257
 75
     1
175
     1
 42
40.0
 92
        8
 66
     7
 43
1.0
 76
     1
 77
     6
 78
     2
 67
     7
 79
     3
170
     0
171
     0
290
     0
174
     0
 93
        1
 44
0.0
173
     0
291
     0
 45
0.0
1001
ACAD
1000
AcDbSavedByObjectVersion
1070
     0
  0
VISUALSTYLE
  5
34
102
{ACAD_REACTORS
330
29
102
}
330
29
100
AcDbVisualStyle
  2
Dim
 70
    11
 71
     2
 72
     2
 73
     0
 90
        0
 40
-0.6
 41
-30.0
 62
     5
 63
     7
421
 16777215
 74
     1
 91
        4
 64
     7
 65
   257
 75
     1
175
     1
 42
1.0
 92
        8
 66
     7
 43
1.0
 76
     1
 77
     6
 78
     2
 67
     7
 79
     5
170
     0
171
     0
290
     0
174
     0
 93
        1
 44
-50.0
173
     0
291
     1
 45
0.0
1001
ACAD
1000
AcDbSavedByObjectVersion
1070
     0
  0
VISUALSTYLE
  5
38
102
{ACAD_REACTORS
330
29
102
}
330
29
100
AcDbVisualStyle
  2
Facepattern
 70
    15
 71
     2
 72
     2
 73
     0
 90
        0
 40
-0.6
 41
-30.0
 62
     5
 63
     7
421
 16777215
 74
     1
 91
        4
 64
     7
 65
   257
 75
     1
175
     1
 42
1.0
 92
        8
 66
     7
 43
1.0
 76
     1
 77
     6
 78
     2
 67
     7
 79
     5
170
     0
171
     0
290
     0
174
     0
 93
        1
 44
0.0
173
     0
291
     1
 45
0.0
1001
ACAD
1000
AcDbSavedByObjectVersion
1070
     0
  0
VISUALSTYLE
  5
2A
102
{ACAD_REACTORS
330
29
102
}
330
29
100
AcDbVisualStyle
  2
Flat
 70
     0
 71
     2
 72
     1
 73
     1
 90
        2
 40
-0.6
 41
30.0
 62
     5
 63
     7
421
 16777215
 74
     0
 91
        4
 64
     7
 65
   257
 75
     1
175
     1
 42
1.0
 92
        8
 66
     7
 43
1.0
 76
     1
 77
     6
 78
     2
 67
     7
 79
     5
170
     0
171
     0
290
     0
174
     0
 93
       13
 44
0.0
173
     0
291
     1
 45
0.0
1001
ACAD
1000
AcDbSavedByObjectVersion
1070
     0
  0
VISUALSTYLE
  5
2B
102
{ACAD_REACTORS
330
29
102
}
330
29
100
AcDbVisualStyle
  2
FlatWithEdges
 70
     1
 71
     2
 72
     1
 73
     1
 90
        2
 40
-0.6
 41
30.0
 62
     5
 63
     7
421
 16777215
 74
     1
 91
        4
 64
     7
 65
   257
 75
     1
175
     1
 42
1.0
 92
        0
 66
   257
 43
1.0
 76
     1
 77
     6
 78
     2
 67
     7
 79
     5
170
     0
171
     0
290
     0
174
     0
 93
       13
 44
0.0
173
     0
291
     1
 45
0.0
1001
ACAD
1000
AcDbSavedByObjectVersion
1070
     0
  0
VISUALSTYLE
  5
2C
102
{ACAD_REACTORS
330
29
102
}
330
29
100
AcDbVisualStyle
  2
Gouraud
 70
     2
 71
     2
 72
     2
 73
     1
 90
        2
 40
-0.6
 41
30.0
 62
     5
 63
     7
421
 16777215
 74
     0
 91
        4
 64
     7
 65
   257
 75
     1
175
     1
 42
1.0
 92
        0
 66
     7
 43
1.0
 76
     1
 77
     6
 78
     2
 67
     7
 79
     5
170
     0
171
     0
290
     0
174
     0
 93
       13
 44
0.0
173
     0
291
     1
 45
0.0
1001
ACAD
1000
AcDbSavedByObjectVersion
1070
     0
  0
VISUALSTYLE
  5
2D
102
{ACAD_REACTORS
330
29
102
}
330
29
100
AcDbVisualStyle
  2
GouraudWithEdges
 70
     3
 71
     2
 72
     2
 73
     1
 90
        2
 40
-0.6
 41
30.0
 62
     5
 63
     7
421
 16777215
 74
     1
 91
        4
 64
     7
 65
   257
 75
     1
175
     1
 42
1.0
 92
        0
 66
   257
 43
1.0
 76
     1
 77
     6
 78
     2
 67
     7
 79
     5
170
     0
171
     0
290
     0
174
     0
 93
       13
 44
0.0
173
     0
291
     1
 45
0.0
1001
ACAD
1000
AcDbSavedByObjectVersion
1070
     0
  0
VISUALSTYLE
  5
37
102
{ACAD_REACTORS
330
29
102
}
330
29
100
AcDbVisualStyle
  2
Linepattern
 70
    14
 71
     2
 72
     2
 73
     0
 90
        0
 40
-0.6
 41
-30.0
 62
     5
 63
     7
421
 16777215
 74
     1
 91
        4
 64
     7
 65
   257
 75
     7
175
     7
 42
1.0
 92
        8
 66
     7
 43
1.0
 76
     1
 77
     6
 78
     2
 67
     7
 79
     5
170
     0
171
     0
290
     0
174
     0
 93
        1
 44
0.0
173
     0
291
     1
 45
0.0
1001
ACAD
1000
AcDbSavedByObjectVersion
1070
     0
  0
VISUALSTYLE
  5
33
102
{ACAD_REACTORS
330
29
102
}
330
29
100
AcDbVisualStyle
  2
Realistic
 70
     8
 71
     2
 72
     2
 73
     0
 90
        0
 40
-0.6
 41
-30.0
 62
     5
 63
     7
421
 16777215
 74
     1
 91
        0
 64
     7
 65
   257
 75
     1
175
     1
 42
1.0
 92
        8
 66
     8
424
  7895160
 43
1.0
 76
     1
 77
     6
 78
     2
 67
     7
 79
     5
170
     0
171
     0
290
     0
174
     0
 93
       13
 44
0.0
173
     0
291
     0
 45
0.0
1001
ACAD
1000
AcDbSavedByObjectVersion
1070
     0
  0
VISUALSTYLE
  5
36
102
{ACAD_REACTORS
330
29
102
}
330
29
100
AcDbVisualStyle
  2
Thicken
 70
    13
 71
     2
 72
     2
 73
     0
 90
        0
 40
-0.6
 41
-30.0
 62
     5
 63
     7
421
 16777215
 74
     1
 91
        4
 64
     7
 65
   257
 75
     1
175
     1
 42
1.0
 92
       12
 66
     7
 43
1.0
 76
     1
 77
     6
 78
     2
 67
     7
 79
     5
170
     0
171
     0
290
     0
174
     0
 93
        1
 44
0.0
173
     0
291
     1
 45
0.0
1001
ACAD
1000
AcDbSavedByObjectVersion
1070
     0
  0
DICTIONARYVAR
  5
E5B
102
{ACAD_REACTORS
330
E57
102
}
330
E57
100
DictionaryVariables
280
     0
  1
1:1
  0
DICTIONARYVAR
  5
E59
102
{ACAD_REACTORS
330
E57
102
}
330
E57
100
DictionaryVariables
280
     0
  1
STANDARD
  0
DICTIONARYVAR
  5
E58
102
{ACAD_REACTORS
330
E57
102
}
330
E57
100
DictionaryVariables
280
     0
  1
STANDARD
  0
DICTIONARYVAR
  5
E5C
102
{ACAD_REACTORS
330
E57
102
}
330
E57
100
DictionaryVariables
280
     0
  1
2
  0
DICTIONARYVAR
  5
E5A
102
{ACAD_REACTORS
330
E57
102
}
330
E57
100
DictionaryVariables
280
     0
  1
1
  0
DICTIONARY
  5
1A
330
19
100
AcDbDictionary
280
     1
281
     1
  3
ACAD_XREC_ROUNDTRIP
360
E62
  3
BUMPTILE
360
1C
  3
DIFFUSETILE
360
1B
  3
OPACITYTILE
360
1F
  3
REFLECTIONTILE
360
1E
  3
REFRACTIONTILE
360
20
  3
SPECULARTILE
360
1D
  0
DICTIONARY
  5
12
330
11
100
AcDbDictionary
280
     1
281
     1
  3
ACAD_XREC_ROUNDTRIP
360
E61
  3
BUMPTILE
360
14
  3
DIFFUSETILE
360
13
  3
OPACITYTILE
360
17
  3
REFLECTIONTILE
360
16
  3
REFRACTIONTILE
360
18
  3
SPECULARTILE
360
15
  0
DICTIONARY
  5
22
330
21
100
AcDbDictionary
280
     1
281
     1
  3
ACAD_XREC_ROUNDTRIP
360
E63
  3
BUMPTILE
360
24
  3
DIFFUSETILE
360
23
  3
OPACITYTILE
360
27
  3
REFLECTIONTILE
360
26
  3
REFRACTIONTILE
360
28
  3
SPECULARTILE
360
25
  0
DICTIONARY
  5
E5D
330
6D
100
AcDbDictionary
280
     1
281
     1
  3
ACAD_ROUNDTRIP_2008_TABLESTYLE_CELLSTYLEMAP
360
E5E
  3
ACAD_XREC_ROUNDTRIP
360
E64
  0
XRECORD
  5
E62
102
{ACAD_REACTORS
330
1A
102
}
330
1A
100
AcDbXrecord
280
     1
102
MATERIAL
148
0.0
149
0.0
149
0.0
 93
        0
 94
      127
282
     0
 72
     0
 77
     0
171
     0
175
     0
179
     0
273
     0
  0
XRECORD
  5
1C
102
{ACAD_REACTORS
330
1A
102
}
330
1A
100
AcDbXrecord
280
     1
270
     1
271
     1
  0
XRECORD
  5
1B
102
{ACAD_REACTORS
330
1A
102
}
330
1A
100
AcDbXrecord
280
     1
270
     1
271
     1
  0
XRECORD
  5
1F
102
{ACAD_REACTORS
330
1A
102
}
330
1A
100
AcDbXrecord
280
     1
270
     1
271
     1
  0
XRECORD
  5
1E
102
{ACAD_REACTORS
330
1A
102
}
330
1A
100
AcDbXrecord
280
     1
270
     1
271
     1
  0
XRECORD
  5
20
102
{ACAD_REACTORS
330
1A
102
}
330
1A
100
AcDbXrecord
280
     1
270
     1
271
     1
  0
XRECORD
  5
1D
102
{ACAD_REACTORS
330
1A
102
}
330
1A
100
AcDbXrecord
280
     1
270
     1
271
     1
  0
XRECORD
  5
E61
102
{ACAD_REACTORS
330
12
102
}
330
12
100
AcDbXrecord
280
     1
102
MATERIAL
148
0.0
149
0.0
149
0.0
 93
        0
 94
      127
282
     0
 72
     0
 77
     0
171
     0
175
     0
179
     0
273
     0
  0
XRECORD
  5
14
102
{ACAD_REACTORS
330
12
102
}
330
12
100
AcDbXrecord
280
     1
270
     1
271
     1
  0
XRECORD
  5
13
102
{ACAD_REACTORS
330
12
102
}
330
12
100
AcDbXrecord
280
     1
270
     1
271
     1
  0
XRECORD
  5
17
102
{ACAD_REACTORS
330
12
102
}
330
12
100
AcDbXrecord
280
     1
270
     1
271
     1
  0
XRECORD
  5
16
102
{ACAD_REACTORS
330
12
102
}
330
12
100
AcDbXrecord
280
     1
270
     1
271
     1
  0
XRECORD
  5
18
102
{ACAD_REACTORS
330
12
102
}
330
12
100
AcDbXrecord
280
     1
270
     1
271
     1
  0
XRECORD
  5
15
102
{ACAD_REACTORS
330
12
102
}
330
12
100
AcDbXrecord
280
     1
270
     1
271
     1
  0
XRECORD
  5
E63
102
{ACAD_REACTORS
330
22
102
}
330
22
100
AcDbXrecord
280
     1
102
MATERIAL
148
0.0
149
0.0
149
0.0
 93
        0
 94
      127
282
     0
 72
     0
 77
     0
171
     0
175
     0
179
     0
273
     0
  0
XRECORD
  5
24
102
{ACAD_REACTORS
330
22
102
}
330
22
100
AcDbXrecord
280
     1
270
     1
271
     1
  0
XRECORD
  5
23
102
{ACAD_REACTORS
330
22
102
}
330
22
100
AcDbXrecord
280
     1
270
     1
271
     1
  0
XRECORD
  5
27
102
{ACAD_REACTORS
330
22
102
}
330
22
100
AcDbXrecord
280
     1
270
     1
271
     1
  0
XRECORD
  5
26
102
{ACAD_REACTORS
330
22
102
}
330
22
100
AcDbXrecord
280
     1
270
     1
271
     1
  0
XRECORD
  5
28
102
{ACAD_REACTORS
330
22
102
}
330
22
100
AcDbXrecord
280
     1
270
     1
271
     1
  0
XRECORD
  5
25
102
{ACAD_REACTORS
330
22
102
}
330
22
100
AcDbXrecord
280
     1
270
     1
271
     1
  0
CELLSTYLEMAP
  5
E5E
102
{ACAD_REACTORS
330
E5D
102
}
330
E5D
100
AcDbCellStyleMap
 90
        3
300
CELLSTYLE
  1
TABLEFORMAT_BEGIN
 90
        5
170
     1
 91
        0
 92
    32768
 62
   257
 93
        1
300
CONTENTFORMAT
  1
CONTENTFORMAT_BEGIN
 90
        0
 91
        0
 92
      512
 93
        0
300

 40
0.0
140
1.0
 94
        5
 62
     0
340
5D
144
0.25
309
CONTENTFORMAT_END
171
     0
 94
        0
309
TABLEFORMAT_END
  1
CELLSTYLE_BEGIN
 90
        1
 91
        1
300
_TITLE
309
CELLSTYLE_END
300
CELLSTYLE
  1
TABLEFORMAT_BEGIN
 90
        5
170
     1
 91
        0
 92
        0
 62
   257
 93
        1
300
CONTENTFORMAT
  1
CONTENTFORMAT_BEGIN
 90
        0
 91
        0
 92
      512
 93
        0
300

 40
0.0
140
1.0
 94
        5
 62
     0
340
5D
144
0.18
309
CONTENTFORMAT_END
171
     0
 94
        0
309
TABLEFORMAT_END
  1
CELLSTYLE_BEGIN
 90
        2
 91
        1
300
_HEADER
309
CELLSTYLE_END
300
CELLSTYLE
  1
TABLEFORMAT_BEGIN
 90
        5
170
     1
 91
        0
 92
        0
 62
   257
 93
        1
300
CONTENTFORMAT
  1
CONTENTFORMAT_BEGIN
 90
        0
 91
        0
 92
      512
 93
        0
300

 40
0.0
140
1.0
 94
        2
 62
     0
340
5D
144
0.18
309
CONTENTFORMAT_END
171
     0
 94
        0
309
TABLEFORMAT_END
  1
CELLSTYLE_BEGIN
 90
        3
 91
        2
300
_DATA
309
CELLSTYLE_END
  0
XRECORD
  5
E64
102
{ACAD_REACTORS
330
E5D
102
}
330
E5D
100
AcDbXrecord
280
     1
102
ACAD_ROUNDTRIP_PRE2007_TABLESTYLE
 90
      512
 91
        0
  1

 92
      512
 93
        0
  2

 94
      512
 95
        0
  3

  0
ENDSEC
  0
EOF
