  0
SECTION
  2
HEADER
  9
$ACADVER
  1
AC1009
999
I-DEAS 11 NX Not Encoded
  9
$EXTMIN
 10
0.0
 20
0.0
  9
$EXTMAX
 10
2.1E+002
 20
2.97E+002
  9
$TEXTSIZE
 40
1.25E-001
  9
$LTSCALE
 40
1.0
  9
$CLAYER
  8
104
  9
$CECOLOR
 62
40
  9
$DIMASZ
 40
1.25E-001
  9
$DIMEXO
 40
6.25E-002
  9
$DIMDLI
 40
2.5E-001
  9
$DIMEXE
 40
1.25E-001
  9
$DIMTP
 40
5.0E-003
  9
$DIMTM
 40
-5.0E-003
  9
$DIMTXT
 40
3.0
  9
$DIMLIM
 70
0
  9
$DIMTIH
 70
1
  9
$DIMTOH
 70
1
  9
$DIMSE1
 70
0
  9
$DIMSE2
 70
0
  9
$DIMTAD
 70
0
  9
$DIMASO
 70
1
  9
$DIMALT
 70
0
  9
$DIMALTD
 70
0
  9
$DIMTOFL
 70
1
  9
$DIMTIX
 70
0
  9
$DIMSAH
 70
0
  9
$DIMTFAC
 40
1.0
  9
$DIMGAP
 40
6.25E-002
  9
$LUNITS
 70
2
  9
$LUPREC
 70
3
  9
$FILLETRAD
 40
2.0
  9
$AUNITS
 70
0
  9
$AUPREC
 70
1
  9
$CHAMFERA
 40
1.0E+001
  9
$CHAMFERB
 40
1.0E+001
  9
$ANGBASE
 50
0.0
  9
$ANGDIR
 70
0
  9
$PEXTMIN
 10
0.0
 20
0.0
 30
0.0
  9
$PEXTMAX
 10
2.1E+002
 20
2.97E+002
 30
0.0
  9
$PLIMMIN
 10
0.0
 20
0.0
  9
$PLIMMAX
 10
2.1E+002
 20
2.97E+002
  9
$PDMODE
 70
2
  9
$PDSIZE
 40
-1.0E-002
  9
$SPLINETYPE
 70
6
  9
$TILEMODE
 70
0
  0
ENDSEC
  0
SECTION
  2
TABLES
  0
TABLE
  2
VPORT
 70
2
  0
VPORT
  2
*Active
 70
0
 10
0.0
 20
0.0
 11
2.1E+002
 21
2.97E+002
 12
1.05E+002
 22
1.485E+002
 13
0.0
 23
0.0
 14
1.0
 24
1.0
 15
0.0
 25
0.0
 16
0.0
 26
0.0
 36
1.0
 17
0.0
 27
0.0
 37
0.0
 40
2.97E+002
 41
7.0707071E-001
 42
5.0E+001
 43
0.0
 44
0.0
 50
0.0
 51
0.0
 71
0
 72
100
 73
1
 74
3
 75
0
 76
0
 77
0
 78
0
  0
ENDTAB
  0
TABLE
  2
LTYPE
 70
7
  0
LTYPE
  2
HIDDENNEW0
  3
_ 
 70
64
 72
65
 73
3
 40
4.5
 49
1.5
 49
-1.5
 49
1.5
  0
LTYPE
  2
HIDDENNEW1
  3
_ 
 70
64
 72
65
 73
3
 40
4.5
 49
1.5
 49
-1.5
 49
1.5
  0
LTYPE
  2
HIDDEN
  3
_ 
 70
64
 72
65
 73
3
 40
4.5
 49
1.5
 49
-1.5
 49
1.5
  0
LTYPE
  2
CENTERLINE
  3
_ 
 70
64
 72
65
 73
5
 40
3.0E+001
 49
1.2E+001
 49
-1.5
 49
3.0
 49
-1.5
 49
1.2E+001
  0
LTYPE
  2
PHANTOM
  3
_ 
 70
64
 72
65
 73
7
 40
2.95E+001
 49
9.5
 49
-1.5
 49
3.0
 49
-1.5
 49
3.0
 49
-1.5
 49
9.5
  0
LTYPE
  2
SHORT_DASH
  3
_ 
 70
64
 72
65
 73
3
 40
3.0
 49
7.5E-001
 49
-1.5
 49
7.5E-001
  0
LTYPE
  2
LONG_DASH
  3
_ 
 70
64
 72
65
 73
3
 40
9.0
 49
2.25
 49
-4.5
 49
2.25
  0
ENDTAB
  0
TABLE
  2
LAYER
 70
258
  0
LAYER
  2
0
 70
0
 62
7
  6
CONTINUOUS
  0
LAYER
  2
1
 70
0
 62
7
  6
CONTINUOUS
  0
LAYER
  2
2
 70
0
 62
7
  6
CONTINUOUS
  0
LAYER
  2
Drafting_Hidden_Entities
 70
1
 62
7
  6
CONTINUOUS
  0
ENDTAB
  0
TABLE
  2
STYLE
 70
1
  0
STYLE
  2
STANDARD
 70
64
 40
0.0
 41
1.0
 50
0.0
 71
0
 42
1.0
  3
monotxt.shx
  4

  0
ENDTAB
  0
TABLE
  2
VIEW
 70
0
  0
ENDTAB
  0
TABLE
  2
DIMSTYLE
 70
8
  0
DIMSTYLE
  2
DSTYLE1
 70
0
  3

  4

  5

  6

  7

 40
1.0
 41
3.5
 42
1.0
 43
3.8E-001
 44
1.0
 45
0.0
 46
0.0
 47
1.0E-001
 48
1.0E-001
 71
0
 72
0
 73
0
 74
0
 75
0
 76
0
 77
1
 78
11
140
3.5
141
9.0E-002
142
0.0
143
1.0
144
1.0
145
0.0
146
1.0
147
1.1655
170
0
171
2
172
0
173
0
174
0
175
0
176
0
177
0
178
0
  0
DIMSTYLE
  2
DSTYLE2
 70
0
  3

  4

  5

  6

  7

 40
1.0
 41
3.5
 42
1.0
 43
3.8E-001
 44
1.0
 45
1.0E-001
 46
0.0
 47
1.0E-001
 48
1.0E-001
 71
0
 72
0
 73
0
 74
0
 75
0
 76
0
 77
1
 78
11
140
3.5
141
9.0E-002
142
0.0
143
1.0
144
1.0
145
0.0
146
1.0
147
1.1655
170
0
171
2
172
0
173
0
174
0
175
0
176
0
177
0
178
0
  0
DIMSTYLE
  2
DSTYLE3
 70
0
  3

  4

  5

  6

  7

 40
1.0
 41
8.75
 42
1.0
 43
3.8E-001
 44
1.0
 45
0.0
 46
0.0
 47
1.0E-001
 48
1.0E-001
 71
0
 72
0
 73
0
 74
0
 75
0
 76
0
 77
1
 78
11
140
8.75
141
9.0E-002
142
0.0
143
1.0
144
1.0
145
0.0
146
1.0
147
1.1655
170
0
171
2
172
0
173
0
174
0
175
0
176
0
177
0
178
0
  0
DIMSTYLE
  2
DSTYLE4
 70
0
  3

  4

  5

  6

  7

 40
1.0
 41
8.75
 42
1.0
 43
3.8E-001
 44
1.0
 45
1.0E-001
 46
0.0
 47
1.0E-001
 48
1.0E-001
 71
0
 72
0
 73
0
 74
0
 75
0
 76
0
 77
1
 78
11
140
8.75
141
9.0E-002
142
0.0
143
1.0
144
1.0
145
0.0
146
1.0
147
1.1655
170
0
171
2
172
0
173
0
174
0
175
0
176
0
177
0
178
0
  0
DIMSTYLE
  2
DSTYLE5
 70
0
  3

  4

  5

  6

  7

 40
1.0
 41
4.0
 42
0.0
 43
3.8E-001
 44
5.0
 45
0.0
 46
0.0
 47
0.0
 48
0.0
 71
0
 72
0
 73
1
 74
1
 75
1
 76
0
 77
1
 78
3
140
3.5
141
9.0E-002
142
0.0
143
1.0
144
1.0
145
0.0
146
1.0
147
1.5
170
0
171
2
172
0
173
0
174
0
175
0
176
0
177
0
178
0
  0
DIMSTYLE
  2
DSTYLE6
 70
0
  3

  4

  5

  6

  7

 40
1.0
 41
4.0
 42
0.0
 43
3.8E-001
 44
1.5
 45
1.0E-003
 46
0.0
 47
1.0E-001
 48
1.0E-001
 71
0
 72
0
 73
0
 74
0
 75
0
 76
0
 77
1
 78
11
140
3.5
141
9.0E-002
142
0.0
143
3.9370079E-002
144
1.0
145
0.0
146
1.0
147
1.5
170
0
171
2
172
0
173
0
174
0
175
0
176
0
177
0
178
0
  0
DIMSTYLE
  2
DSTYLE7
 70
0
  3

  4

  5

  6

  7

 40
1.0
 41
1.0E+001
 42
0.0
 43
3.8E-001
 44
1.5
 45
1.0E-003
 46
0.0
 47
1.0E-001
 48
1.0E-001
 71
0
 72
0
 73
0
 74
0
 75
0
 76
0
 77
1
 78
11
140
8.75
141
9.0E-002
142
0.0
143
3.9370079E-002
144
1.0
145
0.0
146
1.0
147
1.5
170
0
171
2
172
0
173
0
174
0
175
0
176
0
177
0
178
0
  0
DIMSTYLE
  2
DSTYLE8
 70
0
  3

  4

  5

  6

  7

 40
1.0
 41
1.0E+001
 42
0.0
 43
3.8E-001
 44
1.5
 45
0.0
 46
0.0
 47
1.0E-001
 48
1.0E-001
 71
0
 72
0
 73
0
 74
0
 75
0
 76
0
 77
1
 78
11
140
8.75
141
9.0E-002
142
0.0
143
3.9370079E-002
144
1.0
145
0.0
146
1.0
147
1.5
170
0
171
2
172
0
173
0
174
0
175
0
176
0
177
0
178
0
  0
ENDTAB
  0
ENDSEC
  0
SECTION
  2
BLOCKS
  0
BLOCK
  2
_AH12
  3
_AH
 10
0.0
 20
0.0
 70
64
  0
LINE
  8
0
  6
CONTINUOUS
 62
0
 10
0.0
 20
0.0
 11
1.0
 21
0.0
  0
LINE
  8
0
  6
CONTINUOUS
 62
0
 10
0.0
 20
0.0
 11
-1.0
 21
0.0
  0
ENDBLK
  0
BLOCK
  2
_AH13
  3
_AH
 10
0.0
 20
0.0
 70
64
  0
SOLID
  8
0
  6
CONTINUOUS
 62
0
 10
0.0
 20
0.0
 11
1.0
 21
-1.66667E-001
 12
1.0
 22
1.66667E-001
 13
0.0
 23
0.0
  0
ENDBLK
  0
BLOCK
  2
_AH14
  3
_AH
 10
0.0
 20
0.0
 70
64
  0
ENDBLK
  0
BLOCK
  2
_AH15
  3
_AH
 10
0.0
 20
0.0
 70
64
  0
CIRCLE
  8
0
  6
CONTINUOUS
 62
0
 10
0.0
 20
0.0
 40
1.66667E-001
  0
LINE
  8
0
  6
CONTINUOUS
 62
0
 10
0.0
 20
0.0
 11
-1.0
 21
0.0
  0
ENDBLK
  0
BLOCK
  2
_AH16
  3
_AH
 10
0.0
 20
0.0
 70
64
  0
POLYLINE
  8
0
  6
CONTINUOUS
 62
0
 66
1
 40
0.0
 41
0.0
 70
0
  0
VERTEX
  8
0
 42
1.0
 10
8.3335E-002
 20
0.0
 70
0
  0
VERTEX
  8
0
 42
1.0
 10
-8.3335E-002
 20
0.0
 70
0
  0
VERTEX
  8
0
 42
0.0
 10
8.3335E-002
 20
0.0
 70
0
  0
SEQEND
  0
LINE
  8
0
  6
CONTINUOUS
 62
0
 10
0.0
 20
0.0
 11
-1.0
 21
0.0
  0
ENDBLK
  0
BLOCK
  2
_AH17
  3
_AH
 10
0.0
 20
0.0
 70
64
  0
LINE
  8
0
  6
CONTINUOUS
 62
0
 10
-1.66667E-001
 20
-1.66667E-001
 11
1.66667E-001
 21
-1.66667E-001
  0
LINE
  8
0
  6
CONTINUOUS
 62
0
 10
1.66667E-001
 20
-1.66667E-001
 11
1.66667E-001
 21
1.66667E-001
  0
LINE
  8
0
  6
CONTINUOUS
 62
0
 10
1.66667E-001
 20
1.66667E-001
 11
-1.66667E-001
 21
1.66667E-001
  0
LINE
  8
0
  6
CONTINUOUS
 62
0
 10
-1.66667E-001
 20
1.66667E-001
 11
-1.66667E-001
 21
-1.66667E-001
  0
LINE
  8
0
  6
CONTINUOUS
 62
0
 10
0.0
 20
0.0
 11
-1.0
 21
0.0
  0
ENDBLK
  0
BLOCK
  2
_AH18
  3
_AH
 10
0.0
 20
0.0
 70
64
  0
SOLID
  8
0
  6
CONTINUOUS
 62
0
 10
-1.66667E-001
 20
-1.66667E-001
 11
1.66667E-001
 21
-1.66667E-001
 12
-1.66667E-001
 22
1.66667E-001
 13
1.66667E-001
 23
1.66667E-001
  0
LINE
  8
0
  6
CONTINUOUS
 62
0
 10
0.0
 20
0.0
 11
-1.0
 21
0.0
  0
ENDBLK
  0
BLOCK
  2
_AH19
  3
_AH
 10
0.0
 20
0.0
 70
64
  0
LINE
  8
0
  6
CONTINUOUS
 62
0
 10
-5.0E-001
 20
-5.0E-001
 11
5.0E-001
 21
5.0E-001
  0
LINE
  8
0
  6
CONTINUOUS
 62
0
 10
0.0
 20
0.0
 11
-1.0
 21
0.0
  0
ENDBLK
  0
BLOCK
  2
_AH20
  3
_AH
 10
0.0
 20
0.0
 70
64
  0
POLYLINE
  8
0
  6
CONTINUOUS
 62
0
 66
1
 40
5.0E-001
 41
5.0E-001
 70
0
  0
VERTEX
  8
0
 42
4.1421356E-001
 10
-1.66667E-001
 20
-1.66667E-001
 70
0
  0
VERTEX
  8
0
 42
0.0
 10
0.0
 20
0.0
 70
0
  0
SEQEND
  0
POLYLINE
  8
0
  6
CONTINUOUS
 62
0
 66
1
 40
5.0E-001
 41
5.0E-001
 70
0
  0
VERTEX
  8
0
 42
4.1421356E-001
 10
1.66667E-001
 20
1.66667E-001
 70
0
  0
VERTEX
  8
0
 42
0.0
 10
0.0
 20
0.0
 70
0
  0
SEQEND
  0
LINE
  8
0
  6
CONTINUOUS
 62
0
 10
0.0
 20
0.0
 11
-1.0
 21
0.0
  0
ENDBLK
  0
BLOCK
  2
_AH21
  3
_AH
 10
0.0
 20
0.0
 70
64
  0
LINE
  8
0
  6
CONTINUOUS
 62
0
 10
0.0
 20
0.0
 11
-1.0
 21
-1.66667E-001
  0
LINE
  8
0
  6
CONTINUOUS
 62
0
 10
-1.0
 20
-1.66667E-001
 11
-1.0
 21
1.66667E-001
  0
LINE
  8
0
  6
CONTINUOUS
 62
0
 10
-1.0
 20
1.66667E-001
 11
0.0
 21
0.0
  0
ENDBLK
  0
BLOCK
  2
*XH36
  3
*XH
 10
0.0
 20
0.0
 70
65
  0
LINE
  8
1
  6
CONTINUOUS
 62
1
 10
-1.020342E+001
 20
-1.7934817
 11
-7.7914197
 21
-1.7934817
  0
LINE
  8
1
  6
CONTINUOUS
 62
1
 10
-5.5203197
 20
-1.7934817
 11
-4.0485197
 21
-1.7934817
  0
LINE
  8
1
  6
CONTINUOUS
 62
1
 10
-2.6394197
 20
-1.7934817
 11
-1.5104197
 21
-1.7934817
  0
LINE
  8
1
  6
CONTINUOUS
 62
1
 10
-5.1821972E-001
 20
-1.7934817
 11
7.1638028E-001
 21
-1.7934817
  0
LINE
  8
1
  6
CONTINUOUS
 62
1
 10
1.1990803
 20
-1.7934817
 11
2.3279803
 21
-1.7934817
  0
LINE
  8
1
  6
CONTINUOUS
 62
1
 10
3.0487803
 20
-1.7934817
 11
4.0909803
 21
-1.7934817
  0
LINE
  8
1
  6
CONTINUOUS
 62
1
 10
4.8116803
 20
-1.7934817
 11
5.9406803
 21
-1.7934817
  0
LINE
  8
1
  6
CONTINUOUS
 62
1
 10
6.1804803
 20
-1.7934817
 11
7.5319803
 21
-1.7934817
  0
LINE
  8
1
  6
CONTINUOUS
 62
1
 10
8.7523803
 20
-1.7934817
 11
1.010388E+001
 21
-1.7934817
  0
LINE
  8
1
  6
CONTINUOUS
 62
1
 10
1.008218E+001
 20
-1.7013317
 11
8.7357803
 21
-1.7013317
  0
LINE
  8
1
  6
CONTINUOUS
 62
1
 10
7.5485803
 20
-1.7013317
 11
6.2021803
 21
-1.7013317
  0
LINE
  8
1
  6
CONTINUOUS
 62
1
 10
5.9406803
 20
-1.7013317
 11
4.8116803
 21
-1.7013317
  0
LINE
  8
1
  6
CONTINUOUS
 62
1
 10
4.1112803
 20
-1.7013317
 11
3.0284803
 21
-1.7013317
  0
LINE
  8
1
  6
CONTINUOUS
 62
1
 10
2.3279803
 20
-1.7013317
 11
1.1990803
 21
-1.7013317
  0
LINE
  8
1
  6
CONTINUOUS
 62
1
 10
6.6828028E-001
 20
-1.7013317
 11
-5.5511972E-001
 21
-1.7013317
  0
LINE
  8
1
  6
CONTINUOUS
 62
1
 10
-1.5104197
 20
-1.7013317
 11
-2.6394197
 21
-1.7013317
  0
LINE
  8
1
  6
CONTINUOUS
 62
1
 10
-3.8228197
 20
-1.7013317
 11
-5.7460197
 21
-1.7013317
  0
LINE
  8
1
  6
CONTINUOUS
 62
1
 10
-7.5765197
 20
-1.7013317
 11
-1.020342E+001
 21
-1.7013317
  0
LINE
  8
1
  6
CONTINUOUS
 62
1
 10
-1.020342E+001
 20
-1.6091617
 11
-7.4322197
 21
-1.6091617
  0
LINE
  8
1
  6
CONTINUOUS
 62
1
 10
-5.8985197
 20
-1.6091617
 11
-3.6703197
 21
-1.6091617
  0
LINE
  8
1
  6
CONTINUOUS
 62
1
 10
-2.6394197
 20
-1.6091617
 11
-1.5104197
 21
-1.6091617
  0
LINE
  8
1
  6
CONTINUOUS
 62
1
 10
-5.9191972E-001
 20
-1.6091617
 11
6.2008028E-001
 21
-1.6091617
  0
LINE
  8
1
  6
CONTINUOUS
 62
1
 10
1.1990803
 20
-1.6091617
 11
2.3279803
 21
-1.6091617
  0
LINE
  8
1
  6
CONTINUOUS
 62
1
 10
3.0081803
 20
-1.6091617
 11
4.1315803
 21
-1.6091617
  0
LINE
  8
1
  6
CONTINUOUS
 62
1
 10
4.8116803
 20
-1.6091617
 11
5.9406803
 21
-1.6091617
  0
LINE
  8
1
  6
CONTINUOUS
 62
1
 10
6.2238803
 20
-1.6091617
 11
7.5650803
 21
-1.6091617
  0
LINE
  8
1
  6
CONTINUOUS
 62
1
 10
8.7191803
 20
-1.6091617
 11
1.006048E+001
 21
-1.6091617
  0
LINE
  8
1
  6
CONTINUOUS
 62
1
 10
1.003878E+001
 20
-1.5170017
 11
8.7025803
 21
-1.5170017
  0
LINE
  8
1
  6
CONTINUOUS
 62
1
 10
7.5816803
 20
-1.5170017
 11
6.2455803
 21
-1.5170017
  0
LINE
  8
1
  6
CONTINUOUS
 62
1
 10
5.9406803
 20
-1.5170017
 11
4.8116803
 21
-1.5170017
  0
LINE
  8
1
  6
CONTINUOUS
 62
1
 10
4.1518803
 20
-1.5170017
 11
2.9878803
 21
-1.5170017
  0
LINE
  8
1
  6
CONTINUOUS
 62
1
 10
2.3279803
 20
-1.5170017
 11
1.1990803
 21
-1.5170017
  0
LINE
  8
1
  6
CONTINUOUS
 62
1
 10
5.7198028E-001
 20
-1.5170017
 11
-6.2881972E-001
 21
-1.5170017
  0
LINE
  8
1
  6
CONTINUOUS
 62
1
 10
-1.5104197
 20
-1.5170017
 11
-2.6394197
 21
-1.5170017
  0
LINE
  8
1
  6
CONTINUOUS
 62
1
 10
-3.5527197
 20
-1.5170017
 11
-6.0162197
 21
-1.5170017
  0
LINE
  8
1
  6
CONTINUOUS
 62
1
 10
-7.3218197
 20
-1.5170017
 11
-1.020342E+001
 21
-1.5170017
  0
LINE
  8
1
  6
CONTINUOUS
 62
1
 10
-1.020342E+001
 20
-1.4248417
 11
-7.2331197
 21
-1.4248417
  0
LINE
  8
1
  6
CONTINUOUS
 62
1
 10
-6.1115197
 20
-1.4248417
 11
-3.4574197
 21
-1.4248417
  0
LINE
  8
1
  6
CONTINUOUS
 62
1
 10
-2.6394197
 20
-1.4248417
 11
-1.5104197
 21
-1.4248417
  0
LINE
  8
1
  6
CONTINUOUS
 62
1
 10
-6.6571972E-001
 20
-1.4248417
 11
5.2388028E-001
 21
-1.4248417
  0
LINE
  8
1
  6
CONTINUOUS
 62
1
 10
1.1990803
 20
-1.4248417
 11
2.3279803
 21
-1.4248417
  0
LINE
  8
1
  6
CONTINUOUS
 62
1
 10
2.9675803
 20
-1.4248417
 11
4.1720803
 21
-1.4248417
  0
LINE
  8
1
  6
CONTINUOUS
 62
1
 10
4.8116803
 20
-1.4248417
 11
5.9406803
 21
-1.4248417
  0
LINE
  8
1
  6
CONTINUOUS
 62
1
 10
6.2671803
 20
-1.4248417
 11
7.5982803
 21
-1.4248417
  0
LINE
  8
1
  6
CONTINUOUS
 62
1
 10
8.6859803
 20
-1.4248417
 11
1.001708E+001
 21
-1.4248417
  0
LINE
  8
1
  6
CONTINUOUS
 62
1
 10
9.9953803
 20
-1.3326917
 11
8.6693803
 21
-1.3326917
  0
LINE
  8
1
  6
CONTINUOUS
 62
1
 10
7.6148803
 20
-1.3326917
 11
6.2888803
 21
-1.3326917
  0
LINE
  8
1
  6
CONTINUOUS
 62
1
 10
5.9406803
 20
-1.3326917
 11
4.8116803
 21
-1.3326917
  0
LINE
  8
1
  6
CONTINUOUS
 62
1
 10
4.1923803
 20
-1.3326917
 11
2.9473803
 21
-1.3326917
  0
LINE
  8
1
  6
CONTINUOUS
 62
1
 10
2.3279803
 20
-1.3326917
 11
1.1990803
 21
-1.3326917
  0
LINE
  8
1
  6
CONTINUOUS
 62
1
 10
4.7578028E-001
 20
-1.3326917
 11
-7.0251972E-001
 21
-1.3326917
  0
LINE
  8
1
  6
CONTINUOUS
 62
1
 10
-1.5104197
 20
-1.3326917
 11
-2.6394197
 21
-1.3326917
  0
LINE
  8
1
  6
CONTINUOUS
 62
1
 10
-3.3784197
 20
-1.3326917
 11
-6.1904197
 21
-1.3326917
  0
LINE
  8
1
  6
CONTINUOUS
 62
1
 10
-7.1605197
 20
-1.3326917
 11
-1.020342E+001
 21
-1.3326917
  0
LINE
  8
1
  6
CONTINUOUS
 62
1
 10
-1.020342E+001
 20
-1.2405217
 11
-7.1007197
 21
-1.2405217
  0
LINE
  8
1
  6
CONTINUOUS
 62
1
 10
-6.2564197
 20
-1.2405217
 11
-3.3124197
 21
-1.2405217
  0
LINE
  8
1
  6
CONTINUOUS
 62
1
 10
-2.6394197
 20
-1.2405217
 11
-1.5104197
 21
-1.2405217
  0
LINE
  8
1
  6
CONTINUOUS
 62
1
 10
-7.3941972E-001
 20
-1.2405217
 11
4.2758028E-001
 21
-1.2405217
  0
LINE
  8
1
  6
CONTINUOUS
 62
1
 10
1.1990803
 20
-1.2405217
 11
2.3279803
 21
-1.2405217
  0
LINE
  8
1
  6
CONTINUOUS
 62
1
 10
2.9270803
 20
-1.2405217
 11
4.2126803
 21
-1.2405217
  0
LINE
  8
1
  6
CONTINUOUS
 62
1
 10
4.8116803
 20
-1.2405217
 11
5.9406803
 21
-1.2405217
  0
LINE
  8
1
  6
CONTINUOUS
 62
1
 10
6.3105803
 20
-1.2405217
 11
7.6314803
 21
-1.2405217
  0
LINE
  8
1
  6
CONTINUOUS
 62
1
 10
8.6528803
 20
-1.2405217
 11
9.9736803
 21
-1.2405217
  0
LINE
  8
1
  6
CONTINUOUS
 62
1
 10
9.9520803
 20
-1.1483617
 11
6.3322803
 21
-1.1483617
  0
LINE
  8
1
  6
CONTINUOUS
 62
1
 10
5.9406803
 20
-1.1483617
 11
4.8116803
 21
-1.1483617
  0
LINE
  8
1
  6
CONTINUOUS
 62
1
 10
4.2328803
 20
-1.1483617
 11
2.9067803
 21
-1.1483617
  0
LINE
  8
1
  6
CONTINUOUS
 62
1
 10
2.3279803
 20
-1.1483617
 11
1.1990803
 21
-1.1483617
  0
LINE
  8
1
  6
CONTINUOUS
 62
1
 10
3.7948028E-001
 20
-1.1483617
 11
-7.7621972E-001
 21
-1.1483617
  0
LINE
  8
1
  6
CONTINUOUS
 62
1
 10
-1.5104197
 20
-1.1483617
 11
-2.6394197
 21
-1.1483617
  0
LINE
  8
1
  6
CONTINUOUS
 62
1
 10
-3.2572197
 20
-1.1483617
 11
-6.3117197
 21
-1.1483617
  0
LINE
  8
1
  6
CONTINUOUS
 62
1
 10
-7.0516197
 20
-1.1483617
 11
-1.020342E+001
 21
-1.1483617
  0
LINE
  8
1
  6
CONTINUOUS
 62
1
 10
-1.020342E+001
 20
-1.0562117
 11
-8.9616197
 21
-1.0562117
  0
LINE
  8
1
  6
CONTINUOUS
 62
1
 10
-8.3431197
 20
-1.0562117
 11
-7.0119197
 21
-1.0562117
  0
LINE
  8
1
  6
CONTINUOUS
 62
1
 10
-6.3576197
 20
-1.0562117
 11
-4.8946197
 21
-1.0562117
  0
LINE
  8
1
  6
CONTINUOUS
 62
1
 10
-4.6743197
 20
-1.0562117
 11
-3.2112197
 21
-1.0562117
  0
LINE
  8
1
  6
CONTINUOUS
 62
1
 10
-2.6394197
 20
-1.0562117
 11
-1.5104197
 21
-1.0562117
  0
LINE
  8
1
  6
CONTINUOUS
 62
1
 10
-8.1311972E-001
 20
-1.0562117
 11
3.3138028E-001
 21
-1.0562117
  0
LINE
  8
1
  6
CONTINUOUS
 62
1
 10
1.1990803
 20
-1.0562117
 11
2.3279803
 21
-1.0562117
  0
LINE
  8
1
  6
CONTINUOUS
 62
1
 10
2.8864803
 20
-1.0562117
 11
4.2531803
 21
-1.0562117
  0
LINE
  8
1
  6
CONTINUOUS
 62
1
 10
4.8116803
 20
-1.0562117
 11
5.9406803
 21
-1.0562117
  0
LINE
  8
1
  6
CONTINUOUS
 62
1
 10
6.3539803
 20
-1.0562117
 11
9.9303803
 21
-1.0562117
  0
LINE
  8
1
  6
CONTINUOUS
 62
1
 10
9.9086803
 20
-9.640517E-001
 11
6.3756803
 21
-9.640517E-001
  0
LINE
  8
1
  6
CONTINUOUS
 62
1
 10
5.9406803
 20
-9.640517E-001
 11
4.8116803
 21
-9.640517E-001
  0
LINE
  8
1
  6
CONTINUOUS
 62
1
 10
4.2734803
 20
-9.640517E-001
 11
2.8662803
 21
-9.640517E-001
  0
LINE
  8
1
  6
CONTINUOUS
 62
1
 10
2.3279803
 20
-9.640517E-001
 11
1.1990803
 21
-9.640517E-001
  0
LINE
  8
1
  6
CONTINUOUS
 62
1
 10
2.8318028E-001
 20
-9.640517E-001
 11
-8.5001972E-001
 21
-9.640517E-001
  0
LINE
  8
1
  6
CONTINUOUS
 62
1
 10
-1.5104197
 20
-9.640517E-001
 11
-2.6394197
 21
-9.640517E-001
  0
LINE
  8
1
  6
CONTINUOUS
 62
1
 10
-3.1736197
 20
-9.640517E-001
 11
-4.4879197
 21
-9.640517E-001
  0
LINE
  8
1
  6
CONTINUOUS
 62
1
 10
-5.0809197
 20
-9.640517E-001
 11
-6.3953197
 21
-9.640517E-001
  0
LINE
  8
1
  6
CONTINUOUS
 62
1
 10
-6.9806197
 20
-9.640517E-001
 11
-8.2105197
 21
-9.640517E-001
  0
LINE
  8
1
  6
CONTINUOUS
 62
1
 10
-8.9616197
 20
-9.640517E-001
 11
-1.020342E+001
 21
-9.640517E-001
  0
LINE
  8
1
  6
CONTINUOUS
 62
1
 10
-1.020342E+001
 20
-8.718817E-001
 11
-8.9616197
 21
-8.718817E-001
  0
LINE
  8
1
  6
CONTINUOUS
 62
1
 10
-8.1740197
 20
-8.718817E-001
 11
-6.9571197
 21
-8.718817E-001
  0
LINE
  8
1
  6
CONTINUOUS
 62
1
 10
-6.4253197
 20
-8.718817E-001
 11
-5.1557197
 21
-8.718817E-001
  0
LINE
  8
1
  6
CONTINUOUS
 62
1
 10
-4.4131197
 20
-8.718817E-001
 11
-3.1435197
 21
-8.718817E-001
  0
LINE
  8
1
  6
CONTINUOUS
 62
1
 10
-2.6394197
 20
-8.718817E-001
 11
-1.5104197
 21
-8.718817E-001
  0
LINE
  8
1
  6
CONTINUOUS
 62
1
 10
-8.8681972E-001
 20
-8.718817E-001
 11
2.3508028E-001
 21
-8.718817E-001
  0
LINE
  8
1
  6
CONTINUOUS
 62
1
 10
1.1990803
 20
-8.718817E-001
 11
2.3279803
 21
-8.718817E-001
  0
LINE
  8
1
  6
CONTINUOUS
 62
1
 10
2.8459803
 20
-8.718817E-001
 11
4.2937803
 21
-8.718817E-001
  0
LINE
  8
1
  6
CONTINUOUS
 62
1
 10
4.8116803
 20
-8.718817E-001
 11
5.9406803
 21
-8.718817E-001
  0
LINE
  8
1
  6
CONTINUOUS
 62
1
 10
6.3972803
 20
-8.718817E-001
 11
9.8869803
 21
-8.718817E-001
  0
LINE
  8
1
  6
CONTINUOUS
 62
1
 10
9.8652803
 20
-7.797217E-001
 11
6.4189803
 21
-7.797217E-001
  0
LINE
  8
1
  6
CONTINUOUS
 62
1
 10
5.9406803
 20
-7.797217E-001
 11
4.8116803
 21
-7.797217E-001
  0
LINE
  8
1
  6
CONTINUOUS
 62
1
 10
4.3139803
 20
-7.797217E-001
 11
2.8256803
 21
-7.797217E-001
  0
LINE
  8
1
  6
CONTINUOUS
 62
1
 10
2.3279803
 20
-7.797217E-001
 11
1.1990803
 21
-7.797217E-001
  0
LINE
  8
1
  6
CONTINUOUS
 62
1
 10
1.8698028E-001
 20
-7.797217E-001
 11
-9.2371972E-001
 21
-7.797217E-001
  0
LINE
  8
1
  6
CONTINUOUS
 62
1
 10
-1.5104197
 20
-7.797217E-001
 11
-2.6394197
 21
-7.797217E-001
  0
LINE
  8
1
  6
CONTINUOUS
 62
1
 10
-3.1205197
 20
-7.797217E-001
 11
-4.3745197
 21
-7.797217E-001
  0
LINE
  8
1
  6
CONTINUOUS
 62
1
 10
-5.1943197
 20
-7.797217E-001
 11
-6.4483197
 21
-7.797217E-001
  0
LINE
  8
1
  6
CONTINUOUS
 62
1
 10
-6.9409197
 20
-7.797217E-001
 11
-8.1713197
 21
-7.797217E-001
  0
LINE
  8
1
  6
CONTINUOUS
 62
1
 10
-8.9616197
 20
-7.797217E-001
 11
-1.020342E+001
 21
-7.797217E-001
  0
LINE
  8
1
  6
CONTINUOUS
 62
1
 10
-1.020342E+001
 20
-6.875617E-001
 11
-8.9616197
 21
-6.875617E-001
  0
LINE
  8
1
  6
CONTINUOUS
 62
1
 10
-8.1713197
 20
-6.875617E-001
 11
-6.9318197
 21
-6.875617E-001
  0
LINE
  8
1
  6
CONTINUOUS
 62
1
 10
-6.4646197
 20
-6.875617E-001
 11
-5.2077197
 21
-6.875617E-001
  0
LINE
  8
1
  6
CONTINUOUS
 62
1
 10
-4.3612197
 20
-6.875617E-001
 11
-3.1043197
 21
-6.875617E-001
  0
LINE
  8
1
  6
CONTINUOUS
 62
1
 10
-2.6394197
 20
-6.875617E-001
 11
-1.5104197
 21
-6.875617E-001
  0
LINE
  8
1
  6
CONTINUOUS
 62
1
 10
-9.6051972E-001
 20
-6.875617E-001
 11
1.3878028E-001
 21
-6.875617E-001
  0
LINE
  8
1
  6
CONTINUOUS
 62
1
 10
1.1990803
 20
-6.875617E-001
 11
2.3279803
 21
-6.875617E-001
  0
LINE
  8
1
  6
CONTINUOUS
 62
1
 10
2.8053803
 20
-6.875617E-001
 11
4.3342803
 21
-6.875617E-001
  0
LINE
  8
1
  6
CONTINUOUS
 62
1
 10
4.8116803
 20
-6.875617E-001
 11
5.9406803
 21
-6.875617E-001
  0
LINE
  8
1
  6
CONTINUOUS
 62
1
 10
6.4406803
 20
-6.875617E-001
 11
9.8435803
 21
-6.875617E-001
  0
LINE
  8
1
  6
CONTINUOUS
 62
1
 10
9.8218803
 20
-5.954117E-001
 11
6.4623803
 21
-5.954117E-001
  0
LINE
  8
1
  6
CONTINUOUS
 62
1
 10
5.9406803
 20
-5.954117E-001
 11
4.8116803
 21
-5.954117E-001
  0
LINE
  8
1
  6
CONTINUOUS
 62
1
 10
4.3545803
 20
-5.954117E-001
 11
2.7851803
 21
-5.954117E-001
  0
LINE
  8
1
  6
CONTINUOUS
 62
1
 10
2.3279803
 20
-5.954117E-001
 11
1.1990803
 21
-5.954117E-001
  0
LINE
  8
1
  6
CONTINUOUS
 62
1
 10
9.068028E-002
 20
-5.954117E-001
 11
-9.9741972E-001
 21
-5.954117E-001
  0
LINE
  8
1
  6
CONTINUOUS
 62
1
 10
-1.5104197
 20
-5.954117E-001
 11
-2.6394197
 21
-5.954117E-001
  0
LINE
  8
1
  6
CONTINUOUS
 62
1
 10
-3.0945197
 20
-5.954117E-001
 11
-4.3611197
 21
-5.954117E-001
  0
LINE
  8
1
  6
CONTINUOUS
 62
1
 10
-5.2078197
 20
-5.954117E-001
 11
-6.4744197
 21
-5.954117E-001
  0
LINE
  8
1
  6
CONTINUOUS
 62
1
 10
-6.9294197
 20
-5.954117E-001
 11
-8.1713197
 21
-5.954117E-001
  0
LINE
  8
1
  6
CONTINUOUS
 62
1
 10
-8.9616197
 20
-5.954117E-001
 11
-1.020342E+001
 21
-5.954117E-001
  0
LINE
  8
1
  6
CONTINUOUS
 62
1
 10
-1.020342E+001
 20
-5.032417E-001
 11
-8.9616197
 21
-5.032417E-001
  0
LINE
  8
1
  6
CONTINUOUS
 62
1
 10
-8.1713197
 20
-5.032417E-001
 11
-6.9294197
 21
-5.032417E-001
  0
LINE
  8
1
  6
CONTINUOUS
 62
1
 10
-6.4779197
 20
-5.032417E-001
 11
-5.2078197
 21
-5.032417E-001
  0
LINE
  8
1
  6
CONTINUOUS
 62
1
 10
-4.3611197
 20
-5.032417E-001
 11
-3.0910197
 21
-5.032417E-001
  0
LINE
  8
1
  6
CONTINUOUS
 62
1
 10
-2.6394197
 20
-5.032417E-001
 11
-1.5104197
 21
-5.032417E-001
  0
LINE
  8
1
  6
CONTINUOUS
 62
1
 10
-1.0343197
 20
-5.032417E-001
 11
4.258028E-002
 21
-5.032417E-001
  0
LINE
  8
1
  6
CONTINUOUS
 62
1
 10
1.1990803
 20
-5.032417E-001
 11
2.3279803
 21
-5.032417E-001
  0
LINE
  8
1
  6
CONTINUOUS
 62
1
 10
2.7648803
 20
-5.032417E-001
 11
4.3748803
 21
-5.032417E-001
  0
LINE
  8
1
  6
CONTINUOUS
 62
1
 10
4.8116803
 20
-5.032417E-001
 11
5.9406803
 21
-5.032417E-001
  0
LINE
  8
1
  6
CONTINUOUS
 62
1
 10
6.4840803
 20
-5.032417E-001
 11
9.8002803
 21
-5.032417E-001
  0
LINE
  8
1
  6
CONTINUOUS
 62
1
 10
9.7785803
 20
-4.110817E-001
 11
8.5034803
 21
-4.110817E-001
  0
LINE
  8
1
  6
CONTINUOUS
 62
1
 10
7.7807803
 20
-4.110817E-001
 11
6.5057803
 21
-4.110817E-001
  0
LINE
  8
1
  6
CONTINUOUS
 62
1
 10
5.9406803
 20
-4.110817E-001
 11
4.8116803
 21
-4.110817E-001
  0
LINE
  8
1
  6
CONTINUOUS
 62
1
 10
4.3950803
 20
-4.110817E-001
 11
2.7445803
 21
-4.110817E-001
  0
LINE
  8
1
  6
CONTINUOUS
 62
1
 10
2.3279803
 20
-4.110817E-001
 11
1.1990803
 21
-4.110817E-001
  0
LINE
  8
1
  6
CONTINUOUS
 62
1
 10
-5.5197201E-003
 20
-4.110817E-001
 11
-1.0711197
 21
-4.110817E-001
  0
LINE
  8
1
  6
CONTINUOUS
 62
1
 10
-1.5104197
 20
-4.110817E-001
 11
-2.6394197
 21
-4.110817E-001
  0
LINE
  8
1
  6
CONTINUOUS
 62
1
 10
-3.0910197
 20
-4.110817E-001
 11
-4.3611197
 21
-4.110817E-001
  0
LINE
  8
1
  6
CONTINUOUS
 62
1
 10
-5.2078197
 20
-4.110817E-001
 11
-6.4779197
 21
-4.110817E-001
  0
LINE
  8
1
  6
CONTINUOUS
 62
1
 10
-6.9294197
 20
-4.110817E-001
 11
-8.1713197
 21
-4.110817E-001
  0
LINE
  8
1
  6
CONTINUOUS
 62
1
 10
-8.9616197
 20
-4.110817E-001
 11
-1.020342E+001
 21
-4.110817E-001
  0
LINE
  8
1
  6
CONTINUOUS
 62
1
 10
-1.020342E+001
 20
-3.189217E-001
 11
-8.9616197
 21
-3.189217E-001
  0
LINE
  8
1
  6
CONTINUOUS
 62
1
 10
-8.1713197
 20
-3.189217E-001
 11
-6.9294197
 21
-3.189217E-001
  0
LINE
  8
1
  6
CONTINUOUS
 62
1
 10
-6.4779197
 20
-3.189217E-001
 11
-5.2078197
 21
-3.189217E-001
  0
LINE
  8
1
  6
CONTINUOUS
 62
1
 10
-4.3611197
 20
-3.189217E-001
 11
-3.0910197
 21
-3.189217E-001
  0
LINE
  8
1
  6
CONTINUOUS
 62
1
 10
-2.6394197
 20
-3.189217E-001
 11
-1.5104197
 21
-3.189217E-001
  0
LINE
  8
1
  6
CONTINUOUS
 62
1
 10
-1.1080197
 20
-3.189217E-001
 11
-5.371972E-002
 21
-3.189217E-001
  0
LINE
  8
1
  6
CONTINUOUS
 62
1
 10
1.1990803
 20
-3.189217E-001
 11
2.3279803
 21
-3.189217E-001
  0
LINE
  8
1
  6
CONTINUOUS
 62
1
 10
2.7242803
 20
-3.189217E-001
 11
4.4153803
 21
-3.189217E-001
  0
LINE
  8
1
  6
CONTINUOUS
 62
1
 10
4.8116803
 20
-3.189217E-001
 11
5.9406803
 21
-3.189217E-001
  0
LINE
  8
1
  6
CONTINUOUS
 62
1
 10
6.5274803
 20
-3.189217E-001
 11
7.7973803
 21
-3.189217E-001
  0
LINE
  8
1
  6
CONTINUOUS
 62
1
 10
8.4869803
 20
-3.189217E-001
 11
9.7568803
 21
-3.189217E-001
  0
LINE
  8
1
  6
CONTINUOUS
 62
1
 10
9.7351803
 20
-2.267717E-001
 11
8.4703803
 21
-2.267717E-001
  0
LINE
  8
1
  6
CONTINUOUS
 62
1
 10
7.8139803
 20
-2.267717E-001
 11
6.5490803
 21
-2.267717E-001
  0
LINE
  8
1
  6
CONTINUOUS
 62
1
 10
5.9406803
 20
-2.267717E-001
 11
4.8116803
 21
-2.267717E-001
  0
LINE
  8
1
  6
CONTINUOUS
 62
1
 10
4.4356803
 20
-2.267717E-001
 11
3.6476803
 21
-2.267717E-001
  0
LINE
  8
1
  6
CONTINUOUS
 62
1
 10
3.4920803
 20
-2.267717E-001
 11
2.7040803
 21
-2.267717E-001
  0
LINE
  8
1
  6
CONTINUOUS
 62
1
 10
2.3279803
 20
-2.267717E-001
 11
1.1990803
 21
-2.267717E-001
  0
LINE
  8
1
  6
CONTINUOUS
 62
1
 10
5.568028E-002
 20
-2.267717E-001
 11
-2.6394197
 21
-2.267717E-001
  0
LINE
  8
1
  6
CONTINUOUS
 62
1
 10
-3.0910197
 20
-2.267717E-001
 11
-4.3611197
 21
-2.267717E-001
  0
LINE
  8
1
  6
CONTINUOUS
 62
1
 10
-5.2078197
 20
-2.267717E-001
 11
-6.4779197
 21
-2.267717E-001
  0
LINE
  8
1
  6
CONTINUOUS
 62
1
 10
-6.9294197
 20
-2.267717E-001
 11
-8.1713197
 21
-2.267717E-001
  0
LINE
  8
1
  6
CONTINUOUS
 62
1
 10
-8.9616197
 20
-2.267717E-001
 11
-1.020342E+001
 21
-2.267717E-001
  0
LINE
  8
1
  6
CONTINUOUS
 62
1
 10
-1.020342E+001
 20
-1.346017E-001
 11
-8.9616197
 21
-1.346017E-001
  0
LINE
  8
1
  6
CONTINUOUS
 62
1
 10
-8.1713197
 20
-1.346017E-001
 11
-6.9294197
 21
-1.346017E-001
  0
LINE
  8
1
  6
CONTINUOUS
 62
1
 10
-6.4779197
 20
-1.346017E-001
 11
-5.2078197
 21
-1.346017E-001
  0
LINE
  8
1
  6
CONTINUOUS
 62
1
 10
-4.3611197
 20
-1.346017E-001
 11
-3.0910197
 21
-1.346017E-001
  0
LINE
  8
1
  6
CONTINUOUS
 62
1
 10
-2.6394197
 20
-1.346017E-001
 11
2.2908028E-001
 21
-1.346017E-001
  0
LINE
  8
1
  6
CONTINUOUS
 62
1
 10
1.1990803
 20
-1.346017E-001
 11
2.3279803
 21
-1.346017E-001
  0
LINE
  8
1
  6
CONTINUOUS
 62
1
 10
2.6837803
 20
-1.346017E-001
 11
3.4717803
 21
-1.346017E-001
  0
LINE
  8
1
  6
CONTINUOUS
 62
1
 10
3.6678803
 20
-1.346017E-001
 11
4.4559803
 21
-1.346017E-001
  0
LINE
  8
1
  6
CONTINUOUS
 62
1
 10
4.8116803
 20
-1.346017E-001
 11
5.9406803
 21
-1.346017E-001
  0
LINE
  8
1
  6
CONTINUOUS
 62
1
 10
6.5707803
 20
-1.346017E-001
 11
7.8305803
 21
-1.346017E-001
  0
LINE
  8
1
  6
CONTINUOUS
 62
1
 10
8.4537803
 20
-1.346017E-001
 11
9.7134803
 21
-1.346017E-001
  0
LINE
  8
1
  6
CONTINUOUS
 62
1
 10
9.6917803
 20
-4.2441705E-002
 11
8.4371803
 21
-4.2441705E-002
  0
LINE
  8
1
  6
CONTINUOUS
 62
1
 10
7.8470803
 20
-4.2441705E-002
 11
6.5924803
 21
-4.2441705E-002
  0
LINE
  8
1
  6
CONTINUOUS
 62
1
 10
5.9406803
 20
-4.2441705E-002
 11
4.8116803
 21
-4.2441705E-002
  0
LINE
  8
1
  6
CONTINUOUS
 62
1
 10
4.4761803
 20
-4.2441705E-002
 11
3.6881803
 21
-4.2441705E-002
  0
LINE
  8
1
  6
CONTINUOUS
 62
1
 10
3.4514803
 20
-4.2441705E-002
 11
2.6634803
 21
-4.2441705E-002
  0
LINE
  8
1
  6
CONTINUOUS
 62
1
 10
2.3279803
 20
-4.2441705E-002
 11
1.1990803
 21
-4.2441705E-002
  0
LINE
  8
1
  6
CONTINUOUS
 62
1
 10
3.5028028E-001
 20
-4.2441705E-002
 11
-2.6394197
 21
-4.2441705E-002
  0
LINE
  8
1
  6
CONTINUOUS
 62
1
 10
-3.0910197
 20
-4.2441705E-002
 11
-4.3611197
 21
-4.2441705E-002
  0
LINE
  8
1
  6
CONTINUOUS
 62
1
 10
-5.2078197
 20
-4.2441705E-002
 11
-6.4779197
 21
-4.2441705E-002
  0
LINE
  8
1
  6
CONTINUOUS
 62
1
 10
-6.9294197
 20
-4.2441705E-002
 11
-8.1713197
 21
-4.2441705E-002
  0
LINE
  8
1
  6
CONTINUOUS
 62
1
 10
-8.9616197
 20
-4.2441705E-002
 11
-1.020342E+001
 21
-4.2441705E-002
  0
LINE
  8
1
  6
CONTINUOUS
 62
1
 10
-1.020342E+001
 20
4.9718295E-002
 11
-8.9616197
 21
4.9718295E-002
  0
LINE
  8
1
  6
CONTINUOUS
 62
1
 10
-8.1713197
 20
4.9718295E-002
 11
-6.9294197
 21
4.9718295E-002
  0
LINE
  8
1
  6
CONTINUOUS
 62
1
 10
-6.4779197
 20
4.9718295E-002
 11
-5.2078197
 21
4.9718295E-002
  0
LINE
  8
1
  6
CONTINUOUS
 62
1
 10
-4.3611197
 20
4.9718295E-002
 11
-3.0910197
 21
4.9718295E-002
  0
LINE
  8
1
  6
CONTINUOUS
 62
1
 10
-2.6394197
 20
4.9718295E-002
 11
4.4378028E-001
 21
4.9718295E-002
  0
LINE
  8
1
  6
CONTINUOUS
 62
1
 10
1.1990803
 20
4.9718295E-002
 11
2.3279803
 21
4.9718295E-002
  0
LINE
  8
1
  6
CONTINUOUS
 62
1
 10
2.6432803
 20
4.9718295E-002
 11
3.4311803
 21
4.9718295E-002
  0
LINE
  8
1
  6
CONTINUOUS
 62
1
 10
3.7084803
 20
4.9718295E-002
 11
4.4964803
 21
4.9718295E-002
  0
LINE
  8
1
  6
CONTINUOUS
 62
1
 10
4.8116803
 20
4.9718295E-002
 11
5.9406803
 21
4.9718295E-002
  0
LINE
  8
1
  6
CONTINUOUS
 62
1
 10
6.6141803
 20
4.9718295E-002
 11
7.8636803
 21
4.9718295E-002
  0
LINE
  8
1
  6
CONTINUOUS
 62
1
 10
8.4205803
 20
4.9718295E-002
 11
9.6700803
 21
4.9718295E-002
  0
LINE
  8
1
  6
CONTINUOUS
 62
1
 10
9.6484803
 20
1.418683E-001
 11
8.4039803
 21
1.418683E-001
  0
LINE
  8
1
  6
CONTINUOUS
 62
1
 10
7.8802803
 20
1.418683E-001
 11
6.6358803
 21
1.418683E-001
  0
LINE
  8
1
  6
CONTINUOUS
 62
1
 10
5.9406803
 20
1.418683E-001
 11
4.8116803
 21
1.418683E-001
  0
LINE
  8
1
  6
CONTINUOUS
 62
1
 10
4.5167803
 20
1.418683E-001
 11
3.7287803
 21
1.418683E-001
  0
LINE
  8
1
  6
CONTINUOUS
 62
1
 10
3.4109803
 20
1.418683E-001
 11
2.6229803
 21
1.418683E-001
  0
LINE
  8
1
  6
CONTINUOUS
 62
1
 10
2.3279803
 20
1.418683E-001
 11
1.1990803
 21
1.418683E-001
  0
LINE
  8
1
  6
CONTINUOUS
 62
1
 10
5.1858028E-001
 20
1.418683E-001
 11
-2.6394197
 21
1.418683E-001
  0
LINE
  8
1
  6
CONTINUOUS
 62
1
 10
-3.0910197
 20
1.418683E-001
 11
-4.3611197
 21
1.418683E-001
  0
LINE
  8
1
  6
CONTINUOUS
 62
1
 10
-5.2078197
 20
1.418683E-001
 11
-6.4779197
 21
1.418683E-001
  0
LINE
  8
1
  6
CONTINUOUS
 62
1
 10
-6.9294197
 20
1.418683E-001
 11
-8.1713197
 21
1.418683E-001
  0
LINE
  8
1
  6
CONTINUOUS
 62
1
 10
-8.9616197
 20
1.418683E-001
 11
-1.020342E+001
 21
1.418683E-001
  0
LINE
  8
1
  6
CONTINUOUS
 62
1
 10
-1.020342E+001
 20
2.340383E-001
 11
-8.9616197
 21
2.340383E-001
  0
LINE
  8
1
  6
CONTINUOUS
 62
1
 10
-8.1713197
 20
2.340383E-001
 11
-6.9294197
 21
2.340383E-001
  0
LINE
  8
1
  6
CONTINUOUS
 62
1
 10
-6.4779197
 20
2.340383E-001
 11
-5.2078197
 21
2.340383E-001
  0
LINE
  8
1
  6
CONTINUOUS
 62
1
 10
-4.3611197
 20
2.340383E-001
 11
-3.0910197
 21
2.340383E-001
  0
LINE
  8
1
  6
CONTINUOUS
 62
1
 10
-2.6394197
 20
2.340383E-001
 11
5.7918028E-001
 21
2.340383E-001
  0
LINE
  8
1
  6
CONTINUOUS
 62
1
 10
1.1990803
 20
2.340383E-001
 11
2.3279803
 21
2.340383E-001
  0
LINE
  8
1
  6
CONTINUOUS
 62
1
 10
2.6026803
 20
2.340383E-001
 11
3.3906803
 21
2.340383E-001
  0
LINE
  8
1
  6
CONTINUOUS
 62
1
 10
3.7489803
 20
2.340383E-001
 11
4.5370803
 21
2.340383E-001
  0
LINE
  8
1
  6
CONTINUOUS
 62
1
 10
4.8116803
 20
2.340383E-001
 11
5.9406803
 21
2.340383E-001
  0
LINE
  8
1
  6
CONTINUOUS
 62
1
 10
6.6575803
 20
2.340383E-001
 11
7.8968803
 21
2.340383E-001
  0
LINE
  8
1
  6
CONTINUOUS
 62
1
 10
8.3873803
 20
2.340383E-001
 11
9.6267803
 21
2.340383E-001
  0
LINE
  8
1
  6
CONTINUOUS
 62
1
 10
9.6050803
 20
3.261983E-001
 11
8.3707803
 21
3.261983E-001
  0
LINE
  8
1
  6
CONTINUOUS
 62
1
 10
7.9134803
 20
3.261983E-001
 11
6.6791803
 21
3.261983E-001
  0
LINE
  8
1
  6
CONTINUOUS
 62
1
 10
5.9406803
 20
3.261983E-001
 11
4.8116803
 21
3.261983E-001
  0
LINE
  8
1
  6
CONTINUOUS
 62
1
 10
4.5572803
 20
3.261983E-001
 11
3.7692803
 21
3.261983E-001
  0
LINE
  8
1
  6
CONTINUOUS
 62
1
 10
3.3703803
 20
3.261983E-001
 11
2.5823803
 21
3.261983E-001
  0
LINE
  8
1
  6
CONTINUOUS
 62
1
 10
2.3279803
 20
3.261983E-001
 11
1.1990803
 21
3.261983E-001
  0
LINE
  8
1
  6
CONTINUOUS
 62
1
 10
6.2838028E-001
 20
3.261983E-001
 11
-2.6394197
 21
3.261983E-001
  0
LINE
  8
1
  6
CONTINUOUS
 62
1
 10
-3.0910197
 20
3.261983E-001
 11
-4.3611197
 21
3.261983E-001
  0
LINE
  8
1
  6
CONTINUOUS
 62
1
 10
-5.2078197
 20
3.261983E-001
 11
-6.4779197
 21
3.261983E-001
  0
LINE
  8
1
  6
CONTINUOUS
 62
1
 10
-6.9294197
 20
3.261983E-001
 11
-8.1713197
 21
3.261983E-001
  0
LINE
  8
1
  6
CONTINUOUS
 62
1
 10
-8.9616197
 20
3.261983E-001
 11
-1.020342E+001
 21
3.261983E-001
  0
LINE
  8
1
  6
CONTINUOUS
 62
1
 10
-1.020342E+001
 20
4.183583E-001
 11
-8.9616197
 21
4.183583E-001
  0
LINE
  8
1
  6
CONTINUOUS
 62
1
 10
-8.1713197
 20
4.183583E-001
 11
-6.9294197
 21
4.183583E-001
  0
LINE
  8
1
  6
CONTINUOUS
 62
1
 10
-6.4779197
 20
4.183583E-001
 11
-5.2078197
 21
4.183583E-001
  0
LINE
  8
1
  6
CONTINUOUS
 62
1
 10
-4.3611197
 20
4.183583E-001
 11
-3.0910197
 21
4.183583E-001
  0
LINE
  8
1
  6
CONTINUOUS
 62
1
 10
-2.6394197
 20
4.183583E-001
 11
6.6778028E-001
 21
4.183583E-001
  0
LINE
  8
1
  6
CONTINUOUS
 62
1
 10
1.1990803
 20
4.183583E-001
 11
2.3279803
 21
4.183583E-001
  0
LINE
  8
1
  6
CONTINUOUS
 62
1
 10
2.5621803
 20
4.183583E-001
 11
3.3501803
 21
4.183583E-001
  0
LINE
  8
1
  6
CONTINUOUS
 62
1
 10
3.7895803
 20
4.183583E-001
 11
4.5775803
 21
4.183583E-001
  0
LINE
  8
1
  6
CONTINUOUS
 62
1
 10
4.8116803
 20
4.183583E-001
 11
5.9406803
 21
4.183583E-001
  0
LINE
  8
1
  6
CONTINUOUS
 62
1
 10
6.7008803
 20
4.183583E-001
 11
7.9300803
 21
4.183583E-001
  0
LINE
  8
1
  6
CONTINUOUS
 62
1
 10
8.3541803
 20
4.183583E-001
 11
9.5833803
 21
4.183583E-001
  0
LINE
  8
1
  6
CONTINUOUS
 62
1
 10
9.5616803
 20
5.105083E-001
 11
8.3376803
 21
5.105083E-001
  0
LINE
  8
1
  6
CONTINUOUS
 62
1
 10
7.9466803
 20
5.105083E-001
 11
6.7225803
 21
5.105083E-001
  0
LINE
  8
1
  6
CONTINUOUS
 62
1
 10
5.9406803
 20
5.105083E-001
 11
4.8116803
 21
5.105083E-001
  0
LINE
  8
1
  6
CONTINUOUS
 62
1
 10
4.5978803
 20
5.105083E-001
 11
3.8098803
 21
5.105083E-001
  0
LINE
  8
1
  6
CONTINUOUS
 62
1
 10
3.3298803
 20
5.105083E-001
 11
2.5418803
 21
5.105083E-001
  0
LINE
  8
1
  6
CONTINUOUS
 62
1
 10
2.3279803
 20
5.105083E-001
 11
1.1990803
 21
5.105083E-001
  0
LINE
  8
1
  6
CONTINUOUS
 62
1
 10
6.9858028E-001
 20
5.105083E-001
 11
-7.6001972E-001
 21
5.105083E-001
  0
LINE
  8
1
  6
CONTINUOUS
 62
1
 10
-1.5104197
 20
5.105083E-001
 11
-2.6394197
 21
5.105083E-001
  0
LINE
  8
1
  6
CONTINUOUS
 62
1
 10
-3.0910197
 20
5.105083E-001
 11
-4.3611197
 21
5.105083E-001
  0
LINE
  8
1
  6
CONTINUOUS
 62
1
 10
-5.2078197
 20
5.105083E-001
 11
-6.4779197
 21
5.105083E-001
  0
LINE
  8
1
  6
CONTINUOUS
 62
1
 10
-6.9294197
 20
5.105083E-001
 11
-8.1713197
 21
5.105083E-001
  0
LINE
  8
1
  6
CONTINUOUS
 62
1
 10
-8.9616197
 20
5.105083E-001
 11
-1.020342E+001
 21
5.105083E-001
  0
LINE
  8
1
  6
CONTINUOUS
 62
1
 10
-1.020342E+001
 20
6.026783E-001
 11
-8.9616197
 21
6.026783E-001
  0
LINE
  8
1
  6
CONTINUOUS
 62
1
 10
-8.1713197
 20
6.026783E-001
 11
-6.9294197
 21
6.026783E-001
  0
LINE
  8
1
  6
CONTINUOUS
 62
1
 10
-6.4779197
 20
6.026783E-001
 11
-5.2078197
 21
6.026783E-001
  0
LINE
  8
1
  6
CONTINUOUS
 62
1
 10
-4.3611197
 20
6.026783E-001
 11
-3.0910197
 21
6.026783E-001
  0
LINE
  8
1
  6
CONTINUOUS
 62
1
 10
-2.6394197
 20
6.026783E-001
 11
-1.5104197
 21
6.026783E-001
  0
LINE
  8
1
  6
CONTINUOUS
 62
1
 10
-6.7271972E-001
 20
6.026783E-001
 11
7.2148028E-001
 21
6.026783E-001
  0
LINE
  8
1
  6
CONTINUOUS
 62
1
 10
1.1990803
 20
6.026783E-001
 11
2.3279803
 21
6.026783E-001
  0
LINE
  8
1
  6
CONTINUOUS
 62
1
 10
2.5215803
 20
6.026783E-001
 11
3.3095803
 21
6.026783E-001
  0
LINE
  8
1
  6
CONTINUOUS
 62
1
 10
3.8300803
 20
6.026783E-001
 11
4.6181803
 21
6.026783E-001
  0
LINE
  8
1
  6
CONTINUOUS
 62
1
 10
4.8116803
 20
6.026783E-001
 11
5.9406803
 21
6.026783E-001
  0
LINE
  8
1
  6
CONTINUOUS
 62
1
 10
6.7442803
 20
6.026783E-001
 11
7.9632803
 21
6.026783E-001
  0
LINE
  8
1
  6
CONTINUOUS
 62
1
 10
8.3210803
 20
6.026783E-001
 11
9.5399803
 21
6.026783E-001
  0
LINE
  8
1
  6
CONTINUOUS
 62
1
 10
9.5183803
 20
6.948383E-001
 11
8.3044803
 21
6.948383E-001
  0
LINE
  8
1
  6
CONTINUOUS
 62
1
 10
7.9798803
 20
6.948383E-001
 11
6.7659803
 21
6.948383E-001
  0
LINE
  8
1
  6
CONTINUOUS
 62
1
 10
5.9406803
 20
6.948383E-001
 11
4.8116803
 21
6.948383E-001
  0
LINE
  8
1
  6
CONTINUOUS
 62
1
 10
4.6384803
 20
6.948383E-001
 11
3.8503803
 21
6.948383E-001
  0
LINE
  8
1
  6
CONTINUOUS
 62
1
 10
3.2892803
 20
6.948383E-001
 11
2.5012803
 21
6.948383E-001
  0
LINE
  8
1
  6
CONTINUOUS
 62
1
 10
2.3279803
 20
6.948383E-001
 11
1.1990803
 21
6.948383E-001
  0
LINE
  8
1
  6
CONTINUOUS
 62
1
 10
7.3698028E-001
 20
6.948383E-001
 11
-6.2721972E-001
 21
6.948383E-001
  0
LINE
  8
1
  6
CONTINUOUS
 62
1
 10
-1.5104197
 20
6.948383E-001
 11
-2.6394197
 21
6.948383E-001
  0
LINE
  8
1
  6
CONTINUOUS
 62
1
 10
-3.0925197
 20
6.948383E-001
 11
-4.3611197
 21
6.948383E-001
  0
LINE
  8
1
  6
CONTINUOUS
 62
1
 10
-5.2078197
 20
6.948383E-001
 11
-6.4763197
 21
6.948383E-001
  0
LINE
  8
1
  6
CONTINUOUS
 62
1
 10
-6.9294197
 20
6.948383E-001
 11
-8.1713197
 21
6.948383E-001
  0
LINE
  8
1
  6
CONTINUOUS
 62
1
 10
-8.9616197
 20
6.948383E-001
 11
-1.020342E+001
 21
6.948383E-001
  0
LINE
  8
1
  6
CONTINUOUS
 62
1
 10
-1.020342E+001
 20
7.869883E-001
 11
-8.9616197
 21
7.869883E-001
  0
LINE
  8
1
  6
CONTINUOUS
 62
1
 10
-8.1713197
 20
7.869883E-001
 11
-6.9302197
 21
7.869883E-001
  0
LINE
  8
1
  6
CONTINUOUS
 62
1
 10
-6.4688197
 20
7.869883E-001
 11
-5.2078197
 21
7.869883E-001
  0
LINE
  8
1
  6
CONTINUOUS
 62
1
 10
-4.3611197
 20
7.869883E-001
 11
-3.1000197
 21
7.869883E-001
  0
LINE
  8
1
  6
CONTINUOUS
 62
1
 10
-2.6394197
 20
7.869883E-001
 11
-1.5104197
 21
7.869883E-001
  0
LINE
  8
1
  6
CONTINUOUS
 62
1
 10
-6.0841972E-001
 20
7.869883E-001
 11
7.4558028E-001
 21
7.869883E-001
  0
LINE
  8
1
  6
CONTINUOUS
 62
1
 10
1.1990803
 20
7.869883E-001
 11
2.3279803
 21
7.869883E-001
  0
LINE
  8
1
  6
CONTINUOUS
 62
1
 10
2.4810803
 20
7.869883E-001
 11
3.2690803
 21
7.869883E-001
  0
LINE
  8
1
  6
CONTINUOUS
 62
1
 10
3.8706803
 20
7.869883E-001
 11
4.6586803
 21
7.869883E-001
  0
LINE
  8
1
  6
CONTINUOUS
 62
1
 10
4.8116803
 20
7.869883E-001
 11
5.9406803
 21
7.869883E-001
  0
LINE
  8
1
  6
CONTINUOUS
 62
1
 10
6.7876803
 20
7.869883E-001
 11
7.9963803
 21
7.869883E-001
  0
LINE
  8
1
  6
CONTINUOUS
 62
1
 10
8.2878803
 20
7.869883E-001
 11
9.4966803
 21
7.869883E-001
  0
LINE
  8
1
  6
CONTINUOUS
 62
1
 10
9.4749803
 20
8.791483E-001
 11
8.2712803
 21
8.791483E-001
  0
LINE
  8
1
  6
CONTINUOUS
 62
1
 10
8.0129803
 20
8.791483E-001
 11
6.8093803
 21
8.791483E-001
  0
LINE
  8
1
  6
CONTINUOUS
 62
1
 10
5.9406803
 20
8.791483E-001
 11
4.8116803
 21
8.791483E-001
  0
LINE
  8
1
  6
CONTINUOUS
 62
1
 10
4.6789803
 20
8.791483E-001
 11
3.8909803
 21
8.791483E-001
  0
LINE
  8
1
  6
CONTINUOUS
 62
1
 10
3.2487803
 20
8.791483E-001
 11
2.4607803
 21
8.791483E-001
  0
LINE
  8
1
  6
CONTINUOUS
 62
1
 10
2.3279803
 20
8.791483E-001
 11
1.1990803
 21
8.791483E-001
  0
LINE
  8
1
  6
CONTINUOUS
 62
1
 10
7.4728028E-001
 20
8.791483E-001
 11
-6.0731972E-001
 21
8.791483E-001
  0
LINE
  8
1
  6
CONTINUOUS
 62
1
 10
-1.5104197
 20
8.791483E-001
 11
-2.6394197
 21
8.791483E-001
  0
LINE
  8
1
  6
CONTINUOUS
 62
1
 10
-3.1140197
 20
8.791483E-001
 11
-4.3671197
 21
8.791483E-001
  0
LINE
  8
1
  6
CONTINUOUS
 62
1
 10
-5.2017197
 20
8.791483E-001
 11
-6.4549197
 21
8.791483E-001
  0
LINE
  8
1
  6
CONTINUOUS
 62
1
 10
-6.9369197
 20
8.791483E-001
 11
-8.1713197
 21
8.791483E-001
  0
LINE
  8
1
  6
CONTINUOUS
 62
1
 10
-8.9616197
 20
8.791483E-001
 11
-1.020342E+001
 21
8.791483E-001
  0
LINE
  8
1
  6
CONTINUOUS
 62
1
 10
-1.020342E+001
 20
9.713183E-001
 11
-8.9616197
 21
9.713183E-001
  0
LINE
  8
1
  6
CONTINUOUS
 62
1
 10
-8.1713197
 20
9.713183E-001
 11
-6.9505197
 21
9.713183E-001
  0
LINE
  8
1
  6
CONTINUOUS
 62
1
 10
-6.4343197
 20
9.713183E-001
 11
-5.1729197
 21
9.713183E-001
  0
LINE
  8
1
  6
CONTINUOUS
 62
1
 10
-4.3960197
 20
9.713183E-001
 11
-3.1345197
 21
9.713183E-001
  0
LINE
  8
1
  6
CONTINUOUS
 62
1
 10
-2.6394197
 20
9.713183E-001
 11
-1.5104197
 21
9.713183E-001
  0
LINE
  8
1
  6
CONTINUOUS
 62
1
 10
-6.1471972E-001
 20
9.713183E-001
 11
7.4158028E-001
 21
9.713183E-001
  0
LINE
  8
1
  6
CONTINUOUS
 62
1
 10
1.1990803
 20
9.713183E-001
 11
3.2284803
 21
9.713183E-001
  0
LINE
  8
1
  6
CONTINUOUS
 62
1
 10
3.9112803
 20
9.713183E-001
 11
5.9406803
 21
9.713183E-001
  0
LINE
  8
1
  6
CONTINUOUS
 62
1
 10
6.8310803
 20
9.713183E-001
 11
9.4532803
 21
9.713183E-001
  0
LINE
  8
1
  6
CONTINUOUS
 62
1
 10
9.4315803
 20
1.0634783
 11
6.8526803
 21
1.0634783
  0
LINE
  8
1
  6
CONTINUOUS
 62
1
 10
5.9406803
 20
1.0634783
 11
3.9314803
 21
1.0634783
  0
LINE
  8
1
  6
CONTINUOUS
 62
1
 10
3.2081803
 20
1.0634783
 11
1.1990803
 21
1.0634783
  0
LINE
  8
1
  6
CONTINUOUS
 62
1
 10
7.2828028E-001
 20
1.0634783
 11
-6.4571972E-001
 21
1.0634783
  0
LINE
  8
1
  6
CONTINUOUS
 62
1
 10
-1.5104197
 20
1.0634783
 11
-2.6394197
 21
1.0634783
  0
LINE
  8
1
  6
CONTINUOUS
 62
1
 10
-3.1620197
 20
1.0634783
 11
-4.4555197
 21
1.0634783
  0
LINE
  8
1
  6
CONTINUOUS
 62
1
 10
-5.1133197
 20
1.0634783
 11
-6.4069197
 21
1.0634783
  0
LINE
  8
1
  6
CONTINUOUS
 62
1
 10
-6.9714197
 20
1.0634783
 11
-8.1918197
 21
1.0634783
  0
LINE
  8
1
  6
CONTINUOUS
 62
1
 10
-8.9616197
 20
1.0634783
 11
-1.020342E+001
 21
1.0634783
  0
LINE
  8
1
  6
CONTINUOUS
 62
1
 10
-1.020342E+001
 20
1.1556383
 11
-8.9616197
 21
1.1556383
  0
LINE
  8
1
  6
CONTINUOUS
 62
1
 10
-8.2695197
 20
1.1556383
 11
-6.9998197
 21
1.1556383
  0
LINE
  8
1
  6
CONTINUOUS
 62
1
 10
-6.3720197
 20
1.1556383
 11
-4.9936197
 21
1.1556383
  0
LINE
  8
1
  6
CONTINUOUS
 62
1
 10
-4.5752197
 20
1.1556383
 11
-3.1968197
 21
1.1556383
  0
LINE
  8
1
  6
CONTINUOUS
 62
1
 10
-2.6394197
 20
1.1556383
 11
-1.5104197
 21
1.1556383
  0
LINE
  8
1
  6
CONTINUOUS
 62
1
 10
-7.0841972E-001
 20
1.1556383
 11
7.0708028E-001
 21
1.1556383
  0
LINE
  8
1
  6
CONTINUOUS
 62
1
 10
1.1990803
 20
1.1556383
 11
3.1879803
 21
1.1556383
  0
LINE
  8
1
  6
CONTINUOUS
 62
1
 10
3.9517803
 20
1.1556383
 11
5.9406803
 21
1.1556383
  0
LINE
  8
1
  6
CONTINUOUS
 62
1
 10
6.8743803
 20
1.1556383
 11
9.4098803
 21
1.1556383
  0
LINE
  8
1
  6
CONTINUOUS
 62
1
 10
9.3882803
 20
1.2477883
 11
6.8960803
 21
1.2477883
  0
LINE
  8
1
  6
CONTINUOUS
 62
1
 10
5.9406803
 20
1.2477883
 11
3.9720803
 21
1.2477883
  0
LINE
  8
1
  6
CONTINUOUS
 62
1
 10
3.1676803
 20
1.2477883
 11
1.1990803
 21
1.2477883
  0
LINE
  8
1
  6
CONTINUOUS
 62
1
 10
6.7748028E-001
 20
1.2477883
 11
-8.3761972E-001
 21
1.2477883
  0
LINE
  8
1
  6
CONTINUOUS
 62
1
 10
-1.5104197
 20
1.2477883
 11
-2.6394197
 21
1.2477883
  0
LINE
  8
1
  6
CONTINUOUS
 62
1
 10
-3.2397197
 20
1.2477883
 11
-6.3292197
 21
1.2477883
  0
LINE
  8
1
  6
CONTINUOUS
 62
1
 10
-7.0364197
 20
1.2477883
 11
-1.020342E+001
 21
1.2477883
  0
LINE
  8
1
  6
CONTINUOUS
 62
1
 10
-1.020342E+001
 20
1.3399583
 11
-7.0820197
 21
1.3399583
  0
LINE
  8
1
  6
CONTINUOUS
 62
1
 10
-6.2773197
 20
1.3399583
 11
-3.2915197
 21
1.3399583
  0
LINE
  8
1
  6
CONTINUOUS
 62
1
 10
-2.6394197
 20
1.3399583
 11
6.3868028E-001
 21
1.3399583
  0
LINE
  8
1
  6
CONTINUOUS
 62
1
 10
1.1990803
 20
1.3399583
 11
3.1473803
 21
1.3399583
  0
LINE
  8
1
  6
CONTINUOUS
 62
1
 10
3.9923803
 20
1.3399583
 11
5.9406803
 21
1.3399583
  0
LINE
  8
1
  6
CONTINUOUS
 62
1
 10
6.9177803
 20
1.3399583
 11
9.3665803
 21
1.3399583
  0
LINE
  8
1
  6
CONTINUOUS
 62
1
 10
9.3448803
 20
1.4321183
 11
6.9394803
 21
1.4321183
  0
LINE
  8
1
  6
CONTINUOUS
 62
1
 10
5.9406803
 20
1.4321183
 11
4.0125803
 21
1.4321183
  0
LINE
  8
1
  6
CONTINUOUS
 62
1
 10
3.1270803
 20
1.4321183
 11
1.1990803
 21
1.4321183
  0
LINE
  8
1
  6
CONTINUOUS
 62
1
 10
5.8968028E-001
 20
1.4321183
 11
-2.6394197
 21
1.4321183
  0
LINE
  8
1
  6
CONTINUOUS
 62
1
 10
-3.3535197
 20
1.4321183
 11
-6.2154197
 21
1.4321183
  0
LINE
  8
1
  6
CONTINUOUS
 62
1
 10
-7.1378197
 20
1.4321183
 11
-1.020342E+001
 21
1.4321183
  0
LINE
  8
1
  6
CONTINUOUS
 62
1
 10
-1.020342E+001
 20
1.5242883
 11
-7.2055197
 21
1.5242883
  0
LINE
  8
1
  6
CONTINUOUS
 62
1
 10
-6.1414197
 20
1.5242883
 11
-3.4275197
 21
1.5242883
  0
LINE
  8
1
  6
CONTINUOUS
 62
1
 10
-2.6394197
 20
1.5242883
 11
5.2878028E-001
 21
1.5242883
  0
LINE
  8
1
  6
CONTINUOUS
 62
1
 10
1.1990803
 20
1.5242883
 11
3.1068803
 21
1.5242883
  0
LINE
  8
1
  6
CONTINUOUS
 62
1
 10
4.0328803
 20
1.5242883
 11
5.9406803
 21
1.5242883
  0
LINE
  8
1
  6
CONTINUOUS
 62
1
 10
6.9611803
 20
1.5242883
 11
9.3231803
 21
1.5242883
  0
LINE
  8
1
  6
CONTINUOUS
 62
1
 10
9.3014803
 20
1.6163883
 11
6.9827803
 21
1.6163883
  0
LINE
  8
1
  6
CONTINUOUS
 62
1
 10
5.9406803
 20
1.6163883
 11
4.0531803
 21
1.6163883
  0
LINE
  8
1
  6
CONTINUOUS
 62
1
 10
3.0865803
 20
1.6163883
 11
1.1990803
 21
1.6163883
  0
LINE
  8
1
  6
CONTINUOUS
 62
1
 10
4.5338028E-001
 20
1.6163883
 11
-2.6394197
 21
1.6163883
  0
LINE
  8
1
  6
CONTINUOUS
 62
1
 10
-3.5164197
 20
1.6163883
 11
-6.0524197
 21
1.6163883
  0
LINE
  8
1
  6
CONTINUOUS
 62
1
 10
-7.2879197
 20
1.6163883
 11
-1.020342E+001
 21
1.6163883
  0
LINE
  8
1
  6
CONTINUOUS
 62
1
 10
-1.020342E+001
 20
1.7085883
 11
-7.3897197
 21
1.7085883
  0
LINE
  8
1
  6
CONTINUOUS
 62
1
 10
-5.9438197
 20
1.7085883
 11
-3.6251197
 21
1.7085883
  0
LINE
  8
1
  6
CONTINUOUS
 62
1
 10
-2.6394197
 20
1.7085883
 11
3.5908028E-001
 21
1.7085883
  0
LINE
  8
1
  6
CONTINUOUS
 62
1
 10
1.1990803
 20
1.7085883
 11
3.0662803
 21
1.7085883
  0
LINE
  8
1
  6
CONTINUOUS
 62
1
 10
4.0734803
 20
1.7085883
 11
5.9406803
 21
1.7085883
  0
LINE
  8
1
  6
CONTINUOUS
 62
1
 10
7.0044803
 20
1.7085883
 11
9.2797803
 21
1.7085883
  0
LINE
  8
1
  6
CONTINUOUS
 62
1
 10
9.2580803
 20
1.8007883
 11
7.0261803
 21
1.8007883
  0
LINE
  8
1
  6
CONTINUOUS
 62
1
 10
5.9406803
 20
1.8007883
 11
4.0936803
 21
1.8007883
  0
LINE
  8
1
  6
CONTINUOUS
 62
1
 10
3.0459803
 20
1.8007883
 11
1.1990803
 21
1.8007883
  0
LINE
  8
1
  6
CONTINUOUS
 62
1
 10
2.3728028E-001
 20
1.8007883
 11
-2.6394197
 21
1.8007883
  0
LINE
  8
1
  6
CONTINUOUS
 62
1
 10
-3.7629197
 20
1.8007883
 11
-5.8060197
 21
1.8007883
  0
LINE
  8
1
  6
CONTINUOUS
 62
1
 10
-7.5197197
 20
1.8007883
 11
-1.020342E+001
 21
1.8007883
  0
LINE
  8
1
  6
CONTINUOUS
 62
1
 10
-1.020342E+001
 20
1.8928883
 11
-7.7010197
 21
1.8928883
  0
LINE
  8
1
  6
CONTINUOUS
 62
1
 10
-5.6152197
 20
1.8928883
 11
-3.9537197
 21
1.8928883
  0
LINE
  8
1
  6
CONTINUOUS
 62
1
 10
-2.6394197
 20
1.8928883
 11
6.608028E-002
 21
1.8928883
  0
LINE
  8
1
  6
CONTINUOUS
 62
1
 10
1.1990803
 20
1.8928883
 11
3.0257803
 21
1.8928883
  0
LINE
  8
1
  6
CONTINUOUS
 62
1
 10
4.1139803
 20
1.8928883
 11
5.9406803
 21
1.8928883
  0
LINE
  8
1
  6
CONTINUOUS
 62
1
 10
7.0478803
 20
1.8928883
 11
9.2363803
 21
1.8928883
  0
LINE
  8
1
  6
CONTINUOUS
 62
1
 10
9.2147803
 20
1.9850883
 11
7.0695803
 21
1.9850883
  0
LINE
  8
1
  6
CONTINUOUS
 62
1
 10
5.9406803
 20
1.9850883
 11
4.1342803
 21
1.9850883
  0
LINE
  8
1
  6
CONTINUOUS
 62
1
 10
3.0054803
 20
1.9850883
 11
1.1990803
 21
1.9850883
  0
LINE
  8
1
  6
CONTINUOUS
 62
1
 10
-3.5301972E-001
 20
1.9850883
 11
-2.6394197
 21
1.9850883
  0
LINE
  8
1
  6
CONTINUOUS
 62
1
 10
-4.4146197
 20
1.9850883
 11
-5.1542197
 21
1.9850883
  0
LINE
  8
1
  6
CONTINUOUS
 62
1
 10
-8.1414197
 20
1.9850883
 11
-1.020342E+001
 21
1.9850883
  0
ENDBLK
  0
BLOCK
  2
*XH37
  3
*XH
 10
0.0
 20
0.0
 70
65
  0
LINE
  8
1
  6
CONTINUOUS
 62
1
 10
-9.689871
 20
-3.4967285
 11
-8.241371
 21
-3.4967285
  0
LINE
  8
1
  6
CONTINUOUS
 62
1
 10
8.241329
 20
-3.4967285
 11
9.689829
 21
-3.4967285
  0
LINE
  8
1
  6
CONTINUOUS
 62
1
 10
9.716129
 20
-3.4046285
 11
8.267729
 21
-3.4046285
  0
LINE
  8
1
  6
CONTINUOUS
 62
1
 10
-8.267771
 20
-3.4046285
 11
-9.716171
 21
-3.4046285
  0
LINE
  8
1
  6
CONTINUOUS
 62
1
 10
-9.742371
 20
-3.3124285
 11
-8.294171
 21
-3.3124285
  0
LINE
  8
1
  6
CONTINUOUS
 62
1
 10
8.294229
 20
-3.3124285
 11
9.742429
 21
-3.3124285
  0
LINE
  8
1
  6
CONTINUOUS
 62
1
 10
9.768729
 20
-3.2203285
 11
8.320629
 21
-3.2203285
  0
LINE
  8
1
  6
CONTINUOUS
 62
1
 10
-8.320571
 20
-3.2203285
 11
-9.768671
 21
-3.2203285
  0
LINE
  8
1
  6
CONTINUOUS
 62
1
 10
-9.794971
 20
-3.1281285
 11
-8.346971
 21
-3.1281285
  0
LINE
  8
1
  6
CONTINUOUS
 62
1
 10
8.347029
 20
-3.1281285
 11
9.795029
 21
-3.1281285
  0
LINE
  8
1
  6
CONTINUOUS
 62
1
 10
9.821229
 20
-3.0359285
 11
8.373429
 21
-3.0359285
  0
LINE
  8
1
  6
CONTINUOUS
 62
1
 10
-8.373471
 20
-3.0359285
 11
-9.821271
 21
-3.0359285
  0
LINE
  8
1
  6
CONTINUOUS
 62
1
 10
-9.847571
 20
-2.9438285
 11
-8.399871
 21
-2.9438285
  0
LINE
  8
1
  6
CONTINUOUS
 62
1
 10
8.399929
 20
-2.9438285
 11
9.847529
 21
-2.9438285
  0
LINE
  8
1
  6
CONTINUOUS
 62
1
 10
9.873829
 20
-2.8516285
 11
8.426329
 21
-2.8516285
  0
LINE
  8
1
  6
CONTINUOUS
 62
1
 10
-8.426271
 20
-2.8516285
 11
-9.873871
 21
-2.8516285
  0
LINE
  8
1
  6
CONTINUOUS
 62
1
 10
-9.900171
 20
-2.7595285
 11
-8.452771
 21
-2.7595285
  0
LINE
  8
1
  6
CONTINUOUS
 62
1
 10
8.452729
 20
-2.7595285
 11
9.900129
 21
-2.7595285
  0
LINE
  8
1
  6
CONTINUOUS
 62
1
 10
9.926429
 20
-2.6673285
 11
8.479129
 21
-2.6673285
  0
LINE
  8
1
  6
CONTINUOUS
 62
1
 10
-8.479171
 20
-2.6673285
 11
-9.926371
 21
-2.6673285
  0
LINE
  8
1
  6
CONTINUOUS
 62
1
 10
-9.952671
 20
-2.5751285
 11
-8.505571
 21
-2.5751285
  0
LINE
  8
1
  6
CONTINUOUS
 62
1
 10
8.505629
 20
-2.5751285
 11
9.952729
 21
-2.5751285
  0
LINE
  8
1
  6
CONTINUOUS
 62
1
 10
9.979029
 20
-2.4830285
 11
8.532029
 21
-2.4830285
  0
LINE
  8
1
  6
CONTINUOUS
 62
1
 10
-8.531971
 20
-2.4830285
 11
-9.978971
 21
-2.4830285
  0
LINE
  8
1
  6
CONTINUOUS
 62
1
 10
-1.0005271E+001
 20
-2.3908285
 11
-8.558471
 21
-2.3908285
  0
LINE
  8
1
  6
CONTINUOUS
 62
1
 10
8.558429
 20
-2.3908285
 11
1.0005229E+001
 21
-2.3908285
  0
LINE
  8
1
  6
CONTINUOUS
 62
1
 10
1.0031529E+001
 20
-2.2987285
 11
8.584829
 21
-2.2987285
  0
LINE
  8
1
  6
CONTINUOUS
 62
1
 10
1.916229
 20
-2.2987285
 11
1.843029
 21
-2.2987285
  0
LINE
  8
1
  6
CONTINUOUS
 62
1
 10
-1.843071
 20
-2.2987285
 11
-1.916171
 21
-2.2987285
  0
LINE
  8
1
  6
CONTINUOUS
 62
1
 10
-8.584871
 20
-2.2987285
 11
-1.0031571E+001
 21
-2.2987285
  0
LINE
  8
1
  6
CONTINUOUS
 62
1
 10
-1.0057871E+001
 20
-2.2065285
 11
-8.611271
 21
-2.2065285
  0
LINE
  8
1
  6
CONTINUOUS
 62
1
 10
-2.709471
 20
-2.2065285
 11
-1.789871
 21
-2.2065285
  0
LINE
  8
1
  6
CONTINUOUS
 62
1
 10
1.789829
 20
-2.2065285
 11
2.709429
 21
-2.2065285
  0
LINE
  8
1
  6
CONTINUOUS
 62
1
 10
8.611329
 20
-2.2065285
 11
1.0057829E+001
 21
-2.2065285
  0
LINE
  8
1
  6
CONTINUOUS
 62
1
 10
1.0084129E+001
 20
-2.1143285
 11
8.637729
 21
-2.1143285
  0
LINE
  8
1
  6
CONTINUOUS
 62
1
 10
3.315629
 20
-2.1143285
 11
1.736629
 21
-2.1143285
  0
LINE
  8
1
  6
CONTINUOUS
 62
1
 10
-1.736671
 20
-2.1143285
 11
-3.315571
 21
-2.1143285
  0
LINE
  8
1
  6
CONTINUOUS
 62
1
 10
-8.637671
 20
-2.1143285
 11
-1.0084171E+001
 21
-2.1143285
  0
LINE
  8
1
  6
CONTINUOUS
 62
1
 10
-1.0110471E+001
 20
-2.0222285
 11
-8.664171
 21
-2.0222285
  0
LINE
  8
1
  6
CONTINUOUS
 62
1
 10
-3.824771
 20
-2.0222285
 11
-1.683471
 21
-2.0222285
  0
LINE
  8
1
  6
CONTINUOUS
 62
1
 10
1.683429
 20
-2.0222285
 11
3.824729
 21
-2.0222285
  0
LINE
  8
1
  6
CONTINUOUS
 62
1
 10
8.664129
 20
-2.0222285
 11
1.0110429E+001
 21
-2.0222285
  0
LINE
  8
1
  6
CONTINUOUS
 62
1
 10
1.0136729E+001
 20
-1.9300285
 11
8.690529
 21
-1.9300285
  0
LINE
  8
1
  6
CONTINUOUS
 62
1
 10
4.271629
 20
-1.9300285
 11
1.630229
 21
-1.9300285
  0
LINE
  8
1
  6
CONTINUOUS
 62
1
 10
-1.630271
 20
-1.9300285
 11
-4.271671
 21
-1.9300285
  0
LINE
  8
1
  6
CONTINUOUS
 62
1
 10
-8.690571
 20
-1.9300285
 11
-1.0136671E+001
 21
-1.9300285
  0
LINE
  8
1
  6
CONTINUOUS
 62
1
 10
-1.0162971E+001
 20
-1.8378285
 11
-8.716971
 21
-1.8378285
  0
LINE
  8
1
  6
CONTINUOUS
 62
1
 10
-4.674171
 20
-1.8378285
 11
-1.577071
 21
-1.8378285
  0
LINE
  8
1
  6
CONTINUOUS
 62
1
 10
1.577029
 20
-1.8378285
 11
4.674229
 21
-1.8378285
  0
LINE
  8
1
  6
CONTINUOUS
 62
1
 10
8.717029
 20
-1.8378285
 11
1.0163029E+001
 21
-1.8378285
  0
LINE
  8
1
  6
CONTINUOUS
 62
1
 10
1.0189329E+001
 20
-1.7457285
 11
8.743429
 21
-1.7457285
  0
LINE
  8
1
  6
CONTINUOUS
 62
1
 10
5.043029
 20
-1.7457285
 11
1.523829
 21
-1.7457285
  0
LINE
  8
1
  6
CONTINUOUS
 62
1
 10
-1.523871
 20
-1.7457285
 11
-5.043071
 21
-1.7457285
  0
LINE
  8
1
  6
CONTINUOUS
 62
1
 10
-8.743471
 20
-1.7457285
 11
-1.0189271E+001
 21
-1.7457285
  0
LINE
  8
1
  6
CONTINUOUS
 62
1
 10
-1.0215571E+001
 20
-1.6535285
 11
-8.769871
 21
-1.6535285
  0
LINE
  8
1
  6
CONTINUOUS
 62
1
 10
-5.385171
 20
-1.6535285
 11
-1.470571
 21
-1.6535285
  0
LINE
  8
1
  6
CONTINUOUS
 62
1
 10
1.470629
 20
-1.6535285
 11
5.385129
 21
-1.6535285
  0
LINE
  8
1
  6
CONTINUOUS
 62
1
 10
8.769829
 20
-1.6535285
 11
1.0215529E+001
 21
-1.6535285
  0
LINE
  8
1
  6
CONTINUOUS
 62
1
 10
1.0241829E+001
 20
-1.5614285
 11
8.796329
 21
-1.5614285
  0
LINE
  8
1
  6
CONTINUOUS
 62
1
 10
5.705229
 20
-1.5614285
 11
1.417429
 21
-1.5614285
  0
LINE
  8
1
  6
CONTINUOUS
 62
1
 10
-1.417371
 20
-1.5614285
 11
-5.705271
 21
-1.5614285
  0
LINE
  8
1
  6
CONTINUOUS
 62
1
 10
-8.796271
 20
-1.5614285
 11
-1.0241871E+001
 21
-1.5614285
  0
LINE
  8
1
  6
CONTINUOUS
 62
1
 10
-1.0268171E+001
 20
-1.4692285
 11
-8.822671
 21
-1.4692285
  0
LINE
  8
1
  6
CONTINUOUS
 62
1
 10
-6.006971
 20
-1.4692285
 11
-1.364171
 21
-1.4692285
  0
LINE
  8
1
  6
CONTINUOUS
 62
1
 10
1.364229
 20
-1.4692285
 11
6.006929
 21
-1.4692285
  0
LINE
  8
1
  6
CONTINUOUS
 62
1
 10
8.822729
 20
-1.4692285
 11
1.0268129E+001
 21
-1.4692285
  0
LINE
  8
1
  6
CONTINUOUS
 62
1
 10
1.0294429E+001
 20
-1.3771285
 11
8.849129
 21
-1.3771285
  0
LINE
  8
1
  6
CONTINUOUS
 62
1
 10
6.292829
 20
-1.3771285
 11
1.311029
 21
-1.3771285
  0
LINE
  8
1
  6
CONTINUOUS
 62
1
 10
-1.310971
 20
-1.3771285
 11
-6.292871
 21
-1.3771285
  0
LINE
  8
1
  6
CONTINUOUS
 62
1
 10
-8.849171
 20
-1.3771285
 11
-1.0294471E+001
 21
-1.3771285
  0
LINE
  8
1
  6
CONTINUOUS
 62
1
 10
-1.0320771E+001
 20
-1.2849285
 11
-8.875571
 21
-1.2849285
  0
LINE
  8
1
  6
CONTINUOUS
 62
1
 10
-6.564971
 20
-1.2849285
 11
-1.257771
 21
-1.2849285
  0
LINE
  8
1
  6
CONTINUOUS
 62
1
 10
1.257729
 20
-1.2849285
 11
6.565029
 21
-1.2849285
  0
LINE
  8
1
  6
CONTINUOUS
 62
1
 10
8.875529
 20
-1.2849285
 11
1.0320729E+001
 21
-1.2849285
  0
LINE
  8
1
  6
CONTINUOUS
 62
1
 10
1.0347029E+001
 20
-1.1927285
 11
8.901929
 21
-1.1927285
  0
LINE
  8
1
  6
CONTINUOUS
 62
1
 10
6.825029
 20
-1.1927285
 11
1.204529
 21
-1.1927285
  0
LINE
  8
1
  6
CONTINUOUS
 62
1
 10
-1.204571
 20
-1.1927285
 11
-6.825071
 21
-1.1927285
  0
LINE
  8
1
  6
CONTINUOUS
 62
1
 10
-8.901971
 20
-1.1927285
 11
-1.0346971E+001
 21
-1.1927285
  0
LINE
  8
1
  6
CONTINUOUS
 62
1
 10
-1.0373271E+001
 20
-1.1006285
 11
-8.928371
 21
-1.1006285
  0
LINE
  8
1
  6
CONTINUOUS
 62
1
 10
-7.074371
 20
-1.1006285
 11
-1.151371
 21
-1.1006285
  0
LINE
  8
1
  6
CONTINUOUS
 62
1
 10
1.151329
 20
-1.1006285
 11
7.074429
 21
-1.1006285
  0
LINE
  8
1
  6
CONTINUOUS
 62
1
 10
8.928429
 20
-1.1006285
 11
1.0373329E+001
 21
-1.1006285
  0
LINE
  8
1
  6
CONTINUOUS
 62
1
 10
1.0399629E+001
 20
-1.0084285
 11
8.954829
 21
-1.0084285
  0
LINE
  8
1
  6
CONTINUOUS
 62
1
 10
7.314029
 20
-1.0084285
 11
1.098129
 21
-1.0084285
  0
LINE
  8
1
  6
CONTINUOUS
 62
1
 10
-1.098171
 20
-1.0084285
 11
-7.314071
 21
-1.0084285
  0
LINE
  8
1
  6
CONTINUOUS
 62
1
 10
-8.954871
 20
-1.0084285
 11
-1.0399571E+001
 21
-1.0084285
  0
LINE
  8
1
  6
CONTINUOUS
 62
1
 10
-1.0425871E+001
 20
-9.1632846E-001
 11
-8.981271
 21
-9.1632846E-001
  0
LINE
  8
1
  6
CONTINUOUS
 62
1
 10
-7.544971
 20
-9.1632846E-001
 11
-1.044971
 21
-9.1632846E-001
  0
LINE
  8
1
  6
CONTINUOUS
 62
1
 10
1.044929
 20
-9.1632846E-001
 11
7.545029
 21
-9.1632846E-001
  0
LINE
  8
1
  6
CONTINUOUS
 62
1
 10
8.981229
 20
-9.1632846E-001
 11
1.0425929E+001
 21
-9.1632846E-001
  0
LINE
  8
1
  6
CONTINUOUS
 62
1
 10
1.0452129E+001
 20
-8.2412846E-001
 11
9.007729
 21
-8.2412846E-001
  0
LINE
  8
1
  6
CONTINUOUS
 62
1
 10
7.767929
 20
-8.2412846E-001
 11
9.9172904E-001
 21
-8.2412846E-001
  0
LINE
  8
1
  6
CONTINUOUS
 62
1
 10
-9.9177096E-001
 20
-8.2412846E-001
 11
-7.767971
 21
-8.2412846E-001
  0
LINE
  8
1
  6
CONTINUOUS
 62
1
 10
-9.007671
 20
-8.2412846E-001
 11
-1.0452171E+001
 21
-8.2412846E-001
  0
LINE
  8
1
  6
CONTINUOUS
 62
1
 10
-1.0478471E+001
 20
-7.3192846E-001
 11
-9.034171
 21
-7.3192846E-001
  0
LINE
  8
1
  6
CONTINUOUS
 62
1
 10
-7.983671
 20
-7.3192846E-001
 11
-9.3857096E-001
 21
-7.3192846E-001
  0
LINE
  8
1
  6
CONTINUOUS
 62
1
 10
9.3852904E-001
 20
-7.3192846E-001
 11
7.983629
 21
-7.3192846E-001
  0
LINE
  8
1
  6
CONTINUOUS
 62
1
 10
9.034129
 20
-7.3192846E-001
 11
1.0478429E+001
 21
-7.3192846E-001
  0
LINE
  8
1
  6
CONTINUOUS
 62
1
 10
1.0504729E+001
 20
-6.3982846E-001
 11
9.060529
 21
-6.3982846E-001
  0
LINE
  8
1
  6
CONTINUOUS
 62
1
 10
8.192629
 20
-6.3982846E-001
 11
8.8532904E-001
 21
-6.3982846E-001
  0
LINE
  8
1
  6
CONTINUOUS
 62
1
 10
-8.8537096E-001
 20
-6.3982846E-001
 11
-8.192671
 21
-6.3982846E-001
  0
LINE
  8
1
  6
CONTINUOUS
 62
1
 10
-9.060571
 20
-6.3982846E-001
 11
-1.0504771E+001
 21
-6.3982846E-001
  0
LINE
  8
1
  6
CONTINUOUS
 62
1
 10
-1.0530971E+001
 20
-5.4762846E-001
 11
-9.086971
 21
-5.4762846E-001
  0
LINE
  8
1
  6
CONTINUOUS
 62
1
 10
-8.395371
 20
-5.4762846E-001
 11
-2.902971
 21
-5.4762846E-001
  0
LINE
  8
1
  6
CONTINUOUS
 62
1
 10
-2.428371
 20
-5.4762846E-001
 11
-8.3207096E-001
 21
-5.4762846E-001
  0
LINE
  8
1
  6
CONTINUOUS
 62
1
 10
8.3212904E-001
 20
-5.4762846E-001
 11
2.428329
 21
-5.4762846E-001
  0
LINE
  8
1
  6
CONTINUOUS
 62
1
 10
2.902929
 20
-5.4762846E-001
 11
8.395429
 21
-5.4762846E-001
  0
LINE
  8
1
  6
CONTINUOUS
 62
1
 10
9.086929
 20
-5.4762846E-001
 11
1.0531029E+001
 21
-5.4762846E-001
  0
LINE
  8
1
  6
CONTINUOUS
 62
1
 10
1.0557329E+001
 20
-4.5552846E-001
 11
9.113429
 21
-4.5552846E-001
  0
LINE
  8
1
  6
CONTINUOUS
 62
1
 10
8.592429
 20
-4.5552846E-001
 11
3.431329
 21
-4.5552846E-001
  0
LINE
  8
1
  6
CONTINUOUS
 62
1
 10
2.375129
 20
-4.5552846E-001
 11
7.7892904E-001
 21
-4.5552846E-001
  0
LINE
  8
1
  6
CONTINUOUS
 62
1
 10
-7.7887096E-001
 20
-4.5552846E-001
 11
-2.375171
 21
-4.5552846E-001
  0
LINE
  8
1
  6
CONTINUOUS
 62
1
 10
-3.431271
 20
-4.5552846E-001
 11
-8.592371
 21
-4.5552846E-001
  0
LINE
  8
1
  6
CONTINUOUS
 62
1
 10
-9.113371
 20
-4.5552846E-001
 11
-1.0557271E+001
 21
-4.5552846E-001
  0
LINE
  8
1
  6
CONTINUOUS
 62
1
 10
-1.0583571E+001
 20
-3.6332846E-001
 11
-9.139771
 21
-3.6332846E-001
  0
LINE
  8
1
  6
CONTINUOUS
 62
1
 10
-8.783971
 20
-3.6332846E-001
 11
-3.886271
 21
-3.6332846E-001
  0
LINE
  8
1
  6
CONTINUOUS
 62
1
 10
-2.321971
 20
-3.6332846E-001
 11
-7.2567096E-001
 21
-3.6332846E-001
  0
LINE
  8
1
  6
CONTINUOUS
 62
1
 10
7.2572904E-001
 20
-3.6332846E-001
 11
2.321929
 21
-3.6332846E-001
  0
LINE
  8
1
  6
CONTINUOUS
 62
1
 10
3.886329
 20
-3.6332846E-001
 11
8.784029
 21
-3.6332846E-001
  0
LINE
  8
1
  6
CONTINUOUS
 62
1
 10
9.139829
 20
-3.6332846E-001
 11
1.0583629E+001
 21
-3.6332846E-001
  0
LINE
  8
1
  6
CONTINUOUS
 62
1
 10
1.0609929E+001
 20
-2.7112846E-001
 11
9.166229
 21
-2.7112846E-001
  0
LINE
  8
1
  6
CONTINUOUS
 62
1
 10
8.970629
 20
-2.7112846E-001
 11
4.291329
 21
-2.7112846E-001
  0
LINE
  8
1
  6
CONTINUOUS
 62
1
 10
2.268729
 20
-2.7112846E-001
 11
6.7252904E-001
 21
-2.7112846E-001
  0
LINE
  8
1
  6
CONTINUOUS
 62
1
 10
-6.7247096E-001
 20
-2.7112846E-001
 11
-2.268771
 21
-2.7112846E-001
  0
LINE
  8
1
  6
CONTINUOUS
 62
1
 10
-4.291371
 20
-2.7112846E-001
 11
-8.970571
 21
-2.7112846E-001
  0
LINE
  8
1
  6
CONTINUOUS
 62
1
 10
-9.166271
 20
-2.7112846E-001
 11
-1.0609871E+001
 21
-2.7112846E-001
  0
LINE
  8
1
  6
CONTINUOUS
 62
1
 10
-1.0636171E+001
 20
-1.7902846E-001
 11
-9.192671
 21
-1.7902846E-001
  0
LINE
  8
1
  6
CONTINUOUS
 62
1
 10
-9.152371
 20
-1.7902846E-001
 11
-4.659571
 21
-1.7902846E-001
  0
LINE
  8
1
  6
CONTINUOUS
 62
1
 10
-2.215571
 20
-1.7902846E-001
 11
-6.1927096E-001
 21
-1.7902846E-001
  0
LINE
  8
1
  6
CONTINUOUS
 62
1
 10
6.1922904E-001
 20
-1.7902846E-001
 11
2.215529
 21
-1.7902846E-001
  0
LINE
  8
1
  6
CONTINUOUS
 62
1
 10
4.659529
 20
-1.7902846E-001
 11
9.152429
 21
-1.7902846E-001
  0
LINE
  8
1
  6
CONTINUOUS
 62
1
 10
9.192629
 20
-1.7902846E-001
 11
1.0636129E+001
 21
-1.7902846E-001
  0
LINE
  8
1
  6
CONTINUOUS
 62
1
 10
1.0662429E+001
 20
-8.6828462E-002
 11
4.998929
 21
-8.6828462E-002
  0
LINE
  8
1
  6
CONTINUOUS
 62
1
 10
2.162329
 20
-8.6828462E-002
 11
5.6602904E-001
 21
-8.6828462E-002
  0
LINE
  8
1
  6
CONTINUOUS
 62
1
 10
-5.6607096E-001
 20
-8.6828462E-002
 11
-2.162371
 21
-8.6828462E-002
  0
LINE
  8
1
  6
CONTINUOUS
 62
1
 10
-4.998971
 20
-8.6828462E-002
 11
-1.0662471E+001
 21
-8.6828462E-002
  0
LINE
  8
1
  6
CONTINUOUS
 62
1
 10
-1.0688771E+001
 20
5.3715384E-003
 11
-5.315171
 21
5.3715384E-003
  0
LINE
  8
1
  6
CONTINUOUS
 62
1
 10
-2.109071
 20
5.3715384E-003
 11
-5.1287096E-001
 21
5.3715384E-003
  0
LINE
  8
1
  6
CONTINUOUS
 62
1
 10
5.1282904E-001
 20
5.3715384E-003
 11
2.109129
 21
5.3715384E-003
  0
LINE
  8
1
  6
CONTINUOUS
 62
1
 10
5.315229
 20
5.3715384E-003
 11
1.0688729E+001
 21
5.3715384E-003
  0
LINE
  8
1
  6
CONTINUOUS
 62
1
 10
1.0715029E+001
 20
9.7471538E-002
 11
5.612129
 21
9.7471538E-002
  0
LINE
  8
1
  6
CONTINUOUS
 62
1
 10
2.055929
 20
9.7471538E-002
 11
4.5962904E-001
 21
9.7471538E-002
  0
LINE
  8
1
  6
CONTINUOUS
 62
1
 10
-4.5967096E-001
 20
9.7471538E-002
 11
-2.055871
 21
9.7471538E-002
  0
LINE
  8
1
  6
CONTINUOUS
 62
1
 10
-5.612171
 20
9.7471538E-002
 11
-1.0714971E+001
 21
9.7471538E-002
  0
LINE
  8
1
  6
CONTINUOUS
 62
1
 10
-1.0741271E+001
 20
1.8967154E-001
 11
-5.892671
 21
1.8967154E-001
  0
LINE
  8
1
  6
CONTINUOUS
 62
1
 10
-2.002671
 20
1.8967154E-001
 11
-4.0647096E-001
 21
1.8967154E-001
  0
LINE
  8
1
  6
CONTINUOUS
 62
1
 10
4.0642904E-001
 20
1.8967154E-001
 11
2.002729
 21
1.8967154E-001
  0
LINE
  8
1
  6
CONTINUOUS
 62
1
 10
5.892629
 20
1.8967154E-001
 11
1.0741329E+001
 21
1.8967154E-001
  0
LINE
  8
1
  6
CONTINUOUS
 62
1
 10
1.0767629E+001
 20
2.8177154E-001
 11
6.159029
 21
2.8177154E-001
  0
LINE
  8
1
  6
CONTINUOUS
 62
1
 10
1.949529
 20
2.8177154E-001
 11
3.5322904E-001
 21
2.8177154E-001
  0
LINE
  8
1
  6
CONTINUOUS
 62
1
 10
-3.5327096E-001
 20
2.8177154E-001
 11
-1.949471
 21
2.8177154E-001
  0
LINE
  8
1
  6
CONTINUOUS
 62
1
 10
-6.159071
 20
2.8177154E-001
 11
-1.0767571E+001
 21
2.8177154E-001
  0
LINE
  8
1
  6
CONTINUOUS
 62
1
 10
-1.0793871E+001
 20
3.7397154E-001
 11
-6.413071
 21
3.7397154E-001
  0
LINE
  8
1
  6
CONTINUOUS
 62
1
 10
-1.896271
 20
3.7397154E-001
 11
-3.0007096E-001
 21
3.7397154E-001
  0
LINE
  8
1
  6
CONTINUOUS
 62
1
 10
3.0002904E-001
 20
3.7397154E-001
 11
1.896329
 21
3.7397154E-001
  0
LINE
  8
1
  6
CONTINUOUS
 62
1
 10
6.413129
 20
3.7397154E-001
 11
1.0793829E+001
 21
3.7397154E-001
  0
LINE
  8
1
  6
CONTINUOUS
 62
1
 10
1.0820129E+001
 20
4.6607154E-001
 11
6.656129
 21
4.6607154E-001
  0
LINE
  8
1
  6
CONTINUOUS
 62
1
 10
1.843029
 20
4.6607154E-001
 11
2.4682904E-001
 21
4.6607154E-001
  0
LINE
  8
1
  6
CONTINUOUS
 62
1
 10
-2.4677096E-001
 20
4.6607154E-001
 11
-1.843071
 21
4.6607154E-001
  0
LINE
  8
1
  6
CONTINUOUS
 62
1
 10
-6.656171
 20
4.6607154E-001
 11
-1.0820171E+001
 21
4.6607154E-001
  0
LINE
  8
1
  6
CONTINUOUS
 62
1
 10
-1.0846471E+001
 20
5.5827154E-001
 11
-6.889371
 21
5.5827154E-001
  0
LINE
  8
1
  6
CONTINUOUS
 62
1
 10
-1.789871
 20
5.5827154E-001
 11
-1.9357096E-001
 21
5.5827154E-001
  0
LINE
  8
1
  6
CONTINUOUS
 62
1
 10
1.9362904E-001
 20
5.5827154E-001
 11
1.789829
 21
5.5827154E-001
  0
LINE
  8
1
  6
CONTINUOUS
 62
1
 10
6.889429
 20
5.5827154E-001
 11
1.0846429E+001
 21
5.5827154E-001
  0
LINE
  8
1
  6
CONTINUOUS
 62
1
 10
1.0872729E+001
 20
6.5047154E-001
 11
7.113829
 21
6.5047154E-001
  0
LINE
  8
1
  6
CONTINUOUS
 62
1
 10
1.736629
 20
6.5047154E-001
 11
1.4042904E-001
 21
6.5047154E-001
  0
LINE
  8
1
  6
CONTINUOUS
 62
1
 10
-1.4037096E-001
 20
6.5047154E-001
 11
-1.736671
 21
6.5047154E-001
  0
LINE
  8
1
  6
CONTINUOUS
 62
1
 10
-7.113871
 20
6.5047154E-001
 11
-1.0872771E+001
 21
6.5047154E-001
  0
LINE
  8
1
  6
CONTINUOUS
 62
1
 10
-1.0899071E+001
 20
7.4257154E-001
 11
-7.330271
 21
7.4257154E-001
  0
LINE
  8
1
  6
CONTINUOUS
 62
1
 10
-1.683471
 20
7.4257154E-001
 11
-8.7170962E-002
 21
7.4257154E-001
  0
LINE
  8
1
  6
CONTINUOUS
 62
1
 10
8.7229038E-002
 20
7.4257154E-001
 11
1.683429
 21
7.4257154E-001
  0
LINE
  8
1
  6
CONTINUOUS
 62
1
 10
7.330229
 20
7.4257154E-001
 11
1.0899029E+001
 21
7.4257154E-001
  0
LINE
  8
1
  6
CONTINUOUS
 62
1
 10
1.0925329E+001
 20
8.3477154E-001
 11
7.539329
 21
8.3477154E-001
  0
LINE
  8
1
  6
CONTINUOUS
 62
1
 10
1.630229
 20
8.3477154E-001
 11
3.4029038E-002
 21
8.3477154E-001
  0
LINE
  8
1
  6
CONTINUOUS
 62
1
 10
-3.3970962E-002
 20
8.3477154E-001
 11
-1.630271
 21
8.3477154E-001
  0
LINE
  8
1
  6
CONTINUOUS
 62
1
 10
-7.539271
 20
8.3477154E-001
 11
-1.0925271E+001
 21
8.3477154E-001
  0
LINE
  8
1
  6
CONTINUOUS
 62
1
 10
-1.0951571E+001
 20
9.2687154E-001
 11
-7.741671
 21
9.2687154E-001
  0
LINE
  8
1
  6
CONTINUOUS
 62
1
 10
-1.577071
 20
9.2687154E-001
 11
1.577029
 21
9.2687154E-001
  0
LINE
  8
1
  6
CONTINUOUS
 62
1
 10
7.741629
 20
9.2687154E-001
 11
1.0951629E+001
 21
9.2687154E-001
  0
LINE
  8
1
  6
CONTINUOUS
 62
1
 10
1.0977929E+001
 20
1.0190715
 11
7.937729
 21
1.0190715
  0
LINE
  8
1
  6
CONTINUOUS
 62
1
 10
1.523829
 20
1.0190715
 11
-1.523871
 21
1.0190715
  0
LINE
  8
1
  6
CONTINUOUS
 62
1
 10
-7.937671
 20
1.0190715
 11
-1.0977871E+001
 21
1.0190715
  0
LINE
  8
1
  6
CONTINUOUS
 62
1
 10
-1.1004171E+001
 20
1.1112715
 11
-8.128071
 21
1.1112715
  0
LINE
  8
1
  6
CONTINUOUS
 62
1
 10
-1.470571
 20
1.1112715
 11
1.470629
 21
1.1112715
  0
LINE
  8
1
  6
CONTINUOUS
 62
1
 10
8.128029
 20
1.1112715
 11
1.1004129E+001
 21
1.1112715
  0
LINE
  8
1
  6
CONTINUOUS
 62
1
 10
1.1030429E+001
 20
1.2033715
 11
8.313029
 21
1.2033715
  0
LINE
  8
1
  6
CONTINUOUS
 62
1
 10
1.417429
 20
1.2033715
 11
-1.417371
 21
1.2033715
  0
LINE
  8
1
  6
CONTINUOUS
 62
1
 10
-8.312971
 20
1.2033715
 11
-1.1030471E+001
 21
1.2033715
  0
LINE
  8
1
  6
CONTINUOUS
 62
1
 10
-1.1056771E+001
 20
1.2955715
 11
-8.492871
 21
1.2955715
  0
LINE
  8
1
  6
CONTINUOUS
 62
1
 10
-1.364171
 20
1.2955715
 11
1.364229
 21
1.2955715
  0
LINE
  8
1
  6
CONTINUOUS
 62
1
 10
8.492929
 20
1.2955715
 11
1.1056729E+001
 21
1.2955715
  0
LINE
  8
1
  6
CONTINUOUS
 62
1
 10
1.1083029E+001
 20
1.3876715
 11
8.668129
 21
1.3876715
  0
LINE
  8
1
  6
CONTINUOUS
 62
1
 10
1.311029
 20
1.3876715
 11
-1.310971
 21
1.3876715
  0
LINE
  8
1
  6
CONTINUOUS
 62
1
 10
-8.668071
 20
1.3876715
 11
-1.1083071E+001
 21
1.3876715
  0
LINE
  8
1
  6
CONTINUOUS
 62
1
 10
-1.1109371E+001
 20
1.4798715
 11
-8.838871
 21
1.4798715
  0
LINE
  8
1
  6
CONTINUOUS
 62
1
 10
-1.257771
 20
1.4798715
 11
1.257729
 21
1.4798715
  0
LINE
  8
1
  6
CONTINUOUS
 62
1
 10
8.838929
 20
1.4798715
 11
1.1109329E+001
 21
1.4798715
  0
LINE
  8
1
  6
CONTINUOUS
 62
1
 10
1.1135629E+001
 20
1.5720715
 11
9.005529
 21
1.5720715
  0
LINE
  8
1
  6
CONTINUOUS
 62
1
 10
1.204529
 20
1.5720715
 11
-1.204571
 21
1.5720715
  0
LINE
  8
1
  6
CONTINUOUS
 62
1
 10
-9.005471
 20
1.5720715
 11
-1.1135571E+001
 21
1.5720715
  0
LINE
  8
1
  6
CONTINUOUS
 62
1
 10
-1.1161871E+001
 20
1.6641715
 11
-9.168171
 21
1.6641715
  0
LINE
  8
1
  6
CONTINUOUS
 62
1
 10
-1.151371
 20
1.6641715
 11
1.151329
 21
1.6641715
  0
LINE
  8
1
  6
CONTINUOUS
 62
1
 10
9.168129
 20
1.6641715
 11
1.1161929E+001
 21
1.6641715
  0
LINE
  8
1
  6
CONTINUOUS
 62
1
 10
1.1188229E+001
 20
1.7563715
 11
9.327029
 21
1.7563715
  0
LINE
  8
1
  6
CONTINUOUS
 62
1
 10
1.098129
 20
1.7563715
 11
-1.098171
 21
1.7563715
  0
LINE
  8
1
  6
CONTINUOUS
 62
1
 10
-9.327071
 20
1.7563715
 11
-1.1188171E+001
 21
1.7563715
  0
LINE
  8
1
  6
CONTINUOUS
 62
1
 10
-1.1214471E+001
 20
1.8485715
 11
-9.482371
 21
1.8485715
  0
LINE
  8
1
  6
CONTINUOUS
 62
1
 10
-1.044971
 20
1.8485715
 11
1.044929
 21
1.8485715
  0
LINE
  8
1
  6
CONTINUOUS
 62
1
 10
9.482329
 20
1.8485715
 11
1.1214429E+001
 21
1.8485715
  0
LINE
  8
1
  6
CONTINUOUS
 62
1
 10
1.1240729E+001
 20
1.9406715
 11
9.634329
 21
1.9406715
  0
LINE
  8
1
  6
CONTINUOUS
 62
1
 10
9.9172904E-001
 20
1.9406715
 11
-9.9177096E-001
 21
1.9406715
  0
LINE
  8
1
  6
CONTINUOUS
 62
1
 10
-9.634371
 20
1.9406715
 11
-1.1240771E+001
 21
1.9406715
  0
LINE
  8
1
  6
CONTINUOUS
 62
1
 10
-1.1267071E+001
 20
2.0328715
 11
-9.783071
 21
2.0328715
  0
LINE
  8
1
  6
CONTINUOUS
 62
1
 10
-9.3857096E-001
 20
2.0328715
 11
9.3852904E-001
 21
2.0328715
  0
LINE
  8
1
  6
CONTINUOUS
 62
1
 10
9.783029
 20
2.0328715
 11
1.1267029E+001
 21
2.0328715
  0
LINE
  8
1
  6
CONTINUOUS
 62
1
 10
1.1293329E+001
 20
2.1249715
 11
9.928729
 21
2.1249715
  0
LINE
  8
1
  6
CONTINUOUS
 62
1
 10
8.8532904E-001
 20
2.1249715
 11
-8.8537096E-001
 21
2.1249715
  0
LINE
  8
1
  6
CONTINUOUS
 62
1
 10
-9.928671
 20
2.1249715
 11
-1.1293371E+001
 21
2.1249715
  0
LINE
  8
1
  6
CONTINUOUS
 62
1
 10
-1.1319671E+001
 20
2.2171715
 11
-1.0071371E+001
 21
2.2171715
  0
LINE
  8
1
  6
CONTINUOUS
 62
1
 10
-8.3207096E-001
 20
2.2171715
 11
8.3212904E-001
 21
2.2171715
  0
LINE
  8
1
  6
CONTINUOUS
 62
1
 10
1.0071429E+001
 20
2.2171715
 11
1.1319629E+001
 21
2.2171715
  0
LINE
  8
1
  6
CONTINUOUS
 62
1
 10
1.1345929E+001
 20
2.3092715
 11
1.0211229E+001
 21
2.3092715
  0
LINE
  8
1
  6
CONTINUOUS
 62
1
 10
7.7892904E-001
 20
2.3092715
 11
-7.7887096E-001
 21
2.3092715
  0
LINE
  8
1
  6
CONTINUOUS
 62
1
 10
-1.0211271E+001
 20
2.3092715
 11
-1.1345871E+001
 21
2.3092715
  0
LINE
  8
1
  6
CONTINUOUS
 62
1
 10
-1.1372171E+001
 20
2.4014715
 11
-1.0348371E+001
 21
2.4014715
  0
LINE
  8
1
  6
CONTINUOUS
 62
1
 10
-7.2567096E-001
 20
2.4014715
 11
7.2572904E-001
 21
2.4014715
  0
LINE
  8
1
  6
CONTINUOUS
 62
1
 10
1.0348429E+001
 20
2.4014715
 11
1.1372229E+001
 21
2.4014715
  0
LINE
  8
1
  6
CONTINUOUS
 62
1
 10
1.1398529E+001
 20
2.4936715
 11
1.0482929E+001
 21
2.4936715
  0
LINE
  8
1
  6
CONTINUOUS
 62
1
 10
6.7252904E-001
 20
2.4936715
 11
-6.7247096E-001
 21
2.4936715
  0
LINE
  8
1
  6
CONTINUOUS
 62
1
 10
-1.0482971E+001
 20
2.4936715
 11
-1.1398471E+001
 21
2.4936715
  0
LINE
  8
1
  6
CONTINUOUS
 62
1
 10
-1.1424771E+001
 20
2.5857715
 11
-1.0614971E+001
 21
2.5857715
  0
LINE
  8
1
  6
CONTINUOUS
 62
1
 10
-6.1927096E-001
 20
2.5857715
 11
6.1922904E-001
 21
2.5857715
  0
LINE
  8
1
  6
CONTINUOUS
 62
1
 10
1.0615029E+001
 20
2.5857715
 11
1.1424729E+001
 21
2.5857715
  0
LINE
  8
1
  6
CONTINUOUS
 62
1
 10
1.1451029E+001
 20
2.6779715
 11
1.0744629E+001
 21
2.6779715
  0
LINE
  8
1
  6
CONTINUOUS
 62
1
 10
5.6602904E-001
 20
2.6779715
 11
-5.6607096E-001
 21
2.6779715
  0
LINE
  8
1
  6
CONTINUOUS
 62
1
 10
-1.0744671E+001
 20
2.6779715
 11
-1.1451071E+001
 21
2.6779715
  0
LINE
  8
1
  6
CONTINUOUS
 62
1
 10
-1.1477371E+001
 20
2.7700715
 11
-1.0871971E+001
 21
2.7700715
  0
LINE
  8
1
  6
CONTINUOUS
 62
1
 10
-5.1287096E-001
 20
2.7700715
 11
5.1282904E-001
 21
2.7700715
  0
LINE
  8
1
  6
CONTINUOUS
 62
1
 10
1.0871929E+001
 20
2.7700715
 11
1.1477329E+001
 21
2.7700715
  0
LINE
  8
1
  6
CONTINUOUS
 62
1
 10
1.1503629E+001
 20
2.8622715
 11
1.0997029E+001
 21
2.8622715
  0
LINE
  8
1
  6
CONTINUOUS
 62
1
 10
4.5962904E-001
 20
2.8622715
 11
-4.5967096E-001
 21
2.8622715
  0
LINE
  8
1
  6
CONTINUOUS
 62
1
 10
-1.0996971E+001
 20
2.8622715
 11
-1.1503671E+001
 21
2.8622715
  0
LINE
  8
1
  6
CONTINUOUS
 62
1
 10
-1.1529871E+001
 20
2.9544715
 11
-1.1119871E+001
 21
2.9544715
  0
LINE
  8
1
  6
CONTINUOUS
 62
1
 10
-4.0647096E-001
 20
2.9544715
 11
4.0642904E-001
 21
2.9544715
  0
LINE
  8
1
  6
CONTINUOUS
 62
1
 10
1.1119929E+001
 20
2.9544715
 11
1.1529929E+001
 21
2.9544715
  0
LINE
  8
1
  6
CONTINUOUS
 62
1
 10
1.1556229E+001
 20
3.0465715
 11
1.1240729E+001
 21
3.0465715
  0
LINE
  8
1
  6
CONTINUOUS
 62
1
 10
3.5322904E-001
 20
3.0465715
 11
-3.5327096E-001
 21
3.0465715
  0
LINE
  8
1
  6
CONTINUOUS
 62
1
 10
-1.1240671E+001
 20
3.0465715
 11
-1.1556171E+001
 21
3.0465715
  0
LINE
  8
1
  6
CONTINUOUS
 62
1
 10
-1.1582471E+001
 20
3.1387715
 11
-1.1359471E+001
 21
3.1387715
  0
LINE
  8
1
  6
CONTINUOUS
 62
1
 10
-3.0007096E-001
 20
3.1387715
 11
3.0002904E-001
 21
3.1387715
  0
LINE
  8
1
  6
CONTINUOUS
 62
1
 10
1.1359429E+001
 20
3.1387715
 11
1.1582529E+001
 21
3.1387715
  0
LINE
  8
1
  6
CONTINUOUS
 62
1
 10
1.1608729E+001
 20
3.2309715
 11
1.1476229E+001
 21
3.2309715
  0
LINE
  8
1
  6
CONTINUOUS
 62
1
 10
2.4682904E-001
 20
3.2309715
 11
-2.4677096E-001
 21
3.2309715
  0
LINE
  8
1
  6
CONTINUOUS
 62
1
 10
-1.1476271E+001
 20
3.2309715
 11
-1.1608771E+001
 21
3.2309715
  0
LINE
  8
1
  6
CONTINUOUS
 62
1
 10
-1.1635071E+001
 20
3.3230715
 11
-1.1591171E+001
 21
3.3230715
  0
LINE
  8
1
  6
CONTINUOUS
 62
1
 10
-1.9357096E-001
 20
3.3230715
 11
1.9362904E-001
 21
3.3230715
  0
LINE
  8
1
  6
CONTINUOUS
 62
1
 10
1.1591129E+001
 20
3.3230715
 11
1.1635029E+001
 21
3.3230715
  0
LINE
  8
1
  6
CONTINUOUS
 62
1
 10
1.4042904E-001
 20
3.4152715
 11
-1.4037096E-001
 21
3.4152715
  0
LINE
  8
1
  6
CONTINUOUS
 62
1
 10
-8.7170962E-002
 20
3.5073715
 11
8.7229038E-002
 21
3.5073715
  0
LINE
  8
1
  6
CONTINUOUS
 62
1
 10
3.4029038E-002
 20
3.5995715
 11
-3.3970962E-002
 21
3.5995715
  0
ENDBLK
  0
BLOCK
  2
JNHG
 10
0.0
 20
0.0
 70
0
  0
DIMENSION
  8
100
  6
CONTINUOUS
 62
4
  1
 222 
  2
*D45
  3
DSTYLE1
 10
-9.0058558E+001
 20
-4.2314237E+001
 11
-4.5580784E+001
 21
-3.9398737E+001
 70
128
 13
-1.258558
 23
-2.477689E+001
 14
-9.0058558E+001
 24
-4.408869E+001
 40
3.0
 50
1.8E+002
1001
ACAD
1000
DSTYLE
1002
{
1070
173
1070
0
1070
5
1000
_AH13
1002
}
  0
DIMENSION
  8
100
  6
CONTINUOUS
 62
4
  2
*D46
  3
DSTYLE1
 10
-1.258558
 20
-4.2314237E+001
 11
7.8192264
 21
-3.9398737E+001
 70
128
 13
1.6741442E+001
 23
-2.477689E+001
 14
-1.258558
 24
-2.477689E+001
 40
3.0
 50
1.8E+002
1001
ACAD
1000
DSTYLE
1002
{
1070
173
1070
0
1070
5
1000
_AH13
1002
}
  0
DIMENSION
  8
100
  6
CONTINUOUS
 62
4
  2
*D51
  3
DSTYLE2
 10
-1.2658558E+001
 20
2.142311E+001
 11
-5.1280784E+001
 21
2.433861E+001
 70
128
 13
-9.0058558E+001
 23
-5.092999E+001
 14
-1.2658558E+001
 24
1.372311E+001
 40
3.0
 50
0.0
1001
ACAD
1000
DSTYLE
1002
{
1070
173
1070
0
1070
5
1000
_AH13
1002
}
  0
DIMENSION
  8
100
  6
CONTINUOUS
 62
4
  2
*D52
  3
DSTYLE1
 10
-3.858558
 20
2.142311E+001
 11
6.2192203
 21
2.433861E+001
 70
128
 13
1.6141442E+001
 23
8.42311
 14
-3.858558
 24
8.42311
 40
3.0
 50
1.8E+002
1001
ACAD
1000
DSTYLE
1002
{
1070
173
1070
0
1070
5
1000
_AH13
1002
}
  0
DIMENSION
  8
100
  6
CONTINUOUS
 62
4
  2
*D57
  3
DSTYLE1
 10
1.6141442E+001
 20
2.142311E+001
 11
2.621922E+001
 21
2.433861E+001
 70
128
 13
3.6141442E+001
 23
8.42311
 14
1.6141442E+001
 24
8.42311
 40
3.0
 50
1.8E+002
1001
ACAD
1000
DSTYLE
1002
{
1070
173
1070
0
1070
5
1000
_AH13
1002
}
  0
DIMENSION
  8
100
  6
CONTINUOUS
 62
4
  1
 22 
  2
*D58
  3
DSTYLE1
 10
-1.2658558E+001
 20
2.142311E+001
 11
-8.5752743
 21
2.433861E+001
 70
128
 13
-3.858558
 23
1.730711E+001
 14
-1.2658558E+001
 24
1.730711E+001
 40
3.0
 50
1.8E+002
1001
ACAD
1000
DSTYLE
1002
{
1070
173
1070
0
1070
5
1000
_AH13
1002
}
  0
LINE
  8
11
  6
CENTERLINE
 62
3
 10
-9.0058558E+001
 20
-6.216439E+001
 11
-9.0058558E+001
 21
-5.092999E+001
  0
TEXT
  8
103
  6
CONTINUOUS
 62
1
 10
-6.1269775E+001
 20
-6.1696921E+001
 40
2.5
  1
Mitte Türband
 41
6.5769231E-001
 72
1
 11
-7.1957275E+001
 21
-6.2946921E+001
 73
2
  0
LINE
  8
99
  6
CONTINUOUS
 62
1
 10
-8.4533158E+001
 20
-6.328229E+001
 11
-9.0058558E+001
 21
-6.104659E+001
  0
LINE
  8
11
  6
HIDDEN
 62
3
 10
-9.2558558E+001
 20
-5.957689E+001
 11
-9.2558558E+001
 21
-5.257689E+001
  0
LINE
  8
11
  6
HIDDEN
 62
3
 10
-9.2558558E+001
 20
-5.257689E+001
 11
-8.7558558E+001
 21
-5.257689E+001
  0
LINE
  8
11
  6
HIDDEN
 62
3
 10
-8.7558558E+001
 20
-5.257689E+001
 11
-8.7558558E+001
 21
-5.957689E+001
  0
LINE
  8
106
  6
CENTERLINE
 62
1
 10
-1.0430196E+002
 20
-5.957689E+001
 11
7.2041442E+001
 21
-5.957689E+001
  0
LINE
  8
106
  6
CENTERLINE
 62
1
 10
-1.0159486E+002
 20
-6.386009E+001
 11
-1.0159486E+002
 21
1.928411E+001
  0
LINE
  8
106
  6
CENTERLINE
 62
1
 10
7.1268442E+001
 20
-6.424679E+001
 11
7.1268442E+001
 21
2.044411E+001
  0
CIRCLE
  8
105
  6
HIDDEN
 62
1
 10
1.6141442E+001
 20
-9.57689
 40
1.0
  0
CIRCLE
  8
105
  6
HIDDEN
 62
1
 10
1.6141442E+001
 20
8.42311
 40
1.0
  0
LINE
  8
106
  6
CENTERLINE
 62
1
 10
1.8543442E+001
 20
8.42311
 11
1.3835442E+001
 21
8.42311
  0
LINE
  8
106
  6
CENTERLINE
 62
1
 10
1.6141442E+001
 20
1.065711E+001
 11
1.6141442E+001
 21
6.24431
  0
LINE
  8
106
  6
CENTERLINE
 62
1
 10
3.8543442E+001
 20
8.42311
 11
3.3835442E+001
 21
8.42311
  0
LINE
  8
106
  6
CENTERLINE
 62
1
 10
3.6141442E+001
 20
1.065711E+001
 11
3.6141442E+001
 21
6.24431
  0
LINE
  8
106
  6
CENTERLINE
 62
1
 10
3.8543442E+001
 20
-9.57689
 11
3.3835442E+001
 21
-9.57689
  0
LINE
  8
106
  6
CENTERLINE
 62
1
 10
3.6141442E+001
 20
-7.34249
 11
3.6141442E+001
 21
-1.175569E+001
  0
LINE
  8
106
  6
CENTERLINE
 62
1
 10
1.8543442E+001
 20
-9.57689
 11
1.3835442E+001
 21
-9.57689
  0
LINE
  8
106
  6
CENTERLINE
 62
1
 10
1.6141442E+001
 20
-7.34249
 11
1.6141442E+001
 21
-1.175569E+001
  0
LINE
  8
106
  6
CENTERLINE
 62
1
 10
-1.456558
 20
-9.57689
 11
-6.164558
 21
-9.57689
  0
LINE
  8
106
  6
CENTERLINE
 62
1
 10
-3.858558
 20
-7.34249
 11
-3.858558
 21
-1.175569E+001
  0
LINE
  8
106
  6
CENTERLINE
 62
1
 10
-1.456558
 20
8.42311
 11
-6.164558
 21
8.42311
  0
LINE
  8
106
  6
CENTERLINE
 62
1
 10
-3.858558
 20
1.065711E+001
 11
-3.858558
 21
6.24431
  0
CIRCLE
  8
105
  6
HIDDEN
 62
1
 10
3.6141442E+001
 20
8.42311
 40
1.9
  0
CIRCLE
  8
105
  6
HIDDEN
 62
1
 10
-3.858558
 20
-9.57689
 40
1.9
  0
CIRCLE
  8
105
  6
HIDDEN
 62
1
 10
-3.858558
 20
8.42311
 40
1.9
  0
CIRCLE
  8
105
  6
HIDDEN
 62
1
 10
1.6141442E+001
 20
8.42311
 40
1.9
  0
CIRCLE
  8
105
  6
HIDDEN
 62
1
 10
1.6141442E+001
 20
-9.57689
 40
1.9
  0
CIRCLE
  8
105
  6
HIDDEN
 62
1
 10
3.6141442E+001
 20
-9.57689
 40
1.9
  0
LINE
  8
104
  6
CONTINUOUS
 62
40
 10
-6.258558
 20
1.142311E+001
 11
-6.258558
 21
1.171011E+001
  0
LINE
  8
104
  6
CONTINUOUS
 62
40
 10
-6.258558
 20
1.171011E+001
 11
-9.358558
 21
1.372311E+001
  0
LINE
  8
104
  6
CONTINUOUS
 62
40
 10
-9.358558
 20
1.372311E+001
 11
-1.5958558E+001
 21
1.372311E+001
  0
LINE
  8
104
  6
CONTINUOUS
 62
40
 10
-1.5958558E+001
 20
1.372311E+001
 11
-1.9058558E+001
 21
1.171011E+001
  0
LINE
  8
104
  6
CONTINUOUS
 62
40
 10
-1.9058558E+001
 20
1.171011E+001
 11
-1.9058558E+001
 21
1.142311E+001
  0
LINE
  8
99
  6
CONTINUOUS
 62
1
 10
-1.9058558E+001
 20
1.171011E+001
 11
-6.258558
 21
1.171011E+001
  0
LINE
  8
99
  6
CONTINUOUS
 62
1
 10
6.7941442E+001
 20
1.050311E+001
 11
-4.9258558E+001
 21
1.050311E+001
  0
LINE
  8
99
  6
CONTINUOUS
 62
1
 10
-4.9258558E+001
 20
-1.165689E+001
 11
6.7941442E+001
 21
-1.165689E+001
  0
LINE
  8
106
  6
CENTERLINE
 62
1
 10
-1.2658558E+001
 20
-1.985819E+001
 11
-1.2658558E+001
 21
1.536011E+001
  0
LINE
  8
104
  6
CONTINUOUS
 62
40
 10
6.7941442E+001
 20
1.142311E+001
 11
-4.9258558E+001
 21
1.142311E+001
  0
LINE
  8
104
  6
CONTINUOUS
 62
40
 10
-4.9258558E+001
 20
1.142311E+001
 11
-4.9258558E+001
 21
-1.257689E+001
  0
LINE
  8
104
  6
CONTINUOUS
 62
40
 10
-4.9258558E+001
 20
-1.257689E+001
 11
6.7941442E+001
 21
-1.257689E+001
  0
LINE
  8
104
  6
CONTINUOUS
 62
40
 10
6.7941442E+001
 20
-1.257689E+001
 11
6.7941442E+001
 21
1.142311E+001
  0
LINE
  8
104
  6
CONTINUOUS
 62
40
 10
1.5926442E+001
 20
-2.477689E+001
 11
1.7517442E+001
 21
-2.477689E+001
  0
LINE
  8
104
  6
CONTINUOUS
 62
40
 10
1.6741442E+001
 20
-2.395199E+001
 11
1.6741442E+001
 21
-2.560659E+001
  0
LINE
  8
104
  6
CONTINUOUS
 62
40
 10
-2.220558
 20
-2.477689E+001
 11
-4.63558E-001
 21
-2.477689E+001
  0
LINE
  8
104
  6
CONTINUOUS
 62
40
 10
-1.258558
 20
-2.391299E+001
 11
-1.258558
 21
-2.562879E+001
  0
LINE
  8
99
  6
CONTINUOUS
 62
1
 10
1.1741442E+001
 20
-2.283689E+001
 11
1.9341442E+001
 21
-2.283689E+001
  0
LINE
  8
104
  6
CONTINUOUS
 62
40
 10
8.941442
 20
-2.717689E+001
 11
8.941442
 21
-2.757689E+001
  0
LINE
  8
104
  6
CONTINUOUS
 62
40
 10
8.941442
 20
-2.757689E+001
 11
6.541442
 21
-2.757689E+001
  0
LINE
  8
104
  6
CONTINUOUS
 62
40
 10
6.541442
 20
-2.757689E+001
 11
6.541442
 21
-2.717689E+001
  0
LINE
  8
104
  6
CONTINUOUS
 62
40
 10
1.0141442E+001
 20
-2.177689E+001
 11
1.0141442E+001
 21
-2.117689E+001
  0
LINE
  8
104
  6
CONTINUOUS
 62
40
 10
5.341442
 20
-2.177689E+001
 11
5.341442
 21
-2.117689E+001
  0
LINE
  8
99
  6
CONTINUOUS
 62
1
 10
8.52442E-001
 20
-2.477689E+001
 11
-3.228558
 21
-2.477689E+001
  0
LINE
  8
99
  6
CONTINUOUS
 62
1
 10
1.8883442E+001
 20
-2.477689E+001
 11
1.4774442E+001
 21
-2.477689E+001
  0
LINE
  8
99
  6
CONTINUOUS
 62
1
 10
1.6741442E+001
 20
-2.249859E+001
 11
1.6741442E+001
 21
-2.713909E+001
  0
LINE
  8
99
  6
CONTINUOUS
 62
1
 10
-1.258558
 20
-2.716699E+001
 11
-1.258558
 21
-2.233079E+001
  0
LINE
  8
104
  6
CONTINUOUS
 62
40
 10
1.9341442E+001
 20
-2.751689E+001
 11
1.9341442E+001
 21
-2.203689E+001
  0
LINE
  8
104
  6
CONTINUOUS
 62
40
 10
1.9341442E+001
 20
-2.203689E+001
 11
1.1741442E+001
 21
-2.203689E+001
  0
LINE
  8
104
  6
CONTINUOUS
 62
40
 10
3.741442
 20
-2.203689E+001
 11
-3.858558
 21
-2.203689E+001
  0
LINE
  8
104
  6
CONTINUOUS
 62
40
 10
-3.858558
 20
-2.203689E+001
 11
-3.858558
 21
-2.751689E+001
  0
LINE
  8
104
  6
CONTINUOUS
 62
40
 10
-3.858558
 20
-2.751689E+001
 11
6.541442
 21
-2.751689E+001
  0
LINE
  8
104
  6
CONTINUOUS
 62
40
 10
8.941442
 20
-2.751689E+001
 11
1.9341442E+001
 21
-2.751689E+001
  0
LINE
  8
99
  6
CONTINUOUS
 62
1
 10
1.9341442E+001
 20
-2.671689E+001
 11
1.2141442E+001
 21
-2.671689E+001
  0
LINE
  8
99
  6
CONTINUOUS
 62
1
 10
-3.858558
 20
-2.671689E+001
 11
3.341442
 21
-2.671689E+001
  0
LINE
  8
99
  6
CONTINUOUS
 62
1
 10
-3.858558
 20
-2.283689E+001
 11
3.741442
 21
-2.283689E+001
  0
CIRCLE
  8
104
  6
CONTINUOUS
 62
40
 10
1.6741442E+001
 20
-2.477689E+001
 40
1.6
  0
CIRCLE
  8
104
  6
CONTINUOUS
 62
40
 10
-1.258558
 20
-2.477689E+001
 40
1.6
  0
LINE
  8
104
  6
CONTINUOUS
 62
40
 10
1.1741442E+001
 20
-2.317689E+001
 11
1.1741442E+001
 21
-2.177689E+001
  0
LINE
  8
104
  6
CONTINUOUS
 62
40
 10
1.1741442E+001
 20
-2.177689E+001
 11
3.741442
 21
-2.177689E+001
  0
LINE
  8
104
  6
CONTINUOUS
 62
40
 10
3.741442
 20
-2.177689E+001
 11
3.741442
 21
-2.317689E+001
  0
LINE
  8
104
  6
CONTINUOUS
 62
40
 10
3.341442
 20
-2.317689E+001
 11
1.2141442E+001
 21
-2.317689E+001
  0
LINE
  8
104
  6
CONTINUOUS
 62
40
 10
1.2141442E+001
 20
-2.317689E+001
 11
1.2141442E+001
 21
-2.717689E+001
  0
LINE
  8
104
  6
CONTINUOUS
 62
40
 10
1.2141442E+001
 20
-2.717689E+001
 11
3.341442
 21
-2.717689E+001
  0
LINE
  8
104
  6
CONTINUOUS
 62
40
 10
3.341442
 20
-2.717689E+001
 11
3.341442
 21
-2.317689E+001
  0
LINE
  8
104
  6
CONTINUOUS
 62
40
 10
1.2141442E+001
 20
-2.517689E+001
 11
3.341442
 21
-2.517689E+001
  0
LINE
  8
104
  6
CONTINUOUS
 62
40
 10
-6.538558
 20
-1.257689E+001
 11
-5.404558
 21
-1.736139E+001
  0
ARC
  8
104
  6
CONTINUOUS
 62
40
 10
-4.6259298
 20
-1.7176645E+001
 40
8.002454E-001
 50
1.9334776E+002
 51
2.7002662E+002
  0
LINE
  8
104
  6
CONTINUOUS
 62
40
 10
-4.625558
 20
-1.797689E+001
 11
-1.383558
 21
-1.797689E+001
  0
LINE
  8
104
  6
CONTINUOUS
 62
40
 10
-1.8938558E+001
 20
-1.257689E+001
 11
-1.7646558E+001
 21
-1.534789E+001
  0
ARC
  8
104
  6
CONTINUOUS
 62
40
 10
-1.728735E+001
 20
-1.5180714E+001
 40
3.9620493E-001
 50
2.0495733E+002
 51
2.7069296E+002
  0
LINE
  8
104
  6
CONTINUOUS
 62
40
 10
-1.7282558E+001
 20
-1.557689E+001
 11
-1.7211558E+001
 21
-1.557689E+001
  0
ARC
  8
104
  6
CONTINUOUS
 62
40
 10
-1.7211533E+001
 20
-1.5977204E+001
 40
4.0031388E-001
 50
4.9527386E+001
 51
9.0003624E+001
  0
ARC
  8
104
  6
CONTINUOUS
 62
40
 10
-1.7210829E+001
 20
-1.5976265E+001
 40
3.9914307E-001
 50
8.9615898
 51
4.9516818E+001
  0
LINE
  8
104
  6
CONTINUOUS
 62
40
 10
-1.6816558E+001
 20
-1.591409E+001
 11
-1.6115558E+001
 21
-2.032189E+001
  0
ARC
  8
104
  6
CONTINUOUS
 62
40
 10
-1.4966085E+001
 20
-1.9976707E+001
 40
1.2001827
 50
1.9671483E+002
 51
2.7002517E+002
  0
LINE
  8
104
  6
CONTINUOUS
 62
40
 10
-1.4965558E+001
 20
-2.117689E+001
 11
1.1741442E+001
 21
-2.117689E+001
  0
ARC
  8
104
  6
CONTINUOUS
 62
40
 10
1.1741478E+001
 20
-2.0776926E+001
 40
3.9996362E-001
 50
2.6999479E+002
 51
3.6000521E+002
  0
LINE
  8
104
  6
CONTINUOUS
 62
40
 10
1.2141442E+001
 20
-2.077689E+001
 11
1.2141442E+001
 21
-1.837689E+001
  0
ARC
  8
104
  6
CONTINUOUS
 62
40
 10
1.1741512E+001
 20
-1.837682E+001
 40
3.9992991E-001
 50
3.5998996E+002
 51
4.5001004E+002
  0
LINE
  8
104
  6
CONTINUOUS
 62
40
 10
1.1741442E+001
 20
-1.797689E+001
 11
-1.5038558E+001
 21
-1.797689E+001
  0
LINE
  8
104
  6
CONTINUOUS
 62
40
 10
-1.5038558E+001
 20
-1.797689E+001
 11
-1.5316558E+001
 21
-1.773909E+001
  0
LINE
  8
104
  6
CONTINUOUS
 62
40
 10
-1.5316558E+001
 20
-1.773909E+001
 11
-1.5481558E+001
 21
-1.740859E+001
  0
LINE
  8
106
  6
CENTERLINE
 62
1
 10
7.741442
 20
-1.663779E+001
 11
7.741442
 21
-2.884989E+001
  0
LINE
  8
106
  6
CENTERLINE
 62
1
 10
-2.7344558E+001
 20
3.358911E+001
 11
3.6463442E+001
 21
3.358911E+001
  0
TEXT
  8
103
  6
CONTINUOUS
 62
1
 10
-8.3416211E+001
 20
-6.7997642E+001
 40
2.5
  1
 hinge
 41
6.4285714E-001
  0
POINT
  8
Drafting_Hidden_Entities
  6
CONTINUOUS
 62
1
 10
0.0
 20
0.0
  0
ENDBLK
  0
BLOCK
  2
JNHGNEW00
 10
0.0
 20
0.0
 70
0
  0
DIMENSION
  8
100
  6
CONTINUOUS
 62
4
  1
 222 
  2
*D1392
  3
DSTYLE1
 10
-9.0058558E+001
 20
-4.2314237E+001
 11
-4.5580784E+001
 21
-3.9398737E+001
 70
128
 13
-1.258558
 23
-2.477689E+001
 14
-9.0058558E+001
 24
-4.408869E+001
 40
3.0
 50
1.8E+002
1001
ACAD
1000
DSTYLE
1002
{
1070
173
1070
0
1070
5
1000
_AH13
1002
}
  0
DIMENSION
  8
100
  6
CONTINUOUS
 62
4
  2
*D1393
  3
DSTYLE1
 10
-1.258558
 20
-4.2314237E+001
 11
7.8192264
 21
-3.9398737E+001
 70
128
 13
1.6741442E+001
 23
-2.477689E+001
 14
-1.258558
 24
-2.477689E+001
 40
3.0
 50
1.8E+002
1001
ACAD
1000
DSTYLE
1002
{
1070
173
1070
0
1070
5
1000
_AH13
1002
}
  0
DIMENSION
  8
100
  6
CONTINUOUS
 62
4
  2
*D1394
  3
DSTYLE2
 10
-1.2658558E+001
 20
2.142311E+001
 11
-5.1280784E+001
 21
2.433861E+001
 70
128
 13
-9.0058558E+001
 23
-5.092999E+001
 14
-1.2658558E+001
 24
1.372311E+001
 40
3.0
 50
0.0
1001
ACAD
1000
DSTYLE
1002
{
1070
173
1070
0
1070
5
1000
_AH13
1002
}
  0
DIMENSION
  8
100
  6
CONTINUOUS
 62
4
  2
*D1395
  3
DSTYLE1
 10
-3.858558
 20
2.142311E+001
 11
6.2192203
 21
2.433861E+001
 70
128
 13
1.6141442E+001
 23
8.42311
 14
-3.858558
 24
8.42311
 40
3.0
 50
1.8E+002
1001
ACAD
1000
DSTYLE
1002
{
1070
173
1070
0
1070
5
1000
_AH13
1002
}
  0
DIMENSION
  8
100
  6
CONTINUOUS
 62
4
  2
*D1396
  3
DSTYLE1
 10
1.6141442E+001
 20
2.142311E+001
 11
2.621922E+001
 21
2.433861E+001
 70
128
 13
3.6141442E+001
 23
8.42311
 14
1.6141442E+001
 24
8.42311
 40
3.0
 50
1.8E+002
1001
ACAD
1000
DSTYLE
1002
{
1070
173
1070
0
1070
5
1000
_AH13
1002
}
  0
DIMENSION
  8
100
  6
CONTINUOUS
 62
4
  1
 22 
  2
*D1397
  3
DSTYLE1
 10
-1.2658558E+001
 20
2.142311E+001
 11
-8.5752743
 21
2.433861E+001
 70
128
 13
-3.858558
 23
1.730711E+001
 14
-1.2658558E+001
 24
1.730711E+001
 40
3.0
 50
1.8E+002
1001
ACAD
1000
DSTYLE
1002
{
1070
173
1070
0
1070
5
1000
_AH13
1002
}
  0
LINE
  8
11
  6
CENTERLINE
 62
3
 10
-9.0058558E+001
 20
-6.216439E+001
 11
-9.0058558E+001
 21
-5.092999E+001
  0
TEXT
  8
103
  6
CONTINUOUS
 62
1
 10
-6.1269775E+001
 20
-6.1696921E+001
 40
2.5
  1
Mitte Türband
 41
6.5769231E-001
 72
1
 11
-7.1957275E+001
 21
-6.2946921E+001
 73
2
  0
LINE
  8
99
  6
CONTINUOUS
 62
1
 10
-8.4533158E+001
 20
-6.328229E+001
 11
-9.0058558E+001
 21
-6.104659E+001
  0
LINE
  8
11
  6
HIDDEN
 62
3
 10
-9.2558558E+001
 20
-5.957689E+001
 11
-9.2558558E+001
 21
-5.257689E+001
  0
LINE
  8
11
  6
HIDDEN
 62
3
 10
-9.2558558E+001
 20
-5.257689E+001
 11
-8.7558558E+001
 21
-5.257689E+001
  0
LINE
  8
11
  6
HIDDEN
 62
3
 10
-8.7558558E+001
 20
-5.257689E+001
 11
-8.7558558E+001
 21
-5.957689E+001
  0
LINE
  8
106
  6
CENTERLINE
 62
1
 10
-1.0430196E+002
 20
-5.957689E+001
 11
7.2041442E+001
 21
-5.957689E+001
  0
LINE
  8
106
  6
CENTERLINE
 62
1
 10
-1.0159486E+002
 20
-6.386009E+001
 11
-1.0159486E+002
 21
1.928411E+001
  0
LINE
  8
106
  6
CENTERLINE
 62
1
 10
7.1268442E+001
 20
-6.424679E+001
 11
7.1268442E+001
 21
2.044411E+001
  0
CIRCLE
  8
105
  6
HIDDEN
 62
1
 10
1.6141442E+001
 20
-9.57689
 40
1.0
  0
CIRCLE
  8
105
  6
HIDDEN
 62
1
 10
1.6141442E+001
 20
8.42311
 40
1.0
  0
LINE
  8
106
  6
CENTERLINE
 62
1
 10
1.8543442E+001
 20
8.42311
 11
1.3835442E+001
 21
8.42311
  0
LINE
  8
106
  6
CENTERLINE
 62
1
 10
1.6141442E+001
 20
1.065711E+001
 11
1.6141442E+001
 21
6.24431
  0
LINE
  8
106
  6
CENTERLINE
 62
1
 10
3.8543442E+001
 20
8.42311
 11
3.3835442E+001
 21
8.42311
  0
LINE
  8
106
  6
CENTERLINE
 62
1
 10
3.6141442E+001
 20
1.065711E+001
 11
3.6141442E+001
 21
6.24431
  0
LINE
  8
106
  6
CENTERLINE
 62
1
 10
3.8543442E+001
 20
-9.57689
 11
3.3835442E+001
 21
-9.57689
  0
LINE
  8
106
  6
CENTERLINE
 62
1
 10
3.6141442E+001
 20
-7.34249
 11
3.6141442E+001
 21
-1.175569E+001
  0
LINE
  8
106
  6
CENTERLINE
 62
1
 10
1.8543442E+001
 20
-9.57689
 11
1.3835442E+001
 21
-9.57689
  0
LINE
  8
106
  6
CENTERLINE
 62
1
 10
1.6141442E+001
 20
-7.34249
 11
1.6141442E+001
 21
-1.175569E+001
  0
LINE
  8
106
  6
CENTERLINE
 62
1
 10
-1.456558
 20
-9.57689
 11
-6.164558
 21
-9.57689
  0
LINE
  8
106
  6
CENTERLINE
 62
1
 10
-3.858558
 20
-7.34249
 11
-3.858558
 21
-1.175569E+001
  0
LINE
  8
106
  6
CENTERLINE
 62
1
 10
-1.456558
 20
8.42311
 11
-6.164558
 21
8.42311
  0
LINE
  8
106
  6
CENTERLINE
 62
1
 10
-3.858558
 20
1.065711E+001
 11
-3.858558
 21
6.24431
  0
CIRCLE
  8
105
  6
HIDDEN
 62
1
 10
3.6141442E+001
 20
8.42311
 40
1.9
  0
CIRCLE
  8
105
  6
HIDDEN
 62
1
 10
-3.858558
 20
-9.57689
 40
1.9
  0
CIRCLE
  8
105
  6
HIDDEN
 62
1
 10
-3.858558
 20
8.42311
 40
1.9
  0
CIRCLE
  8
105
  6
HIDDEN
 62
1
 10
1.6141442E+001
 20
8.42311
 40
1.9
  0
CIRCLE
  8
105
  6
HIDDEN
 62
1
 10
1.6141442E+001
 20
-9.57689
 40
1.9
  0
CIRCLE
  8
105
  6
HIDDEN
 62
1
 10
3.6141442E+001
 20
-9.57689
 40
1.9
  0
LINE
  8
104
  6
CONTINUOUS
 62
40
 10
-6.258558
 20
1.142311E+001
 11
-6.258558
 21
1.171011E+001
  0
LINE
  8
104
  6
CONTINUOUS
 62
40
 10
-6.258558
 20
1.171011E+001
 11
-9.358558
 21
1.372311E+001
  0
LINE
  8
104
  6
CONTINUOUS
 62
40
 10
-9.358558
 20
1.372311E+001
 11
-1.5958558E+001
 21
1.372311E+001
  0
LINE
  8
104
  6
CONTINUOUS
 62
40
 10
-1.5958558E+001
 20
1.372311E+001
 11
-1.9058558E+001
 21
1.171011E+001
  0
LINE
  8
104
  6
CONTINUOUS
 62
40
 10
-1.9058558E+001
 20
1.171011E+001
 11
-1.9058558E+001
 21
1.142311E+001
  0
LINE
  8
99
  6
CONTINUOUS
 62
1
 10
-1.9058558E+001
 20
1.171011E+001
 11
-6.258558
 21
1.171011E+001
  0
LINE
  8
99
  6
CONTINUOUS
 62
1
 10
6.7941442E+001
 20
1.050311E+001
 11
-4.9258558E+001
 21
1.050311E+001
  0
LINE
  8
99
  6
CONTINUOUS
 62
1
 10
-4.9258558E+001
 20
-1.165689E+001
 11
6.7941442E+001
 21
-1.165689E+001
  0
LINE
  8
106
  6
CENTERLINE
 62
1
 10
-1.2658558E+001
 20
-1.985819E+001
 11
-1.2658558E+001
 21
1.536011E+001
  0
LINE
  8
104
  6
CONTINUOUS
 62
40
 10
6.7941442E+001
 20
1.142311E+001
 11
-4.9258558E+001
 21
1.142311E+001
  0
LINE
  8
104
  6
CONTINUOUS
 62
40
 10
-4.9258558E+001
 20
1.142311E+001
 11
-4.9258558E+001
 21
-1.257689E+001
  0
LINE
  8
104
  6
CONTINUOUS
 62
40
 10
-4.9258558E+001
 20
-1.257689E+001
 11
6.7941442E+001
 21
-1.257689E+001
  0
LINE
  8
104
  6
CONTINUOUS
 62
40
 10
6.7941442E+001
 20
-1.257689E+001
 11
6.7941442E+001
 21
1.142311E+001
  0
LINE
  8
104
  6
CONTINUOUS
 62
40
 10
1.5926442E+001
 20
-2.477689E+001
 11
1.7517442E+001
 21
-2.477689E+001
  0
LINE
  8
104
  6
CONTINUOUS
 62
40
 10
1.6741442E+001
 20
-2.395199E+001
 11
1.6741442E+001
 21
-2.560659E+001
  0
LINE
  8
104
  6
CONTINUOUS
 62
40
 10
-2.220558
 20
-2.477689E+001
 11
-4.63558E-001
 21
-2.477689E+001
  0
LINE
  8
104
  6
CONTINUOUS
 62
40
 10
-1.258558
 20
-2.391299E+001
 11
-1.258558
 21
-2.562879E+001
  0
LINE
  8
99
  6
CONTINUOUS
 62
1
 10
1.1741442E+001
 20
-2.283689E+001
 11
1.9341442E+001
 21
-2.283689E+001
  0
LINE
  8
104
  6
CONTINUOUS
 62
40
 10
8.941442
 20
-2.717689E+001
 11
8.941442
 21
-2.757689E+001
  0
LINE
  8
104
  6
CONTINUOUS
 62
40
 10
8.941442
 20
-2.757689E+001
 11
6.541442
 21
-2.757689E+001
  0
LINE
  8
104
  6
CONTINUOUS
 62
40
 10
6.541442
 20
-2.757689E+001
 11
6.541442
 21
-2.717689E+001
  0
LINE
  8
104
  6
CONTINUOUS
 62
40
 10
1.0141442E+001
 20
-2.177689E+001
 11
1.0141442E+001
 21
-2.117689E+001
  0
LINE
  8
104
  6
CONTINUOUS
 62
40
 10
5.341442
 20
-2.177689E+001
 11
5.341442
 21
-2.117689E+001
  0
LINE
  8
99
  6
CONTINUOUS
 62
1
 10
8.52442E-001
 20
-2.477689E+001
 11
-3.228558
 21
-2.477689E+001
  0
LINE
  8
99
  6
CONTINUOUS
 62
1
 10
1.8883442E+001
 20
-2.477689E+001
 11
1.4774442E+001
 21
-2.477689E+001
  0
LINE
  8
99
  6
CONTINUOUS
 62
1
 10
1.6741442E+001
 20
-2.249859E+001
 11
1.6741442E+001
 21
-2.713909E+001
  0
LINE
  8
99
  6
CONTINUOUS
 62
1
 10
-1.258558
 20
-2.716699E+001
 11
-1.258558
 21
-2.233079E+001
  0
LINE
  8
104
  6
CONTINUOUS
 62
40
 10
1.9341442E+001
 20
-2.751689E+001
 11
1.9341442E+001
 21
-2.203689E+001
  0
LINE
  8
104
  6
CONTINUOUS
 62
40
 10
1.9341442E+001
 20
-2.203689E+001
 11
1.1741442E+001
 21
-2.203689E+001
  0
LINE
  8
104
  6
CONTINUOUS
 62
40
 10
3.741442
 20
-2.203689E+001
 11
-3.858558
 21
-2.203689E+001
  0
LINE
  8
104
  6
CONTINUOUS
 62
40
 10
-3.858558
 20
-2.203689E+001
 11
-3.858558
 21
-2.751689E+001
  0
LINE
  8
104
  6
CONTINUOUS
 62
40
 10
-3.858558
 20
-2.751689E+001
 11
6.541442
 21
-2.751689E+001
  0
LINE
  8
104
  6
CONTINUOUS
 62
40
 10
8.941442
 20
-2.751689E+001
 11
1.9341442E+001
 21
-2.751689E+001
  0
LINE
  8
99
  6
CONTINUOUS
 62
1
 10
1.9341442E+001
 20
-2.671689E+001
 11
1.2141442E+001
 21
-2.671689E+001
  0
LINE
  8
99
  6
CONTINUOUS
 62
1
 10
-3.858558
 20
-2.671689E+001
 11
3.341442
 21
-2.671689E+001
  0
LINE
  8
99
  6
CONTINUOUS
 62
1
 10
-3.858558
 20
-2.283689E+001
 11
3.741442
 21
-2.283689E+001
  0
CIRCLE
  8
104
  6
CONTINUOUS
 62
40
 10
1.6741442E+001
 20
-2.477689E+001
 40
1.6
  0
CIRCLE
  8
104
  6
CONTINUOUS
 62
40
 10
-1.258558
 20
-2.477689E+001
 40
1.6
  0
LINE
  8
104
  6
CONTINUOUS
 62
40
 10
1.1741442E+001
 20
-2.317689E+001
 11
1.1741442E+001
 21
-2.177689E+001
  0
LINE
  8
104
  6
CONTINUOUS
 62
40
 10
1.1741442E+001
 20
-2.177689E+001
 11
3.741442
 21
-2.177689E+001
  0
LINE
  8
104
  6
CONTINUOUS
 62
40
 10
3.741442
 20
-2.177689E+001
 11
3.741442
 21
-2.317689E+001
  0
LINE
  8
104
  6
CONTINUOUS
 62
40
 10
3.341442
 20
-2.317689E+001
 11
1.2141442E+001
 21
-2.317689E+001
  0
LINE
  8
104
  6
CONTINUOUS
 62
40
 10
1.2141442E+001
 20
-2.317689E+001
 11
1.2141442E+001
 21
-2.717689E+001
  0
LINE
  8
104
  6
CONTINUOUS
 62
40
 10
1.2141442E+001
 20
-2.717689E+001
 11
3.341442
 21
-2.717689E+001
  0
LINE
  8
104
  6
CONTINUOUS
 62
40
 10
3.341442
 20
-2.717689E+001
 11
3.341442
 21
-2.317689E+001
  0
LINE
  8
104
  6
CONTINUOUS
 62
40
 10
1.2141442E+001
 20
-2.517689E+001
 11
3.341442
 21
-2.517689E+001
  0
LINE
  8
104
  6
CONTINUOUS
 62
40
 10
-6.538558
 20
-1.257689E+001
 11
-5.404558
 21
-1.736139E+001
  0
ARC
  8
104
  6
CONTINUOUS
 62
40
 10
-4.6259298
 20
-1.7176645E+001
 40
8.002454E-001
 50
1.9334776E+002
 51
2.7002662E+002
  0
LINE
  8
104
  6
CONTINUOUS
 62
40
 10
-4.625558
 20
-1.797689E+001
 11
-1.383558
 21
-1.797689E+001
  0
LINE
  8
104
  6
CONTINUOUS
 62
40
 10
-1.8938558E+001
 20
-1.257689E+001
 11
-1.7646558E+001
 21
-1.534789E+001
  0
ARC
  8
104
  6
CONTINUOUS
 62
40
 10
-1.728735E+001
 20
-1.5180714E+001
 40
3.9620493E-001
 50
2.0495733E+002
 51
2.7069296E+002
  0
LINE
  8
104
  6
CONTINUOUS
 62
40
 10
-1.7282558E+001
 20
-1.557689E+001
 11
-1.7211558E+001
 21
-1.557689E+001
  0
ARC
  8
104
  6
CONTINUOUS
 62
40
 10
-1.7211533E+001
 20
-1.5977204E+001
 40
4.0031388E-001
 50
4.9527386E+001
 51
9.0003624E+001
  0
ARC
  8
104
  6
CONTINUOUS
 62
40
 10
-1.7210829E+001
 20
-1.5976265E+001
 40
3.9914307E-001
 50
8.9615898
 51
4.9516818E+001
  0
LINE
  8
104
  6
CONTINUOUS
 62
40
 10
-1.6816558E+001
 20
-1.591409E+001
 11
-1.6115558E+001
 21
-2.032189E+001
  0
ARC
  8
104
  6
CONTINUOUS
 62
40
 10
-1.4966085E+001
 20
-1.9976707E+001
 40
1.2001827
 50
1.9671483E+002
 51
2.7002517E+002
  0
LINE
  8
104
  6
CONTINUOUS
 62
40
 10
-1.4965558E+001
 20
-2.117689E+001
 11
1.1741442E+001
 21
-2.117689E+001
  0
ARC
  8
104
  6
CONTINUOUS
 62
40
 10
1.1741478E+001
 20
-2.0776926E+001
 40
3.9996362E-001
 50
2.6999479E+002
 51
3.6000521E+002
  0
LINE
  8
104
  6
CONTINUOUS
 62
40
 10
1.2141442E+001
 20
-2.077689E+001
 11
1.2141442E+001
 21
-1.837689E+001
  0
ARC
  8
104
  6
CONTINUOUS
 62
40
 10
1.1741512E+001
 20
-1.837682E+001
 40
3.9992991E-001
 50
3.5998996E+002
 51
4.5001004E+002
  0
LINE
  8
104
  6
CONTINUOUS
 62
40
 10
1.1741442E+001
 20
-1.797689E+001
 11
-1.5038558E+001
 21
-1.797689E+001
  0
LINE
  8
104
  6
CONTINUOUS
 62
40
 10
-1.5038558E+001
 20
-1.797689E+001
 11
-1.5316558E+001
 21
-1.773909E+001
  0
LINE
  8
104
  6
CONTINUOUS
 62
40
 10
-1.5316558E+001
 20
-1.773909E+001
 11
-1.5481558E+001
 21
-1.740859E+001
  0
LINE
  8
106
  6
CENTERLINE
 62
1
 10
7.741442
 20
-1.663779E+001
 11
7.741442
 21
-2.884989E+001
  0
LINE
  8
106
  6
CENTERLINE
 62
1
 10
-2.7344558E+001
 20
3.358911E+001
 11
3.6463442E+001
 21
3.358911E+001
  0
TEXT
  8
103
  6
CONTINUOUS
 62
1
 10
-8.3416211E+001
 20
-6.7997642E+001
 40
2.5
  1
 hinge
 41
6.4285714E-001
  0
POINT
  8
Drafting_Hidden_Entities
  6
CONTINUOUS
 62
1
 10
0.0
 20
0.0
  0
ENDBLK
  0
BLOCK
  2
SCHARNIER
 10
0.0
 20
0.0
 70
0
  0
LINE
  8
1
  6
CONTINUOUS
 62
40
 10
-2.0
 20
8.0
 11
-5.23621
 21
8.0
  0
LINE
  8
1
  6
CONTINUOUS
 62
40
 10
-5.23621
 20
8.0
 11
-6.44927
 21
8.0
  0
LINE
  8
1
  6
CONTINUOUS
 62
40
 10
-6.44927
 20
8.0
 11
-1.806535E+001
 21
8.0
  0
LINE
  8
1
  6
CONTINUOUS
 62
40
 10
-1.806535E+001
 20
8.0
 11
-1.95E+001
 21
8.0
  0
LINE
  8
1
  6
CONTINUOUS
 62
40
 10
-1.95E+001
 20
-8.0
 11
-1.806535E+001
 21
-8.0
  0
LINE
  8
1
  6
CONTINUOUS
 62
40
 10
-1.806535E+001
 20
-8.0
 11
-6.44927
 21
-8.0
  0
LINE
  8
1
  6
CONTINUOUS
 62
40
 10
-6.44927
 20
-8.0
 11
-5.23621
 21
-8.0
  0
LINE
  8
1
  6
CONTINUOUS
 62
40
 10
-2.0
 20
-8.0
 11
-5.23621
 21
-8.0
  0
LINE
  8
1
  6
CONTINUOUS
 62
40
 10
-5.23621
 20
-6.0
 11
-2.0
 21
-6.0
  0
LINE
  8
1
  6
CONTINUOUS
 62
40
 10
-5.23621
 20
-6.0
 11
-6.44927
 21
-6.0
  0
LINE
  8
1
  6
CONTINUOUS
 62
40
 10
-6.44927
 20
-6.0
 11
-1.806535E+001
 21
-6.0
  0
LINE
  8
1
  6
CONTINUOUS
 62
40
 10
-1.806535E+001
 20
-6.0
 11
-1.95E+001
 21
-6.0
  0
LINE
  8
1
  6
CONTINUOUS
 62
40
 10
-1.95E+001
 20
6.0
 11
-1.806535E+001
 21
6.0
  0
LINE
  8
1
  6
CONTINUOUS
 62
40
 10
-1.806535E+001
 20
6.0
 11
-6.44927
 21
6.0
  0
LINE
  8
1
  6
CONTINUOUS
 62
40
 10
-6.44927
 20
6.0
 11
-5.23621
 21
6.0
  0
LINE
  8
1
  6
CONTINUOUS
 62
40
 10
-2.0
 20
6.0
 11
-5.23621
 21
6.0
  0
ARC
  8
1
  6
CONTINUOUS
 62
40
 10
-2.0
 20
6.0
 40
2.0000001
 50
0.0
 51
9.0E+001
  0
ARC
  8
1
  6
CONTINUOUS
 62
40
 10
-2.0
 20
-6.0
 40
1.9999999
 50
2.7E+002
 51
3.6E+002
  0
LINE
  8
1
  6
CONTINUOUS
 62
40
 10
-2.0
 20
-6.0
 11
-2.0
 21
6.0
  0
LINE
  8
1
  6
CONTINUOUS
 62
40
 10
0.0
 20
6.0
 11
0.0
 21
-6.0
  0
LINE
  8
1
  6
CONTINUOUS
 62
40
 10
-1.95E+001
 20
6.0
 11
-1.95E+001
 21
8.0
  0
LINE
  8
1
  6
CONTINUOUS
 62
40
 10
-1.95E+001
 20
-8.0
 11
-1.95E+001
 21
-6.0
  0
CIRCLE
  8
1
  6
CONTINUOUS
 62
40
 10
-2.9E+001
 20
0.0
 40
3.5
  0
ARC
  8
1
  6
CONTINUOUS
 62
40
 10
-1.2E+001
 20
3.41667
 40
6.0833332
 50
4.888791E+001
 51
9.0E+001
  0
ARC
  8
1
  6
CONTINUOUS
 62
40
 10
-1.2E+001
 20
3.41667
 40
6.0833333
 50
9.0E+001
 51
1.3111209E+002
  0
LINE
  8
1
  6
CONTINUOUS
 62
40
 10
-7.0
 20
-5.75
 11
-1.7E+001
 21
-5.75
  0
LINE
  8
1
  6
CONTINUOUS
 62
40
 10
-1.7E+001
 20
5.75
 11
-7.0
 21
5.75
  0
LINE
  8
1
  6
CONTINUOUS
 62
40
 10
-7.0
 20
5.75
 11
-6.99999
 21
5.50001
  0
LINE
  8
1
  6
CONTINUOUS
 62
40
 10
-6.99999
 20
-5.50002
 11
-7.0
 21
-5.75
  0
LINE
  8
1
  6
CONTINUOUS
 62
40
 10
-1.7E+001
 20
-5.75
 11
-1.699999E+001
 21
-5.50002
  0
LINE
  8
1
  6
CONTINUOUS
 62
40
 10
-1.699999E+001
 20
5.50001
 11
-1.7E+001
 21
5.75
  0
ARC
  8
1
  6
CONTINUOUS
 62
40
 10
-2.9E+001
 20
0.0
 40
5.5
 50
9.0E+001
 51
1.8E+002
  0
ARC
  8
1
  6
CONTINUOUS
 62
40
 10
-2.9E+001
 20
0.0
 40
5.5
 50
1.8E+002
 51
2.7E+002
  0
LINE
  8
1
  6
CONTINUOUS
 62
40
 10
-1.720481E+001
 20
5.5
 11
-4.5
 21
5.5
  0
LINE
  8
1
  6
CONTINUOUS
 62
40
 10
-1.720481E+001
 20
5.5
 11
-1.893975E+001
 21
5.5
  0
LINE
  8
1
  6
CONTINUOUS
 62
40
 10
-1.893975E+001
 20
5.5
 11
-2.9E+001
 21
5.5
  0
LINE
  8
1
  6
CONTINUOUS
 62
40
 10
-2.9E+001
 20
-5.5
 11
-1.893975E+001
 21
-5.5
  0
LINE
  8
1
  6
CONTINUOUS
 62
40
 10
-1.893975E+001
 20
-5.5
 11
-1.720481E+001
 21
-5.5
  0
LINE
  8
1
  6
CONTINUOUS
 62
40
 10
-4.5
 20
-5.5
 11
-1.720481E+001
 21
-5.5
  0
LINE
  8
1
  6
CONTINUOUS
 62
40
 10
-1.720481E+001
 20
-5.5
 11
-1.720481E+001
 21
5.5
  0
LINE
  8
1
  6
CONTINUOUS
 62
40
 10
-4.5
 20
5.5
 11
-4.49999
 21
4.25001
  0
LINE
  8
1
  6
CONTINUOUS
 62
40
 10
-4.5
 20
-4.25
 11
-4.5
 21
-5.5
  0
LINE
  8
1
  6
CONTINUOUS
 62
40
 10
-3.95E+001
 20
-2.77764
 11
-3.949975E+001
 21
-3.53296
  0
LINE
  8
1
  6
CONTINUOUS
 62
40
 10
-3.95E+001
 20
-2.77764
 11
-3.95E+001
 21
-2.76179
  0
LINE
  8
1
  6
CONTINUOUS
 62
40
 10
-3.95E+001
 20
2.7618
 11
-3.95E+001
 21
-2.76179
  0
LINE
  8
1
  6
CONTINUOUS
 62
40
 10
-3.95E+001
 20
3.50026
 11
-3.95E+001
 21
2.82649
  0
LINE
  8
1
  6
CONTINUOUS
 62
40
 10
-3.95E+001
 20
2.7618
 11
-3.95E+001
 21
2.82649
  0
LINE
  8
1
  6
CONTINUOUS
 62
40
 10
-3.95E+001
 20
3.6753
 11
-3.95E+001
 21
3.50026
  0
LINE
  8
1
  6
CONTINUOUS
 62
40
 10
-3.630001E+001
 20
-4.75003
 11
-3.630001E+001
 21
-4.01178
  0
LINE
  8
1
  6
CONTINUOUS
 62
40
 10
-3.177264E+001
 20
-4.75
 11
-3.205563E+001
 21
-4.75
  0
LINE
  8
1
  6
CONTINUOUS
 62
40
 10
-3.205563E+001
 20
-4.75
 11
-3.233856E+001
 21
-4.75
  0
LINE
  8
1
  6
CONTINUOUS
 62
40
 10
-3.233856E+001
 20
-4.75
 11
-3.262138E+001
 21
-4.75
  0
LINE
  8
1
  6
CONTINUOUS
 62
40
 10
-3.262138E+001
 20
-4.75
 11
-3.290448E+001
 21
-4.75
  0
LINE
  8
1
  6
CONTINUOUS
 62
40
 10
-3.290448E+001
 20
-4.75
 11
-3.318801E+001
 21
-4.75
  0
LINE
  8
1
  6
CONTINUOUS
 62
40
 10
-3.318801E+001
 20
-4.75
 11
-3.34704E+001
 21
-4.75
  0
LINE
  8
1
  6
CONTINUOUS
 62
40
 10
-3.34704E+001
 20
-4.75
 11
-3.37511E+001
 21
-4.75
  0
LINE
  8
1
  6
CONTINUOUS
 62
40
 10
-3.37511E+001
 20
-4.75
 11
-3.403632E+001
 21
-4.75
  0
LINE
  8
1
  6
CONTINUOUS
 62
40
 10
-3.403632E+001
 20
-4.75
 11
-3.432821E+001
 21
-4.75
  0
LINE
  8
1
  6
CONTINUOUS
 62
40
 10
-3.432821E+001
 20
-4.75
 11
-3.460224E+001
 21
-4.75001
  0
LINE
  8
1
  6
CONTINUOUS
 62
40
 10
-3.460224E+001
 20
-4.75001
 11
-3.484999E+001
 21
-4.75001
  0
LINE
  8
1
  6
CONTINUOUS
 62
40
 10
-3.484999E+001
 20
-4.75001
 11
-3.516817E+001
 21
-4.75001
  0
LINE
  8
1
  6
CONTINUOUS
 62
40
 10
-3.516817E+001
 20
-4.75001
 11
-3.565823E+001
 21
-4.75002
  0
LINE
  8
1
  6
CONTINUOUS
 62
40
 10
-3.565823E+001
 20
-4.75002
 11
-3.630001E+001
 21
-4.75003
  0
LINE
  8
1
  6
CONTINUOUS
 62
40
 10
-3.276239E+001
 20
-4.01179
 11
-3.630001E+001
 21
-4.01178
  0
LINE
  8
1
  6
CONTINUOUS
 62
40
 10
-3.937653E+001
 20
-3.61908
 11
-3.93726E+001
 21
-3.61444
  0
ARC
  8
1
  6
CONTINUOUS
 62
40
 10
-2.8385165E+001
 20
-1.2948765E+001
 40
1.441712E+001
 50
1.3958391E+002
 51
1.3965059E+002
  0
LINE
  8
1
  6
CONTINUOUS
 62
40
 10
-3.936173E+001
 20
-3.60166
 11
-3.934383E+001
 21
-3.5806
  0
LINE
  8
1
  6
CONTINUOUS
 62
40
 10
-3.934383E+001
 20
-3.5806
 11
-3.931791E+001
 21
-3.5501
  0
LINE
  8
1
  6
CONTINUOUS
 62
40
 10
-3.931791E+001
 20
-3.5501
 11
-3.92834E+001
 21
-3.50951
  0
LINE
  8
1
  6
CONTINUOUS
 62
40
 10
-3.92834E+001
 20
-3.50951
 11
-3.924672E+001
 21
-3.46636
  0
LINE
  8
1
  6
CONTINUOUS
 62
40
 10
-3.924672E+001
 20
-3.46636
 11
-3.920995E+001
 21
-3.4231
  0
LINE
  8
1
  6
CONTINUOUS
 62
40
 10
-3.920995E+001
 20
-3.4231
 11
-3.915079E+001
 21
-3.3535
  0
LINE
  8
1
  6
CONTINUOUS
 62
40
 10
-3.915079E+001
 20
-3.3535
 11
-3.904528E+001
 21
-3.22938
  0
LINE
  8
1
  6
CONTINUOUS
 62
40
 10
-3.904528E+001
 20
-3.22938
 11
-3.889837E+001
 21
-3.05657
  0
LINE
  8
1
  6
CONTINUOUS
 62
40
 10
-3.630001E+001
 20
-4.75003
 11
-3.647295E+001
 21
-4.74694
  0
ARC
  8
1
  6
CONTINUOUS
 62
40
 10
-3.6297491E+001
 20
2.9288726E-001
 40
5.0428806
 50
2.6606087E+002
 51
2.6800608E+002
  0
ARC
  8
1
  6
CONTINUOUS
 62
40
 10
-3.6301575E+001
 20
1.2068317E-001
 40
4.8708089
 50
2.6397496E+002
 51
2.6596964E+002
  0
ARC
  8
1
  6
CONTINUOUS
 62
40
 10
-3.6313787E+001
 20
1.3242162E-002
 40
4.7626796
 50
2.6196142E+002
 51
2.639854E+002
  0
ARC
  8
1
  6
CONTINUOUS
 62
40
 10
-3.6314903E+001
 20
-2.4750939E-002
 40
4.7249057
 50
2.5988441E+002
 51
2.6191039E+002
  0
ARC
  8
1
  6
CONTINUOUS
 62
40
 10
-3.6322487E+001
 20
-4.8923008E-002
 40
4.6997785
 50
2.5789897E+002
 51
2.5992367E+002
  0
ARC
  8
1
  6
CONTINUOUS
 62
40
 10
-3.6317237E+001
 20
-4.5057801E-002
 40
4.7046604
 50
2.5583385E+002
 51
2.5784633E+002
  0
ARC
  8
1
  6
CONTINUOUS
 62
40
 10
-3.6329182E+001
 20
-8.8087498E-002
 40
4.6600159
 50
2.5381979E+002
 51
2.5584678E+002
  0
ARC
  8
1
  6
CONTINUOUS
 62
40
 10
-3.6344775E+001
 20
-1.563966E-001
 40
4.5900692
 50
2.5171292E+002
 51
2.5376911E+002
  0
ARC
  8
1
  6
CONTINUOUS
 62
40
 10
-3.6311492E+001
 20
-1.6524628E-002
 40
4.7333367
 50
2.4987768E+002
 51
2.5186164E+002
  0
ARC
  8
1
  6
CONTINUOUS
 62
40
 10
-3.6181201E+001
 20
3.3470017E-001
 40
5.1079465
 50
2.480334E+002
 51
2.4986077E+002
  0
ARC
  8
1
  6
CONTINUOUS
 62
40
 10
-3.6315887E+001
 20
-6.5074146E-002
 40
4.6868783
 50
2.4570623E+002
 51
2.4773225E+002
  0
ARC
  8
1
  6
CONTINUOUS
 62
40
 10
-3.6606349E+001
 20
-7.2601225E-001
 40
3.9649732
 50
2.4314489E+002
 51
2.456025E+002
  0
ARC
  8
1
  6
CONTINUOUS
 62
40
 10
-3.624115E+001
 20
1.7908854E-001
 40
4.9381325
 50
2.4225205E+002
 51
2.4410858E+002
  0
ARC
  8
1
  6
CONTINUOUS
 62
40
 10
-3.2065266E+001
 20
8.177506
 40
1.3961015E+001
 50
2.4177296E+002
 51
2.4236799E+002
  0
ARC
  8
1
  6
CONTINUOUS
 62
40
 10
-3.660438E+001
 20
-6.5324574E-001
 40
4.0374599
 50
2.3658323E+002
 51
2.392557E+002
  0
ARC
  8
1
  6
CONTINUOUS
 62
40
 10
-3.6823677E+001
 20
-9.6107373E-001
 40
3.6597724
 50
2.3219282E+002
 51
2.3679483E+002
  0
ARC
  8
1
  6
CONTINUOUS
 62
40
 10
-3.3133903E+001
 20
4.3307445
 40
1.0107922E+001
 50
2.3185911E+002
 51
2.3405639E+002
  0
LINE
  8
1
  6
CONTINUOUS
 62
40
 10
-3.630001E+001
 20
-4.01178
 11
-3.644607E+001
 21
-4.00918
  0
ARC
  8
1
  6
CONTINUOUS
 62
40
 10
-3.6298338E+001
 20
2.4598858E-001
 40
4.2577323
 50
2.6606572E+002
 51
2.6801159E+002
  0
ARC
  8
1
  6
CONTINUOUS
 62
40
 10
-3.6301475E+001
 20
1.005031E-001
 40
4.1123802
 50
2.6397486E+002
 51
2.6597025E+002
  0
ARC
  8
1
  6
CONTINUOUS
 62
40
 10
-3.631214E+001
 20
9.8148047E-003
 40
4.0210735
 50
2.6196568E+002
 51
2.6399035E+002
  0
ARC
  8
1
  6
CONTINUOUS
 62
40
 10
-3.6312831E+001
 20
-2.2101395E-002
 40
3.9893757
 50
2.598849E+002
 51
2.6191145E+002
  0
ARC
  8
1
  6
CONTINUOUS
 62
40
 10
-3.6319063E+001
 20
-4.2026388E-002
 40
3.9686668
 50
2.5789778E+002
 51
2.5992295E+002
  0
ARC
  8
1
  6
CONTINUOUS
 62
40
 10
-3.6314832E+001
 20
-3.8925633E-002
 40
3.9725872
 50
2.5583462E+002
 51
2.5784749E+002
  0
ARC
  8
1
  6
CONTINUOUS
 62
40
 10
-3.6324723E+001
 20
-7.5053362E-002
 40
3.9351377
 50
2.5381821E+002
 51
2.5584552E+002
  0
ARC
  8
1
  6
CONTINUOUS
 62
40
 10
-3.6338085E+001
 20
-1.3232687E-001
 40
3.8764107
 50
2.5171554E+002
 51
2.5377197E+002
  0
ARC
  8
1
  6
CONTINUOUS
 62
40
 10
-3.6309584E+001
 20
-1.4372869E-002
 40
3.9973634
 50
2.49874E+002
 51
2.5185808E+002
  0
ARC
  8
1
  6
CONTINUOUS
 62
40
 10
-3.6199823E+001
 20
2.8293537E-001
 40
4.3142848
 50
2.4803655E+002
 51
2.4986391E+002
  0
ARC
  8
1
  6
CONTINUOUS
 62
40
 10
-3.6313506E+001
 20
-5.5169693E-002
 40
3.958255
 50
2.4570611E+002
 51
2.4773223E+002
  0
ARC
  8
1
  6
CONTINUOUS
 62
40
 10
-3.6558987E+001
 20
-6.1373582E-001
 40
3.3481617
 50
2.4314436E+002
 51
2.456024E+002
  0
ARC
  8
1
  6
CONTINUOUS
 62
40
 10
-3.6250662E+001
 20
1.5030824E-001
 40
4.1696748
 50
2.4225052E+002
 51
2.4410739E+002
  0
ARC
  8
1
  6
CONTINUOUS
 62
40
 10
-3.2721591E+001
 20
6.9100872
 40
1.1795207E+001
 50
2.4177318E+002
 51
2.4236806E+002
  0
ARC
  8
1
  6
CONTINUOUS
 62
40
 10
-3.6557684E+001
 20
-5.5286981E-001
 40
3.4086908
 50
2.3658113E+002
 51
2.3925458E+002
  0
ARC
  8
1
  6
CONTINUOUS
 62
40
 10
-3.6742858E+001
 20
-8.1307934E-001
 40
3.0895375
 50
2.3218539E+002
 51
2.367897E+002
  0
ARC
  8
1
  6
CONTINUOUS
 62
40
 10
-3.3627746E+001
 20
3.6539013
 40
8.532872
 50
2.3185275E+002
 51
2.3405113E+002
  0
LINE
  8
1
  6
CONTINUOUS
 62
40
 10
-3.937653E+001
 20
-3.61908
 11
-3.938783E+001
 21
-3.60956
  0
ARC
  8
1
  6
CONTINUOUS
 62
40
 10
-4.0371214E+001
 20
-4.7889593
 40
1.5355867
 50
5.0178631E+001
 51
5.0696498E+001
  0
ARC
  8
1
  6
CONTINUOUS
 62
40
 10
-4.0188881E+001
 20
-4.5700817
 40
1.2507263
 50
5.0808572E+001
 51
5.140246E+001
  0
ARC
  8
1
  6
CONTINUOUS
 62
40
 10
-4.0052596E+001
 20
-4.4010538
 40
1.0336027
 50
5.1461535E+001
 51
5.2133791E+001
  0
ARC
  8
1
  6
CONTINUOUS
 62
40
 10
-3.9963443E+001
 20
-4.2872631
 40
8.8904782E-001
 50
5.2168206E+001
 51
5.2898169E+001
  0
ARC
  8
1
  6
CONTINUOUS
 62
40
 10
-3.9895248E+001
 20
-4.1984266
 40
7.7705764E-001
 50
5.2957234E+001
 51
5.3736617E+001
  0
ARC
  8
1
  6
CONTINUOUS
 62
40
 10
-3.9849207E+001
 20
-4.1377424
 40
7.008952E-001
 50
5.3837084E+001
 51
5.4639992E+001
  0
ARC
  8
1
  6
CONTINUOUS
 62
40
 10
-3.9769768E+001
 20
-4.0278519
 40
5.6530546E-001
 50
5.4760529E+001
 51
5.5700719E+001
  0
ARC
  8
1
  6
CONTINUOUS
 62
40
 10
-3.9693815E+001
 20
-3.9187972
 40
4.3241601E-001
 50
5.5871809E+001
 51
5.7037154E+001
  0
ARC
  8
1
  6
CONTINUOUS
 62
40
 10
-3.9700372E+001
 20
-3.924199
 40
4.405232E-001
 50
5.6703906E+001
 51
5.7729603E+001
  0
ARC
  8
1
  6
CONTINUOUS
 62
40
 10
-3.9863959E+001
 20
-4.1820368
 40
7.4587689E-001
 50
5.7679239E+001
 51
5.8203133E+001
  0
ARC
  8
1
  6
CONTINUOUS
 62
40
 10
-3.9628724E+001
 20
-3.8156233
 40
3.1058211E-001
 50
5.9469723E+001
 51
6.0913372E+001
  0
ARC
  8
1
  6
CONTINUOUS
 62
40
 10
-3.959502E+001
 20
-3.7561303
 40
2.4220825E-001
 50
6.1039162E+001
 51
6.3638087E+001
  0
ARC
  8
1
  6
CONTINUOUS
 62
40
 10
-3.9728574E+001
 20
-4.0051984
 40
5.2475653E-001
 50
6.2647841E+001
 51
6.4147429E+001
  0
LINE
  8
1
  6
CONTINUOUS
 62
40
 10
-3.889837E+001
 20
-3.05657
 11
-3.892528E+001
 21
-3.03434
  0
ARC
  8
1
  6
CONTINUOUS
 62
40
 10
-3.9750718E+001
 20
-4.0601939
 40
1.3167097
 50
5.1178618E+001
 51
5.2685371E+001
  0
ARC
  8
1
  6
CONTINUOUS
 62
40
 10
-3.9727716E+001
 20
-4.0326004
 40
1.2808214
 50
5.2755471E+001
 51
5.4292063E+001
  0
ARC
  8
1
  6
CONTINUOUS
 62
40
 10
-3.971418E+001
 20
-4.0129422
 40
1.2569586
 50
5.4270085E+001
 51
5.5825653E+001
  0
ARC
  8
1
  6
CONTINUOUS
 62
40
 10
-3.9707109E+001
 20
-4.004514
 40
1.2460141
 50
5.5876972E+001
 51
5.7436414E+001
  0
ARC
  8
1
  6
CONTINUOUS
 62
40
 10
-3.970309E+001
 20
-3.9971847
 40
1.2376739
 50
5.7410602E+001
 51
5.897135E+001
  0
ARC
  8
1
  6
CONTINUOUS
 62
40
 10
-3.9701541E+001
 20
-3.9962941
 40
1.236113
 50
5.9011565E+001
 51
6.0566537E+001
  0
ARC
  8
1
  6
CONTINUOUS
 62
40
 10
-3.9693561E+001
 20
-3.9824246
 40
1.2201121
 50
6.0572852E+001
 51
6.214333E+001
  0
ARC
  8
1
  6
CONTINUOUS
 62
40
 10
-3.9681578E+001
 20
-3.9615033
 40
1.1960163
 50
6.2182556E+001
 51
6.3781316E+001
  0
ARC
  8
1
  6
CONTINUOUS
 62
40
 10
-3.9695982E+001
 20
-3.98544
 40
1.2238562
 50
6.3671434E+001
 51
6.5223549E+001
  0
ARC
  8
1
  6
CONTINUOUS
 62
40
 10
-3.9729645E+001
 20
-4.0595151
 40
1.30522
 50
6.5244604E+001
 51
6.6688969E+001
  0
ARC
  8
1
  6
CONTINUOUS
 62
40
 10
-3.9686622E+001
 20
-3.9705203
 40
1.2064724
 50
6.6892865E+001
 51
6.8477617E+001
  0
ARC
  8
1
  6
CONTINUOUS
 62
40
 10
-3.9625285E+001
 20
-3.8178176
 40
1.0419151
 50
6.8534757E+001
 51
7.0412085E+001
  0
ARC
  8
1
  6
CONTINUOUS
 62
40
 10
-3.9726645E+001
 20
-4.0529262
 40
1.297506
 50
6.9675794E+001
 51
7.1091114E+001
  0
ARC
  8
1
  6
CONTINUOUS
 62
40
 10
-4.047828E+001
 20
-6.2325474
 40
3.6030852
 50
7.1015803E+001
 51
7.1476784E+001
  0
ARC
  8
1
  6
CONTINUOUS
 62
40
 10
-3.9637501E+001
 20
-3.8332805
 40
1.0615833
 50
7.3366259E+001
 51
7.5380008E+001
  0
ARC
  8
1
  6
CONTINUOUS
 62
40
 10
-3.9609144E+001
 20
-3.7165698
 40
9.4149625E-001
 50
7.5257102E+001
 51
7.8770034E+001
  0
ARC
  8
1
  6
CONTINUOUS
 62
40
 10
-3.9982033E+001
 20
-5.2747488
 40
2.5432237
 50
7.7366389E+001
 51
7.9073593E+001
  0
LINE
  8
1
  6
CONTINUOUS
 62
40
 10
-3.949997E+001
 20
-3.50003
 11
-5.8325081E+001
 21
-3.50003
  0
LINE
  8
1
  6
CONTINUOUS
 62
40
 10
-5.9171194E+001
 20
3.4999572
 11
-3.95E+001
 21
3.50026
  0
LINE
  8
1
  6
CONTINUOUS
 62
40
 10
-3.949997E+001
 20
2.82647
 11
-3.948022E+001
 21
2.83333
  0
ARC
  8
1
  6
CONTINUOUS
 62
40
 10
-3.9903388E+001
 20
4.0196625
 40
1.2595459
 50
2.8963145E+002
 51
2.9058286E+002
  0
ARC
  8
1
  6
CONTINUOUS
 62
40
 10
-3.9909348E+001
 20
4.0335488
 40
1.2746414
 50
2.9061423E+002
 51
2.9155512E+002
  0
ARC
  8
1
  6
CONTINUOUS
 62
40
 10
-3.9905194E+001
 20
4.0242349
 40
1.2644526
 50
2.9153509E+002
 51
2.9248424E+002
  0
ARC
  8
1
  6
CONTINUOUS
 62
40
 10
-3.9891854E+001
 20
3.9894599
 40
1.22722
 50
2.9252969E+002
 51
2.9350872E+002
  0
ARC
  8
1
  6
CONTINUOUS
 62
40
 10
-3.9887867E+001
 20
3.980377
 40
1.2173006
 50
2.9350717E+002
 51
2.9449539E+002
  0
ARC
  8
1
  6
CONTINUOUS
 62
40
 10
-3.9892536E+001
 20
3.9896898
 40
1.2277111
 50
2.9451348E+002
 51
2.9549395E+002
  0
ARC
  8
1
  6
CONTINUOUS
 62
40
 10
-3.9889207E+001
 20
3.9818869
 40
1.2192352
 50
2.9551056E+002
 51
2.965009E+002
  0
ARC
  8
1
  6
CONTINUOUS
 62
40
 10
-3.9877647E+001
 20
3.9579316
 40
1.1926387
 50
2.9651741E+002
 51
2.9753347E+002
  0
ARC
  8
1
  6
CONTINUOUS
 62
40
 10
-3.9890838E+001
 20
3.9863295
 40
1.223919
 50
2.9746652E+002
 51
2.9845499E+002
  0
ARC
  8
1
  6
CONTINUOUS
 62
40
 10
-3.9930594E+001
 20
4.0585142
 40
1.3063256
 50
2.984795E+002
 51
2.9940221E+002
  0
ARC
  8
1
  6
CONTINUOUS
 62
40
 10
-3.9881987E+001
 20
3.9661424
 40
1.2019925
 50
2.9954533E+002
 51
3.005675E+002
  0
ARC
  8
1
  6
CONTINUOUS
 62
40
 10
-3.9795855E+001
 20
3.8187923
 40
1.0313174
 50
3.0061046E+002
 51
3.0183443E+002
  0
ARC
  8
1
  6
CONTINUOUS
 62
40
 10
-3.9921851E+001
 20
4.0417097
 40
1.2872044
 50
3.0136535E+002
 51
3.0228792E+002
  0
ARC
  8
1
  6
CONTINUOUS
 62
40
 10
-4.1115315E+001
 20
5.9377032
 40
3.5275486
 50
3.0222512E+002
 51
3.0252995E+002
  0
ARC
  8
1
  6
CONTINUOUS
 62
40
 10
-3.9808446E+001
 20
3.8471721
 40
1.0624782
 50
3.037341E+002
 51
3.0504502E+002
  0
ARC
  8
1
  6
CONTINUOUS
 62
40
 10
-3.9749358E+001
 20
3.7654356
 40
9.6163213E-001
 50
3.0495919E+002
 51
3.0720721E+002
  0
ARC
  8
1
  6
CONTINUOUS
 62
40
 10
-4.0720019E+001
 20
5.1123534
 40
2.6216747
 50
3.0630252E+002
 51
3.0738644E+002
  0
LINE
  8
1
  6
CONTINUOUS
 62
40
 10
-3.912817E+001
 20
3.02928
 11
-3.901113E+001
 21
3.11919
  0
ARC
  8
1
  6
CONTINUOUS
 62
40
 10
-3.6314213E+001
 20
-5.1030375E-001
 40
4.52179
 50
1.2476158E+002
 51
1.2661441E+002
  0
ARC
  8
1
  6
CONTINUOUS
 62
40
 10
-3.6399416E+001
 20
-3.991502E-001
 40
4.3818995
 50
1.2277968E+002
 51
1.2467501E+002
  0
ARC
  8
1
  6
CONTINUOUS
 62
40
 10
-3.6447488E+001
 20
-3.2236328E-001
 40
4.2913134
 50
1.2087379E+002
 51
1.2279511E+002
  0
ARC
  8
1
  6
CONTINUOUS
 62
40
 10
-3.646888E+001
 20
-2.944296E-001
 40
4.2563626
 50
1.1889484E+002
 51
1.2081958E+002
  0
ARC
  8
1
  6
CONTINUOUS
 62
40
 10
-3.6477238E+001
 20
-2.7375099E-001
 40
4.2342209
 50
1.1700678E+002
 51
1.1893104E+002
  0
ARC
  8
1
  6
CONTINUOUS
 62
40
 10
-3.6478651E+001
 20
-2.7879323E-001
 40
4.2380728
 50
1.1504523E+002
 51
1.169588E+002
  0
ARC
  8
1
  6
CONTINUOUS
 62
40
 10
-3.6496069E+001
 20
-2.4091737E-001
 40
4.196385
 50
1.131201E+002
 51
1.1504871E+002
  0
ARC
  8
1
  6
CONTINUOUS
 62
40
 10
-3.6524944E+001
 20
-1.8065512E-001
 40
4.1296255
 50
1.1112132E+002
 51
1.1307995E+002
  0
ARC
  8
1
  6
CONTINUOUS
 62
40
 10
-3.647077E+001
 20
-2.9353096E-001
 40
4.254451
 50
1.093624E+002
 51
1.1125412E+002
  0
ARC
  8
1
  6
CONTINUOUS
 62
40
 10
-3.6362625E+001
 20
-6.0513604E-001
 40
4.5842867
 50
1.0760138E+002
 51
1.0934639E+002
  0
ARC
  8
1
  6
CONTINUOUS
 62
40
 10
-3.649762E+001
 20
-2.494004E-001
 40
4.2044368
 50
1.0537832E+002
 51
1.0731379E+002
  0
ARC
  8
1
  6
CONTINUOUS
 62
40
 10
-3.667529E+001
 20
3.7247289E-001
 40
3.5577185
 50
1.0292874E+002
 51
1.0527537E+002
  0
ARC
  8
1
  6
CONTINUOUS
 62
40
 10
-3.6410827E+001
 20
-4.5919385E-001
 40
4.4280525
 50
1.0208281E+002
 51
1.0385629E+002
  0
ARC
  8
1
  6
CONTINUOUS
 62
40
 10
-3.4702433E+001
 20
-8.3316859
 40
1.2483768E+001
 50
1.0161676E+002
 51
1.021867E+002
  0
ARC
  8
1
  6
CONTINUOUS
 62
40
 10
-3.663702E+001
 20
3.2584417E-001
 40
3.6171989
 50
9.6661872E+001
 51
9.9214096E+001
  0
ARC
  8
1
  6
CONTINUOUS
 62
40
 10
-3.6665964E+001
 20
6.7059517E-001
 40
3.2714371
 50
9.2458936E+001
 51
9.6858818E+001
  0
ARC
  8
1
  6
CONTINUOUS
 62
40
 10
-3.6140364E+001
 20
-5.0465371
 40
9.0102017
 50
9.2133274E+001
 51
9.4238674E+001
  0
LINE
  8
1
  6
CONTINUOUS
 62
40
 10
-3.647576E+001
 20
3.95742
 11
-3.624685E+001
 21
3.95745
  0
LINE
  8
1
  6
CONTINUOUS
 62
40
 10
-3.624685E+001
 20
3.95745
 11
-3.601798E+001
 21
3.95753
  0
LINE
  8
1
  6
CONTINUOUS
 62
40
 10
-3.601798E+001
 20
3.95753
 11
-3.578921E+001
 21
3.95766
  0
LINE
  8
1
  6
CONTINUOUS
 62
40
 10
-3.578921E+001
 20
3.95766
 11
-3.55602E+001
 21
3.95783
  0
LINE
  8
1
  6
CONTINUOUS
 62
40
 10
-3.55602E+001
 20
3.95783
 11
-3.533085E+001
 21
3.95805
  0
LINE
  8
1
  6
CONTINUOUS
 62
40
 10
-3.533085E+001
 20
3.95805
 11
-3.510243E+001
 21
3.95832
  0
LINE
  8
1
  6
CONTINUOUS
 62
40
 10
-3.510243E+001
 20
3.95832
 11
-3.487537E+001
 21
3.95862
  0
LINE
  8
1
  6
CONTINUOUS
 62
40
 10
-3.487537E+001
 20
3.95862
 11
-3.464466E+001
 21
3.95897
  0
LINE
  8
1
  6
CONTINUOUS
 62
40
 10
-3.464466E+001
 20
3.95897
 11
-3.440856E+001
 21
3.95938
  0
LINE
  8
1
  6
CONTINUOUS
 62
40
 10
-3.440856E+001
 20
3.95938
 11
-3.418689E+001
 21
3.95979
  0
LINE
  8
1
  6
CONTINUOUS
 62
40
 10
-3.418689E+001
 20
3.95979
 11
-3.398649E+001
 21
3.96019
  0
LINE
  8
1
  6
CONTINUOUS
 62
40
 10
-3.398649E+001
 20
3.96019
 11
-3.372912E+001
 21
3.96077
  0
LINE
  8
1
  6
CONTINUOUS
 62
40
 10
-3.372912E+001
 20
3.96077
 11
-3.333272E+001
 21
3.96178
  0
LINE
  8
1
  6
CONTINUOUS
 62
40
 10
-3.333272E+001
 20
3.96178
 11
-3.281359E+001
 21
3.96316
  0
LINE
  8
1
  6
CONTINUOUS
 62
40
 10
-3.949997E+001
 20
3.50024
 11
-3.94796E+001
 21
3.47443
  0
LINE
  8
1
  6
CONTINUOUS
 62
40
 10
-3.94796E+001
 20
3.47443
 11
-3.945731E+001
 21
3.44619
  0
LINE
  8
1
  6
CONTINUOUS
 62
40
 10
-3.945731E+001
 20
3.44619
 11
-3.943315E+001
 21
3.41559
  0
LINE
  8
1
  6
CONTINUOUS
 62
40
 10
-3.943315E+001
 20
3.41559
 11
-3.940637E+001
 21
3.38167
  0
LINE
  8
1
  6
CONTINUOUS
 62
40
 10
-3.940637E+001
 20
3.38167
 11
-3.937663E+001
 21
3.344
  0
LINE
  8
1
  6
CONTINUOUS
 62
40
 10
-3.937663E+001
 20
3.344
 11
-3.934751E+001
 21
3.30711
  0
LINE
  8
1
  6
CONTINUOUS
 62
40
 10
-3.934751E+001
 20
3.30711
 11
-3.932017E+001
 21
3.27248
  0
LINE
  8
1
  6
CONTINUOUS
 62
40
 10
-3.932017E+001
 20
3.27248
 11
-3.928116E+001
 21
3.22307
  0
LINE
  8
1
  6
CONTINUOUS
 62
40
 10
-3.928116E+001
 20
3.22307
 11
-3.92162E+001
 21
3.14078
  0
LINE
  8
1
  6
CONTINUOUS
 62
40
 10
-3.92162E+001
 20
3.14078
 11
-3.912817E+001
 21
3.02928
  0
LINE
  8
1
  6
CONTINUOUS
 62
40
 10
-3.647304E+001
 20
4.69567
 11
-3.647576E+001
 21
3.95742
  0
ARC
  8
1
  6
CONTINUOUS
 62
40
 10
-3.647305E+001
 20
-3.0435E-001
 40
5.0
 50
8.999989E+001
 51
1.2725694E+002
  0
LINE
  8
1
  6
CONTINUOUS
 62
40
 10
-3.647304E+001
 20
4.69567
 11
-3.183593E+001
 21
4.71249
  0
LINE
  8
1
  6
CONTINUOUS
 62
40
 10
1.4E+001
 20
0.0
 11
1.4E+001
 21
2.2
  0
LINE
  8
1
  6
CONTINUOUS
 62
40
 10
1.4E+001
 20
-2.2
 11
1.4E+001
 21
0.0
  0
LINE
  8
1
  6
CONTINUOUS
 62
40
 10
-5.3
 20
0.0
 11
-5.3
 21
-3.95
  0
LINE
  8
1
  6
CONTINUOUS
 62
40
 10
-5.3
 20
3.95
 11
-5.3
 21
0.0
  0
LINE
  8
1
  6
CONTINUOUS
 62
40
 10
1.400003E+001
 20
-2.20001
 11
1.369996E+001
 21
-2.5
  0
LINE
  8
1
  6
CONTINUOUS
 62
40
 10
1.369996E+001
 20
0.0
 11
1.369996E+001
 21
-2.5
  0
LINE
  8
1
  6
CONTINUOUS
 62
40
 10
1.369996E+001
 20
2.49999
 11
1.369996E+001
 21
0.0
  0
LINE
  8
1
  6
CONTINUOUS
 62
40
 10
1.369996E+001
 20
2.49999
 11
1.400003E+001
 21
2.2
  0
LINE
  8
1
  6
CONTINUOUS
 62
40
 10
-5.00001
 20
0.0
 11
-5.00001
 21
4.25001
  0
LINE
  8
1
  6
CONTINUOUS
 62
40
 10
-5.00001
 20
-4.25002
 11
-5.00001
 21
0.0
  0
LINE
  8
1
  6
CONTINUOUS
 62
40
 10
-5.00001
 20
4.25001
 11
-1.99999
 21
4.25001
  0
LINE
  8
1
  6
CONTINUOUS
 62
40
 10
-1.99999
 20
-4.25002
 11
-5.00001
 21
-4.25002
  0
LINE
  8
1
  6
CONTINUOUS
 62
40
 10
1.369996E+001
 20
-2.5
 11
-1.0E-005
 21
-2.5
  0
LINE
  8
1
  6
CONTINUOUS
 62
40
 10
-1.0E-005
 20
2.49999
 11
1.369996E+001
 21
2.49999
  0
LINE
  8
1
  6
CONTINUOUS
 62
40
 10
-5.00001
 20
-4.25002
 11
-5.01793
 21
-4.2495
  0
ARC
  8
1
  6
CONTINUOUS
 62
40
 10
-5.0013833
 20
-3.9695783
 40
2.8041036E-001
 50
2.6288609E+002
 51
2.6661708E+002
  0
ARC
  8
1
  6
CONTINUOUS
 62
40
 10
-4.9988784
 20
-3.9450732
 40
3.0503748E-001
 50
2.5947651E+002
 51
2.6298923E+002
  0
ARC
  8
1
  6
CONTINUOUS
 62
40
 10
-4.9967401
 20
-3.9332368
 40
3.1706532E-001
 50
2.5604193E+002
 51
2.5948726E+002
  0
ARC
  8
1
  6
CONTINUOUS
 62
40
 10
-4.9978191
 20
-3.9432826
 40
3.0705904E-001
 50
2.5216189E+002
 51
2.5578516E+002
  0
ARC
  8
1
  6
CONTINUOUS
 62
40
 10
-4.9984952
 20
-3.945462
 40
3.047772E-001
 50
2.4845281E+002
 51
2.5215739E+002
  0
ARC
  8
1
  6
CONTINUOUS
 62
40
 10
-4.9976155
 20
-3.9451096
 40
3.0542888E-001
 50
2.4457189E+002
 51
2.4832358E+002
  0
ARC
  8
1
  6
CONTINUOUS
 62
40
 10
-4.997383
 20
-3.9443828
 40
3.061851E-001
 50
2.4080823E+002
 51
2.44591E+002
  0
ARC
  8
1
  6
CONTINUOUS
 62
40
 10
-4.9977528
 20
-3.94694
 40
3.0377374E-001
 50
2.3678381E+002
 51
2.4063388E+002
  0
ARC
  8
1
  6
CONTINUOUS
 62
40
 10
-4.9978795
 20
-3.9465329
 40
3.0404515E-001
 50
2.3297367E+002
 51
2.368458E+002
  0
ARC
  8
1
  6
CONTINUOUS
 62
40
 10
-4.9971452
 20
-3.9467237
 40
3.0433578E-001
 50
2.2895445E+002
 51
2.3284168E+002
  0
ARC
  8
1
  6
CONTINUOUS
 62
40
 10
-4.9985282
 20
-3.9481236
 40
3.0237185E-001
 50
2.2505287E+002
 51
2.289779E+002
  0
ARC
  8
1
  6
CONTINUOUS
 62
40
 10
-5.0017395
 20
-3.9524124
 40
2.9706876E-001
 50
2.2090882E+002
 51
2.2490687E+002
  0
ARC
  8
1
  6
CONTINUOUS
 62
40
 10
-4.998844
 20
-3.9483726
 40
3.0190478E-001
 50
2.1721574E+002
 51
2.2112838E+002
  0
ARC
  8
1
  6
CONTINUOUS
 62
40
 10
-4.9871059
 20
-3.9398038
 40
3.1643519E-001
 50
2.1346611E+002
 51
2.1716585E+002
  0
ARC
  8
1
  6
CONTINUOUS
 62
40
 10
-5.0030283
 20
-3.9528315
 40
2.9597588E-001
 50
2.090856E+002
 51
2.13062E+002
  0
ARC
  8
1
  6
CONTINUOUS
 62
40
 10
-5.0337748
 20
-3.9705421
 40
2.604978E-001
 50
2.0440849E+002
 51
2.0896885E+002
  0
ARC
  8
1
  6
CONTINUOUS
 62
40
 10
-4.9937925
 20
-3.9434473
 40
3.0821103E-001
 50
2.0230605E+002
 51
2.0592388E+002
  0
ARC
  8
1
  6
CONTINUOUS
 62
40
 10
-4.711885
 20
-3.8251264
 40
6.1393744E-001
 50
2.0089688E+002
 51
2.0253636E+002
  0
ARC
  8
1
  6
CONTINUOUS
 62
40
 10
-5.0327975
 20
-3.9665207
 40
2.6428833E-001
 50
1.9239051E+002
 51
1.970723E+002
  0
ARC
  8
1
  6
CONTINUOUS
 62
40
 10
-5.060162
 20
-3.97161
 40
2.3647093E-001
 50
1.8481037E+002
 51
1.9260881E+002
  0
ARC
  8
1
  6
CONTINUOUS
 62
40
 10
-4.7102045
 20
-3.9111375
 40
5.9107578E-001
 50
1.8377179E+002
 51
1.8780825E+002
  0
LINE
  8
1
  6
CONTINUOUS
 62
40
 10
-5.3
 20
3.95001
 11
-5.29948
 21
3.96794
  0
ARC
  8
1
  6
CONTINUOUS
 62
40
 10
-5.0196396
 20
3.9515538
 40
2.8031978E-001
 50
1.7291684E+002
 51
1.7664884E+002
  0
ARC
  8
1
  6
CONTINUOUS
 62
40
 10
-4.9953109
 20
3.9488964
 40
3.0479065E-001
 50
1.6947134E+002
 51
1.7298505E+002
  0
ARC
  8
1
  6
CONTINUOUS
 62
40
 10
-4.9833148
 20
3.9467592
 40
3.1697531E-001
 50
1.6604144E+002
 51
1.6948775E+002
  0
ARC
  8
1
  6
CONTINUOUS
 62
40
 10
-4.993361
 20
3.9480011
 40
3.0692865E-001
 50
1.6218975E+002
 51
1.6581405E+002
  0
ARC
  8
1
  6
CONTINUOUS
 62
40
 10
-4.9955416
 20
3.9485237
 40
3.0469277E-001
 50
1.5845229E+002
 51
1.621579E+002
  0
ARC
  8
1
  6
CONTINUOUS
 62
40
 10
-4.9953421
 20
3.9477957
 40
3.0514626E-001
 50
1.5458622E+002
 51
1.5833891E+002
  0
ARC
  8
1
  6
CONTINUOUS
 62
40
 10
-4.9943048
 20
3.9472619
 40
3.0631231E-001
 50
1.5079557E+002
 51
1.545793E+002
  0
ARC
  8
1
  6
CONTINUOUS
 62
40
 10
-4.9970047
 20
3.9479378
 40
3.0362669E-001
 50
1.4680736E+002
 51
1.5065832E+002
  0
ARC
  8
1
  6
CONTINUOUS
 62
40
 10
-4.9965895
 20
3.9477678
 40
3.0406722E-001
 50
1.4295045E+002
 51
1.4682339E+002
  0
ARC
  8
1
  6
CONTINUOUS
 62
40
 10
-4.9967723
 20
3.947328
 40
3.0418661E-001
 50
1.3897564E+002
 51
1.4286358E+002
  0
ARC
  8
1
  6
CONTINUOUS
 62
40
 10
-4.9983114
 20
3.9485529
 40
3.0222153E-001
 50
1.3503372E+002
 51
1.3895931E+002
  0
ARC
  8
1
  6
CONTINUOUS
 62
40
 10
-5.0022983
 20
3.9517551
 40
2.9713827E-001
 50
1.3092888E+002
 51
1.349273E+002
  0
ARC
  8
1
  6
CONTINUOUS
 62
40
 10
-4.9983897
 20
3.9487124
 40
3.0199921E-001
 50
1.2719806E+002
 51
1.3111096E+002
  0
ARC
  8
1
  6
CONTINUOUS
 62
40
 10
-4.9898117
 20
3.9371171
 40
3.164215E-001
 50
1.2346603E+002
 51
1.2716593E+002
  0
ARC
  8
1
  6
CONTINUOUS
 62
40
 10
-5.0028376
 20
3.9531743
 40
2.9585019E-001
 50
1.1909999E+002
 51
1.2307642E+002
  0
ARC
  8
1
  6
CONTINUOUS
 62
40
 10
-5.0205428
 20
3.9836408
 40
2.6061959E-001
 50
1.1439616E+002
 51
1.1895635E+002
  0
ARC
  8
1
  6
CONTINUOUS
 62
40
 10
-4.9934373
 20
3.9437702
 40
3.0823548E-001
 50
1.1230619E+002
 51
1.1592374E+002
  0
ARC
  8
1
  6
CONTINUOUS
 62
40
 10
-4.875103
 20
3.6618261
 40
6.1400079E-001
 50
1.1089696E+002
 51
1.1253627E+002
  0
ARC
  8
1
  6
CONTINUOUS
 62
40
 10
-5.0165073
 20
3.9826432
 40
2.6443979E-001
 50
1.0238406E+002
 51
1.0706526E+002
  0
ARC
  8
1
  6
CONTINUOUS
 62
40
 10
-5.0215935
 20
4.0101196
 40
2.3651374E-001
 50
9.4811077E+001
 51
1.0260811E+002
  0
ARC
  8
1
  6
CONTINUOUS
 62
40
 10
-4.9609722
 20
3.6600779
 40
5.9122232E-001
 50
9.3785931E+001
 51
9.7821489E+001
  0
LINE
  8
1
  6
CONTINUOUS
 62
1
 10
1.4E+001
 20
2.20003
 11
0.0
 21
2.20003
  0
LINE
  8
1
  6
CONTINUOUS
 62
1
 10
1.4E+001
 20
-2.20004
 11
0.0
 21
-2.20004
  0
ARC
  8
1
  6
CONTINUOUS
 62
40
 10
-1.2E+001
 20
-3.41666
 40
6.0833333
 50
2.7E+002
 51
3.1111209E+002
  0
ARC
  8
1
  6
CONTINUOUS
 62
40
 10
-1.2E+001
 20
-3.41666
 40
6.0833332
 50
2.2888791E+002
 51
2.7E+002
  0
LINE
  8
1
  6
CENTERLINE
 62
1
 10
1.845441E+001
 20
0.0
 11
-5.8959662E+001
 21
0.0
  0
INSERT
  2
*D2976
  8
1
 62
1
 10
0.0
 20
0.0
  0
POINT
  8
Drafting_Hidden_Entities
  6
CONTINUOUS
 62
1
 10
0.0
 20
0.0
  0
ENDBLK
  0
BLOCK
  2
HEBEL
 10
0.0
 20
0.0
 70
0
  0
LINE
  8
1
  6
CONTINUOUS
 62
40
 10
-1.8919842
 20
1.9E+001
 11
1.0999996E+001
 21
1.9E+001
  0
LINE
  8
1
  6
CONTINUOUS
 62
40
 10
-3.2878942
 20
1.899998E+001
 11
-1.8919842
 21
1.9E+001
  0
LINE
  8
1
  6
CONTINUOUS
 62
40
 10
-3.6893961E+001
 20
1.8999986E+001
 11
-3.2878942
 21
1.899998E+001
  0
LINE
  8
106
  6
CENTERLINE
 62
1
 10
0.0
 20
7.909E-007
 11
-2.01364E-005
 21
2.6999999E+001
  0
LINE
  8
1
  6
CONTINUOUS
 62
40
 10
-3.2878742
 20
2.4E+001
 11
-3.2878942
 21
1.899998E+001
  0
LINE
  8
1
  6
CONTINUOUS
 62
40
 10
-3.2878742
 20
2.4E+001
 11
-3.6893959E+001
 21
2.4E+001
  0
LINE
  8
1
  6
CONTINUOUS
 62
40
 10
-1.1000004E+001
 20
5.59144
 11
-1.1000014E+001
 21
1.899998E+001
  0
LINE
  8
1
  6
CONTINUOUS
 62
40
 10
1.0999996E+001
 20
1.9E+001
 11
1.0999996E+001
 21
5.97545
  0
LINE
  8
1
  6
CONTINUOUS
 62
40
 10
1.0992536E+001
 20
2.4E+001
 11
1.0999996E+001
 21
1.9E+001
  0
LINE
  8
1
  6
CONTINUOUS
 62
40
 10
1.0992536E+001
 20
2.4E+001
 11
5.1013583E-001
 21
2.4E+001
  0
POLYLINE
  8
106
  6
CENTERLINE
 62
1
 66
1
 40
0.0
 41
0.0
 70
2
  0
VERTEX
  8
106
 42
0.0
 10
-3.6893959E+001
 20
2.4E+001
 70
0
  0
VERTEX
  8
106
 42
4.0003598E-003
 10
-3.6962392E+001
 20
2.3929961E+001
 70
1
  0
VERTEX
  8
106
 42
3.896569E-003
 10
-3.70288E+001
 20
2.3859844E+001
 70
0
  0
VERTEX
  8
106
 42
4.2250614E-003
 10
-3.7093138E+001
 20
2.3789647E+001
 70
1
  0
VERTEX
  8
106
 42
5.091047E-003
 10
-3.7155221E+001
 20
2.3719368E+001
 70
0
  0
VERTEX
  8
106
 42
5.8422039E-003
 10
-3.7214623E+001
 20
2.3648996E+001
 70
1
  0
VERTEX
  8
106
 42
6.594814E-003
 10
-3.727121E+001
 20
2.3578532E+001
 70
0
  0
VERTEX
  8
106
 42
7.396164E-003
 10
-3.7324626E+001
 20
2.3507967E+001
 70
1
  0
VERTEX
  8
106
 42
8.366143E-003
 10
-3.7374749E+001
 20
2.3437299E+001
 70
0
  0
VERTEX
  8
106
 42
9.3576583E-003
 10
-3.7421182E+001
 20
2.336652E+001
 70
1
  0
VERTEX
  8
106
 42
1.0488799E-002
 10
-3.7463825E+001
 20
2.3295629E+001
 70
0
  0
VERTEX
  8
106
 42
1.1656178E-002
 10
-3.7502265E+001
 20
2.3224617E+001
 70
1
  0
VERTEX
  8
106
 42
1.2973901E-002
 10
-3.7536423E+001
 20
2.3153483E+001
 70
0
  0
VERTEX
  8
106
 42
1.4297523E-002
 10
-3.7565862E+001
 20
2.3082218E+001
 70
1
  0
VERTEX
  8
106
 42
1.5727801E-002
 10
-3.7590527E+001
 20
2.3010823E+001
 70
0
  0
VERTEX
  8
106
 42
1.7108728E-002
 10
-3.7609962E+001
 20
2.2939287E+001
 70
1
  0
VERTEX
  8
106
 42
1.853307E-002
 10
-3.7624122E+001
 20
2.286761E+001
 70
0
  0
VERTEX
  8
106
 42
1.9691502E-002
 10
-3.7632531E+001
 20
2.2795782E+001
 70
1
  0
VERTEX
  8
106
 42
2.0666562E-002
 10
-3.7635194E+001
 20
2.2723804E+001
 70
0
  0
VERTEX
  8
106
 42
2.1504204E-002
 10
-3.7631622E+001
 20
2.2651666E+001
 70
1
  0
VERTEX
  8
106
 42
2.237542E-002
 10
-3.7621727E+001
 20
2.2579368E+001
 70
0
  0
VERTEX
  8
106
 42
2.131228E-002
 10
-3.7605009E+001
 20
2.2506897E+001
 70
1
  0
VERTEX
  8
106
 42
1.8634915E-002
 10
-3.7582114E+001
 20
2.2434269E+001
 70
0
  0
VERTEX
  8
106
 42
1.5560561E-002
 10
-3.7553387E+001
 20
2.2361488E+001
 70
1
  0
VERTEX
  8
106
 42
1.184906E-002
 10
-3.7519969E+001
 20
2.2288578E+001
 70
0
  0
VERTEX
  8
106
 42
8.9583717E-003
 10
-3.7482668E+001
 20
2.2215553E+001
 70
1
  0
VERTEX
  8
106
 42
6.2140149E-003
 10
-3.7442529E+001
 20
2.2142435E+001
 70
0
  0
VERTEX
  8
106
 42
3.9116261E-003
 10
-3.7400347E+001
 20
2.2069237E+001
 70
1
  0
VERTEX
  8
106
 42
1.4342829E-003
 10
-3.7357101E+001
 20
2.1995979E+001
 70
0
  0
VERTEX
  8
106
 42
-7.071574E-004
 10
-3.7313682E+001
 20
2.1922679E+001
 70
1
  0
VERTEX
  8
106
 42
-3.1363878E-003
 10
-3.7270993E+001
 20
2.1849353E+001
 70
0
  0
VERTEX
  8
106
 42
-5.3886964E-003
 10
-3.7229996E+001
 20
2.177602E+001
 70
1
  0
VERTEX
  8
106
 42
-8.0866801E-003
 10
-3.7191514E+001
 20
2.1702696E+001
 70
0
  0
VERTEX
  8
106
 42
-1.077752E-002
 10
-3.7156585E+001
 20
2.1629401E+001
 70
1
  0
VERTEX
  8
106
 42
-1.4090038E-002
 10
-3.7125972E+001
 20
2.155615E+001
 70
0
  0
VERTEX
  8
106
 42
-1.7358236E-002
 10
-3.710079E+001
 20
2.1482963E+001
 70
1
  0
VERTEX
  8
106
 42
-2.1093644E-002
 10
-3.7081675E+001
 20
2.1409855E+001
 70
0
  0
VERTEX
  8
106
 42
-2.5104361E-002
 10
-3.7069796E+001
 20
2.1336847E+001
 70
1
  0
VERTEX
  8
106
 42
-2.9842408E-002
 10
-3.7065931E+001
 20
2.1263953E+001
 70
0
  0
VERTEX
  8
106
 42
-3.0845957E-002
 10
-3.7071307E+001
 20
2.1191196E+001
 70
1
  0
VERTEX
  8
106
 42
-2.8191816E-002
 10
-3.708529E+001
 20
2.1118577E+001
 70
0
  0
VERTEX
  8
106
 42
-2.3943236E-002
 10
-3.7107563E+001
 20
2.1046106E+001
 70
1
  0
VERTEX
  8
106
 42
-1.8169697E-002
 10
-3.7136531E+001
 20
2.0973774E+001
 70
0
  0
VERTEX
  8
106
 42
-1.3719198E-002
 10
-3.7171043E+001
 20
2.0901584E+001
 70
1
  0
VERTEX
  8
106
 42
-9.6488694E-003
 10
-3.7209645E+001
 20
2.0829529E+001
 70
0
  0
VERTEX
  8
106
 42
-6.285413E-003
 10
-3.7251248E+001
 20
2.0757611E+001
 70
1
  0
VERTEX
  8
106
 42
-2.732648E-003
 10
-3.7294488E+001
 20
2.0685825E+001
 70
0
  0
VERTEX
  8
106
 42
3.154651E-004
 10
-3.7338132E+001
 20
2.0614173E+001
 70
1
  0
VERTEX
  8
106
 42
3.7883343E-003
 10
-3.7380913E+001
 20
2.0542648E+001
 70
0
  0
VERTEX
  8
106
 42
7.0072944E-003
 10
-3.7421502E+001
 20
2.0471253E+001
 70
1
  0
VERTEX
  8
106
 42
1.0884706E-002
 10
-3.7458775E+001
 20
2.039998E+001
 70
0
  0
VERTEX
  8
106
 42
1.5114532E-002
 10
-3.7491309E+001
 20
2.0328834E+001
 70
1
  0
VERTEX
  8
106
 42
2.0714074E-002
 10
-3.7517927E+001
 20
2.0257807E+001
 70
0
  0
VERTEX
  8
106
 42
2.4663232E-002
 10
-3.7537116E+001
 20
2.0186904E+001
 70
1
  0
VERTEX
  8
106
 42
2.6765357E-002
 10
-3.7548752E+001
 20
2.0116113E+001
 70
0
  0
VERTEX
  8
106
 42
2.7134443E-002
 10
-3.7552378E+001
 20
2.0045436E+001
 70
1
  0
VERTEX
  8
106
 42
2.547406E-002
 10
-3.7548669E+001
 20
1.9974893E+001
 70
0
  0
VERTEX
  8
106
 42
2.4003998E-002
 10
-3.7537754E+001
 20
1.9904499E+001
 70
1
  0
VERTEX
  8
106
 42
2.2507102E-002
 10
-3.7520123E+001
 20
1.9834153E+001
 70
0
  0
VERTEX
  8
106
 42
2.0072914E-002
 10
-3.7495766E+001
 20
1.9763825E+001
 70
1
  0
VERTEX
  8
106
 42
1.7125872E-002
 10
-3.7465664E+001
 20
1.9693894E+001
 70
0
  0
VERTEX
  8
106
 42
1.6503065E-002
 10
-3.7430039E+001
 20
1.96245E+001
 70
1
  0
VERTEX
  8
106
 42
1.6618594E-002
 10
-3.7387844E+001
 20
1.9554123E+001
 70
0
  0
VERTEX
  8
106
 42
1.1678417E-002
 10
-3.733863E+001
 20
1.948225E+001
 70
1
  0
VERTEX
  8
106
 42
5.0820147E-003
 10
-3.7289212E+001
 20
1.9414843E+001
 70
0
  0
VERTEX
  8
106
 42
1.2849283E-002
 10
-3.7241883E+001
 20
1.9353963E+001
 70
1
  0
VERTEX
  8
106
 42
1.7150601E-002
 10
-3.7172321E+001
 20
1.9276057E+001
 70
0
  0
VERTEX
  8
106
 42
7.529987E-003
 10
-3.7054579E+001
 20
1.9156429E+001
 70
1
  0
VERTEX
  8
106
 42
3.9621867E-003
 10
-3.6893961E+001
 20
1.8999986E+001
 70
0
  0
SEQEND
  0
POINT
  8
Drafting_Hidden_Entities
  6
CONTINUOUS
 62
1
 10
0.0
 20
0.0
  0
ENDBLK
  0
BLOCK
  2
HEBELNEW00
 10
0.0
 20
0.0
 70
0
  0
LINE
  8
1
  6
CONTINUOUS
 62
40
 10
-1.8919842
 20
1.9E+001
 11
1.0999996E+001
 21
1.9E+001
  0
LINE
  8
1
  6
CONTINUOUS
 62
40
 10
-3.2878942
 20
1.899998E+001
 11
-1.8919842
 21
1.9E+001
  0
LINE
  8
1
  6
CONTINUOUS
 62
40
 10
-3.6893961E+001
 20
1.8999986E+001
 11
-3.2878942
 21
1.899998E+001
  0
LINE
  8
106
  6
CENTERLINE
 62
1
 10
0.0
 20
7.909E-007
 11
-2.01364E-005
 21
2.6999999E+001
  0
LINE
  8
1
  6
CONTINUOUS
 62
40
 10
-3.2878742
 20
2.4E+001
 11
-3.2878942
 21
1.899998E+001
  0
LINE
  8
1
  6
CONTINUOUS
 62
40
 10
-3.2878742
 20
2.4E+001
 11
-3.6893959E+001
 21
2.4E+001
  0
LINE
  8
1
  6
CONTINUOUS
 62
40
 10
-1.1000004E+001
 20
5.59144
 11
-1.1000014E+001
 21
1.899998E+001
  0
LINE
  8
1
  6
CONTINUOUS
 62
40
 10
1.0999996E+001
 20
1.9E+001
 11
1.0999996E+001
 21
5.97545
  0
LINE
  8
1
  6
CONTINUOUS
 62
40
 10
1.0992536E+001
 20
2.4E+001
 11
1.0999996E+001
 21
1.9E+001
  0
LINE
  8
1
  6
CONTINUOUS
 62
40
 10
1.0992536E+001
 20
2.4E+001
 11
5.1013583E-001
 21
2.4E+001
  0
POLYLINE
  8
106
  6
CENTERLINE
 62
1
 66
1
 40
0.0
 41
0.0
 70
2
  0
VERTEX
  8
106
 42
0.0
 10
-3.6893959E+001
 20
2.4E+001
 70
0
  0
VERTEX
  8
106
 42
4.0003598E-003
 10
-3.6962392E+001
 20
2.3929961E+001
 70
1
  0
VERTEX
  8
106
 42
3.896569E-003
 10
-3.70288E+001
 20
2.3859844E+001
 70
0
  0
VERTEX
  8
106
 42
4.2250614E-003
 10
-3.7093138E+001
 20
2.3789647E+001
 70
1
  0
VERTEX
  8
106
 42
5.091047E-003
 10
-3.7155221E+001
 20
2.3719368E+001
 70
0
  0
VERTEX
  8
106
 42
5.8422039E-003
 10
-3.7214623E+001
 20
2.3648996E+001
 70
1
  0
VERTEX
  8
106
 42
6.594814E-003
 10
-3.727121E+001
 20
2.3578532E+001
 70
0
  0
VERTEX
  8
106
 42
7.396164E-003
 10
-3.7324626E+001
 20
2.3507967E+001
 70
1
  0
VERTEX
  8
106
 42
8.366143E-003
 10
-3.7374749E+001
 20
2.3437299E+001
 70
0
  0
VERTEX
  8
106
 42
9.3576583E-003
 10
-3.7421182E+001
 20
2.336652E+001
 70
1
  0
VERTEX
  8
106
 42
1.0488799E-002
 10
-3.7463825E+001
 20
2.3295629E+001
 70
0
  0
VERTEX
  8
106
 42
1.1656178E-002
 10
-3.7502265E+001
 20
2.3224617E+001
 70
1
  0
VERTEX
  8
106
 42
1.2973901E-002
 10
-3.7536423E+001
 20
2.3153483E+001
 70
0
  0
VERTEX
  8
106
 42
1.4297523E-002
 10
-3.7565862E+001
 20
2.3082218E+001
 70
1
  0
VERTEX
  8
106
 42
1.5727801E-002
 10
-3.7590527E+001
 20
2.3010823E+001
 70
0
  0
VERTEX
  8
106
 42
1.7108728E-002
 10
-3.7609962E+001
 20
2.2939287E+001
 70
1
  0
VERTEX
  8
106
 42
1.853307E-002
 10
-3.7624122E+001
 20
2.286761E+001
 70
0
  0
VERTEX
  8
106
 42
1.9691502E-002
 10
-3.7632531E+001
 20
2.2795782E+001
 70
1
  0
VERTEX
  8
106
 42
2.0666562E-002
 10
-3.7635194E+001
 20
2.2723804E+001
 70
0
  0
VERTEX
  8
106
 42
2.1504204E-002
 10
-3.7631622E+001
 20
2.2651666E+001
 70
1
  0
VERTEX
  8
106
 42
2.237542E-002
 10
-3.7621727E+001
 20
2.2579368E+001
 70
0
  0
VERTEX
  8
106
 42
2.131228E-002
 10
-3.7605009E+001
 20
2.2506897E+001
 70
1
  0
VERTEX
  8
106
 42
1.8634915E-002
 10
-3.7582114E+001
 20
2.2434269E+001
 70
0
  0
VERTEX
  8
106
 42
1.5560561E-002
 10
-3.7553387E+001
 20
2.2361488E+001
 70
1
  0
VERTEX
  8
106
 42
1.184906E-002
 10
-3.7519969E+001
 20
2.2288578E+001
 70
0
  0
VERTEX
  8
106
 42
8.9583717E-003
 10
-3.7482668E+001
 20
2.2215553E+001
 70
1
  0
VERTEX
  8
106
 42
6.2140149E-003
 10
-3.7442529E+001
 20
2.2142435E+001
 70
0
  0
VERTEX
  8
106
 42
3.9116261E-003
 10
-3.7400347E+001
 20
2.2069237E+001
 70
1
  0
VERTEX
  8
106
 42
1.4342829E-003
 10
-3.7357101E+001
 20
2.1995979E+001
 70
0
  0
VERTEX
  8
106
 42
-7.071574E-004
 10
-3.7313682E+001
 20
2.1922679E+001
 70
1
  0
VERTEX
  8
106
 42
-3.1363878E-003
 10
-3.7270993E+001
 20
2.1849353E+001
 70
0
  0
VERTEX
  8
106
 42
-5.3886964E-003
 10
-3.7229996E+001
 20
2.177602E+001
 70
1
  0
VERTEX
  8
106
 42
-8.0866801E-003
 10
-3.7191514E+001
 20
2.1702696E+001
 70
0
  0
VERTEX
  8
106
 42
-1.077752E-002
 10
-3.7156585E+001
 20
2.1629401E+001
 70
1
  0
VERTEX
  8
106
 42
-1.4090038E-002
 10
-3.7125972E+001
 20
2.155615E+001
 70
0
  0
VERTEX
  8
106
 42
-1.7358236E-002
 10
-3.710079E+001
 20
2.1482963E+001
 70
1
  0
VERTEX
  8
106
 42
-2.1093644E-002
 10
-3.7081675E+001
 20
2.1409855E+001
 70
0
  0
VERTEX
  8
106
 42
-2.5104361E-002
 10
-3.7069796E+001
 20
2.1336847E+001
 70
1
  0
VERTEX
  8
106
 42
-2.9842408E-002
 10
-3.7065931E+001
 20
2.1263953E+001
 70
0
  0
VERTEX
  8
106
 42
-3.0845957E-002
 10
-3.7071307E+001
 20
2.1191196E+001
 70
1
  0
VERTEX
  8
106
 42
-2.8191816E-002
 10
-3.708529E+001
 20
2.1118577E+001
 70
0
  0
VERTEX
  8
106
 42
-2.3943236E-002
 10
-3.7107563E+001
 20
2.1046106E+001
 70
1
  0
VERTEX
  8
106
 42
-1.8169697E-002
 10
-3.7136531E+001
 20
2.0973774E+001
 70
0
  0
VERTEX
  8
106
 42
-1.3719198E-002
 10
-3.7171043E+001
 20
2.0901584E+001
 70
1
  0
VERTEX
  8
106
 42
-9.6488694E-003
 10
-3.7209645E+001
 20
2.0829529E+001
 70
0
  0
VERTEX
  8
106
 42
-6.285413E-003
 10
-3.7251248E+001
 20
2.0757611E+001
 70
1
  0
VERTEX
  8
106
 42
-2.732648E-003
 10
-3.7294488E+001
 20
2.0685825E+001
 70
0
  0
VERTEX
  8
106
 42
3.154651E-004
 10
-3.7338132E+001
 20
2.0614173E+001
 70
1
  0
VERTEX
  8
106
 42
3.7883343E-003
 10
-3.7380913E+001
 20
2.0542648E+001
 70
0
  0
VERTEX
  8
106
 42
7.0072944E-003
 10
-3.7421502E+001
 20
2.0471253E+001
 70
1
  0
VERTEX
  8
106
 42
1.0884706E-002
 10
-3.7458775E+001
 20
2.039998E+001
 70
0
  0
VERTEX
  8
106
 42
1.5114532E-002
 10
-3.7491309E+001
 20
2.0328834E+001
 70
1
  0
VERTEX
  8
106
 42
2.0714074E-002
 10
-3.7517927E+001
 20
2.0257807E+001
 70
0
  0
VERTEX
  8
106
 42
2.4663232E-002
 10
-3.7537116E+001
 20
2.0186904E+001
 70
1
  0
VERTEX
  8
106
 42
2.6765357E-002
 10
-3.7548752E+001
 20
2.0116113E+001
 70
0
  0
VERTEX
  8
106
 42
2.7134443E-002
 10
-3.7552378E+001
 20
2.0045436E+001
 70
1
  0
VERTEX
  8
106
 42
2.547406E-002
 10
-3.7548669E+001
 20
1.9974893E+001
 70
0
  0
VERTEX
  8
106
 42
2.4003998E-002
 10
-3.7537754E+001
 20
1.9904499E+001
 70
1
  0
VERTEX
  8
106
 42
2.2507102E-002
 10
-3.7520123E+001
 20
1.9834153E+001
 70
0
  0
VERTEX
  8
106
 42
2.0072914E-002
 10
-3.7495766E+001
 20
1.9763825E+001
 70
1
  0
VERTEX
  8
106
 42
1.7125872E-002
 10
-3.7465664E+001
 20
1.9693894E+001
 70
0
  0
VERTEX
  8
106
 42
1.6503065E-002
 10
-3.7430039E+001
 20
1.96245E+001
 70
1
  0
VERTEX
  8
106
 42
1.6618594E-002
 10
-3.7387844E+001
 20
1.9554123E+001
 70
0
  0
VERTEX
  8
106
 42
1.1678417E-002
 10
-3.733863E+001
 20
1.948225E+001
 70
1
  0
VERTEX
  8
106
 42
5.0820147E-003
 10
-3.7289212E+001
 20
1.9414843E+001
 70
0
  0
VERTEX
  8
106
 42
1.2849283E-002
 10
-3.7241883E+001
 20
1.9353963E+001
 70
1
  0
VERTEX
  8
106
 42
1.7150601E-002
 10
-3.7172321E+001
 20
1.9276057E+001
 70
0
  0
VERTEX
  8
106
 42
7.529987E-003
 10
-3.7054579E+001
 20
1.9156429E+001
 70
1
  0
VERTEX
  8
106
 42
3.9621867E-003
 10
-3.6893961E+001
 20
1.8999986E+001
 70
0
  0
SEQEND
  0
POINT
  8
Drafting_Hidden_Entities
  6
CONTINUOUS
 62
1
 10
0.0
 20
0.0
  0
ENDBLK
  0
BLOCK
  2
22
 10
0.0
 20
0.0
 70
0
  0
LINE
  8
106
  6
CENTERLINE
 62
1
 10
5.15E+001
 20
0.0
 11
3.975E+001
 21
0.0
  0
LINE
  8
1
  6
CONTINUOUS
 62
40
 10
-1.749947E+001
 20
-2.931905E+001
 11
-1.749947E+001
 21
-1.599999E+001
  0
LINE
  8
1
  6
CONTINUOUS
 62
40
 10
-3.933554E+001
 20
-1.6E+001
 11
-3.949947E+001
 21
-1.6E+001
  0
LINE
  8
1
  6
CONTINUOUS
 62
40
 10
-3.909182E+001
 20
-1.599999E+001
 11
-3.933554E+001
 21
-1.6E+001
  0
LINE
  8
1
  6
CONTINUOUS
 62
40
 10
-3.949947E+001
 20
-1.6E+001
 11
-3.949947E+001
 21
-2.931905E+001
  0
LINE
  8
1
  6
CONTINUOUS
 62
40
 10
-3.909182E+001
 20
-1.1E+001
 11
-3.909182E+001
 21
-1.599999E+001
  0
LINE
  8
1
  6
CONTINUOUS
 62
40
 10
2.508598E+001
 20
-1.1E+001
 11
2.508598E+001
 21
-1.6E+001
  0
LINE
  8
1
  6
CONTINUOUS
 62
40
 10
-3.909182E+001
 20
-1.1E+001
 11
3.4202
 21
-1.1E+001
  0
LINE
  8
1
  6
CONTINUOUS
 62
40
 10
3.4202
 20
-1.6E+001
 11
-3.909182E+001
 21
-1.599999E+001
  0
LINE
  8
1
  6
CONTINUOUS
 62
40
 10
3.4202
 20
-1.6E+001
 11
3.4202
 21
-1.1E+001
  0
LINE
  8
1
  6
CONTINUOUS
 62
40
 10
3.4202
 20
-1.1E+001
 11
4.71322
 21
-1.1E+001
  0
LINE
  8
1
  6
CONTINUOUS
 62
40
 10
4.71322
 20
-1.6E+001
 11
3.4202
 21
-1.6E+001
  0
LINE
  8
1
  6
CONTINUOUS
 62
40
 10
4.71322
 20
-1.1E+001
 11
2.508598E+001
 21
-1.1E+001
  0
LINE
  8
1
  6
CONTINUOUS
 62
40
 10
2.508598E+001
 20
-1.6E+001
 11
4.71322
 21
-1.6E+001
  0
LINE
  8
1
  6
CONTINUOUS
 62
40
 10
9.49999
 20
-6.99999
 11
9.49999
 21
-1.100002E+001
  0
LINE
  8
1
  6
CONTINUOUS
 62
40
 10
1.949998E+001
 20
-1.100002E+001
 11
1.949998E+001
 21
-6.99999
  0
ARC
  8
1
  6
CONTINUOUS
 62
40
 10
1.45E+001
 20
-1.85786
 40
1.5E+001
 50
2.7E+002
 51
2.8947122E+002
  0
ARC
  8
1
  6
CONTINUOUS
 62
40
 10
1.45E+001
 20
-1.85786
 40
1.5E+001
 50
2.5052878E+002
 51
2.7E+002
  0
LINE
  8
1
  6
CONTINUOUS
 62
40
 10
2.45E+001
 20
4.7
 11
2.45E+001
 21
-9.9997E-001
  0
LINE
  8
1
  6
CONTINUOUS
 62
40
 10
4.5
 20
-1.1
 11
4.5
 21
4.7
  0
ARC
  8
1
  6
CONTINUOUS
 62
40
 10
6.8
 20
4.7
 40
2.3
 50
9.0E+001
 51
1.8E+002
  0
ARC
  8
1
  6
CONTINUOUS
 62
40
 10
2.22E+001
 20
4.7
 40
2.3000001
 50
0.0
 51
9.0E+001
  0
LINE
  8
1
  6
CONTINUOUS
 62
40
 10
6.8
 20
7.0
 11
2.22E+001
 21
7.0
  0
LINE
  8
1
  6
CONTINUOUS
 62
40
 10
4.5
 20
-1.1
 11
2.45E+001
 21
-1.1
  0
LINE
  8
1
  6
CONTINUOUS
 62
40
 10
2.45E+001
 20
4.7
 11
4.5
 21
4.7
  0
LINE
  8
1
  6
CONTINUOUS
 62
40
 10
2.45E+001
 20
-9.9997E-001
 11
4.5
 21
-1.0
  0
LINE
  8
1
  6
CONTINUOUS
 62
40
 10
5.5
 20
-7.0
 11
2.35E+001
 21
-7.0
  0
LINE
  8
1
  6
CONTINUOUS
 62
40
 10
2.03643E+001
 20
7.1
 11
8.6357
 21
7.1
  0
LINE
  8
1
  6
CONTINUOUS
 62
40
 10
2.45E+001
 20
-6.0
 11
2.35E+001
 21
-7.0
  0
LINE
  8
1
  6
CONTINUOUS
 62
40
 10
4.50002
 20
-6.0
 11
5.5
 21
-7.0
  0
LINE
  8
1
  6
CONTINUOUS
 62
40
 10
2.45E+001
 20
-6.0
 11
4.50002
 21
-6.0
  0
LINE
  8
1
  6
CONTINUOUS
 62
40
 10
2.45E+001
 20
-9.9997E-001
 11
2.45E+001
 21
-6.0
  0
LINE
  8
1
  6
CONTINUOUS
 62
40
 10
4.5
 20
-1.1
 11
4.50002
 21
-6.0
  0
ARC
  8
1
  6
CONTINUOUS
 62
40
 10
1.45E+001
 20
-1.0
 40
1.0E+001
 50
5.4095932E+001
 51
9.0E+001
  0
ARC
  8
1
  6
CONTINUOUS
 62
40
 10
1.45E+001
 20
-1.0
 40
1.0E+001
 50
9.0E+001
 51
1.2590407E+002
  0
LINE
  8
1
  6
CONTINUOUS
 62
40
 10
1.049998E+001
 20
7.09998
 11
1.05E+001
 21
7.0
  0
LINE
  8
1
  6
CONTINUOUS
 62
40
 10
1.849999E+001
 20
7.09998
 11
1.85E+001
 21
7.0
  0
LINE
  8
1
  6
CONTINUOUS
 62
40
 10
5.15E+001
 20
-6.0
 11
5.15E+001
 21
-8.0
  0
LINE
  8
1
  6
CONTINUOUS
 62
40
 10
5.15E+001
 20
8.0
 11
5.15E+001
 21
6.0
  0
LINE
  8
1
  6
CONTINUOUS
 62
40
 10
5.15E+001
 20
6.0
 11
5.15E+001
 21
-6.0
  0
LINE
  8
1
  6
CONTINUOUS
 62
40
 10
-6.5
 20
-8.0
 11
-6.5
 21
-6.0
  0
LINE
  8
1
  6
CONTINUOUS
 62
40
 10
-6.5
 20
-6.0
 11
-6.5
 21
6.0
  0
LINE
  8
1
  6
CONTINUOUS
 62
40
 10
-6.5
 20
6.0
 11
-6.5
 21
8.0
  0
LINE
  8
1
  6
CONTINUOUS
 62
40
 10
5.053151E+001
 20
8.0
 11
5.15E+001
 21
8.0
  0
LINE
  8
1
  6
CONTINUOUS
 62
40
 10
-6.5
 20
8.0
 11
-5.88231
 21
8.0
  0
LINE
  8
1
  6
CONTINUOUS
 62
40
 10
-5.88231
 20
8.0
 11
1.008847E+001
 21
8.0
  0
LINE
  8
1
  6
CONTINUOUS
 62
40
 10
1.008847E+001
 20
8.0
 11
1.01411E+001
 21
8.0
  0
LINE
  8
1
  6
CONTINUOUS
 62
40
 10
1.88589E+001
 20
8.0
 11
5.053151E+001
 21
8.0
  0
LINE
  8
1
  6
CONTINUOUS
 62
40
 10
5.15E+001
 20
-8.0
 11
5.053151E+001
 21
-8.0
  0
LINE
  8
1
  6
CONTINUOUS
 62
40
 10
5.053151E+001
 20
-8.0
 11
1.95E+001
 21
-8.0
  0
LINE
  8
1
  6
CONTINUOUS
 62
40
 10
9.5
 20
-8.0
 11
-5.88231
 21
-8.0
  0
LINE
  8
1
  6
CONTINUOUS
 62
40
 10
-5.88231
 20
-8.0
 11
-6.5
 21
-8.0
  0
LINE
  8
1
  6
CONTINUOUS
 62
40
 10
5.053151E+001
 20
-6.0
 11
5.15E+001
 21
-6.0
  0
LINE
  8
1
  6
CONTINUOUS
 62
40
 10
-6.5
 20
-6.0
 11
-5.88231
 21
-6.0
  0
LINE
  8
1
  6
CONTINUOUS
 62
40
 10
-5.88231
 20
-6.0
 11
4.50002
 21
-6.0
  0
LINE
  8
1
  6
CONTINUOUS
 62
40
 10
2.45E+001
 20
-6.0
 11
5.053151E+001
 21
-6.0
  0
LINE
  8
1
  6
CONTINUOUS
 62
40
 10
5.15E+001
 20
6.0
 11
5.053151E+001
 21
6.0
  0
LINE
  8
1
  6
CONTINUOUS
 62
40
 10
5.053151E+001
 20
6.0
 11
2.404071E+001
 21
5.99998
  0
LINE
  8
1
  6
CONTINUOUS
 62
40
 10
4.95926
 20
5.99998
 11
-5.88231
 21
6.0
  0
LINE
  8
1
  6
CONTINUOUS
 62
40
 10
-5.88231
 20
6.0
 11
-6.5
 21
6.0
  0
LINE
  8
1
  6
CONTINUOUS
 62
40
 10
3.6E+001
 20
3.0
 11
4.19896E+001
 21
3.0
  0
ARC
  8
1
  6
CONTINUOUS
 62
40
 10
3.6E+001
 20
0.0
 40
3.0000001
 50
9.0E+001
 51
2.7E+002
  0
LINE
  8
1
  6
CONTINUOUS
 62
40
 10
4.19896E+001
 20
-3.0
 11
3.6E+001
 21
-3.0
  0
ARC
  8
1
  6
CONTINUOUS
 62
40
 10
1.45E+001
 20
3.41667
 40
6.0833333
 50
5.6898288E+001
 51
9.0E+001
  0
ARC
  8
1
  6
CONTINUOUS
 62
40
 10
1.45E+001
 20
3.41667
 40
6.0833333
 50
9.0E+001
 51
1.2310337E+002
  0
CIRCLE
  8
1
  6
CONTINUOUS
 62
40
 10
0.0
 20
0.0
 40
4.25
  0
LINE
  8
1
  6
CONTINUOUS
 62
40
 10
7.5002E-001
 20
2.24997
 11
7.5002E-001
 21
7.4998E-001
  0
LINE
  8
1
  6
CONTINUOUS
 62
40
 10
-7.5003E-001
 20
2.24997
 11
7.5002E-001
 21
2.24997
  0
LINE
  8
1
  6
CONTINUOUS
 62
40
 10
-7.5003E-001
 20
7.4998E-001
 11
-7.5003E-001
 21
2.24997
  0
LINE
  8
1
  6
CONTINUOUS
 62
40
 10
-2.25002
 20
7.4998E-001
 11
-7.5003E-001
 21
7.4998E-001
  0
LINE
  8
1
  6
CONTINUOUS
 62
40
 10
-2.25002
 20
-7.5001E-001
 11
-2.25002
 21
7.4998E-001
  0
LINE
  8
1
  6
CONTINUOUS
 62
40
 10
-7.5003E-001
 20
-7.5001E-001
 11
-2.25002
 21
-7.5001E-001
  0
LINE
  8
1
  6
CONTINUOUS
 62
40
 10
-7.5003E-001
 20
-2.25
 11
-7.5003E-001
 21
-7.5001E-001
  0
LINE
  8
1
  6
CONTINUOUS
 62
40
 10
7.5002E-001
 20
-2.25
 11
-7.5003E-001
 21
-2.25
  0
LINE
  8
1
  6
CONTINUOUS
 62
40
 10
7.5002E-001
 20
-7.5001E-001
 11
7.5002E-001
 21
-2.25
  0
LINE
  8
1
  6
CONTINUOUS
 62
40
 10
2.25001
 20
-7.5001E-001
 11
7.5002E-001
 21
-7.5001E-001
  0
LINE
  8
1
  6
CONTINUOUS
 62
40
 10
2.25001
 20
7.4998E-001
 11
2.25001
 21
-7.5001E-001
  0
LINE
  8
1
  6
CONTINUOUS
 62
40
 10
7.5002E-001
 20
7.4998E-001
 11
2.25001
 21
7.4998E-001
  0
CIRCLE
  8
1
  6
CONTINUOUS
 62
40
 10
4.5E+001
 20
0.0
 40
4.25
  0
LINE
  8
1
  6
CONTINUOUS
 62
40
 10
4.575E+001
 20
2.24997
 11
4.575E+001
 21
7.4998E-001
  0
LINE
  8
1
  6
CONTINUOUS
 62
40
 10
4.425001E+001
 20
2.24997
 11
4.575E+001
 21
2.24997
  0
LINE
  8
1
  6
CONTINUOUS
 62
40
 10
4.425001E+001
 20
7.4998E-001
 11
4.425001E+001
 21
2.24997
  0
LINE
  8
1
  6
CONTINUOUS
 62
40
 10
4.275002E+001
 20
7.4998E-001
 11
4.425001E+001
 21
7.4998E-001
  0
LINE
  8
1
  6
CONTINUOUS
 62
40
 10
4.275002E+001
 20
-7.5001E-001
 11
4.275002E+001
 21
7.4998E-001
  0
LINE
  8
1
  6
CONTINUOUS
 62
40
 10
4.425001E+001
 20
-7.5001E-001
 11
4.275002E+001
 21
-7.5001E-001
  0
LINE
  8
1
  6
CONTINUOUS
 62
40
 10
4.425001E+001
 20
-2.25
 11
4.425001E+001
 21
-7.5001E-001
  0
LINE
  8
1
  6
CONTINUOUS
 62
40
 10
4.575E+001
 20
-2.25
 11
4.425001E+001
 21
-2.25
  0
LINE
  8
1
  6
CONTINUOUS
 62
40
 10
4.575E+001
 20
-7.5001E-001
 11
4.575E+001
 21
-2.25
  0
LINE
  8
1
  6
CONTINUOUS
 62
40
 10
4.724999E+001
 20
-7.5001E-001
 11
4.575E+001
 21
-7.5001E-001
  0
LINE
  8
1
  6
CONTINUOUS
 62
40
 10
4.724999E+001
 20
7.4998E-001
 11
4.724999E+001
 21
-7.5001E-001
  0
LINE
  8
1
  6
CONTINUOUS
 62
40
 10
4.575E+001
 20
7.4998E-001
 11
4.724999E+001
 21
7.4998E-001
  0
LINE
  8
106
  6
CENTERLINE
 62
1
 10
5.025E+001
 20
0.0
 11
3.185901E+001
 21
0.0
  0
LINE
  8
106
  6
CENTERLINE
 62
1
 10
4.5E+001
 20
-5.25
 11
4.5E+001
 21
5.25
  0
LINE
  8
106
  6
CENTERLINE
 62
1
 10
5.25
 20
0.0
 11
-5.25
 21
0.0
  0
LINE
  8
106
  6
CENTERLINE
 62
1
 10
0.0
 20
-5.25
 11
0.0
 21
5.25
  0
LINE
  8
3
  6
CENTERLINE
 62
1
 10
1.45E+001
 20
1.2228632E+001
 11
1.45E+001
 21
-1.9478032E+001
  0
LINE
  8
3
  6
CENTERLINE
 62
1
 10
-2.849947E+001
 20
-8.4897844E+001
 11
-2.849947E+001
 21
-8.449356
  0
POINT
  8
Drafting_Hidden_Entities
  6
CONTINUOUS
 62
1
 10
0.0
 20
0.0
  0
ENDBLK
  0
BLOCK
  2
22NEW00
 10
0.0
 20
0.0
 70
0
  0
LINE
  8
106
  6
CENTERLINE
 62
1
 10
5.15E+001
 20
0.0
 11
3.975E+001
 21
0.0
  0
LINE
  8
1
  6
CONTINUOUS
 62
40
 10
-1.749947E+001
 20
-2.931905E+001
 11
-1.749947E+001
 21
-1.599999E+001
  0
LINE
  8
1
  6
CONTINUOUS
 62
40
 10
-3.933554E+001
 20
-1.6E+001
 11
-3.949947E+001
 21
-1.6E+001
  0
LINE
  8
1
  6
CONTINUOUS
 62
40
 10
-3.909182E+001
 20
-1.599999E+001
 11
-3.933554E+001
 21
-1.6E+001
  0
LINE
  8
1
  6
CONTINUOUS
 62
40
 10
-3.949947E+001
 20
-1.6E+001
 11
-3.949947E+001
 21
-2.931905E+001
  0
LINE
  8
1
  6
CONTINUOUS
 62
40
 10
-3.909182E+001
 20
-1.1E+001
 11
-3.909182E+001
 21
-1.599999E+001
  0
LINE
  8
1
  6
CONTINUOUS
 62
40
 10
2.508598E+001
 20
-1.1E+001
 11
2.508598E+001
 21
-1.6E+001
  0
LINE
  8
1
  6
CONTINUOUS
 62
40
 10
-3.909182E+001
 20
-1.1E+001
 11
3.4202
 21
-1.1E+001
  0
LINE
  8
1
  6
CONTINUOUS
 62
40
 10
3.4202
 20
-1.6E+001
 11
-3.909182E+001
 21
-1.599999E+001
  0
LINE
  8
1
  6
CONTINUOUS
 62
40
 10
3.4202
 20
-1.6E+001
 11
3.4202
 21
-1.1E+001
  0
LINE
  8
1
  6
CONTINUOUS
 62
40
 10
3.4202
 20
-1.1E+001
 11
4.71322
 21
-1.1E+001
  0
LINE
  8
1
  6
CONTINUOUS
 62
40
 10
4.71322
 20
-1.6E+001
 11
3.4202
 21
-1.6E+001
  0
LINE
  8
1
  6
CONTINUOUS
 62
40
 10
4.71322
 20
-1.1E+001
 11
2.508598E+001
 21
-1.1E+001
  0
LINE
  8
1
  6
CONTINUOUS
 62
40
 10
2.508598E+001
 20
-1.6E+001
 11
4.71322
 21
-1.6E+001
  0
LINE
  8
1
  6
CONTINUOUS
 62
40
 10
9.49999
 20
-6.99999
 11
9.49999
 21
-1.100002E+001
  0
LINE
  8
1
  6
CONTINUOUS
 62
40
 10
1.949998E+001
 20
-1.100002E+001
 11
1.949998E+001
 21
-6.99999
  0
ARC
  8
1
  6
CONTINUOUS
 62
40
 10
1.45E+001
 20
-1.85786
 40
1.5E+001
 50
2.7E+002
 51
2.8947122E+002
  0
ARC
  8
1
  6
CONTINUOUS
 62
40
 10
1.45E+001
 20
-1.85786
 40
1.5E+001
 50
2.5052878E+002
 51
2.7E+002
  0
LINE
  8
1
  6
CONTINUOUS
 62
40
 10
2.45E+001
 20
4.7
 11
2.45E+001
 21
-9.9997E-001
  0
LINE
  8
1
  6
CONTINUOUS
 62
40
 10
4.5
 20
-1.1
 11
4.5
 21
4.7
  0
ARC
  8
1
  6
CONTINUOUS
 62
40
 10
6.8
 20
4.7
 40
2.3
 50
9.0E+001
 51
1.8E+002
  0
ARC
  8
1
  6
CONTINUOUS
 62
40
 10
2.22E+001
 20
4.7
 40
2.3000001
 50
0.0
 51
9.0E+001
  0
LINE
  8
1
  6
CONTINUOUS
 62
40
 10
6.8
 20
7.0
 11
2.22E+001
 21
7.0
  0
LINE
  8
1
  6
CONTINUOUS
 62
40
 10
4.5
 20
-1.1
 11
2.45E+001
 21
-1.1
  0
LINE
  8
1
  6
CONTINUOUS
 62
40
 10
2.45E+001
 20
4.7
 11
4.5
 21
4.7
  0
LINE
  8
1
  6
CONTINUOUS
 62
40
 10
2.45E+001
 20
-9.9997E-001
 11
4.5
 21
-1.0
  0
LINE
  8
1
  6
CONTINUOUS
 62
40
 10
5.5
 20
-7.0
 11
2.35E+001
 21
-7.0
  0
LINE
  8
1
  6
CONTINUOUS
 62
40
 10
2.03643E+001
 20
7.1
 11
8.6357
 21
7.1
  0
LINE
  8
1
  6
CONTINUOUS
 62
40
 10
2.45E+001
 20
-6.0
 11
2.35E+001
 21
-7.0
  0
LINE
  8
1
  6
CONTINUOUS
 62
40
 10
4.50002
 20
-6.0
 11
5.5
 21
-7.0
  0
LINE
  8
1
  6
CONTINUOUS
 62
40
 10
2.45E+001
 20
-6.0
 11
4.50002
 21
-6.0
  0
LINE
  8
1
  6
CONTINUOUS
 62
40
 10
2.45E+001
 20
-9.9997E-001
 11
2.45E+001
 21
-6.0
  0
LINE
  8
1
  6
CONTINUOUS
 62
40
 10
4.5
 20
-1.1
 11
4.50002
 21
-6.0
  0
ARC
  8
1
  6
CONTINUOUS
 62
40
 10
1.45E+001
 20
-1.0
 40
1.0E+001
 50
5.4095932E+001
 51
9.0E+001
  0
ARC
  8
1
  6
CONTINUOUS
 62
40
 10
1.45E+001
 20
-1.0
 40
1.0E+001
 50
9.0E+001
 51
1.2590407E+002
  0
LINE
  8
1
  6
CONTINUOUS
 62
40
 10
1.049998E+001
 20
7.09998
 11
1.05E+001
 21
7.0
  0
LINE
  8
1
  6
CONTINUOUS
 62
40
 10
1.849999E+001
 20
7.09998
 11
1.85E+001
 21
7.0
  0
LINE
  8
1
  6
CONTINUOUS
 62
40
 10
5.15E+001
 20
-6.0
 11
5.15E+001
 21
-8.0
  0
LINE
  8
1
  6
CONTINUOUS
 62
40
 10
5.15E+001
 20
8.0
 11
5.15E+001
 21
6.0
  0
LINE
  8
1
  6
CONTINUOUS
 62
40
 10
5.15E+001
 20
6.0
 11
5.15E+001
 21
-6.0
  0
LINE
  8
1
  6
CONTINUOUS
 62
40
 10
-6.5
 20
-8.0
 11
-6.5
 21
-6.0
  0
LINE
  8
1
  6
CONTINUOUS
 62
40
 10
-6.5
 20
-6.0
 11
-6.5
 21
6.0
  0
LINE
  8
1
  6
CONTINUOUS
 62
40
 10
-6.5
 20
6.0
 11
-6.5
 21
8.0
  0
LINE
  8
1
  6
CONTINUOUS
 62
40
 10
5.053151E+001
 20
8.0
 11
5.15E+001
 21
8.0
  0
LINE
  8
1
  6
CONTINUOUS
 62
40
 10
-6.5
 20
8.0
 11
-5.88231
 21
8.0
  0
LINE
  8
1
  6
CONTINUOUS
 62
40
 10
-5.88231
 20
8.0
 11
1.008847E+001
 21
8.0
  0
LINE
  8
1
  6
CONTINUOUS
 62
40
 10
1.008847E+001
 20
8.0
 11
1.01411E+001
 21
8.0
  0
LINE
  8
1
  6
CONTINUOUS
 62
40
 10
1.88589E+001
 20
8.0
 11
5.053151E+001
 21
8.0
  0
LINE
  8
1
  6
CONTINUOUS
 62
40
 10
5.15E+001
 20
-8.0
 11
5.053151E+001
 21
-8.0
  0
LINE
  8
1
  6
CONTINUOUS
 62
40
 10
5.053151E+001
 20
-8.0
 11
1.95E+001
 21
-8.0
  0
LINE
  8
1
  6
CONTINUOUS
 62
40
 10
9.5
 20
-8.0
 11
-5.88231
 21
-8.0
  0
LINE
  8
1
  6
CONTINUOUS
 62
40
 10
-5.88231
 20
-8.0
 11
-6.5
 21
-8.0
  0
LINE
  8
1
  6
CONTINUOUS
 62
40
 10
5.053151E+001
 20
-6.0
 11
5.15E+001
 21
-6.0
  0
LINE
  8
1
  6
CONTINUOUS
 62
40
 10
-6.5
 20
-6.0
 11
-5.88231
 21
-6.0
  0
LINE
  8
1
  6
CONTINUOUS
 62
40
 10
-5.88231
 20
-6.0
 11
4.50002
 21
-6.0
  0
LINE
  8
1
  6
CONTINUOUS
 62
40
 10
2.45E+001
 20
-6.0
 11
5.053151E+001
 21
-6.0
  0
LINE
  8
1
  6
CONTINUOUS
 62
40
 10
5.15E+001
 20
6.0
 11
5.053151E+001
 21
6.0
  0
LINE
  8
1
  6
CONTINUOUS
 62
40
 10
5.053151E+001
 20
6.0
 11
2.404071E+001
 21
5.99998
  0
LINE
  8
1
  6
CONTINUOUS
 62
40
 10
4.95926
 20
5.99998
 11
-5.88231
 21
6.0
  0
LINE
  8
1
  6
CONTINUOUS
 62
40
 10
-5.88231
 20
6.0
 11
-6.5
 21
6.0
  0
LINE
  8
1
  6
CONTINUOUS
 62
40
 10
3.6E+001
 20
3.0
 11
4.19896E+001
 21
3.0
  0
ARC
  8
1
  6
CONTINUOUS
 62
40
 10
3.6E+001
 20
0.0
 40
3.0000001
 50
9.0E+001
 51
2.7E+002
  0
LINE
  8
1
  6
CONTINUOUS
 62
40
 10
4.19896E+001
 20
-3.0
 11
3.6E+001
 21
-3.0
  0
ARC
  8
1
  6
CONTINUOUS
 62
40
 10
1.45E+001
 20
3.41667
 40
6.0833333
 50
5.6898288E+001
 51
9.0E+001
  0
ARC
  8
1
  6
CONTINUOUS
 62
40
 10
1.45E+001
 20
3.41667
 40
6.0833333
 50
9.0E+001
 51
1.2310337E+002
  0
CIRCLE
  8
1
  6
CONTINUOUS
 62
40
 10
0.0
 20
0.0
 40
4.25
  0
LINE
  8
1
  6
CONTINUOUS
 62
40
 10
7.5002E-001
 20
2.24997
 11
7.5002E-001
 21
7.4998E-001
  0
LINE
  8
1
  6
CONTINUOUS
 62
40
 10
-7.5003E-001
 20
2.24997
 11
7.5002E-001
 21
2.24997
  0
LINE
  8
1
  6
CONTINUOUS
 62
40
 10
-7.5003E-001
 20
7.4998E-001
 11
-7.5003E-001
 21
2.24997
  0
LINE
  8
1
  6
CONTINUOUS
 62
40
 10
-2.25002
 20
7.4998E-001
 11
-7.5003E-001
 21
7.4998E-001
  0
LINE
  8
1
  6
CONTINUOUS
 62
40
 10
-2.25002
 20
-7.5001E-001
 11
-2.25002
 21
7.4998E-001
  0
LINE
  8
1
  6
CONTINUOUS
 62
40
 10
-7.5003E-001
 20
-7.5001E-001
 11
-2.25002
 21
-7.5001E-001
  0
LINE
  8
1
  6
CONTINUOUS
 62
40
 10
-7.5003E-001
 20
-2.25
 11
-7.5003E-001
 21
-7.5001E-001
  0
LINE
  8
1
  6
CONTINUOUS
 62
40
 10
7.5002E-001
 20
-2.25
 11
-7.5003E-001
 21
-2.25
  0
LINE
  8
1
  6
CONTINUOUS
 62
40
 10
7.5002E-001
 20
-7.5001E-001
 11
7.5002E-001
 21
-2.25
  0
LINE
  8
1
  6
CONTINUOUS
 62
40
 10
2.25001
 20
-7.5001E-001
 11
7.5002E-001
 21
-7.5001E-001
  0
LINE
  8
1
  6
CONTINUOUS
 62
40
 10
2.25001
 20
7.4998E-001
 11
2.25001
 21
-7.5001E-001
  0
LINE
  8
1
  6
CONTINUOUS
 62
40
 10
7.5002E-001
 20
7.4998E-001
 11
2.25001
 21
7.4998E-001
  0
CIRCLE
  8
1
  6
CONTINUOUS
 62
40
 10
4.5E+001
 20
0.0
 40
4.25
  0
LINE
  8
1
  6
CONTINUOUS
 62
40
 10
4.575E+001
 20
2.24997
 11
4.575E+001
 21
7.4998E-001
  0
LINE
  8
1
  6
CONTINUOUS
 62
40
 10
4.425001E+001
 20
2.24997
 11
4.575E+001
 21
2.24997
  0
LINE
  8
1
  6
CONTINUOUS
 62
40
 10
4.425001E+001
 20
7.4998E-001
 11
4.425001E+001
 21
2.24997
  0
LINE
  8
1
  6
CONTINUOUS
 62
40
 10
4.275002E+001
 20
7.4998E-001
 11
4.425001E+001
 21
7.4998E-001
  0
LINE
  8
1
  6
CONTINUOUS
 62
40
 10
4.275002E+001
 20
-7.5001E-001
 11
4.275002E+001
 21
7.4998E-001
  0
LINE
  8
1
  6
CONTINUOUS
 62
40
 10
4.425001E+001
 20
-7.5001E-001
 11
4.275002E+001
 21
-7.5001E-001
  0
LINE
  8
1
  6
CONTINUOUS
 62
40
 10
4.425001E+001
 20
-2.25
 11
4.425001E+001
 21
-7.5001E-001
  0
LINE
  8
1
  6
CONTINUOUS
 62
40
 10
4.575E+001
 20
-2.25
 11
4.425001E+001
 21
-2.25
  0
LINE
  8
1
  6
CONTINUOUS
 62
40
 10
4.575E+001
 20
-7.5001E-001
 11
4.575E+001
 21
-2.25
  0
LINE
  8
1
  6
CONTINUOUS
 62
40
 10
4.724999E+001
 20
-7.5001E-001
 11
4.575E+001
 21
-7.5001E-001
  0
LINE
  8
1
  6
CONTINUOUS
 62
40
 10
4.724999E+001
 20
7.4998E-001
 11
4.724999E+001
 21
-7.5001E-001
  0
LINE
  8
1
  6
CONTINUOUS
 62
40
 10
4.575E+001
 20
7.4998E-001
 11
4.724999E+001
 21
7.4998E-001
  0
LINE
  8
106
  6
CENTERLINE
 62
1
 10
5.025E+001
 20
0.0
 11
3.185901E+001
 21
0.0
  0
LINE
  8
106
  6
CENTERLINE
 62
1
 10
4.5E+001
 20
-5.25
 11
4.5E+001
 21
5.25
  0
LINE
  8
106
  6
CENTERLINE
 62
1
 10
5.25
 20
0.0
 11
-5.25
 21
0.0
  0
LINE
  8
106
  6
CENTERLINE
 62
1
 10
0.0
 20
-5.25
 11
0.0
 21
5.25
  0
LINE
  8
3
  6
CENTERLINE
 62
1
 10
1.45E+001
 20
1.2228632E+001
 11
1.45E+001
 21
-1.9478032E+001
  0
LINE
  8
3
  6
CENTERLINE
 62
1
 10
-2.849947E+001
 20
-8.4897844E+001
 11
-2.849947E+001
 21
-8.449356
  0
POINT
  8
Drafting_Hidden_Entities
  6
CONTINUOUS
 62
1
 10
0.0
 20
0.0
  0
ENDBLK
  0
BLOCK
  2
_AH1
 70
0
 10
0.0
 20
0.0
  3
_AH1
  0
LINE
  8
0
  6
CONTINUOUS
 62
0
 10
-1.0
 20
1.66667E-001
 11
0.0
 21
0.0
  0
LINE
  8
0
  6
CONTINUOUS
 62
0
 10
0.0
 20
0.0
 11
-1.0
 21
-1.66667E-001
  0
LINE
  8
0
  6
CONTINUOUS
 62
0
 10
-1.0
 20
1.66667E-001
 11
-1.0
 21
-1.66667E-001
  0
LINE
  8
0
  6
CONTINUOUS
 62
0
 10
0.0
 20
0.0
 11
-1.0
 21
0.0
  0
ENDBLK
  0
BLOCK
  2
_AH2
 70
0
 10
0.0
 20
0.0
  3
_AH2
  0
LINE
  8
0
  6
CONTINUOUS
 62
0
 10
-1.0
 20
1.66667E-001
 11
0.0
 21
0.0
  0
LINE
  8
0
  6
CONTINUOUS
 62
0
 10
0.0
 20
0.0
 11
-1.0
 21
-1.66667E-001
  0
LINE
  8
0
  6
CONTINUOUS
 62
0
 10
0.0
 20
0.0
 11
-1.0
 21
0.0
  0
ENDBLK
  0
BLOCK
  2
*D45
  3
*D
 10
0.0
 20
0.0
 70
65
  0
LINE
  8
100
  6
CONTINUOUS
 62
4
 10
-1.258558
 20
-2.577689E+001
 11
-1.258558
 21
-4.3314237E+001
  0
LINE
  8
100
  6
CONTINUOUS
 62
4
 10
-9.0058558E+001
 20
-4.308869E+001
 11
-9.0058558E+001
 21
-4.1314237E+001
  0
LINE
  8
100
  6
CONTINUOUS
 62
4
 10
-4.5580784E+001
 20
-4.2314237E+001
 11
-1.258558
 21
-4.2314237E+001
  0
LINE
  8
100
  6
CONTINUOUS
 62
4
 10
-9.0058558E+001
 20
-4.2314237E+001
 11
-4.5580784E+001
 21
-4.2314237E+001
  0
TEXT
  8
100
  6
CONTINUOUS
 62
4
 10
-5.1414118E+001
 20
-4.1148737E+001
 40
3.5
  1
 222 
 41
6.6666667E-001
  0
INSERT
  2
_AH13
  8
100
 62
4
 10
-1.258558
 20
-4.2314237E+001
 41
3.5
 42
3.5
 43
3.5
 50
1.8E+002
  0
INSERT
  2
_AH13
  8
100
 62
4
 10
-9.0058558E+001
 20
-4.2314237E+001
 41
3.5
 42
3.5
 43
3.5
 50
0.0
  0
ENDBLK
  0
BLOCK
  2
*D46
  3
*D
 10
0.0
 20
0.0
 70
65
  0
LINE
  8
100
  6
CONTINUOUS
 62
4
 10
1.6741442E+001
 20
-2.577689E+001
 11
1.6741442E+001
 21
-4.3314237E+001
  0
LINE
  8
100
  6
CONTINUOUS
 62
4
 10
-1.258558
 20
-2.577689E+001
 11
-1.258558
 21
-4.3314237E+001
  0
LINE
  8
100
  6
CONTINUOUS
 62
4
 10
7.8192264
 20
-4.2314237E+001
 11
1.6741442E+001
 21
-4.2314237E+001
  0
LINE
  8
100
  6
CONTINUOUS
 62
4
 10
-1.258558
 20
-4.2314237E+001
 11
7.8192264
 21
-4.2314237E+001
  0
TEXT
  8
100
  6
CONTINUOUS
 62
4
 10
5.4858931
 20
-4.1148737E+001
 40
3.5
  1
45
 41
6.6666667E-001
  0
INSERT
  2
_AH13
  8
100
 62
4
 10
1.6741442E+001
 20
-4.2314237E+001
 41
3.5
 42
3.5
 43
3.5
 50
1.8E+002
  0
INSERT
  2
_AH13
  8
100
 62
4
 10
-1.258558
 20
-4.2314237E+001
 41
3.5
 42
3.5
 43
3.5
 50
0.0
  0
ENDBLK
  0
BLOCK
  2
*D51
  3
*D
 10
0.0
 20
0.0
 70
65
  0
LINE
  8
100
  6
CONTINUOUS
 62
4
 10
-9.0058558E+001
 20
-4.992999E+001
 11
-9.0058558E+001
 21
2.242311E+001
  0
LINE
  8
100
  6
CONTINUOUS
 62
4
 10
-1.2658558E+001
 20
1.472311E+001
 11
-1.2658558E+001
 21
2.242311E+001
  0
LINE
  8
100
  6
CONTINUOUS
 62
4
 10
-9.0058558E+001
 20
2.142311E+001
 11
-5.1280784E+001
 21
2.142311E+001
  0
LINE
  8
100
  6
CONTINUOUS
 62
4
 10
-5.1280784E+001
 20
2.142311E+001
 11
-1.2658558E+001
 21
2.142311E+001
  0
TEXT
  8
100
  6
CONTINUOUS
 62
4
 10
-5.7114118E+001
 20
2.258861E+001
 40
3.5
  1
193,5
 41
6.6666667E-001
  0
INSERT
  2
_AH13
  8
100
 62
4
 10
-9.0058558E+001
 20
2.142311E+001
 41
3.5
 42
3.5
 43
3.5
 50
0.0
  0
INSERT
  2
_AH13
  8
100
 62
4
 10
-1.2658558E+001
 20
2.142311E+001
 41
3.5
 42
3.5
 43
3.5
 50
1.8E+002
  0
ENDBLK
  0
BLOCK
  2
*D52
  3
*D
 10
0.0
 20
0.0
 70
65
  0
LINE
  8
100
  6
CONTINUOUS
 62
4
 10
1.6141442E+001
 20
9.42311
 11
1.6141442E+001
 21
2.242311E+001
  0
LINE
  8
100
  6
CONTINUOUS
 62
4
 10
-3.858558
 20
9.42311
 11
-3.858558
 21
2.242311E+001
  0
LINE
  8
100
  6
CONTINUOUS
 62
4
 10
6.2192203
 20
2.142311E+001
 11
1.6141442E+001
 21
2.142311E+001
  0
LINE
  8
100
  6
CONTINUOUS
 62
4
 10
-3.858558
 20
2.142311E+001
 11
6.2192203
 21
2.142311E+001
  0
TEXT
  8
100
  6
CONTINUOUS
 62
4
 10
3.885887
 20
2.258861E+001
 40
3.5
  1
50
 41
6.6666667E-001
  0
INSERT
  2
_AH13
  8
100
 62
4
 10
1.6141442E+001
 20
2.142311E+001
 41
3.5
 42
3.5
 43
3.5
 50
1.8E+002
  0
INSERT
  2
_AH13
  8
100
 62
4
 10
-3.858558
 20
2.142311E+001
 41
3.5
 42
3.5
 43
3.5
 50
0.0
  0
ENDBLK
  0
BLOCK
  2
*D57
  3
*D
 10
0.0
 20
0.0
 70
65
  0
LINE
  8
100
  6
CONTINUOUS
 62
4
 10
3.6141442E+001
 20
9.42311
 11
3.6141442E+001
 21
2.242311E+001
  0
LINE
  8
100
  6
CONTINUOUS
 62
4
 10
1.6141442E+001
 20
9.42311
 11
1.6141442E+001
 21
2.242311E+001
  0
LINE
  8
100
  6
CONTINUOUS
 62
4
 10
2.621922E+001
 20
2.142311E+001
 11
3.6141442E+001
 21
2.142311E+001
  0
LINE
  8
100
  6
CONTINUOUS
 62
4
 10
1.6141442E+001
 20
2.142311E+001
 11
2.621922E+001
 21
2.142311E+001
  0
TEXT
  8
100
  6
CONTINUOUS
 62
4
 10
2.3885887E+001
 20
2.258861E+001
 40
3.5
  1
50
 41
6.6666667E-001
  0
INSERT
  2
_AH13
  8
100
 62
4
 10
3.6141442E+001
 20
2.142311E+001
 41
3.5
 42
3.5
 43
3.5
 50
1.8E+002
  0
INSERT
  2
_AH13
  8
100
 62
4
 10
1.6141442E+001
 20
2.142311E+001
 41
3.5
 42
3.5
 43
3.5
 50
0.0
  0
ENDBLK
  0
BLOCK
  2
*D58
  3
*D
 10
0.0
 20
0.0
 70
65
  0
LINE
  8
100
  6
CONTINUOUS
 62
4
 10
-3.858558
 20
1.830711E+001
 11
-3.858558
 21
2.242311E+001
  0
LINE
  8
100
  6
CONTINUOUS
 62
4
 10
-1.2658558E+001
 20
1.830711E+001
 11
-1.2658558E+001
 21
2.242311E+001
  0
LINE
  8
100
  6
CONTINUOUS
 62
4
 10
-8.5752743
 20
2.142311E+001
 11
-3.858558
 21
2.142311E+001
  0
LINE
  8
100
  6
CONTINUOUS
 62
4
 10
-1.2658558E+001
 20
2.142311E+001
 11
-8.5752743
 21
2.142311E+001
  0
TEXT
  8
100
  6
CONTINUOUS
 62
4
 10
-1.3241941E+001
 20
2.258861E+001
 40
3.5
  1
 22 
 41
6.6666667E-001
  0
INSERT
  2
_AH13
  8
100
 62
4
 10
-3.858558
 20
2.142311E+001
 41
3.5
 42
3.5
 43
3.5
 50
1.8E+002
  0
INSERT
  2
_AH13
  8
100
 62
4
 10
-1.2658558E+001
 20
2.142311E+001
 41
3.5
 42
3.5
 43
3.5
 50
0.0
  0
ENDBLK
  0
BLOCK
  2
*D1392
  3
*D
 10
0.0
 20
0.0
 70
65
  0
LINE
  8
100
  6
CONTINUOUS
 62
4
 10
-1.258558
 20
-2.577689E+001
 11
-1.258558
 21
-4.3314237E+001
  0
LINE
  8
100
  6
CONTINUOUS
 62
4
 10
-9.0058558E+001
 20
-4.308869E+001
 11
-9.0058558E+001
 21
-4.1314237E+001
  0
LINE
  8
100
  6
CONTINUOUS
 62
4
 10
-4.5580784E+001
 20
-4.2314237E+001
 11
-1.258558
 21
-4.2314237E+001
  0
LINE
  8
100
  6
CONTINUOUS
 62
4
 10
-9.0058558E+001
 20
-4.2314237E+001
 11
-4.5580784E+001
 21
-4.2314237E+001
  0
TEXT
  8
100
  6
CONTINUOUS
 62
4
 10
-5.1414118E+001
 20
-4.1148737E+001
 40
3.5
  1
 222 
 41
6.6666667E-001
  0
INSERT
  2
_AH13
  8
100
 62
4
 10
-1.258558
 20
-4.2314237E+001
 41
3.5
 42
3.5
 43
3.5
 50
1.8E+002
  0
INSERT
  2
_AH13
  8
100
 62
4
 10
-9.0058558E+001
 20
-4.2314237E+001
 41
3.5
 42
3.5
 43
3.5
 50
0.0
  0
ENDBLK
  0
BLOCK
  2
*D1393
  3
*D
 10
0.0
 20
0.0
 70
65
  0
LINE
  8
100
  6
CONTINUOUS
 62
4
 10
1.6741442E+001
 20
-2.577689E+001
 11
1.6741442E+001
 21
-4.3314237E+001
  0
LINE
  8
100
  6
CONTINUOUS
 62
4
 10
-1.258558
 20
-2.577689E+001
 11
-1.258558
 21
-4.3314237E+001
  0
LINE
  8
100
  6
CONTINUOUS
 62
4
 10
7.8192264
 20
-4.2314237E+001
 11
1.6741442E+001
 21
-4.2314237E+001
  0
LINE
  8
100
  6
CONTINUOUS
 62
4
 10
-1.258558
 20
-4.2314237E+001
 11
7.8192264
 21
-4.2314237E+001
  0
TEXT
  8
100
  6
CONTINUOUS
 62
4
 10
5.4858931
 20
-4.1148737E+001
 40
3.5
  1
45
 41
6.6666667E-001
  0
INSERT
  2
_AH13
  8
100
 62
4
 10
1.6741442E+001
 20
-4.2314237E+001
 41
3.5
 42
3.5
 43
3.5
 50
1.8E+002
  0
INSERT
  2
_AH13
  8
100
 62
4
 10
-1.258558
 20
-4.2314237E+001
 41
3.5
 42
3.5
 43
3.5
 50
0.0
  0
ENDBLK
  0
BLOCK
  2
*D1394
  3
*D
 10
0.0
 20
0.0
 70
65
  0
LINE
  8
100
  6
CONTINUOUS
 62
4
 10
-9.0058558E+001
 20
-4.992999E+001
 11
-9.0058558E+001
 21
2.242311E+001
  0
LINE
  8
100
  6
CONTINUOUS
 62
4
 10
-1.2658558E+001
 20
1.472311E+001
 11
-1.2658558E+001
 21
2.242311E+001
  0
LINE
  8
100
  6
CONTINUOUS
 62
4
 10
-9.0058558E+001
 20
2.142311E+001
 11
-5.1280784E+001
 21
2.142311E+001
  0
LINE
  8
100
  6
CONTINUOUS
 62
4
 10
-5.1280784E+001
 20
2.142311E+001
 11
-1.2658558E+001
 21
2.142311E+001
  0
TEXT
  8
100
  6
CONTINUOUS
 62
4
 10
-5.7114118E+001
 20
2.258861E+001
 40
3.5
  1
193,5
 41
6.6666667E-001
  0
INSERT
  2
_AH13
  8
100
 62
4
 10
-9.0058558E+001
 20
2.142311E+001
 41
3.5
 42
3.5
 43
3.5
 50
0.0
  0
INSERT
  2
_AH13
  8
100
 62
4
 10
-1.2658558E+001
 20
2.142311E+001
 41
3.5
 42
3.5
 43
3.5
 50
1.8E+002
  0
ENDBLK
  0
BLOCK
  2
*D1395
  3
*D
 10
0.0
 20
0.0
 70
65
  0
LINE
  8
100
  6
CONTINUOUS
 62
4
 10
1.6141442E+001
 20
9.42311
 11
1.6141442E+001
 21
2.242311E+001
  0
LINE
  8
100
  6
CONTINUOUS
 62
4
 10
-3.858558
 20
9.42311
 11
-3.858558
 21
2.242311E+001
  0
LINE
  8
100
  6
CONTINUOUS
 62
4
 10
6.2192203
 20
2.142311E+001
 11
1.6141442E+001
 21
2.142311E+001
  0
LINE
  8
100
  6
CONTINUOUS
 62
4
 10
-3.858558
 20
2.142311E+001
 11
6.2192203
 21
2.142311E+001
  0
TEXT
  8
100
  6
CONTINUOUS
 62
4
 10
3.885887
 20
2.258861E+001
 40
3.5
  1
50
 41
6.6666667E-001
  0
INSERT
  2
_AH13
  8
100
 62
4
 10
1.6141442E+001
 20
2.142311E+001
 41
3.5
 42
3.5
 43
3.5
 50
1.8E+002
  0
INSERT
  2
_AH13
  8
100
 62
4
 10
-3.858558
 20
2.142311E+001
 41
3.5
 42
3.5
 43
3.5
 50
0.0
  0
ENDBLK
  0
BLOCK
  2
*D1396
  3
*D
 10
0.0
 20
0.0
 70
65
  0
LINE
  8
100
  6
CONTINUOUS
 62
4
 10
3.6141442E+001
 20
9.42311
 11
3.6141442E+001
 21
2.242311E+001
  0
LINE
  8
100
  6
CONTINUOUS
 62
4
 10
1.6141442E+001
 20
9.42311
 11
1.6141442E+001
 21
2.242311E+001
  0
LINE
  8
100
  6
CONTINUOUS
 62
4
 10
2.621922E+001
 20
2.142311E+001
 11
3.6141442E+001
 21
2.142311E+001
  0
LINE
  8
100
  6
CONTINUOUS
 62
4
 10
1.6141442E+001
 20
2.142311E+001
 11
2.621922E+001
 21
2.142311E+001
  0
TEXT
  8
100
  6
CONTINUOUS
 62
4
 10
2.3885887E+001
 20
2.258861E+001
 40
3.5
  1
50
 41
6.6666667E-001
  0
INSERT
  2
_AH13
  8
100
 62
4
 10
3.6141442E+001
 20
2.142311E+001
 41
3.5
 42
3.5
 43
3.5
 50
1.8E+002
  0
INSERT
  2
_AH13
  8
100
 62
4
 10
1.6141442E+001
 20
2.142311E+001
 41
3.5
 42
3.5
 43
3.5
 50
0.0
  0
ENDBLK
  0
BLOCK
  2
*D1397
  3
*D
 10
0.0
 20
0.0
 70
65
  0
LINE
  8
100
  6
CONTINUOUS
 62
4
 10
-3.858558
 20
1.830711E+001
 11
-3.858558
 21
2.242311E+001
  0
LINE
  8
100
  6
CONTINUOUS
 62
4
 10
-1.2658558E+001
 20
1.830711E+001
 11
-1.2658558E+001
 21
2.242311E+001
  0
LINE
  8
100
  6
CONTINUOUS
 62
4
 10
-8.5752743
 20
2.142311E+001
 11
-3.858558
 21
2.142311E+001
  0
LINE
  8
100
  6
CONTINUOUS
 62
4
 10
-1.2658558E+001
 20
2.142311E+001
 11
-8.5752743
 21
2.142311E+001
  0
TEXT
  8
100
  6
CONTINUOUS
 62
4
 10
-1.3241941E+001
 20
2.258861E+001
 40
3.5
  1
 22 
 41
6.6666667E-001
  0
INSERT
  2
_AH13
  8
100
 62
4
 10
-3.858558
 20
2.142311E+001
 41
3.5
 42
3.5
 43
3.5
 50
1.8E+002
  0
INSERT
  2
_AH13
  8
100
 62
4
 10
-1.2658558E+001
 20
2.142311E+001
 41
3.5
 42
3.5
 43
3.5
 50
0.0
  0
ENDBLK
  0
BLOCK
  2
*D1501
  3
*D
 10
0.0
 20
0.0
 70
65
  0
LINE
  8
2
  6
CONTINUOUS
 62
4
 10
2.8375663E+002
 20
1.2254141E+002
 11
2.8375663E+002
 21
6.4231831E+001
  0
LINE
  8
2
  6
CONTINUOUS
 62
4
 10
6.1756634E+001
 20
7.4261907E+001
 11
6.1756634E+001
 21
6.4231831E+001
  0
LINE
  8
2
  6
CONTINUOUS
 62
4
 10
2.8375663E+002
 20
6.6731831E+001
 11
1.8675029E+002
 21
6.6731831E+001
  0
LINE
  8
2
  6
CONTINUOUS
 62
4
 10
6.1756634E+001
 20
6.6731831E+001
 11
1.8675029E+002
 21
6.6731831E+001
  0
TEXT
  8
2
  6
CONTINUOUS
 62
4
 10
1.7216696E+002
 20
6.9648081E+001
 40
8.75
  1
 222 
 41
6.6666667E-001
 50
3.6E+002
  0
INSERT
  2
_AH13
  8
2
 62
4
 10
2.8375663E+002
 20
6.6731831E+001
 41
8.75
 42
8.75
 43
8.75
 50
1.8E+002
  0
INSERT
  2
_AH13
  8
2
 62
4
 10
6.1756634E+001
 20
6.6731831E+001
 41
8.75
 42
8.75
 43
8.75
 50
3.6E+002
  0
ENDBLK
  0
BLOCK
  2
*D1502
  3
*D
 10
0.0
 20
0.0
 70
65
  0
LINE
  8
2
  6
CONTINUOUS
 62
4
 10
3.2875663E+002
 20
1.2254141E+002
 11
3.2875663E+002
 21
6.4231831E+001
  0
LINE
  8
2
  6
CONTINUOUS
 62
4
 10
2.8375663E+002
 20
1.2254141E+002
 11
2.8375663E+002
 21
6.4231831E+001
  0
LINE
  8
2
  6
CONTINUOUS
 62
4
 10
3.2875663E+002
 20
6.6731831E+001
 11
3.0645109E+002
 21
6.6731831E+001
  0
LINE
  8
2
  6
CONTINUOUS
 62
4
 10
2.8375663E+002
 20
6.6731831E+001
 11
3.0645109E+002
 21
6.6731831E+001
  0
TEXT
  8
2
  6
CONTINUOUS
 62
4
 10
3.0061776E+002
 20
6.9648081E+001
 40
8.75
  1
45
 41
6.6666667E-001
 50
3.6E+002
  0
INSERT
  2
_AH13
  8
2
 62
4
 10
3.2875663E+002
 20
6.6731831E+001
 41
8.75
 42
8.75
 43
8.75
 50
1.8E+002
  0
INSERT
  2
_AH13
  8
2
 62
4
 10
2.8375663E+002
 20
6.6731831E+001
 41
8.75
 42
8.75
 43
8.75
 50
3.6E+002
  0
ENDBLK
  0
BLOCK
  2
*D1503
  3
*D
 10
0.0
 20
0.0
 70
65
  0
LINE
  8
2
  6
CONTINUOUS
 62
4
 10
6.1756634E+001
 20
8.6084547E+001
 11
6.1756634E+001
 21
2.5044782E+002
  0
LINE
  8
2
  6
CONTINUOUS
 62
4
 10
2.5525663E+002
 20
2.477173E+002
 11
2.5525663E+002
 21
2.5044782E+002
  0
LINE
  8
2
  6
CONTINUOUS
 62
4
 10
6.1756634E+001
 20
2.4794782E+002
 11
1.3816211E+002
 21
2.4794782E+002
  0
LINE
  8
2
  6
CONTINUOUS
 62
4
 10
2.5525663E+002
 20
2.4794782E+002
 11
1.3816211E+002
 21
2.4794782E+002
  0
TEXT
  8
2
  6
CONTINUOUS
 62
4
 10
1.2357877E+002
 20
2.5086407E+002
 40
8.75
  1
193,5
 41
6.6666667E-001
  0
INSERT
  2
_AH13
  8
2
 62
4
 10
6.1756634E+001
 20
2.4794782E+002
 41
8.75
 42
8.75
 43
8.75
 50
0.0
  0
INSERT
  2
_AH13
  8
2
 62
4
 10
2.5525663E+002
 20
2.4794782E+002
 41
8.75
 42
8.75
 43
8.75
 50
1.8E+002
  0
ENDBLK
  0
BLOCK
  2
*D1504
  3
*D
 10
0.0
 20
0.0
 70
65
  0
LINE
  8
2
  6
CONTINUOUS
 62
4
 10
3.2725663E+002
 20
2.1054141E+002
 11
3.2725663E+002
 21
2.5044782E+002
  0
LINE
  8
2
  6
CONTINUOUS
 62
4
 10
2.7725663E+002
 20
2.1054141E+002
 11
2.7725663E+002
 21
2.5044782E+002
  0
LINE
  8
2
  6
CONTINUOUS
 62
4
 10
3.2725663E+002
 20
2.4794782E+002
 11
3.0245108E+002
 21
2.4794782E+002
  0
LINE
  8
2
  6
CONTINUOUS
 62
4
 10
2.7725663E+002
 20
2.4794782E+002
 11
3.0245108E+002
 21
2.4794782E+002
  0
TEXT
  8
2
  6
CONTINUOUS
 62
4
 10
2.9661775E+002
 20
2.5086407E+002
 40
8.75
  1
50
 41
6.6666667E-001
 50
3.6E+002
  0
INSERT
  2
_AH13
  8
2
 62
4
 10
3.2725663E+002
 20
2.4794782E+002
 41
8.75
 42
8.75
 43
8.75
 50
1.8E+002
  0
INSERT
  2
_AH13
  8
2
 62
4
 10
2.7725663E+002
 20
2.4794782E+002
 41
8.75
 42
8.75
 43
8.75
 50
3.6E+002
  0
ENDBLK
  0
BLOCK
  2
*D1505
  3
*D
 10
0.0
 20
0.0
 70
65
  0
LINE
  8
2
  6
CONTINUOUS
 62
4
 10
3.7725663E+002
 20
2.1054141E+002
 11
3.7725663E+002
 21
2.5044782E+002
  0
LINE
  8
2
  6
CONTINUOUS
 62
4
 10
3.2725663E+002
 20
2.1054141E+002
 11
3.2725663E+002
 21
2.5044782E+002
  0
LINE
  8
2
  6
CONTINUOUS
 62
4
 10
3.7725663E+002
 20
2.4794782E+002
 11
3.5245108E+002
 21
2.4794782E+002
  0
LINE
  8
2
  6
CONTINUOUS
 62
4
 10
3.2725663E+002
 20
2.4794782E+002
 11
3.5245108E+002
 21
2.4794782E+002
  0
TEXT
  8
2
  6
CONTINUOUS
 62
4
 10
3.4661775E+002
 20
2.5086407E+002
 40
8.75
  1
50
 41
6.6666667E-001
 50
3.6E+002
  0
INSERT
  2
_AH13
  8
2
 62
4
 10
3.7725663E+002
 20
2.4794782E+002
 41
8.75
 42
8.75
 43
8.75
 50
1.8E+002
  0
INSERT
  2
_AH13
  8
2
 62
4
 10
3.2725663E+002
 20
2.4794782E+002
 41
8.75
 42
8.75
 43
8.75
 50
3.6E+002
  0
ENDBLK
  0
BLOCK
  2
*D1506
  3
*D
 10
0.0
 20
0.0
 70
65
  0
LINE
  8
2
  6
CONTINUOUS
 62
4
 10
2.7725663E+002
 20
2.3275141E+002
 11
2.7725663E+002
 21
2.5044782E+002
  0
LINE
  8
2
  6
CONTINUOUS
 62
4
 10
2.5525663E+002
 20
2.3275141E+002
 11
2.5525663E+002
 21
2.5044782E+002
  0
LINE
  8
2
  6
CONTINUOUS
 62
4
 10
2.9225663E+002
 20
2.4794782E+002
 11
2.7725663E+002
 21
2.4794782E+002
  0
LINE
  8
2
  6
CONTINUOUS
 62
4
 10
2.4025663E+002
 20
2.4794782E+002
 11
2.7725663E+002
 21
2.4794782E+002
  0
TEXT
  8
2
  6
CONTINUOUS
 62
4
 10
2.5458997E+002
 20
2.5086407E+002
 40
8.75
  1
 22 
 41
6.6666667E-001
 50
3.6E+002
  0
INSERT
  2
_AH13
  8
2
 62
4
 10
2.7725663E+002
 20
2.4794782E+002
 41
8.75
 42
8.75
 43
8.75
 50
3.6E+002
  0
INSERT
  2
_AH13
  8
2
 62
4
 10
2.5525663E+002
 20
2.4794782E+002
 41
8.75
 42
8.75
 43
8.75
 50
5.4E+002
  0
ENDBLK
  0
BLOCK
  2
*D2976
  3
*D
 10
0.0
 20
0.0
 70
65
  0
LINE
  8
100
  6
CONTINUOUS
 62
1
 10
1.3615335E+001
 20
2.7449386E-001
 11
-4.803056
 21
-2.2062141E+001
  0
SOLID
  8
100
  6
CONTINUOUS
 62
0
 10
1.3615335E+001
 20
2.7449386E-001
 11
1.0556213E+001
 21
-2.3875016
 12
1.1584929E+001
 22
-3.2357627
 13
1.1584929E+001
 23
-3.2357627
  0
LINE
  8
100
  6
CONTINUOUS
 62
1
 10
-2.6303056E+001
 20
-2.2062141E+001
 11
-4.803056
 21
-2.2062141E+001
  0
TEXT
  8
100
  6
CONTINUOUS
 62
1
 10
-2.4803056E+001
 20
-2.0562141E+001
 40
3.5
  1
M5x16
  0
ENDBLK
  0
BLOCK
  2
*D2980
  3
*D
 10
0.0
 20
0.0
 70
65
  0
LINE
  8
1
  6
CONTINUOUS
 62
1
 10
1.18166E+002
 20
2.53166E+002
 11
1.8688027E+002
 21
2.53166E+002
  0
LINE
  8
1
  6
CONTINUOUS
 62
1
 10
1.18166E+002
 20
2.08166E+002
 11
1.8688027E+002
 21
2.08166E+002
  0
LINE
  8
1
  6
CONTINUOUS
 62
1
 10
1.8538027E+002
 20
2.53166E+002
 11
1.8538027E+002
 21
2.3502988E+002
  0
LINE
  8
1
  6
CONTINUOUS
 62
1
 10
1.8538027E+002
 20
2.08166E+002
 11
1.8538027E+002
 21
2.3502988E+002
  0
TEXT
  8
1
  6
CONTINUOUS
 62
1
 10
1.8387927E+002
 20
2.3222988E+002
 40
3.5
  1
45
 41
8.0E-001
 50
9.0E+001
  0
INSERT
  2
_AH13
  8
1
 62
1
 10
1.8538027E+002
 20
2.53166E+002
 41
4.0
 42
4.0
 43
4.0
 50
2.7E+002
  0
INSERT
  2
_AH13
  8
1
 62
1
 10
1.8538027E+002
 20
2.08166E+002
 41
4.0
 42
4.0
 43
4.0
 50
4.5E+002
  0
ENDBLK
  0
BLOCK
  2
*D2981
  3
*D
 10
0.0
 20
0.0
 70
65
  0
LINE
  8
1
  6
CONTINUOUS
 62
1
 10
1.18166E+002
 20
2.08166E+002
 11
1.8688027E+002
 21
2.08166E+002
  0
LINE
  8
1
  6
CONTINUOUS
 62
1
 10
1.315867E+002
 20
1.70166E+002
 11
1.8688027E+002
 21
1.70166E+002
  0
LINE
  8
1
  6
CONTINUOUS
 62
1
 10
1.8538027E+002
 20
2.08166E+002
 11
1.8538027E+002
 21
1.9195367E+002
  0
LINE
  8
1
  6
CONTINUOUS
 62
1
 10
1.8538027E+002
 20
1.70166E+002
 11
1.8538027E+002
 21
1.9195367E+002
  0
TEXT
  8
1
  6
CONTINUOUS
 62
1
 10
1.8387927E+002
 20
1.8915367E+002
 40
3.5
  1
38
 41
8.0E-001
 50
9.0E+001
  0
INSERT
  2
_AH13
  8
1
 62
1
 10
1.8538027E+002
 20
2.08166E+002
 41
4.0
 42
4.0
 43
4.0
 50
2.7E+002
  0
INSERT
  2
_AH13
  8
1
 62
1
 10
1.8538027E+002
 20
1.70166E+002
 41
4.0
 42
4.0
 43
4.0
 50
4.5E+002
  0
ENDBLK
  0
BLOCK
  2
*D2982
  3
*D
 10
0.0
 20
0.0
 70
65
  0
LINE
  8
1
  6
CONTINUOUS
 62
1
 10
1.37314E+002
 20
1.93166E+002
 11
1.7667801E+002
 21
1.93166E+002
  0
LINE
  8
1
  6
CONTINUOUS
 62
1
 10
1.18166E+002
 20
2.08166E+002
 11
1.7667801E+002
 21
2.08166E+002
  0
LINE
  8
1
  6
CONTINUOUS
 62
1
 10
1.7517801E+002
 20
1.93166E+002
 11
1.7517801E+002
 21
2.0064448E+002
  0
LINE
  8
1
  6
CONTINUOUS
 62
1
 10
1.7517801E+002
 20
2.08166E+002
 11
1.7517801E+002
 21
2.0064448E+002
  0
TEXT
  8
1
  6
CONTINUOUS
 62
1
 10
1.7367701E+002
 20
1.9784448E+002
 40
3.5
  1
15
 41
8.0E-001
 50
9.0E+001
  0
INSERT
  2
_AH13
  8
1
 62
1
 10
1.7517801E+002
 20
1.93166E+002
 41
4.0
 42
4.0
 43
4.0
 50
9.0E+001
  0
INSERT
  2
_AH13
  8
1
 62
1
 10
1.7517801E+002
 20
2.08166E+002
 41
4.0
 42
4.0
 43
4.0
 50
2.7E+002
  0
ENDBLK
  0
BLOCK
  2
*D2983
  3
*D
 10
0.0
 20
0.0
 70
65
  0
LINE
  8
1
  6
CONTINUOUS
 62
1
 10
1.06314E+002
 20
2.682817E+002
 11
1.06314E+002
 21
2.7030932E+002
  0
LINE
  8
1
  6
CONTINUOUS
 62
1
 10
6.03145E+001
 20
2.60666E+002
 11
6.03145E+001
 21
2.7030932E+002
  0
LINE
  8
1
  6
CONTINUOUS
 62
1
 10
1.06314E+002
 20
2.6880932E+002
 11
8.3885264E+001
 21
2.6880932E+002
  0
LINE
  8
1
  6
CONTINUOUS
 62
1
 10
6.03145E+001
 20
2.6880932E+002
 11
8.3885264E+001
 21
2.6880932E+002
  0
TEXT
  8
1
  6
CONTINUOUS
 62
1
 10
8.1085264E+001
 20
2.7031032E+002
 40
3.5
  1
46
 41
8.0E-001
 50
3.6E+002
  0
INSERT
  2
_AH13
  8
1
 62
1
 10
1.06314E+002
 20
2.6880932E+002
 41
4.0
 42
4.0
 43
4.0
 50
1.8E+002
  0
INSERT
  2
_AH13
  8
1
 62
1
 10
6.03145E+001
 20
2.6880932E+002
 41
4.0
 42
4.0
 43
4.0
 50
3.6E+002
  0
ENDBLK
  0
BLOCK
  2
*D2984
  3
*D
 10
0.0
 20
0.0
 70
65
  0
LINE
  8
1
  6
CONTINUOUS
 62
1
 10
6.03145E+001
 20
2.60666E+002
 11
4.4071494E+001
 21
2.60666E+002
  0
LINE
  8
1
  6
CONTINUOUS
 62
1
 10
6.03145E+001
 20
2.00666E+002
 11
4.4071494E+001
 21
2.00666E+002
  0
LINE
  8
1
  6
CONTINUOUS
 62
1
 10
4.5571494E+001
 20
2.60666E+002
 11
4.5571494E+001
 21
2.338963E+002
  0
LINE
  8
1
  6
CONTINUOUS
 62
1
 10
4.5571494E+001
 20
2.00666E+002
 11
4.5571494E+001
 21
2.338963E+002
  0
TEXT
  8
1
  6
CONTINUOUS
 62
1
 10
4.4070494E+001
 20
2.310963E+002
 40
3.5
  1
60
 41
8.0E-001
 50
9.0E+001
  0
INSERT
  2
_AH13
  8
1
 62
1
 10
4.5571494E+001
 20
2.60666E+002
 41
4.0
 42
4.0
 43
4.0
 50
2.7E+002
  0
INSERT
  2
_AH13
  8
1
 62
1
 10
4.5571494E+001
 20
2.00666E+002
 41
4.0
 42
4.0
 43
4.0
 50
4.5E+002
  0
ENDBLK
  0
BLOCK
  2
*D2985
  3
*D
 10
0.0
 20
0.0
 70
65
  0
LINE
  8
1
  6
CONTINUOUS
 62
1
 10
7.55645E+001
 20
2.66416E+002
 11
4.4071494E+001
 21
2.66416E+002
  0
LINE
  8
1
  6
CONTINUOUS
 62
1
 10
6.03145E+001
 20
2.60666E+002
 11
4.4071494E+001
 21
2.60666E+002
  0
LINE
  8
1
  6
CONTINUOUS
 62
1
 10
4.5571494E+001
 20
2.66416E+002
 11
4.5571494E+001
 21
2.7382673E+002
  0
LINE
  8
1
  6
CONTINUOUS
 62
1
 10
4.5571494E+001
 20
2.52666E+002
 11
4.5571494E+001
 21
2.66416E+002
  0
TEXT
  8
1
  6
CONTINUOUS
 62
1
 10
4.4070494E+001
 20
2.6952673E+002
 40
3.5
  1
6
 41
8.0E-001
 50
9.0E+001
  0
INSERT
  2
_AH13
  8
1
 62
1
 10
4.5571494E+001
 20
2.66416E+002
 41
4.0
 42
4.0
 43
4.0
 50
4.5E+002
  0
INSERT
  2
_AH13
  8
1
 62
1
 10
4.5571494E+001
 20
2.60666E+002
 41
4.0
 42
4.0
 43
4.0
 50
6.3E+002
  0
ENDBLK
  0
BLOCK
  2
*D2986
  3
*D
 10
0.0
 20
0.0
 70
65
  0
LINE
  8
1
  6
CONTINUOUS
 62
1
 10
1.06314E+002
 20
1.93166E+002
 11
1.06314E+002
 21
1.3543563E+002
  0
LINE
  8
1
  6
CONTINUOUS
 62
1
 10
1.1313229E+002
 20
1.47366E+002
 11
1.1313229E+002
 21
1.3543563E+002
  0
LINE
  8
1
  6
CONTINUOUS
 62
1
 10
9.8314E+001
 20
1.3693563E+002
 11
1.1313229E+002
 21
1.3693563E+002
  0
LINE
  8
1
  6
CONTINUOUS
 62
1
 10
1.1313229E+002
 20
1.3693563E+002
 11
1.4317368E+002
 21
1.3693563E+002
  0
TEXT
  8
1
  6
CONTINUOUS
 62
1
 10
1.2207368E+002
 20
1.3843664E+002
 40
3.5
  1
max. 80
 41
8.0E-001
  0
INSERT
  2
_AH13
  8
1
 62
1
 10
1.06314E+002
 20
1.3693563E+002
 41
4.0
 42
4.0
 43
4.0
 50
1.8E+002
  0
INSERT
  2
_AH13
  8
1
 62
1
 10
1.1313229E+002
 20
1.3693563E+002
 41
4.0
 42
4.0
 43
4.0
 50
3.6E+002
  0
ENDBLK
  0
BLOCK
  2
*D3096
  3
*D
 10
0.0
 20
0.0
 70
65
  0
LINE
  8
2
  6
CONTINUOUS
 62
1
 10
1.6825663E+002
 20
2.1554141E+002
 11
1.6825663E+002
 21
2.3550616E+002
  0
LINE
  8
2
  6
CONTINUOUS
 62
1
 10
2.5525663E+002
 20
2.2538391E+002
 11
2.5525663E+002
 21
2.3550616E+002
  0
LINE
  8
2
  6
CONTINUOUS
 62
1
 10
1.6825663E+002
 20
2.3175616E+002
 11
2.0906798E+002
 21
2.3175616E+002
  0
LINE
  8
2
  6
CONTINUOUS
 62
1
 10
2.5525663E+002
 20
2.3175616E+002
 11
2.0906798E+002
 21
2.3175616E+002
  0
TEXT
  8
2
  6
CONTINUOUS
 62
1
 10
2.0206798E+002
 20
2.3550866E+002
 40
8.75
  1
87
 41
8.0E-001
  0
INSERT
  2
_AH13
  8
2
 62
1
 10
1.6825663E+002
 20
2.3175616E+002
 41
1.0E+001
 42
1.0E+001
 43
1.0E+001
 50
0.0
  0
INSERT
  2
_AH13
  8
2
 62
1
 10
2.5525663E+002
 20
2.3175616E+002
 41
1.0E+001
 42
1.0E+001
 43
1.0E+001
 50
1.8E+002
  0
ENDBLK
  0
BLOCK
  2
*D3097
  3
*D
 10
0.0
 20
0.0
 70
65
  0
LINE
  8
2
  6
CONTINUOUS
 62
1
 10
4.1325663E+002
 20
2.1554141E+002
 11
4.1325663E+002
 21
2.708141E+002
  0
LINE
  8
2
  6
CONTINUOUS
 62
1
 10
1.6825663E+002
 20
2.1554141E+002
 11
1.6825663E+002
 21
2.708141E+002
  0
LINE
  8
2
  6
CONTINUOUS
 62
1
 10
4.1325663E+002
 20
2.670641E+002
 11
3.0796679E+002
 21
2.670641E+002
  0
LINE
  8
2
  6
CONTINUOUS
 62
1
 10
1.6825663E+002
 20
2.670641E+002
 11
3.0796679E+002
 21
2.670641E+002
  0
TEXT
  8
2
  6
CONTINUOUS
 62
1
 10
2.9746679E+002
 20
2.708166E+002
 40
8.75
  1
245
 41
8.0E-001
 50
3.6E+002
  0
INSERT
  2
_AH13
  8
2
 62
1
 10
4.1325663E+002
 20
2.670641E+002
 41
1.0E+001
 42
1.0E+001
 43
1.0E+001
 50
1.8E+002
  0
INSERT
  2
_AH13
  8
2
 62
1
 10
1.6825663E+002
 20
2.670641E+002
 41
1.0E+001
 42
1.0E+001
 43
1.0E+001
 50
3.6E+002
  0
ENDBLK
  0
BLOCK
  2
*D3099
  3
*D
 10
0.0
 20
0.0
 70
65
  0
LINE
  8
2
  6
CONTINUOUS
 62
1
 10
1.6825663E+002
 20
2.1554141E+002
 11
1.6825663E+002
 21
2.7028165E+002
  0
LINE
  8
2
  6
CONTINUOUS
 62
1
 10
6.1756634E+001
 20
6.1497034E+001
 11
6.1756634E+001
 21
2.7028165E+002
  0
LINE
  8
2
  6
CONTINUOUS
 62
1
 10
1.6825663E+002
 20
2.6653165E+002
 11
1.0745129E+002
 21
2.6653165E+002
  0
LINE
  8
2
  6
CONTINUOUS
 62
1
 10
6.1756634E+001
 20
2.6653165E+002
 11
1.0745129E+002
 21
2.6653165E+002
  0
TEXT
  8
2
  6
CONTINUOUS
 62
1
 10
8.9951285E+001
 20
2.7028415E+002
 40
8.75
  1
106,5
 41
8.0E-001
 50
3.6E+002
  0
INSERT
  2
_AH13
  8
2
 62
1
 10
1.6825663E+002
 20
2.6653165E+002
 41
1.0E+001
 42
1.0E+001
 43
1.0E+001
 50
1.8E+002
  0
INSERT
  2
_AH13
  8
2
 62
1
 10
6.1756634E+001
 20
2.6653165E+002
 41
1.0E+001
 42
1.0E+001
 43
1.0E+001
 50
3.6E+002
  0
ENDBLK
  0
BLOCK
  2
*D3100
  3
*D
 10
0.0
 20
0.0
 70
65
  0
LINE
  8
2
  6
CONTINUOUS
 62
1
 10
1.6825663E+002
 20
2.1554141E+002
 11
1.3576516E+002
 21
2.1554141E+002
  0
LINE
  8
2
  6
CONTINUOUS
 62
1
 10
2.7787432E+002
 20
1.1704141E+002
 11
1.3576516E+002
 21
1.1704141E+002
  0
LINE
  8
2
  6
CONTINUOUS
 62
1
 10
1.3951516E+002
 20
2.1554141E+002
 11
1.3951516E+002
 21
1.7665549E+002
  0
LINE
  8
2
  6
CONTINUOUS
 62
1
 10
1.3951516E+002
 20
1.1704141E+002
 11
1.3951516E+002
 21
1.7665549E+002
  0
TEXT
  8
2
  6
CONTINUOUS
 62
1
 10
1.3576266E+002
 20
1.6265549E+002
 40
8.75
  1
98,5
 41
8.0E-001
 50
9.0E+001
  0
INSERT
  2
_AH13
  8
2
 62
1
 10
1.3951516E+002
 20
2.1554141E+002
 41
1.0E+001
 42
1.0E+001
 43
1.0E+001
 50
2.7E+002
  0
INSERT
  2
_AH13
  8
2
 62
1
 10
1.3951516E+002
 20
1.1704141E+002
 41
1.0E+001
 42
1.0E+001
 43
1.0E+001
 50
4.5E+002
  0
ENDBLK
  0
BLOCK
  2
*D3213
  3
*D
 10
0.0
 20
0.0
 70
65
  0
LINE
  8
2
  6
CONTINUOUS
 62
1
 10
2.9825663E+002
 20
1.1106278E+002
 11
2.9825663E+002
 21
8.2766757E+001
  0
LINE
  8
2
  6
CONTINUOUS
 62
1
 10
2.5525716E+002
 20
1.3349076E+002
 11
2.5525716E+002
 21
8.2766757E+001
  0
LINE
  8
2
  6
CONTINUOUS
 62
1
 10
2.9825663E+002
 20
8.6516757E+001
 11
2.7255987E+002
 21
8.6516757E+001
  0
LINE
  8
2
  6
CONTINUOUS
 62
1
 10
2.5525716E+002
 20
8.6516757E+001
 11
2.7255987E+002
 21
8.6516757E+001
  0
TEXT
  8
2
  6
CONTINUOUS
 62
1
 10
2.6555987E+002
 20
9.0269257E+001
 40
8.75
  1
43
 41
8.0E-001
 50
3.6E+002
  0
INSERT
  2
_AH13
  8
2
 62
1
 10
2.9825663E+002
 20
8.6516757E+001
 41
1.0E+001
 42
1.0E+001
 43
1.0E+001
 50
1.8E+002
  0
INSERT
  2
_AH13
  8
2
 62
1
 10
2.5525716E+002
 20
8.6516757E+001
 41
1.0E+001
 42
1.0E+001
 43
1.0E+001
 50
3.6E+002
  0
ENDBLK
  0
ENDSEC
  0
SECTION
  2
ENTITIES
  0
TEXT
  8
1
  6
CONTINUOUS
 62
7
 10
2.2859986E+001
 20
2.3594222E+001
 40
1.0
  1
2-FRONT
 41
3.0
 50
1.0
  0
LINE
  8
2
  6
CONTINUOUS
 62
40
 10
4.1325663E+002
 20
2.1554141E+002
 11
4.1325663E+002
 21
1.5554141E+002
  0
TEXT
  8
1
  6
CONTINUOUS
 62
1
 10
9.5454559E+001
 20
1.6779874E+001
 40
2.5
  1
1:2.5
 41
6.3E-001
 72
1
 11
9.1517059E+001
 21
1.5529874E+001
 73
2
  0
INSERT
  2
*XH36
  8
1
 10
4.022922E+001
 20
8.4916117
  0
LINE
  8
1
  6
CONTINUOUS
 62
1
 10
4.79943E+001
 20
7.99333
 11
4.87484E+001
 21
7.99333
  0
LINE
  8
1
  6
CONTINUOUS
 62
1
 10
4.87484E+001
 20
7.99333
 11
4.84843E+001
 21
9.46099
  0
LINE
  8
1
  6
CONTINUOUS
 62
1
 10
4.84843E+001
 20
9.46099
 11
4.82585E+001
 21
9.46099
  0
LINE
  8
1
  6
CONTINUOUS
 62
1
 10
4.82585E+001
 20
9.46099
 11
4.79943E+001
 21
7.99333
  0
LINE
  8
1
  6
CONTINUOUS
 62
1
 10
4.63957E+001
 20
6.63859
 11
4.72989E+001
 21
1.04771E+001
  0
LINE
  8
1
  6
CONTINUOUS
 62
1
 10
4.72989E+001
 20
1.04771E+001
 11
4.94439E+001
 21
1.04771E+001
  0
LINE
  8
1
  6
CONTINUOUS
 62
1
 10
4.94439E+001
 20
1.04771E+001
 11
5.0347E+001
 21
6.63859
  0
LINE
  8
1
  6
CONTINUOUS
 62
1
 10
5.0347E+001
 20
6.63859
 11
4.89923E+001
 21
6.63859
  0
LINE
  8
1
  6
CONTINUOUS
 62
1
 10
4.89923E+001
 20
6.63859
 11
4.88704E+001
 21
7.31595
  0
LINE
  8
1
  6
CONTINUOUS
 62
1
 10
4.88704E+001
 20
7.31595
 11
4.78724E+001
 21
7.31595
  0
LINE
  8
1
  6
CONTINUOUS
 62
1
 10
4.78724E+001
 20
7.31595
 11
4.77504E+001
 21
6.63859
  0
LINE
  8
1
  6
CONTINUOUS
 62
1
 10
4.77504E+001
 20
6.63859
 11
4.63957E+001
 21
6.63859
  0
LINE
  8
1
  6
CONTINUOUS
 62
1
 10
4.25572E+001
 20
6.63859
 11
4.14283E+001
 21
6.63859
  0
LINE
  8
1
  6
CONTINUOUS
 62
1
 10
4.14283E+001
 20
6.63859
 11
4.14283E+001
 21
1.04771E+001
  0
LINE
  8
1
  6
CONTINUOUS
 62
1
 10
4.14283E+001
 20
1.04771E+001
 11
4.32346E+001
 21
1.04771E+001
  0
LINE
  8
1
  6
CONTINUOUS
 62
1
 10
4.32346E+001
 20
1.04771E+001
 11
4.37313E+001
 21
8.21913
  0
LINE
  8
1
  6
CONTINUOUS
 62
1
 10
4.37313E+001
 20
8.21913
 11
4.37991E+001
 21
8.21913
  0
LINE
  8
1
  6
CONTINUOUS
 62
1
 10
4.37991E+001
 20
8.21913
 11
4.38668E+001
 21
8.21913
  0
LINE
  8
1
  6
CONTINUOUS
 62
1
 10
4.38668E+001
 20
8.21913
 11
4.43636E+001
 21
1.04771E+001
  0
LINE
  8
1
  6
CONTINUOUS
 62
1
 10
4.43636E+001
 20
1.04771E+001
 11
4.61699E+001
 21
1.04771E+001
  0
LINE
  8
1
  6
CONTINUOUS
 62
1
 10
4.61699E+001
 20
1.04771E+001
 11
4.61699E+001
 21
6.63859
  0
LINE
  8
1
  6
CONTINUOUS
 62
1
 10
4.61699E+001
 20
6.63859
 11
4.50409E+001
 21
6.63859
  0
LINE
  8
1
  6
CONTINUOUS
 62
1
 10
4.50409E+001
 20
6.63859
 11
4.50409E+001
 21
9.46099
  0
LINE
  8
1
  6
CONTINUOUS
 62
1
 10
4.50409E+001
 20
9.46099
 11
4.49281E+001
 21
9.46099
  0
LINE
  8
1
  6
CONTINUOUS
 62
1
 10
4.49281E+001
 20
9.46099
 11
4.43071E+001
 21
6.63859
  0
LINE
  8
1
  6
CONTINUOUS
 62
1
 10
4.43071E+001
 20
6.63859
 11
4.3291E+001
 21
6.63859
  0
LINE
  8
1
  6
CONTINUOUS
 62
1
 10
4.3291E+001
 20
6.63859
 11
4.26701E+001
 21
9.46099
  0
LINE
  8
1
  6
CONTINUOUS
 62
1
 10
4.26701E+001
 20
9.46099
 11
4.25572E+001
 21
9.46099
  0
LINE
  8
1
  6
CONTINUOUS
 62
1
 10
4.25572E+001
 20
9.46099
 11
4.25572E+001
 21
6.63859
  0
ARC
  8
1
  6
CONTINUOUS
 62
1
 10
3.9238036E+001
 20
9.3085941
 40
3.8386415E-001
 50
2.7000957E+002
 51
3.599964E+002
  0
LINE
  8
1
  6
CONTINUOUS
 62
1
 10
3.92381E+001
 20
8.92473
 11
3.87188E+001
 21
8.92473
  0
LINE
  8
1
  6
CONTINUOUS
 62
1
 10
3.87188E+001
 20
8.92473
 11
3.87188E+001
 21
9.77145
  0
LINE
  8
1
  6
CONTINUOUS
 62
1
 10
3.87188E+001
 20
9.77145
 11
3.92381E+001
 21
9.77145
  0
ARC
  8
1
  6
CONTINUOUS
 62
1
 10
3.9238084E+001
 20
9.3876336
 40
3.8381641E-001
 50
3.5999499E+002
 51
4.4999755E+002
  0
LINE
  8
1
  6
CONTINUOUS
 62
1
 10
3.96219E+001
 20
9.3876
 11
3.96219E+001
 21
9.30857
  0
LINE
  8
1
  6
CONTINUOUS
 62
1
 10
3.75898E+001
 20
6.63859
 11
3.75898E+001
 21
1.04771E+001
  0
LINE
  8
1
  6
CONTINUOUS
 62
1
 10
3.75898E+001
 20
1.04771E+001
 11
3.98477E+001
 21
1.04771E+001
  0
ARC
  8
1
  6
CONTINUOUS
 62
1
 10
3.984769E+001
 20
9.34809
 40
1.12901
 50
3.5999949E+002
 51
4.4999949E+002
  0
ARC
  8
1
  6
CONTINUOUS
 62
1
 10
3.9737074E+001
 20
9.347004
 40
1.2396261
 50
3.4224163E+002
 51
3.6004973E+002
  0
ARC
  8
1
  6
CONTINUOUS
 62
1
 10
3.9789945E+001
 20
9.3292834
 40
1.1838704
 50
3.239147E+002
 51
3.4227796E+002
  0
ARC
  8
1
  6
CONTINUOUS
 62
1
 10
3.984395E+001
 20
9.2898149
 40
1.1169799
 50
3.0482997E+002
 51
3.2391919E+002
  0
ARC
  8
1
  6
CONTINUOUS
 62
1
 10
3.9873383E+001
 20
9.2487011
 40
1.0664213
 50
2.8510608E+002
 51
3.0479352E+002
  0
LINE
  8
1
  6
CONTINUOUS
 62
1
 10
4.01513E+001
 20
8.21913
 11
4.09767E+001
 21
6.63859
  0
LINE
  8
1
  6
CONTINUOUS
 62
1
 10
4.09767E+001
 20
6.63859
 11
3.97348E+001
 21
6.63859
  0
LINE
  8
1
  6
CONTINUOUS
 62
1
 10
3.97348E+001
 20
6.63859
 11
3.91026E+001
 21
8.21913
  0
LINE
  8
1
  6
CONTINUOUS
 62
1
 10
3.91026E+001
 20
8.21913
 11
3.87188E+001
 21
8.21913
  0
LINE
  8
1
  6
CONTINUOUS
 62
1
 10
3.87188E+001
 20
8.21913
 11
3.87188E+001
 21
6.63859
  0
LINE
  8
1
  6
CONTINUOUS
 62
1
 10
3.87188E+001
 20
6.63859
 11
3.75898E+001
 21
6.63859
  0
ARC
  8
1
  6
CONTINUOUS
 62
1
 10
3.5484253E+001
 20
7.8126968
 40
3.8384683E-001
 50
2.7000699E+002
 51
3.6000197E+002
  0
LINE
  8
1
  6
CONTINUOUS
 62
1
 10
3.54843E+001
 20
7.42885
 11
3.54053E+001
 21
7.42885
  0
ARC
  8
1
  6
CONTINUOUS
 62
1
 10
3.5405258E+001
 20
7.8127082
 40
3.8385816E-001
 50
1.7999972E+002
 51
2.7000625E+002
  0
LINE
  8
1
  6
CONTINUOUS
 62
1
 10
3.50214E+001
 20
7.81271
 11
3.50214E+001
 21
9.30293
  0
ARC
  8
1
  6
CONTINUOUS
 62
1
 10
3.5405255E+001
 20
9.3029253
 40
3.8385469E-001
 50
8.9993237E+001
 51
1.799993E+002
  0
LINE
  8
1
  6
CONTINUOUS
 62
1
 10
3.54053E+001
 20
9.68678
 11
3.54843E+001
 21
9.68678
  0
ARC
  8
1
  6
CONTINUOUS
 62
1
 10
3.5484257E+001
 20
9.3029366
 40
3.8384336E-001
 50
3.5999901E+002
 51
4.4999353E+002
  0
LINE
  8
1
  6
CONTINUOUS
 62
1
 10
3.58681E+001
 20
9.30293
 11
3.58681E+001
 21
7.81271
  0
ARC
  8
1
  6
CONTINUOUS
 62
1
 10
3.5783461E+001
 20
7.9933286
 40
1.3547386
 50
2.7000163E+002
 51
3.6000006E+002
  0
LINE
  8
1
  6
CONTINUOUS
 62
1
 10
3.57835E+001
 20
6.63859
 11
3.51061E+001
 21
6.63859
  0
ARC
  8
1
  6
CONTINUOUS
 62
1
 10
3.5106052E+001
 20
7.993342
 40
1.354752
 50
1.8000051E+002
 51
2.7000203E+002
  0
LINE
  8
1
  6
CONTINUOUS
 62
1
 10
3.37513E+001
 20
7.99333
 11
3.37513E+001
 21
9.12229
  0
ARC
  8
1
  6
CONTINUOUS
 62
1
 10
3.5106059E+001
 20
9.1222415
 40
1.3547585
 50
8.9998247E+001
 51
1.7999795E+002
  0
LINE
  8
1
  6
CONTINUOUS
 62
1
 10
3.51061E+001
 20
1.0477E+001
 11
3.57835E+001
 21
1.0477E+001
  0
ARC
  8
1
  6
CONTINUOUS
 62
1
 10
3.5783453E+001
 20
9.1222528
 40
1.3547472
 50
1.573974E-003
 51
8.9998003E+001
  0
LINE
  8
1
  6
CONTINUOUS
 62
1
 10
3.71382E+001
 20
9.12229
 11
3.71382E+001
 21
7.99333
  0
ARC
  8
1
  6
CONTINUOUS
 62
1
 10
3.2057934E+001
 20
7.8804464
 40
1.2418664
 50
2.6999845E+002
 51
3.599997E+002
  0
LINE
  8
1
  6
CONTINUOUS
 62
1
 10
3.20579E+001
 20
6.63858
 11
3.00258E+001
 21
6.63858
  0
LINE
  8
1
  6
CONTINUOUS
 62
1
 10
3.00258E+001
 20
6.63858
 11
3.00258E+001
 21
1.04771E+001
  0
LINE
  8
1
  6
CONTINUOUS
 62
1
 10
3.00258E+001
 20
1.04771E+001
 11
3.20579E+001
 21
1.04771E+001
  0
ARC
  8
1
  6
CONTINUOUS
 62
1
 10
3.2057932E+001
 20
9.235232
 40
1.241868
 50
3.5999806E+002
 51
4.5000148E+002
  0
LINE
  8
1
  6
CONTINUOUS
 62
1
 10
3.32998E+001
 20
9.23519
 11
3.32998E+001
 21
7.88044
  0
ARC
  8
1
  6
CONTINUOUS
 62
1
 10
3.183207E+001
 20
7.6546797
 40
2.2582971E-001
 50
2.7000754E+002
 51
3.5999246E+002
  0
LINE
  8
1
  6
CONTINUOUS
 62
1
 10
3.18321E+001
 20
7.42885
 11
3.12676E+001
 21
7.42885
  0
LINE
  8
1
  6
CONTINUOUS
 62
1
 10
3.12676E+001
 20
7.42885
 11
3.12676E+001
 21
9.68678
  0
LINE
  8
1
  6
CONTINUOUS
 62
1
 10
3.12676E+001
 20
9.68678
 11
3.18321E+001
 21
9.68678
  0
ARC
  8
1
  6
CONTINUOUS
 62
1
 10
3.1832074E+001
 20
9.4609538
 40
2.2582625E-001
 50
9.1966686E-003
 51
8.9993341E+001
  0
LINE
  8
1
  6
CONTINUOUS
 62
1
 10
3.20579E+001
 20
9.46099
 11
3.20579E+001
 21
7.65465
  0
INSERT
  2
*XH37
  8
1
 10
3.9638671E+001
 20
1.4710728E+001
  0
ARC
  8
1
  6
CONTINUOUS
 62
1
 10
3.9638668E+001
 20
3.2365114E+001
 40
1.8432062E+001
 50
2.3080536E+002
 51
2.6231278E+002
  0
LINE
  8
1
  6
CONTINUOUS
 62
1
 10
2.79904E+001
 20
1.80802E+001
 11
2.99619E+001
 21
1.11682E+001
  0
LINE
  8
1
  6
CONTINUOUS
 62
1
 10
2.99619E+001
 20
1.11682E+001
 11
3.14104E+001
 21
1.11682E+001
  0
LINE
  8
1
  6
CONTINUOUS
 62
1
 10
3.14104E+001
 20
1.11682E+001
 11
3.0439E+001
 21
1.45561E+001
  0
ARC
  8
1
  6
CONTINUOUS
 62
1
 10
3.9638851E+001
 20
3.236505E+001
 40
2.0044848E+001
 50
2.4267976E+002
 51
2.6043277E+002
  0
ARC
  8
1
  6
CONTINUOUS
 62
1
 10
3.9638613E+001
 20
3.2365111E+001
 40
2.004487E+001
 50
2.6043347E+002
 51
2.6471362E+002
  0
LINE
  8
1
  6
CONTINUOUS
 62
1
 10
3.77918E+001
 20
1.24055E+001
 11
3.96387E+001
 21
1.56043E+001
  0
LINE
  8
1
  6
CONTINUOUS
 62
1
 10
3.96387E+001
 20
1.56043E+001
 11
4.14855E+001
 21
1.24055E+001
  0
ARC
  8
1
  6
CONTINUOUS
 62
1
 10
3.9638724E+001
 20
3.2365107E+001
 40
2.0044862E+001
 50
2.7528628E+002
 51
2.9731933E+002
  0
LINE
  8
1
  6
CONTINUOUS
 62
1
 10
4.88383E+001
 20
1.4556E+001
 11
4.78669E+001
 21
1.11682E+001
  0
LINE
  8
1
  6
CONTINUOUS
 62
1
 10
4.78669E+001
 20
1.11682E+001
 11
4.93155E+001
 21
1.11682E+001
  0
LINE
  8
1
  6
CONTINUOUS
 62
1
 10
4.93155E+001
 20
1.11682E+001
 11
5.1287E+001
 21
1.80802E+001
  0
ARC
  8
1
  6
CONTINUOUS
 62
1
 10
3.9638755E+001
 20
3.2365124E+001
 40
1.8432055E+001
 50
2.7768684E+002
 51
3.0919457E+002
  0
LINE
  8
1
  6
CONTINUOUS
 62
1
 10
4.21042E+001
 20
1.40987E+001
 11
3.96387E+001
 21
1.83691E+001
  0
LINE
  8
1
  6
CONTINUOUS
 62
1
 10
3.96387E+001
 20
1.83691E+001
 11
3.71731E+001
 21
1.40987E+001
  0
LINE
  8
1
  6
HIDDEN
 62
40
 10
3.06595E+001
 20
1.37873E+001
 11
3.11771E+001
 21
1.19822E+001
  0
TEXT
  8
1
  6
CONTINUOUS
 62
150
 10
3.1909641E+001
 20
2.7824948E+002
 40
3.5
  1
Maßbild TS 83 Kopfmontage
  0
LINE
  8
1
  6
CONTINUOUS
 62
40
 10
3.07441E+001
 20
2.77084E+002
 11
1.20851E+002
 21
2.77084E+002
  0
TEXT
  8
1
  6
CONTINUOUS
 62
1
 10
6.2349227E+001
 20
7.08705
 40
2.5
  1
CAD-Erstellt
 41
6.5625E-001
  0
LINE
  8
1
  6
CONTINUOUS
 62
40
 10
6.0E+001
 20
1.25E+001
 11
1.0E+002
 21
1.25E+001
  0
TEXT
  8
1
  6
CONTINUOUS
 62
150
 10
1.2355894E+002
 20
1.4172839E+001
 40
3.4999999
  1
M.Schell
 41
6.46875E-001
  0
TEXT
  8
1
  6
CONTINUOUS
 62
1
 10
1.2545004E+002
 20
7.557231
 40
2.5
  1
06.06.07
  0
TEXT
  8
1
  6
CONTINUOUS
 62
150
 10
7.9198032E+001
 20
1.419931E+001
 40
3.5
  1
1:1
 41
6.0000002E-001
  0
TEXT
  8
1
  6
CONTINUOUS
 62
40
 10
1.5306539E+002
 20
7.6591406
 40
5.0
  1
24100102660
 41
6.5625E-001
  0
LINE
  8
1
  6
CENTERLINE
 62
1
 10
8.38145E+001
 20
1.84704E+002
 11
8.38145E+001
 21
2.03577E+002
  0
CIRCLE
  8
1
  6
CONTINUOUS
 62
40
 10
8.38145E+001
 20
2.30666E+002
 40
6.0
  0
TEXT
  8
1
  6
CONTINUOUS
 62
150
 10
9.6770069E+001
 20
2.5022485E+002
 40
3.5
  1
M5x50
 41
6.3000002E-001
 72
1
 11
9.1257568E+001
 21
2.4847485E+002
 73
2
  0
LINE
  8
1
  6
CONTINUOUS
 62
1
 10
1.0838E+002
 20
2.53166E+002
 11
9.76223E+001
 21
2.45816E+002
  0
LINE
  8
1
  6
CONTINUOUS
 62
1
 10
9.76223E+001
 20
2.45816E+002
 11
8.37649E+001
 21
2.45816E+002
  0
LINE
  8
1
  6
CONTINUOUS
 62
1
 10
1.06314E+002
 20
2.00666E+002
 11
1.06314E+002
 21
1.93166E+002
  0
LINE
  8
1
  6
CONTINUOUS
 62
1
 10
1.06314E+002
 20
1.93166E+002
 11
1.1469E+002
 21
1.93166E+002
  0
LINE
  8
1
  6
CONTINUOUS
 62
40
 10
8.52578E+001
 20
2.28166E+002
 11
8.23711E+001
 21
2.28166E+002
  0
LINE
  8
1
  6
CONTINUOUS
 62
40
 10
8.23711E+001
 20
2.28166E+002
 11
8.09277E+001
 21
2.30666E+002
  0
LINE
  8
1
  6
CONTINUOUS
 62
40
 10
8.09277E+001
 20
2.30666E+002
 11
8.23711E+001
 21
2.33166E+002
  0
LINE
  8
1
  6
CONTINUOUS
 62
40
 10
8.23711E+001
 20
2.33166E+002
 11
8.52578E+001
 21
2.33166E+002
  0
LINE
  8
1
  6
CONTINUOUS
 62
40
 10
8.52578E+001
 20
2.33166E+002
 11
8.67012E+001
 21
2.30666E+002
  0
LINE
  8
1
  6
CONTINUOUS
 62
40
 10
8.67012E+001
 20
2.30666E+002
 11
8.52578E+001
 21
2.28166E+002
  0
LINE
  8
1
  6
CONTINUOUS
 62
40
 10
6.13145E+001
 20
2.02434E+002
 11
6.13145E+001
 21
2.58898E+002
  0
LINE
  8
1
  6
CENTERLINE
 62
1
 10
6.44138E+001
 20
2.08166E+002
 11
1.17971E+002
 21
2.08166E+002
  0
LINE
  8
1
  6
CENTERLINE
 62
1
 10
6.43035E+001
 20
2.53166E+002
 11
1.18166E+002
 21
2.53166E+002
  0
LINE
  8
1
  6
CONTINUOUS
 62
40
 10
9.20645E+001
 20
2.66416E+002
 11
9.98145E+001
 21
2.61383E+002
  0
LINE
  8
1
  6
CONTINUOUS
 62
40
 10
9.98145E+001
 20
2.61383E+002
 11
9.98145E+001
 21
2.60666E+002
  0
LINE
  8
1
  6
CONTINUOUS
 62
1
 10
9.98145E+001
 20
2.61383E+002
 11
6.78145E+001
 21
2.61383E+002
  0
LINE
  8
1
  6
CONTINUOUS
 62
40
 10
7.55645E+001
 20
2.66416E+002
 11
6.78145E+001
 21
2.61383E+002
  0
LINE
  8
1
  6
CONTINUOUS
 62
40
 10
6.78145E+001
 20
2.61383E+002
 11
6.78145E+001
 21
2.60666E+002
  0
LINE
  8
1
  6
CONTINUOUS
 62
40
 10
7.55645E+001
 20
2.66416E+002
 11
9.20645E+001
 21
2.66416E+002
  0
LINE
  8
1
  6
CENTERLINE
 62
1
 10
7.49826E+001
 20
2.30666E+002
 11
9.23678E+001
 21
2.30666E+002
  0
LINE
  8
1
  6
CONTINUOUS
 62
40
 10
6.03145E+001
 20
2.02966E+002
 11
6.03145E+001
 21
2.00666E+002
  0
LINE
  8
1
  6
CONTINUOUS
 62
40
 10
6.03145E+001
 20
2.00666E+002
 11
1.06314E+002
 21
2.00666E+002
  0
LINE
  8
1
  6
CONTINUOUS
 62
40
 10
1.06314E+002
 20
2.00666E+002
 11
1.06314E+002
 21
2.60666E+002
  0
LINE
  8
1
  6
CONTINUOUS
 62
40
 10
1.06314E+002
 20
2.60666E+002
 11
6.03145E+001
 21
2.60666E+002
  0
LINE
  8
1
  6
CONTINUOUS
 62
40
 10
6.03145E+001
 20
2.60666E+002
 11
6.03145E+001
 21
2.58366E+002
  0
LINE
  8
1
  6
CONTINUOUS
 62
40
 10
6.03145E+001
 20
2.58366E+002
 11
6.18145E+001
 21
2.59164E+002
  0
LINE
  8
1
  6
CONTINUOUS
 62
40
 10
6.18145E+001
 20
2.59164E+002
 11
6.18145E+001
 21
2.02168E+002
  0
LINE
  8
1
  6
CONTINUOUS
 62
40
 10
6.18145E+001
 20
2.02168E+002
 11
6.03145E+001
 21
2.02966E+002
  0
LINE
  8
1
  6
CENTERLINE
 62
1
 10
8.38145E+001
 20
2.38917E+002
 11
8.38145E+001
 21
2.22102E+002
  0
LINE
  8
1
  6
CENTERLINE
 62
150
 10
1.15314E+002
 20
2.55666E+002
 11
1.06314E+002
 21
2.55666E+002
  0
LINE
  8
1
  6
CENTERLINE
 62
150
 10
1.06314E+002
 20
2.55666E+002
 11
1.06314E+002
 21
2.50666E+002
  0
LINE
  8
1
  6
CENTERLINE
 62
150
 10
1.06314E+002
 20
2.50666E+002
 11
1.15314E+002
 21
2.50666E+002
  0
LINE
  8
1
  6
CENTERLINE
 62
150
 10
1.15314E+002
 20
2.50666E+002
 11
1.15314E+002
 21
2.55666E+002
  0
LINE
  8
1
  6
CONTINUOUS
 62
1
 10
1.06314E+002
 20
2.54916E+002
 11
1.15314E+002
 21
2.54916E+002
  0
LINE
  8
1
  6
CONTINUOUS
 62
1
 10
1.06314E+002
 20
2.51416E+002
 11
1.15314E+002
 21
2.51416E+002
  0
LINE
  8
1
  6
CENTERLINE
 62
1
 10
1.0463E+002
 20
2.53166E+002
 11
1.18166E+002
 21
2.53166E+002
  0
LINE
  8
1
  6
CONTINUOUS
 62
40
 10
1.15314E+002
 20
2.55666E+002
 11
1.06314E+002
 21
2.55666E+002
  0
LINE
  8
1
  6
CONTINUOUS
 62
40
 10
1.06314E+002
 20
2.55666E+002
 11
1.06314E+002
 21
2.50666E+002
  0
LINE
  8
1
  6
CONTINUOUS
 62
40
 10
1.06314E+002
 20
2.50666E+002
 11
1.15314E+002
 21
2.50666E+002
  0
LINE
  8
1
  6
CONTINUOUS
 62
40
 10
1.15314E+002
 20
2.50666E+002
 11
1.15314E+002
 21
2.55666E+002
  0
LINE
  8
1
  6
CENTERLINE
 62
150
 10
1.15314E+002
 20
2.10666E+002
 11
1.06314E+002
 21
2.10666E+002
  0
LINE
  8
1
  6
CENTERLINE
 62
150
 10
1.06314E+002
 20
2.10666E+002
 11
1.06314E+002
 21
2.05666E+002
  0
LINE
  8
1
  6
CENTERLINE
 62
150
 10
1.06314E+002
 20
2.05666E+002
 11
1.15314E+002
 21
2.05666E+002
  0
LINE
  8
1
  6
CENTERLINE
 62
150
 10
1.15314E+002
 20
2.05666E+002
 11
1.15314E+002
 21
2.10666E+002
  0
LINE
  8
1
  6
CONTINUOUS
 62
1
 10
1.06314E+002
 20
2.09916E+002
 11
1.15314E+002
 21
2.09916E+002
  0
LINE
  8
1
  6
CONTINUOUS
 62
1
 10
1.06314E+002
 20
2.06416E+002
 11
1.15314E+002
 21
2.06416E+002
  0
LINE
  8
1
  6
CENTERLINE
 62
1
 10
1.0463E+002
 20
2.08166E+002
 11
1.18166E+002
 21
2.08166E+002
  0
LINE
  8
1
  6
CONTINUOUS
 62
40
 10
1.15314E+002
 20
2.10666E+002
 11
1.06314E+002
 21
2.10666E+002
  0
LINE
  8
1
  6
CONTINUOUS
 62
40
 10
1.06314E+002
 20
2.10666E+002
 11
1.06314E+002
 21
2.05666E+002
  0
LINE
  8
1
  6
CONTINUOUS
 62
40
 10
1.06314E+002
 20
2.05666E+002
 11
1.15314E+002
 21
2.05666E+002
  0
LINE
  8
1
  6
CONTINUOUS
 62
40
 10
1.15314E+002
 20
2.05666E+002
 11
1.15314E+002
 21
2.10666E+002
  0
TEXT
  8
1
  6
CONTINUOUS
 62
150
 10
1.247108E+002
 20
2.8642697E+002
 40
3.5
  1
Türschließergröße EN 3-6
 41
6.6428573E-001
  0
TEXT
  8
1
  6
CONTINUOUS
 62
1
 10
2.0301903E+002
 20
2.8955836E+002
 40
2.5
  1
(einstellbar)
 41
6.5769231E-001
 72
1
 11
1.9233153E+002
 21
2.8830836E+002
 73
2
  0
TEXT
  8
1
  6
CONTINUOUS
 62
1
 10
2.0360818E+002
 20
2.8124541E+002
 40
2.5
  1
für Türbreiten bis 1400 mm 
 41
6.7E-001
 72
1
 11
1.8099568E+002
 21
2.7999541E+002
 73
2
  0
TEXT
  8
1
  6
CONTINUOUS
 62
1
 10
1.2056716E+002
 20
7.0679164
 40
2.5
  1
:
  0
TEXT
  8
1
  6
CONTINUOUS
 62
1
 10
3.7803516E+001
 20
2.8966211E+002
 40
3.5
  1
TS 83
 41
6.3E-001
 72
1
 11
3.2291016E+001
 21
2.8791211E+002
 73
2
  0
TEXT
  8
1
  6
CONTINUOUS
 62
1
 10
6.2308082E+001
 20
1.5341395E+001
 40
2.5
  1
Maßstab:
 41
6.46875E-001
  0
TEXT
  8
1
  6
CONTINUOUS
 62
1
 10
1.0350311E+002
 20
1.5341395E+001
 40
2.5
  1
Gezeichnet:
 41
6.5454545E-001
  0
TEXT
  8
1
  6
CONTINUOUS
 62
1
 10
1.5279925E+002
 20
1.5341395E+001
 40
2.5
  1
Zeichng.-Nr.
 41
6.5625E-001
  0
TEXT
  8
1
  6
CONTINUOUS
 62
1
 10
1.0333075E+002
 20
6.8955527
 40
2.5
  1
Geprüft
 41
6.4285714E-001
  0
LINE
  8
1
  6
CONTINUOUS
 62
40
 10
2.0E+001
 20
2.76E+002
 11
2.05E+002
 21
2.76E+002
  0
LINE
  8
1
  6
CONTINUOUS
 62
40
 10
1.5E+002
 20
2.0E+001
 11
1.5E+002
 21
5.0
  0
LINE
  8
1
  6
CONTINUOUS
 62
40
 10
2.0E+001
 20
2.0E+001
 11
2.05E+002
 21
2.0E+001
  0
LINE
  8
1
  6
CONTINUOUS
 62
40
 10
1.0E+002
 20
5.0
 11
1.0E+002
 21
2.0E+001
  0
LINE
  8
1
  6
CONTINUOUS
 62
40
 10
6.0E+001
 20
5.0
 11
6.0E+001
 21
2.0E+001
  0
LINE
  8
1
  6
CONTINUOUS
 62
40
 10
0.0
 20
1.485E+002
 11
1.56621E+001
 21
1.485E+002
  0
LINE
  8
1
  6
CONTINUOUS
 62
1
 10
0.0
 20
0.0
 11
2.1E+002
 21
0.0
  0
LINE
  8
1
  6
CONTINUOUS
 62
1
 10
2.1E+002
 20
0.0
 11
2.1E+002
 21
2.97E+002
  0
LINE
  8
1
  6
CONTINUOUS
 62
1
 10
2.1E+002
 20
2.97E+002
 11
0.0
 21
2.97E+002
  0
LINE
  8
1
  6
CONTINUOUS
 62
1
 10
0.0
 20
2.97E+002
 11
0.0
 21
0.0
  0
LINE
  8
1
  6
CONTINUOUS
 62
40
 10
2.0E+001
 20
5.0
 11
2.05E+002
 21
5.0
  0
LINE
  8
1
  6
CONTINUOUS
 62
40
 10
2.05E+002
 20
5.0
 11
2.05E+002
 21
2.92E+002
  0
LINE
  8
1
  6
CONTINUOUS
 62
40
 10
2.05E+002
 20
2.92E+002
 11
2.0E+001
 21
2.92E+002
  0
LINE
  8
1
  6
CONTINUOUS
 62
40
 10
2.0E+001
 20
2.92E+002
 11
2.0E+001
 21
5.0
  0
DIMENSION
  8
2
  6
CONTINUOUS
 62
4
  1
 222 
  2
*D1501
  3
DSTYLE3
 10
6.1756634E+001
 20
6.6731831E+001
 11
1.8675029E+002
 21
7.4023081E+001
 70
128
 13
2.8375663E+002
 23
1.2504141E+002
 14
6.1756634E+001
 24
7.6761907E+001
 40
7.5
 50
0.0
1001
ACAD
1000
DSTYLE
1002
{
1070
173
1070
0
1070
5
1000
_AH13
1002
}
  0
DIMENSION
  8
2
  6
CONTINUOUS
 62
4
  2
*D1502
  3
DSTYLE3
 10
2.8375663E+002
 20
6.6731831E+001
 11
3.0645109E+002
 21
7.4023081E+001
 70
128
 13
3.2875663E+002
 23
1.2504141E+002
 14
2.8375663E+002
 24
1.2504141E+002
 40
7.5
 50
0.0
1001
ACAD
1000
DSTYLE
1002
{
1070
173
1070
0
1070
5
1000
_AH13
1002
}
  0
DIMENSION
  8
2
  6
CONTINUOUS
 62
4
  2
*D1503
  3
DSTYLE4
 10
2.5525663E+002
 20
2.4794782E+002
 11
1.3816211E+002
 21
2.5523907E+002
 70
128
 13
6.1756634E+001
 23
8.3584547E+001
 14
2.5525663E+002
 24
2.452173E+002
 40
7.5
 50
0.0
1001
ACAD
1000
DSTYLE
1002
{
1070
173
1070
0
1070
5
1000
_AH13
1002
}
  0
DIMENSION
  8
2
  6
CONTINUOUS
 62
4
  2
*D1504
  3
DSTYLE3
 10
2.7725663E+002
 20
2.4794782E+002
 11
3.0245108E+002
 21
2.5523907E+002
 70
128
 13
3.2725663E+002
 23
2.0804141E+002
 14
2.7725663E+002
 24
2.0804141E+002
 40
7.5
 50
0.0
1001
ACAD
1000
DSTYLE
1002
{
1070
173
1070
0
1070
5
1000
_AH13
1002
}
  0
DIMENSION
  8
2
  6
CONTINUOUS
 62
4
  2
*D1505
  3
DSTYLE3
 10
3.2725663E+002
 20
2.4794782E+002
 11
3.5245108E+002
 21
2.5523907E+002
 70
128
 13
3.7725663E+002
 23
2.0804141E+002
 14
3.2725663E+002
 24
2.0804141E+002
 40
7.5
 50
0.0
1001
ACAD
1000
DSTYLE
1002
{
1070
173
1070
0
1070
5
1000
_AH13
1002
}
  0
DIMENSION
  8
2
  6
CONTINUOUS
 62
4
  1
 22 
  2
*D1506
  3
DSTYLE3
 10
2.5525663E+002
 20
2.4794782E+002
 11
2.6625663E+002
 21
2.5523907E+002
 70
128
 13
2.7725663E+002
 23
2.3025141E+002
 14
2.5525663E+002
 24
2.3025141E+002
 40
7.5
 50
0.0
1001
ACAD
1000
DSTYLE
1002
{
1070
173
1070
0
1070
5
1000
_AH13
1002
}
  0
LINE
  8
2
  6
CENTERLINE
 62
3
 10
6.1756634E+001
 20
2.8823522E+001
 11
6.1756634E+001
 21
6.1497034E+001
  0
TEXT
  8
2
  6
CONTINUOUS
 62
1
 10
1.3372859E+002
 20
2.9992194E+001
 40
6.25
  1
Mitte Türband
 41
6.5769231E-001
 72
1
 11
1.0700984E+002
 21
2.6867194E+001
 73
2
  0
LINE
  8
2
  6
CONTINUOUS
 62
1
 10
7.5570134E+001
 20
2.6028772E+001
 11
6.1756634E+001
 21
3.1618022E+001
  0
LINE
  8
2
  6
HIDDEN
 62
3
 10
5.5506634E+001
 20
3.5292272E+001
 11
5.5506634E+001
 21
5.7379785E+001
  0
LINE
  8
2
  6
HIDDEN
 62
3
 10
5.5506634E+001
 20
5.7379785E+001
 11
6.8006634E+001
 21
5.7379785E+001
  0
LINE
  8
2
  6
HIDDEN
 62
3
 10
6.8006634E+001
 20
5.7379785E+001
 11
6.8006634E+001
 21
3.5292272E+001
  0
LINE
  8
2
  6
CENTERLINE
 62
1
 10
2.6148134E+001
 20
3.5292272E+001
 11
4.6700663E+002
 21
3.5292272E+001
  0
LINE
  8
2
  6
CENTERLINE
 62
1
 10
3.2915884E+001
 20
2.4584272E+001
 11
3.2915884E+001
 21
2.3519391E+002
  0
LINE
  8
2
  6
CENTERLINE
 62
1
 10
4.6507413E+002
 20
2.3617522E+001
 11
4.6507413E+002
 21
2.3809391E+002
  0
CIRCLE
  8
2
  6
HIDDEN
 62
1
 10
3.2725663E+002
 20
1.6304141E+002
 40
2.5
  0
CIRCLE
  8
2
  6
HIDDEN
 62
1
 10
3.2725663E+002
 20
2.0804141E+002
 40
2.5
  0
LINE
  8
2
  6
CENTERLINE
 62
1
 10
3.3326163E+002
 20
2.0804141E+002
 11
3.2149163E+002
 21
2.0804141E+002
  0
LINE
  8
2
  6
CENTERLINE
 62
1
 10
3.2725663E+002
 20
2.1362641E+002
 11
3.2725663E+002
 21
2.0259441E+002
  0
LINE
  8
2
  6
CENTERLINE
 62
1
 10
3.8326163E+002
 20
2.0804141E+002
 11
3.7149163E+002
 21
2.0804141E+002
  0
LINE
  8
2
  6
CENTERLINE
 62
1
 10
3.7725663E+002
 20
2.1362641E+002
 11
3.7725663E+002
 21
2.0259441E+002
  0
LINE
  8
2
  6
CENTERLINE
 62
1
 10
3.8326163E+002
 20
1.6304141E+002
 11
3.7149163E+002
 21
1.6304141E+002
  0
LINE
  8
2
  6
CENTERLINE
 62
1
 10
3.7725663E+002
 20
1.6862741E+002
 11
3.7725663E+002
 21
1.5759441E+002
  0
LINE
  8
2
  6
CENTERLINE
 62
1
 10
3.3326163E+002
 20
1.6304141E+002
 11
3.2149163E+002
 21
1.6304141E+002
  0
LINE
  8
2
  6
CENTERLINE
 62
1
 10
3.2725663E+002
 20
1.6862741E+002
 11
3.2725663E+002
 21
1.5759441E+002
  0
LINE
  8
2
  6
CENTERLINE
 62
1
 10
2.8326163E+002
 20
1.6304141E+002
 11
2.7149163E+002
 21
1.6304141E+002
  0
LINE
  8
2
  6
CENTERLINE
 62
1
 10
2.7725663E+002
 20
1.6862741E+002
 11
2.7725663E+002
 21
1.5759441E+002
  0
LINE
  8
2
  6
CENTERLINE
 62
1
 10
2.8326163E+002
 20
2.0804141E+002
 11
2.7149163E+002
 21
2.0804141E+002
  0
LINE
  8
2
  6
CENTERLINE
 62
1
 10
2.7725663E+002
 20
2.1362641E+002
 11
2.7725663E+002
 21
2.0259441E+002
  0
CIRCLE
  8
2
  6
HIDDEN
 62
1
 10
3.7725663E+002
 20
2.0804141E+002
 40
4.75
  0
CIRCLE
  8
2
  6
HIDDEN
 62
1
 10
2.7725663E+002
 20
1.6304141E+002
 40
4.75
  0
CIRCLE
  8
2
  6
HIDDEN
 62
1
 10
2.7725663E+002
 20
2.0804141E+002
 40
4.75
  0
CIRCLE
  8
2
  6
HIDDEN
 62
1
 10
3.2725663E+002
 20
2.0804141E+002
 40
4.75
  0
CIRCLE
  8
2
  6
HIDDEN
 62
1
 10
3.2725663E+002
 20
1.6304141E+002
 40
4.75
  0
CIRCLE
  8
2
  6
HIDDEN
 62
1
 10
3.7725663E+002
 20
1.6304141E+002
 40
4.75
  0
LINE
  8
2
  6
CONTINUOUS
 62
40
 10
2.7125663E+002
 20
2.1554141E+002
 11
2.7125663E+002
 21
2.1625891E+002
  0
LINE
  8
2
  6
CONTINUOUS
 62
40
 10
2.7125663E+002
 20
2.1625891E+002
 11
2.6350663E+002
 21
2.2129141E+002
  0
LINE
  8
2
  6
CONTINUOUS
 62
40
 10
2.6350663E+002
 20
2.2129141E+002
 11
2.4700663E+002
 21
2.2129141E+002
  0
LINE
  8
2
  6
CONTINUOUS
 62
40
 10
2.4700663E+002
 20
2.2129141E+002
 11
2.3925663E+002
 21
2.1625891E+002
  0
LINE
  8
2
  6
CONTINUOUS
 62
40
 10
2.3925663E+002
 20
2.1625891E+002
 11
2.3925663E+002
 21
2.1554141E+002
  0
LINE
  8
2
  6
CONTINUOUS
 62
1
 10
2.3925663E+002
 20
2.1625891E+002
 11
2.7125663E+002
 21
2.1625891E+002
  0
LINE
  8
2
  6
CONTINUOUS
 62
1
 10
4.1325663E+002
 20
2.1324141E+002
 11
1.6825663E+002
 21
2.1324141E+002
  0
LINE
  8
2
  6
CONTINUOUS
 62
1
 10
1.6825663E+002
 20
1.5784141E+002
 11
4.1325663E+002
 21
1.5784141E+002
  0
LINE
  8
2
  6
CENTERLINE
 62
1
 10
2.5525663E+002
 20
1.3733816E+002
 11
2.5525663E+002
 21
2.2538391E+002
  0
LINE
  8
2
  6
CONTINUOUS
 62
40
 10
4.1325663E+002
 20
2.1554141E+002
 11
1.6825663E+002
 21
2.1554141E+002
  0
LINE
  8
2
  6
CONTINUOUS
 62
40
 10
1.6825663E+002
 20
2.1554141E+002
 11
1.6825663E+002
 21
1.5554141E+002
  0
LINE
  8
2
  6
CONTINUOUS
 62
40
 10
1.6825663E+002
 20
1.5554141E+002
 11
4.1325663E+002
 21
1.5554141E+002
  0
LINE
  8
2
  6
CONTINUOUS
 62
1
 10
2.8375663E+002
 20
9.6145795E+001
 11
2.8375663E+002
 21
1.3115666E+002
  0
TEXT
  8
2
  6
CONTINUOUS
 62
1
 10
7.8362501E+001
 20
1.4240393E+001
 40
6.25
  1
 hinge
 41
6.4285714E-001
  0
LINE
  8
1
  6
CENTERLINE
 62
1
 10
1.0504551E+002
 20
1.47366E+002
 11
1.621026E+002
 21
1.47366E+002
  0
INSERT
  2
SCHARNIER
  8
1
 10
1.1313229E+002
 20
1.70166E+002
  0
LINE
  8
1
  6
CONTINUOUS
 62
40
 10
8.1922516E+001
 20
1.84416E+002
 11
9.4814496E+001
 21
1.84416E+002
  0
LINE
  8
1
  6
CONTINUOUS
 62
40
 10
8.0526606E+001
 20
1.8441602E+002
 11
8.1922516E+001
 21
1.84416E+002
  0
LINE
  8
1
  6
CONTINUOUS
 62
40
 10
4.6920539E+001
 20
1.8441601E+002
 11
8.0526606E+001
 21
1.8441602E+002
  0
LINE
  8
1
  6
CENTERLINE
 62
1
 10
8.38145E+001
 20
2.03416E+002
 11
8.381448E+001
 21
1.76416E+002
  0
LINE
  8
1
  6
CONTINUOUS
 62
40
 10
8.0526626E+001
 20
1.78416E+002
 11
8.0526606E+001
 21
1.8441602E+002
  0
LINE
  8
1
  6
CONTINUOUS
 62
40
 10
8.0526626E+001
 20
1.78416E+002
 11
4.6920541E+001
 21
1.78416E+002
  0
LINE
  8
1
  6
CONTINUOUS
 62
40
 10
7.2814498E+001
 20
2.00666E+002
 11
7.2814486E+001
 21
1.8441602E+002
  0
LINE
  8
1
  6
CONTINUOUS
 62
40
 10
9.4814496E+001
 20
1.84416E+002
 11
9.4814496E+001
 21
2.00666E+002
  0
LINE
  8
1
  6
CONTINUOUS
 62
40
 10
9.4807036E+001
 20
1.78416E+002
 11
9.4814496E+001
 21
1.84416E+002
  0
LINE
  8
1
  6
CONTINUOUS
 62
40
 10
9.4807036E+001
 20
1.78416E+002
 11
8.0526626E+001
 21
1.78416E+002
  0
POLYLINE
  8
1
  6
CENTERLINE
 62
1
 66
1
 40
0.0
 41
0.0
 70
2
  0
VERTEX
  8
1
 42
0.0
 10
4.6920541E+001
 20
1.79416E+002
 70
0
  0
VERTEX
  8
1
 42
-4.0003598E-003
 10
4.6852108E+001
 20
1.7948604E+002
 70
1
  0
VERTEX
  8
1
 42
-3.896569E-003
 10
4.67857E+001
 20
1.7955616E+002
 70
0
  0
VERTEX
  8
1
 42
-4.2250614E-003
 10
4.6721362E+001
 20
1.7962635E+002
 70
1
  0
VERTEX
  8
1
 42
-5.091047E-003
 10
4.6659279E+001
 20
1.7969663E+002
 70
0
  0
VERTEX
  8
1
 42
-5.8422039E-003
 10
4.6599877E+001
 20
1.79767E+002
 70
1
  0
VERTEX
  8
1
 42
-6.594814E-003
 10
4.654329E+001
 20
1.7983747E+002
 70
0
  0
VERTEX
  8
1
 42
-7.396164E-003
 10
4.6489874E+001
 20
1.7990803E+002
 70
1
  0
VERTEX
  8
1
 42
-8.366143E-003
 10
4.6439751E+001
 20
1.799787E+002
 70
0
  0
VERTEX
  8
1
 42
-9.3576583E-003
 10
4.6393318E+001
 20
1.8004948E+002
 70
1
  0
VERTEX
  8
1
 42
-1.0488799E-002
 10
4.6350675E+001
 20
1.8012037E+002
 70
0
  0
VERTEX
  8
1
 42
-1.1656178E-002
 10
4.6312235E+001
 20
1.8019138E+002
 70
1
  0
VERTEX
  8
1
 42
-1.2973901E-002
 10
4.6278077E+001
 20
1.8026252E+002
 70
0
  0
VERTEX
  8
1
 42
-1.4297523E-002
 10
4.6248638E+001
 20
1.8033378E+002
 70
1
  0
VERTEX
  8
1
 42
-1.5727801E-002
 10
4.6223973E+001
 20
1.8040518E+002
 70
0
  0
VERTEX
  8
1
 42
-1.7108728E-002
 10
4.6204538E+001
 20
1.8047671E+002
 70
1
  0
VERTEX
  8
1
 42
-1.853307E-002
 10
4.6190378E+001
 20
1.8054839E+002
 70
0
  0
VERTEX
  8
1
 42
-1.9691502E-002
 10
4.6181969E+001
 20
1.8062022E+002
 70
1
  0
VERTEX
  8
1
 42
-2.0666562E-002
 10
4.6179306E+001
 20
1.806922E+002
 70
0
  0
VERTEX
  8
1
 42
-2.1504204E-002
 10
4.6182878E+001
 20
1.8076433E+002
 70
1
  0
VERTEX
  8
1
 42
-2.237542E-002
 10
4.6192773E+001
 20
1.8083663E+002
 70
0
  0
VERTEX
  8
1
 42
-2.131228E-002
 10
4.6209491E+001
 20
1.809091E+002
 70
1
  0
VERTEX
  8
1
 42
-1.8634915E-002
 10
4.6232386E+001
 20
1.8098173E+002
 70
0
  0
VERTEX
  8
1
 42
-1.5560561E-002
 10
4.6261113E+001
 20
1.8105451E+002
 70
1
  0
VERTEX
  8
1
 42
-1.184906E-002
 10
4.6294531E+001
 20
1.8112742E+002
 70
0
  0
VERTEX
  8
1
 42
-8.9583717E-003
 10
4.6331832E+001
 20
1.8120045E+002
 70
1
  0
VERTEX
  8
1
 42
-6.2140149E-003
 10
4.6371971E+001
 20
1.8127357E+002
 70
0
  0
VERTEX
  8
1
 42
-3.9116261E-003
 10
4.6414153E+001
 20
1.8134676E+002
 70
1
  0
VERTEX
  8
1
 42
-1.4342829E-003
 10
4.6457399E+001
 20
1.8142002E+002
 70
0
  0
VERTEX
  8
1
 42
7.071574E-004
 10
4.6500818E+001
 20
1.8149332E+002
 70
1
  0
VERTEX
  8
1
 42
3.1363878E-003
 10
4.6543507E+001
 20
1.8156665E+002
 70
0
  0
VERTEX
  8
1
 42
5.3886964E-003
 10
4.6584504E+001
 20
1.8163998E+002
 70
1
  0
VERTEX
  8
1
 42
8.0866801E-003
 10
4.6622986E+001
 20
1.817133E+002
 70
0
  0
VERTEX
  8
1
 42
1.077752E-002
 10
4.6657915E+001
 20
1.817866E+002
 70
1
  0
VERTEX
  8
1
 42
1.4090038E-002
 10
4.6688528E+001
 20
1.8185985E+002
 70
0
  0
VERTEX
  8
1
 42
1.7358236E-002
 10
4.671371E+001
 20
1.8193304E+002
 70
1
  0
VERTEX
  8
1
 42
2.1093644E-002
 10
4.6732825E+001
 20
1.8200614E+002
 70
0
  0
VERTEX
  8
1
 42
2.5104361E-002
 10
4.6744704E+001
 20
1.8207915E+002
 70
1
  0
VERTEX
  8
1
 42
2.9842408E-002
 10
4.6748569E+001
 20
1.8215205E+002
 70
0
  0
VERTEX
  8
1
 42
3.0845957E-002
 10
4.6743193E+001
 20
1.822248E+002
 70
1
  0
VERTEX
  8
1
 42
2.8191816E-002
 10
4.672921E+001
 20
1.8229742E+002
 70
0
  0
VERTEX
  8
1
 42
2.3943236E-002
 10
4.6706937E+001
 20
1.8236989E+002
 70
1
  0
VERTEX
  8
1
 42
1.8169697E-002
 10
4.6677969E+001
 20
1.8244223E+002
 70
0
  0
VERTEX
  8
1
 42
1.3719198E-002
 10
4.6643457E+001
 20
1.8251442E+002
 70
1
  0
VERTEX
  8
1
 42
9.6488694E-003
 10
4.6604855E+001
 20
1.8258647E+002
 70
0
  0
VERTEX
  8
1
 42
6.285413E-003
 10
4.6563252E+001
 20
1.8265839E+002
 70
1
  0
VERTEX
  8
1
 42
2.732648E-003
 10
4.6520012E+001
 20
1.8273017E+002
 70
0
  0
VERTEX
  8
1
 42
-3.154651E-004
 10
4.6476368E+001
 20
1.8280183E+002
 70
1
  0
VERTEX
  8
1
 42
-3.7883343E-003
 10
4.6433587E+001
 20
1.8287335E+002
 70
0
  0
VERTEX
  8
1
 42
-7.0072944E-003
 10
4.6392998E+001
 20
1.8294475E+002
 70
1
  0
VERTEX
  8
1
 42
-1.0884706E-002
 10
4.6355725E+001
 20
1.8301602E+002
 70
0
  0
VERTEX
  8
1
 42
-1.5114532E-002
 10
4.6323191E+001
 20
1.8308717E+002
 70
1
  0
VERTEX
  8
1
 42
-2.0714074E-002
 10
4.6296573E+001
 20
1.8315819E+002
 70
0
  0
VERTEX
  8
1
 42
-2.4663232E-002
 10
4.6277384E+001
 20
1.832291E+002
 70
1
  0
VERTEX
  8
1
 42
-2.6765357E-002
 10
4.6265748E+001
 20
1.8329989E+002
 70
0
  0
VERTEX
  8
1
 42
-2.7134443E-002
 10
4.6262122E+001
 20
1.8337056E+002
 70
1
  0
VERTEX
  8
1
 42
-2.547406E-002
 10
4.6265831E+001
 20
1.8344111E+002
 70
0
  0
VERTEX
  8
1
 42
-2.4003998E-002
 10
4.6276746E+001
 20
1.835115E+002
 70
1
  0
VERTEX
  8
1
 42
-2.2507102E-002
 10
4.6294377E+001
 20
1.8358185E+002
 70
0
  0
VERTEX
  8
1
 42
-2.0072914E-002
 10
4.6318734E+001
 20
1.8365218E+002
 70
1
  0
VERTEX
  8
1
 42
-1.7125872E-002
 10
4.6348836E+001
 20
1.8372211E+002
 70
0
  0
VERTEX
  8
1
 42
-1.6503065E-002
 10
4.6384461E+001
 20
1.837915E+002
 70
1
  0
VERTEX
  8
1
 42
-1.6618594E-002
 10
4.6426656E+001
 20
1.8386188E+002
 70
0
  0
VERTEX
  8
1
 42
-1.1678417E-002
 10
4.647587E+001
 20
1.8393375E+002
 70
1
  0
VERTEX
  8
1
 42
-5.0820147E-003
 10
4.6525288E+001
 20
1.8400116E+002
 70
0
  0
VERTEX
  8
1
 42
-1.2849283E-002
 10
4.6572617E+001
 20
1.8406204E+002
 70
1
  0
VERTEX
  8
1
 42
-1.7150601E-002
 10
4.6642179E+001
 20
1.8413994E+002
 70
0
  0
VERTEX
  8
1
 42
-7.529987E-003
 10
4.6759921E+001
 20
1.8425957E+002
 70
1
  0
VERTEX
  8
1
 42
-3.9621867E-003
 10
4.6920539E+001
 20
1.8441601E+002
 70
0
  0
SEQEND
  0
LINE
  8
2
  6
CENTERLINE
 62
1
 10
3.3525663E+002
 20
1.2504141E+002
 11
3.2350663E+002
 21
1.2504141E+002
  0
LINE
  8
2
  6
CONTINUOUS
 62
40
 10
2.6625716E+002
 20
1.5554141E+002
 11
2.6625716E+002
 21
1.392914E+002
  0
LINE
  8
2
  6
CONTINUOUS
 62
40
 10
2.4442109E+002
 20
1.3929141E+002
 11
2.4425716E+002
 21
1.3929141E+002
  0
LINE
  8
2
  6
CONTINUOUS
 62
40
 10
2.4466481E+002
 20
1.392914E+002
 11
2.4442109E+002
 21
1.3929141E+002
  0
LINE
  8
2
  6
CONTINUOUS
 62
40
 10
2.4425716E+002
 20
1.3929141E+002
 11
2.4425716E+002
 21
1.5554141E+002
  0
LINE
  8
2
  6
CONTINUOUS
 62
40
 10
2.4466481E+002
 20
1.3329141E+002
 11
2.4466481E+002
 21
1.392914E+002
  0
LINE
  8
2
  6
CONTINUOUS
 62
40
 10
3.0884261E+002
 20
1.3329141E+002
 11
3.0884261E+002
 21
1.3929141E+002
  0
LINE
  8
2
  6
CONTINUOUS
 62
40
 10
2.4466481E+002
 20
1.3329141E+002
 11
2.8717683E+002
 21
1.3329141E+002
  0
LINE
  8
2
  6
CONTINUOUS
 62
40
 10
2.8717683E+002
 20
1.3929141E+002
 11
2.4466481E+002
 21
1.392914E+002
  0
LINE
  8
2
  6
CONTINUOUS
 62
40
 10
2.8717683E+002
 20
1.3929141E+002
 11
2.8717683E+002
 21
1.3329141E+002
  0
LINE
  8
2
  6
CONTINUOUS
 62
40
 10
2.8717683E+002
 20
1.3329141E+002
 11
2.8846985E+002
 21
1.3329141E+002
  0
LINE
  8
2
  6
CONTINUOUS
 62
40
 10
2.8846985E+002
 20
1.3929141E+002
 11
2.8717683E+002
 21
1.3929141E+002
  0
LINE
  8
2
  6
CONTINUOUS
 62
40
 10
2.8846985E+002
 20
1.3329141E+002
 11
3.0884261E+002
 21
1.3329141E+002
  0
LINE
  8
2
  6
CONTINUOUS
 62
40
 10
3.0884261E+002
 20
1.3929141E+002
 11
2.8846985E+002
 21
1.3929141E+002
  0
LINE
  8
2
  6
CONTINUOUS
 62
40
 10
2.9325662E+002
 20
1.302914E+002
 11
2.9325662E+002
 21
1.3329143E+002
  0
LINE
  8
2
  6
CONTINUOUS
 62
40
 10
3.0325661E+002
 20
1.3329143E+002
 11
3.0325661E+002
 21
1.302914E+002
  0
ARC
  8
2
  6
CONTINUOUS
 62
40
 10
2.9825663E+002
 20
1.2514927E+002
 40
1.5E+001
 50
7.052878E+001
 51
9.0E+001
  0
ARC
  8
2
  6
CONTINUOUS
 62
40
 10
2.9825663E+002
 20
1.2514927E+002
 40
1.5E+001
 50
9.0E+001
 51
1.0947122E+002
  0
LINE
  8
2
  6
CONTINUOUS
 62
40
 10
3.0825663E+002
 20
1.1859141E+002
 11
3.0825663E+002
 21
1.2429138E+002
  0
LINE
  8
2
  6
CONTINUOUS
 62
40
 10
2.8825663E+002
 20
1.2439141E+002
 11
2.8825663E+002
 21
1.1859141E+002
  0
ARC
  8
2
  6
CONTINUOUS
 62
40
 10
2.9055663E+002
 20
1.1859141E+002
 40
2.3
 50
1.8E+002
 51
2.7E+002
  0
ARC
  8
2
  6
CONTINUOUS
 62
40
 10
3.0595663E+002
 20
1.1859141E+002
 40
2.3000001
 50
2.7E+002
 51
3.6E+002
  0
LINE
  8
2
  6
CONTINUOUS
 62
40
 10
2.9055663E+002
 20
1.1629141E+002
 11
3.0595663E+002
 21
1.1629141E+002
  0
LINE
  8
2
  6
CONTINUOUS
 62
40
 10
2.8825663E+002
 20
1.2439141E+002
 11
3.0825663E+002
 21
1.2439141E+002
  0
LINE
  8
2
  6
CONTINUOUS
 62
40
 10
3.0825663E+002
 20
1.1859141E+002
 11
2.8825663E+002
 21
1.1859141E+002
  0
LINE
  8
2
  6
CONTINUOUS
 62
40
 10
3.0825663E+002
 20
1.2429138E+002
 11
2.8825663E+002
 21
1.2429141E+002
  0
LINE
  8
2
  6
CONTINUOUS
 62
40
 10
2.8925663E+002
 20
1.3029141E+002
 11
3.0725663E+002
 21
1.3029141E+002
  0
LINE
  8
2
  6
CONTINUOUS
 62
40
 10
3.0412093E+002
 20
1.1619141E+002
 11
2.9239233E+002
 21
1.1619141E+002
  0
LINE
  8
2
  6
CONTINUOUS
 62
40
 10
3.0825663E+002
 20
1.2929141E+002
 11
3.0725663E+002
 21
1.3029141E+002
  0
LINE
  8
2
  6
CONTINUOUS
 62
40
 10
2.8825665E+002
 20
1.2929141E+002
 11
2.8925663E+002
 21
1.3029141E+002
  0
LINE
  8
2
  6
CONTINUOUS
 62
40
 10
3.0825663E+002
 20
1.2929141E+002
 11
2.8825665E+002
 21
1.2929141E+002
  0
LINE
  8
2
  6
CONTINUOUS
 62
40
 10
3.0825663E+002
 20
1.2429138E+002
 11
3.0825663E+002
 21
1.2929141E+002
  0
LINE
  8
2
  6
CONTINUOUS
 62
40
 10
2.8825663E+002
 20
1.2439141E+002
 11
2.8825665E+002
 21
1.2929141E+002
  0
ARC
  8
2
  6
CONTINUOUS
 62
40
 10
2.9825663E+002
 20
1.2429141E+002
 40
1.0E+001
 50
2.7E+002
 51
3.0590407E+002
  0
ARC
  8
2
  6
CONTINUOUS
 62
40
 10
2.9825663E+002
 20
1.2429141E+002
 40
1.0E+001
 50
2.3409593E+002
 51
2.7E+002
  0
LINE
  8
2
  6
CONTINUOUS
 62
40
 10
2.9425661E+002
 20
1.1619143E+002
 11
2.9425663E+002
 21
1.1629141E+002
  0
LINE
  8
2
  6
CONTINUOUS
 62
40
 10
3.0225662E+002
 20
1.1619143E+002
 11
3.0225663E+002
 21
1.1629141E+002
  0
LINE
  8
2
  6
CONTINUOUS
 62
40
 10
3.3525663E+002
 20
1.3104141E+002
 11
3.3525663E+002
 21
1.3304141E+002
  0
LINE
  8
2
  6
CONTINUOUS
 62
40
 10
3.3525663E+002
 20
1.1704141E+002
 11
3.3525663E+002
 21
1.1904141E+002
  0
LINE
  8
2
  6
CONTINUOUS
 62
40
 10
3.3525663E+002
 20
1.1904141E+002
 11
3.3525663E+002
 21
1.3104141E+002
  0
LINE
  8
2
  6
CONTINUOUS
 62
40
 10
2.7725663E+002
 20
1.3304141E+002
 11
2.7725663E+002
 21
1.3104141E+002
  0
LINE
  8
2
  6
CONTINUOUS
 62
40
 10
2.7725663E+002
 20
1.3104141E+002
 11
2.7725663E+002
 21
1.1904141E+002
  0
LINE
  8
2
  6
CONTINUOUS
 62
40
 10
2.7725663E+002
 20
1.1904141E+002
 11
2.7725663E+002
 21
1.1704141E+002
  0
LINE
  8
2
  6
CONTINUOUS
 62
40
 10
3.3428814E+002
 20
1.1704141E+002
 11
3.3525663E+002
 21
1.1704141E+002
  0
LINE
  8
2
  6
CONTINUOUS
 62
40
 10
2.7725663E+002
 20
1.1704141E+002
 11
2.7787432E+002
 21
1.1704141E+002
  0
LINE
  8
2
  6
CONTINUOUS
 62
40
 10
2.7787432E+002
 20
1.1704141E+002
 11
2.8885737E+002
 21
1.1704141E+002
  0
LINE
  8
2
  6
CONTINUOUS
 62
40
 10
2.938451E+002
 20
1.1529141E+002
 11
2.9389773E+002
 21
1.1529141E+002
  0
LINE
  8
2
  6
CONTINUOUS
 62
40
 10
3.076559E+002
 20
1.1704141E+002
 11
3.3428814E+002
 21
1.1704141E+002
  0
LINE
  8
2
  6
CONTINUOUS
 62
40
 10
3.3525663E+002
 20
1.3304141E+002
 11
3.3428814E+002
 21
1.3304141E+002
  0
LINE
  8
2
  6
CONTINUOUS
 62
40
 10
3.3428814E+002
 20
1.3304141E+002
 11
3.0325663E+002
 21
1.3304141E+002
  0
LINE
  8
2
  6
CONTINUOUS
 62
40
 10
2.9325663E+002
 20
1.3304141E+002
 11
2.7787432E+002
 21
1.3304141E+002
  0
LINE
  8
2
  6
CONTINUOUS
 62
40
 10
2.7787432E+002
 20
1.3304141E+002
 11
2.7725663E+002
 21
1.3304141E+002
  0
LINE
  8
2
  6
CONTINUOUS
 62
40
 10
3.3428814E+002
 20
1.3104141E+002
 11
3.3525663E+002
 21
1.3104141E+002
  0
LINE
  8
2
  6
CONTINUOUS
 62
40
 10
2.7725663E+002
 20
1.3104141E+002
 11
2.7787432E+002
 21
1.3104141E+002
  0
LINE
  8
2
  6
CONTINUOUS
 62
40
 10
2.7787432E+002
 20
1.3104141E+002
 11
2.9325662E+002
 21
1.3104141E+002
  0
LINE
  8
2
  6
CONTINUOUS
 62
40
 10
3.0325661E+002
 20
1.3104141E+002
 11
3.3428814E+002
 21
1.3104141E+002
  0
LINE
  8
2
  6
CONTINUOUS
 62
40
 10
3.3525663E+002
 20
1.1904141E+002
 11
3.3428814E+002
 21
1.1904141E+002
  0
LINE
  8
2
  6
CONTINUOUS
 62
40
 10
3.3428814E+002
 20
1.1904141E+002
 11
3.0825663E+002
 21
1.1904143E+002
  0
LINE
  8
2
  6
CONTINUOUS
 62
40
 10
2.8825663E+002
 20
1.1904143E+002
 11
2.7787432E+002
 21
1.1904141E+002
  0
LINE
  8
2
  6
CONTINUOUS
 62
40
 10
2.7787432E+002
 20
1.1904141E+002
 11
2.7725663E+002
 21
1.1904141E+002
  0
LINE
  8
2
  6
CONTINUOUS
 62
40
 10
3.1975663E+002
 20
1.2204141E+002
 11
3.2574623E+002
 21
1.2204141E+002
  0
ARC
  8
2
  6
CONTINUOUS
 62
40
 10
3.1975663E+002
 20
1.2504141E+002
 40
3.0000001
 50
9.0E+001
 51
2.7E+002
  0
LINE
  8
2
  6
CONTINUOUS
 62
40
 10
3.2574623E+002
 20
1.2804141E+002
 11
3.1975663E+002
 21
1.2804141E+002
  0
CIRCLE
  8
2
  6
CONTINUOUS
 62
40
 10
2.8375663E+002
 20
1.2504141E+002
 40
4.25
  0
LINE
  8
2
  6
CONTINUOUS
 62
40
 10
2.8450665E+002
 20
1.2279144E+002
 11
2.8450665E+002
 21
1.2429143E+002
  0
LINE
  8
2
  6
CONTINUOUS
 62
40
 10
2.830066E+002
 20
1.2279144E+002
 11
2.8450665E+002
 21
1.2279144E+002
  0
LINE
  8
2
  6
CONTINUOUS
 62
40
 10
2.830066E+002
 20
1.2429143E+002
 11
2.830066E+002
 21
1.2279144E+002
  0
LINE
  8
2
  6
CONTINUOUS
 62
40
 10
2.8150661E+002
 20
1.2429143E+002
 11
2.830066E+002
 21
1.2429143E+002
  0
LINE
  8
2
  6
CONTINUOUS
 62
40
 10
2.8150661E+002
 20
1.2579142E+002
 11
2.8150661E+002
 21
1.2429143E+002
  0
LINE
  8
2
  6
CONTINUOUS
 62
40
 10
2.830066E+002
 20
1.2579142E+002
 11
2.8150661E+002
 21
1.2579142E+002
  0
LINE
  8
2
  6
CONTINUOUS
 62
40
 10
2.830066E+002
 20
1.2729141E+002
 11
2.830066E+002
 21
1.2579142E+002
  0
LINE
  8
2
  6
CONTINUOUS
 62
40
 10
2.8450665E+002
 20
1.2729141E+002
 11
2.830066E+002
 21
1.2729141E+002
  0
LINE
  8
2
  6
CONTINUOUS
 62
40
 10
2.8450665E+002
 20
1.2579142E+002
 11
2.8450665E+002
 21
1.2729141E+002
  0
LINE
  8
2
  6
CONTINUOUS
 62
40
 10
2.8600664E+002
 20
1.2579142E+002
 11
2.8450665E+002
 21
1.2579142E+002
  0
LINE
  8
2
  6
CONTINUOUS
 62
40
 10
2.8600664E+002
 20
1.2429143E+002
 11
2.8600664E+002
 21
1.2579142E+002
  0
LINE
  8
2
  6
CONTINUOUS
 62
40
 10
2.8450665E+002
 20
1.2429143E+002
 11
2.8600664E+002
 21
1.2429143E+002
  0
CIRCLE
  8
2
  6
CONTINUOUS
 62
40
 10
3.2875663E+002
 20
1.2504141E+002
 40
4.25
  0
LINE
  8
2
  6
CONTINUOUS
 62
40
 10
3.2950663E+002
 20
1.2279144E+002
 11
3.2950663E+002
 21
1.2429143E+002
  0
LINE
  8
2
  6
CONTINUOUS
 62
40
 10
3.2800664E+002
 20
1.2279144E+002
 11
3.2950663E+002
 21
1.2279144E+002
  0
LINE
  8
2
  6
CONTINUOUS
 62
40
 10
3.2800664E+002
 20
1.2429143E+002
 11
3.2800664E+002
 21
1.2279144E+002
  0
LINE
  8
2
  6
CONTINUOUS
 62
40
 10
3.2650665E+002
 20
1.2429143E+002
 11
3.2800664E+002
 21
1.2429143E+002
  0
LINE
  8
2
  6
CONTINUOUS
 62
40
 10
3.2650665E+002
 20
1.2579142E+002
 11
3.2650665E+002
 21
1.2429143E+002
  0
LINE
  8
2
  6
CONTINUOUS
 62
40
 10
3.2800664E+002
 20
1.2579142E+002
 11
3.2650665E+002
 21
1.2579142E+002
  0
LINE
  8
2
  6
CONTINUOUS
 62
40
 10
3.2800664E+002
 20
1.2729141E+002
 11
3.2800664E+002
 21
1.2579142E+002
  0
LINE
  8
2
  6
CONTINUOUS
 62
40
 10
3.2950663E+002
 20
1.2729141E+002
 11
3.2800664E+002
 21
1.2729141E+002
  0
LINE
  8
2
  6
CONTINUOUS
 62
40
 10
3.2950663E+002
 20
1.2579142E+002
 11
3.2950663E+002
 21
1.2729141E+002
  0
LINE
  8
2
  6
CONTINUOUS
 62
40
 10
3.3100662E+002
 20
1.2579142E+002
 11
3.2950663E+002
 21
1.2579142E+002
  0
LINE
  8
2
  6
CONTINUOUS
 62
40
 10
3.3100662E+002
 20
1.2429143E+002
 11
3.3100662E+002
 21
1.2579142E+002
  0
LINE
  8
2
  6
CONTINUOUS
 62
40
 10
3.2950663E+002
 20
1.2429143E+002
 11
3.3100662E+002
 21
1.2429143E+002
  0
LINE
  8
2
  6
CENTERLINE
 62
1
 10
3.3400663E+002
 20
1.2504141E+002
 11
3.1561564E+002
 21
1.2504141E+002
  0
LINE
  8
2
  6
CENTERLINE
 62
1
 10
3.2875663E+002
 20
1.3029141E+002
 11
3.2875663E+002
 21
1.1979141E+002
  0
LINE
  8
2
  6
CENTERLINE
 62
1
 10
2.8900663E+002
 20
1.2504141E+002
 11
2.7850663E+002
 21
1.2504141E+002
  0
LINE
  8
2
  6
CENTERLINE
 62
1
 10
2.8375663E+002
 20
1.3029141E+002
 11
2.8375663E+002
 21
1.1979141E+002
  0
LINE
  8
2
  6
CENTERLINE
 62
1
 10
2.9825663E+002
 20
1.1106278E+002
 11
2.9825663E+002
 21
1.4276944E+002
  0
LINE
  8
2
  6
CENTERLINE
 62
1
 10
2.5525716E+002
 20
2.0993925E+002
 11
2.5525716E+002
 21
1.3349076E+002
  0
LINE
  8
1
  6
CONTINUOUS
 62
40
 10
1.52314E+002
 20
2.08166E+002
 11
1.52314E+002
 21
2.682817E+002
  0
LINE
  8
1
  6
CONTINUOUS
 62
40
 10
1.37314E+002
 20
1.93166E+002
 11
1.37314E+002
 21
2.08166E+002
  0
LINE
  8
1
  6
CONTINUOUS
 62
40
 10
1.06314E+002
 20
1.93166E+002
 11
1.37314E+002
 21
1.93166E+002
  0
LINE
  8
1
  6
CONTINUOUS
 62
40
 10
1.37314E+002
 20
2.08166E+002
 11
1.52314E+002
 21
2.08166E+002
  0
LINE
  8
1
  6
CONTINUOUS
 62
40
 10
1.37314E+002
 20
2.05166E+002
 11
1.52314E+002
 21
2.05166E+002
  0
LINE
  8
1
  6
CONTINUOUS
 62
40
 10
1.1313229E+002
 20
1.90166E+002
 11
1.37314E+002
 21
1.90166E+002
  0
LINE
  8
1
  6
CONTINUOUS
 62
40
 10
1.1313229E+002
 20
1.90166E+002
 11
1.1313229E+002
 21
1.47366E+002
  0
LINE
  8
1
  6
CONTINUOUS
 62
40
 10
1.52314E+002
 20
2.05166E+002
 11
1.52314E+002
 21
1.47366E+002
  0
LINE
  8
1
  6
CONTINUOUS
 62
40
 10
1.37314E+002
 20
1.90166E+002
 11
1.37314E+002
 21
1.93166E+002
  0
LINE
  8
1
  6
CONTINUOUS
 62
40
 10
1.06314E+002
 20
2.60666E+002
 11
1.06314E+002
 21
2.682817E+002
  0
LINE
  8
1
  6
CONTINUOUS
 62
40
 10
1.06314E+002
 20
2.682817E+002
 11
1.52314E+002
 21
2.682817E+002
  0
DIMENSION
  8
1
  6
CONTINUOUS
 62
1
  2
*D2980
  3
DSTYLE6
 10
1.8538027E+002
 20
2.08166E+002
 11
1.8212927E+002
 21
2.3502988E+002
 70
128
 13
1.18166E+002
 23
2.53166E+002
 14
1.18166E+002
 24
2.08166E+002
 40
5.0
 50
9.0E+001
1001
ACAD
1000
DSTYLE
1002
{
1070
173
1070
0
1070
5
1000
_AH13
1002
}
  0
DIMENSION
  8
1
  6
CONTINUOUS
 62
1
  2
*D2981
  3
DSTYLE6
 10
1.8538027E+002
 20
1.70166E+002
 11
1.8212927E+002
 21
1.9195367E+002
 70
128
 13
1.18166E+002
 23
2.08166E+002
 14
1.315867E+002
 24
1.70166E+002
 40
5.0
 50
9.0E+001
1001
ACAD
1000
DSTYLE
1002
{
1070
173
1070
0
1070
5
1000
_AH13
1002
}
  0
DIMENSION
  8
1
  6
CONTINUOUS
 62
1
  2
*D2982
  3
DSTYLE6
 10
1.7517801E+002
 20
2.08166E+002
 11
1.7192701E+002
 21
2.0064448E+002
 70
128
 13
1.37314E+002
 23
1.93166E+002
 14
1.18166E+002
 24
2.08166E+002
 40
5.0
 50
9.0E+001
1001
ACAD
1000
DSTYLE
1002
{
1070
173
1070
0
1070
5
1000
_AH13
1002
}
  0
DIMENSION
  8
1
  6
CONTINUOUS
 62
1
  2
*D2983
  3
DSTYLE6
 10
6.03145E+001
 20
2.6880932E+002
 11
8.3885264E+001
 21
2.7206032E+002
 70
128
 13
1.06314E+002
 23
2.682817E+002
 14
6.03145E+001
 24
2.60666E+002
 40
5.0
 50
0.0
1001
ACAD
1000
DSTYLE
1002
{
1070
173
1070
0
1070
5
1000
_AH13
1002
}
  0
DIMENSION
  8
1
  6
CONTINUOUS
 62
1
  2
*D2984
  3
DSTYLE6
 10
4.5571494E+001
 20
2.00666E+002
 11
4.2320494E+001
 21
2.338963E+002
 70
128
 13
6.03145E+001
 23
2.60666E+002
 14
6.03145E+001
 24
2.00666E+002
 40
5.0
 50
9.0E+001
1001
ACAD
1000
DSTYLE
1002
{
1070
173
1070
0
1070
5
1000
_AH13
1002
}
  0
DIMENSION
  8
1
  6
CONTINUOUS
 62
1
  1
6
  2
*D2985
  3
DSTYLE6
 10
4.5571494E+001
 20
2.60666E+002
 11
4.2320494E+001
 21
2.7092673E+002
 70
128
 13
7.55645E+001
 23
2.66416E+002
 14
6.03145E+001
 24
2.60666E+002
 40
5.0
 50
9.0E+001
1001
ACAD
1000
DSTYLE
1002
{
1070
173
1070
0
1070
5
1000
_AH13
1002
}
  0
DIMENSION
  8
1
  6
CONTINUOUS
 62
1
  1
max. 80
  2
*D2986
  3
DSTYLE6
 10
1.1313229E+002
 20
1.3693563E+002
 11
1.3187368E+002
 21
1.4018664E+002
 70
128
 13
1.06314E+002
 23
1.93166E+002
 14
1.1313229E+002
 24
1.47366E+002
 40
5.0
 50
0.0
1001
ACAD
1000
DSTYLE
1002
{
1070
173
1070
0
1070
5
1000
_AH13
1002
}
  0
LINE
  8
2
  6
CONTINUOUS
 62
40
 10
7.1320905E+001
 20
1.4804141E+002
 11
7.1320905E+001
 21
3.5292272E+001
  0
LINE
  8
2
  6
CONTINUOUS
 62
40
 10
7.4320905E+001
 20
1.4504141E+002
 11
7.4320905E+001
 21
3.5292272E+001
  0
LINE
  8
2
  6
CONTINUOUS
 62
40
 10
4.6507413E+002
 20
1.4804141E+002
 11
2.6625716E+002
 21
1.4804141E+002
  0
LINE
  8
2
  6
CONTINUOUS
 62
40
 10
4.6507413E+002
 20
1.4504141E+002
 11
2.6625716E+002
 21
1.4504141E+002
  0
LINE
  8
2
  6
CONTINUOUS
 62
40
 10
3.2915884E+001
 20
2.2499036E+002
 11
4.6507413E+002
 21
2.2499036E+002
  0
LINE
  8
2
  6
CONTINUOUS
 62
40
 10
2.4425716E+002
 20
1.4504141E+002
 11
7.4320905E+001
 21
1.4504141E+002
  0
LINE
  8
2
  6
CONTINUOUS
 62
40
 10
2.4425716E+002
 20
1.4804141E+002
 11
7.1320905E+001
 21
1.4804141E+002
  0
LINE
  8
2
  6
CONTINUOUS
 62
40
 10
7.1320905E+001
 20
1.4804141E+002
 11
3.2915884E+001
 21
1.8644643E+002
  0
DIMENSION
  8
2
  6
CONTINUOUS
 62
1
  2
*D3096
  3
DSTYLE7
 10
2.5525663E+002
 20
2.3175616E+002
 11
2.0906798E+002
 21
2.3988366E+002
 70
128
 13
1.6825663E+002
 23
2.1554141E+002
 14
2.5525663E+002
 24
2.2538391E+002
 40
1.25E+001
 50
0.0
1001
ACAD
1000
DSTYLE
1002
{
1070
173
1070
0
1070
5
1000
_AH13
1002
}
  0
DIMENSION
  8
2
  6
CONTINUOUS
 62
1
  2
*D3097
  3
DSTYLE7
 10
1.6825663E+002
 20
2.670641E+002
 11
3.0796679E+002
 21
2.751916E+002
 70
128
 13
4.1325663E+002
 23
2.1554141E+002
 14
1.6825663E+002
 24
2.1554141E+002
 40
1.25E+001
 50
0.0
1001
ACAD
1000
DSTYLE
1002
{
1070
173
1070
0
1070
5
1000
_AH13
1002
}
  0
DIMENSION
  8
2
  6
CONTINUOUS
 62
1
  2
*D3099
  3
DSTYLE7
 10
6.1756634E+001
 20
2.6653165E+002
 11
1.0745129E+002
 21
2.7465915E+002
 70
128
 13
1.6825663E+002
 23
2.1554141E+002
 14
6.1756634E+001
 24
6.1497034E+001
 40
1.25E+001
 50
0.0
1001
ACAD
1000
DSTYLE
1002
{
1070
173
1070
0
1070
5
1000
_AH13
1002
}
  0
DIMENSION
  8
2
  6
CONTINUOUS
 62
1
  2
*D3100
  3
DSTYLE7
 10
1.3951516E+002
 20
1.1704141E+002
 11
1.3138766E+002
 21
1.7665549E+002
 70
128
 13
1.6825663E+002
 23
2.1554141E+002
 14
2.7787432E+002
 24
1.1704141E+002
 40
1.25E+001
 50
9.0E+001
1001
ACAD
1000
DSTYLE
1002
{
1070
173
1070
0
1070
5
1000
_AH13
1002
}
  0
DIMENSION
  8
2
  6
CONTINUOUS
 62
1
  2
*D3213
  3
DSTYLE8
 10
2.5525716E+002
 20
8.6516757E+001
 11
2.7255987E+002
 21
9.4644257E+001
 70
128
 13
2.9825663E+002
 23
1.1106278E+002
 14
2.5525716E+002
 24
1.3349076E+002
 40
1.25E+001
 50
0.0
1001
ACAD
1000
DSTYLE
1002
{
1070
173
1070
0
1070
5
1000
_AH13
1002
}
  0
VIEWPORT
 67
1
  8
0
  6
CONTINUOUS
 62
3
100
AcDbViewport
 10
1.05E+002
 20
1.485E+002
 30
0.0
 40
2.97E+002
 41
2.97E+002
 68
1
 69
1
1001
ACAD
1000
MVIEW
1002
{
1070
16
1010
0.0
1020
0.0
1030
0.0
1010
0.0
1020
0.0
1030
1.0
1040
0.0
1040
2.97E+002
1040
5.775E+001
1040
1.485E+002
1040
5.0E+001
1040
0.0
1040
0.0
1070
0
1070
100
1070
1
1070
0
1070
0
1070
0
1070
0
1070
0
1040
0.0
1040
0.0
1040
0.0
1040
5.0E-001
1040
5.0E-001
1040
5.0E-001
1040
5.0E-001
1070
0
1002
{
1002
}
1002
}
  0
VIEWPORT
 67
1
  8
0
  6
CONTINUOUS
 62
3
100
AcDbViewport
 10
1.05E+002
 20
1.485E+002
 30
0.0
 40
2.1E+002
 41
2.97E+002
 68
2
 69
2
1001
ACAD
1000
MVIEW
1002
{
1070
16
1010
0.0
1020
0.0
1030
0.0
1010
0.0
1020
0.0
1030
1.0
1040
0.0
1040
2.97E+002
1040
1.05E+002
1040
1.485E+002
1040
5.0E+001
1040
0.0
1040
0.0
1070
0
1070
100
1070
1
1070
0
1070
0
1070
0
1070
0
1070
0
1040
0.0
1040
0.0
1040
0.0
1040
5.0E-001
1040
5.0E-001
1040
5.0E-001
1040
5.0E-001
1070
0
1002
{
1003
2
1002
}
1002
}
  0
VIEWPORT
 67
1
  8
0
  6
CONTINUOUS
 62
3
100
AcDbViewport
 10
1.1215467E+002
 20
7.6189297E+001
 30
0.0
 40
1.8098937E+002
 41
1.0759015E+002
 68
3
 69
3
1001
ACAD
1000
MVIEW
1002
{
1070
16
1010
0.0
1020
0.0
1030
0.0
1010
0.0
1020
0.0
1030
1.0
1040
0.0
1040
2.6897538E+002
1040
2.4514331E+002
1040
1.5302717E+002
1040
5.0E+001
1040
0.0
1040
0.0
1070
0
1070
100
1070
1
1070
0
1070
0
1070
0
1070
0
1070
0
1040
0.0
1040
0.0
1040
0.0
1040
5.0E-001
1040
5.0E-001
1040
5.0E-001
1040
5.0E-001
1070
0
1002
{
1003
1
1002
}
1002
}
  0
ENDSEC
  0
EOF
