  0
SECTION
  2
HEADER
  9
$ACADVER
  1
AC1009
999
I-DEAS 8 Not Encoded
  9
$EXTMIN
 10
0.0
 20
0.0
  9
$EXTMAX
 10
5.94E+002
 20
4.2E+002
  9
$TEXTSIZE
 40
1.25E-001
  9
$LTSCALE
 40
1.0
  9
$CLAYER
  8
104
  9
$CECOLOR
 62
40
  9
$DIMASZ
 40
1.25E-001
  9
$DIMEXO
 40
6.25E-002
  9
$DIMDLI
 40
2.5E-001
  9
$DIMEXE
 40
1.25E-001
  9
$DIMTP
 40
5.0E-003
  9
$DIMTM
 40
-5.0E-003
  9
$DIMTXT
 40
3.0
  9
$DIMLIM
 70
0
  9
$DIMTIH
 70
1
  9
$DIMTOH
 70
1
  9
$DIMSE1
 70
0
  9
$DIMSE2
 70
0
  9
$DIMTAD
 70
0
  9
$DIMASO
 70
1
  9
$DIMALT
 70
0
  9
$DIMALTD
 70
0
  9
$DIMTOFL
 70
1
  9
$DIMTIX
 70
0
  9
$DIMSAH
 70
0
  9
$DIMTFAC
 40
1.0
  9
$DIMGAP
 40
6.25E-002
  9
$LUNITS
 70
2
  9
$LUPREC
 70
3
  9
$FILLETRAD
 40
2.0
  9
$AUNITS
 70
0
  9
$AUPREC
 70
1
  9
$CHAMFERA
 40
1.0E+001
  9
$CHAMFERB
 40
1.0E+001
  9
$ANGBASE
 50
0.0
  9
$ANGDIR
 70
0
  9
$PDMODE
 70
2
  9
$PDSIZE
 40
-1.0E-002
  9
$SPLINETYPE
 70
6
  0
ENDSEC
  0
SECTION
  2
TABLES
  0
TABLE
  2
LTYPE
 70
7
  0
LTYPE
  2
HIDDENNEW00
  3
_ 
 70
64
 72
65
 73
3
 40
4.5
 49
1.5
 49
-1.5
 49
1.5
  0
LTYPE
  2
HIDDENNEW01
  3
_ 
 70
64
 72
65
 73
3
 40
4.5
 49
1.5
 49
-1.5
 49
1.5
  0
LTYPE
  2
HIDDEN
  3
_ 
 70
64
 72
65
 73
3
 40
4.5
 49
1.5
 49
-1.5
 49
1.5
  0
LTYPE
  2
CENTERLINE
  3
_ 
 70
64
 72
65
 73
5
 40
3.0E+001
 49
1.2E+001
 49
-1.5
 49
3.0
 49
-1.5
 49
1.2E+001
  0
LTYPE
  2
PHANTOM
  3
_ 
 70
64
 72
65
 73
7
 40
2.95E+001
 49
9.5
 49
-1.5
 49
3.0
 49
-1.5
 49
3.0
 49
-1.5
 49
9.5
  0
LTYPE
  2
SHORT_DASH
  3
_ 
 70
64
 72
65
 73
3
 40
3.0
 49
7.5E-001
 49
-1.5
 49
7.5E-001
  0
LTYPE
  2
LONG_DASH
  3
_ 
 70
64
 72
65
 73
3
 40
9.0
 49
2.25
 49
-4.5
 49
2.25
  0
ENDTAB
  0
TABLE
  2
LAYER
 70
258
  0
LAYER
  2
MED-1
 70
0
 62
3
  6
HIDDENNEW00
  0
LAYER
  2
2
 70
0
 62
7
  6
CONTINUOUS
  0
LAYER
  2
3
 70
0
 62
7
  6
CONTINUOUS
  0
LAYER
  2
MED-4
 70
0
 62
2
  6
HIDDENNEW00
  0
LAYER
  2
5
 70
0
 62
7
  6
CONTINUOUS
  0
LAYER
  2
MED-6
 70
0
 62
6
  6
HIDDENNEW00
  0
LAYER
  2
7
 70
0
 62
7
  6
CONTINUOUS
  0
LAYER
  2
8
 70
0
 62
7
  6
CONTINUOUS
  0
LAYER
  2
9
 70
0
 62
7
  6
CONTINUOUS
  0
LAYER
  2
10
 70
0
 62
7
  6
CONTINUOUS
  0
LAYER
  2
MED-11
 70
0
 62
70
  6
HIDDENNEW00
  0
LAYER
  2
12
 70
0
 62
7
  6
CONTINUOUS
  0
LAYER
  2
13
 70
0
 62
7
  6
CONTINUOUS
  0
LAYER
  2
14
 70
0
 62
7
  6
CONTINUOUS
  0
LAYER
  2
15
 70
0
 62
7
  6
CONTINUOUS
  0
LAYER
  2
16
 70
0
 62
7
  6
CONTINUOUS
  0
LAYER
  2
17
 70
0
 62
7
  6
CONTINUOUS
  0
LAYER
  2
18
 70
0
 62
7
  6
CONTINUOUS
  0
LAYER
  2
19
 70
0
 62
7
  6
CONTINUOUS
  0
LAYER
  2
20
 70
0
 62
7
  6
CONTINUOUS
  0
LAYER
  2
21
 70
0
 62
7
  6
CONTINUOUS
  0
LAYER
  2
22
 70
0
 62
7
  6
CONTINUOUS
  0
LAYER
  2
23
 70
0
 62
7
  6
CONTINUOUS
  0
LAYER
  2
24
 70
0
 62
7
  6
CONTINUOUS
  0
LAYER
  2
25
 70
0
 62
7
  6
CONTINUOUS
  0
LAYER
  2
26
 70
0
 62
7
  6
CONTINUOUS
  0
LAYER
  2
27
 70
0
 62
7
  6
CONTINUOUS
  0
LAYER
  2
28
 70
0
 62
7
  6
CONTINUOUS
  0
LAYER
  2
29
 70
0
 62
7
  6
CONTINUOUS
  0
LAYER
  2
30
 70
0
 62
7
  6
CONTINUOUS
  0
LAYER
  2
31
 70
0
 62
7
  6
CONTINUOUS
  0
LAYER
  2
32
 70
0
 62
7
  6
CONTINUOUS
  0
LAYER
  2
33
 70
0
 62
7
  6
CONTINUOUS
  0
LAYER
  2
34
 70
0
 62
7
  6
CONTINUOUS
  0
LAYER
  2
35
 70
0
 62
7
  6
CONTINUOUS
  0
LAYER
  2
36
 70
0
 62
7
  6
CONTINUOUS
  0
LAYER
  2
37
 70
0
 62
7
  6
CONTINUOUS
  0
LAYER
  2
38
 70
0
 62
7
  6
CONTINUOUS
  0
LAYER
  2
39
 70
0
 62
7
  6
CONTINUOUS
  0
LAYER
  2
40
 70
0
 62
7
  6
CONTINUOUS
  0
LAYER
  2
41
 70
0
 62
7
  6
CONTINUOUS
  0
LAYER
  2
42
 70
0
 62
7
  6
CONTINUOUS
  0
LAYER
  2
43
 70
0
 62
7
  6
CONTINUOUS
  0
LAYER
  2
44
 70
0
 62
7
  6
CONTINUOUS
  0
LAYER
  2
45
 70
0
 62
7
  6
CONTINUOUS
  0
LAYER
  2
46
 70
0
 62
7
  6
CONTINUOUS
  0
LAYER
  2
47
 70
0
 62
7
  6
CONTINUOUS
  0
LAYER
  2
48
 70
0
 62
7
  6
CONTINUOUS
  0
LAYER
  2
49
 70
0
 62
7
  6
CONTINUOUS
  0
LAYER
  2
50
 70
0
 62
7
  6
CONTINUOUS
  0
LAYER
  2
51
 70
0
 62
7
  6
CONTINUOUS
  0
LAYER
  2
52
 70
0
 62
7
  6
CONTINUOUS
  0
LAYER
  2
53
 70
0
 62
7
  6
CONTINUOUS
  0
LAYER
  2
54
 70
0
 62
7
  6
CONTINUOUS
  0
LAYER
  2
55
 70
0
 62
7
  6
CONTINUOUS
  0
LAYER
  2
56
 70
0
 62
7
  6
CONTINUOUS
  0
LAYER
  2
57
 70
0
 62
7
  6
CONTINUOUS
  0
LAYER
  2
58
 70
0
 62
7
  6
CONTINUOUS
  0
LAYER
  2
59
 70
0
 62
7
  6
CONTINUOUS
  0
LAYER
  2
60
 70
0
 62
7
  6
CONTINUOUS
  0
LAYER
  2
61
 70
0
 62
7
  6
CONTINUOUS
  0
LAYER
  2
62
 70
0
 62
7
  6
CONTINUOUS
  0
LAYER
  2
63
 70
0
 62
7
  6
CONTINUOUS
  0
LAYER
  2
64
 70
0
 62
7
  6
CONTINUOUS
  0
LAYER
  2
65
 70
0
 62
7
  6
CONTINUOUS
  0
LAYER
  2
66
 70
0
 62
7
  6
CONTINUOUS
  0
LAYER
  2
67
 70
0
 62
7
  6
CONTINUOUS
  0
LAYER
  2
68
 70
0
 62
7
  6
CONTINUOUS
  0
LAYER
  2
69
 70
0
 62
7
  6
CONTINUOUS
  0
LAYER
  2
70
 70
0
 62
7
  6
CONTINUOUS
  0
LAYER
  2
71
 70
0
 62
7
  6
CONTINUOUS
  0
LAYER
  2
72
 70
0
 62
7
  6
CONTINUOUS
  0
LAYER
  2
73
 70
0
 62
7
  6
CONTINUOUS
  0
LAYER
  2
74
 70
0
 62
7
  6
CONTINUOUS
  0
LAYER
  2
75
 70
0
 62
7
  6
CONTINUOUS
  0
LAYER
  2
76
 70
0
 62
7
  6
CONTINUOUS
  0
LAYER
  2
77
 70
0
 62
7
  6
CONTINUOUS
  0
LAYER
  2
78
 70
0
 62
7
  6
CONTINUOUS
  0
LAYER
  2
79
 70
0
 62
7
  6
CONTINUOUS
  0
LAYER
  2
80
 70
0
 62
7
  6
CONTINUOUS
  0
LAYER
  2
81
 70
0
 62
7
  6
CONTINUOUS
  0
LAYER
  2
82
 70
0
 62
7
  6
CONTINUOUS
  0
LAYER
  2
83
 70
0
 62
7
  6
CONTINUOUS
  0
LAYER
  2
84
 70
0
 62
7
  6
CONTINUOUS
  0
LAYER
  2
85
 70
0
 62
7
  6
CONTINUOUS
  0
LAYER
  2
86
 70
0
 62
7
  6
CONTINUOUS
  0
LAYER
  2
87
 70
0
 62
7
  6
CONTINUOUS
  0
LAYER
  2
88
 70
0
 62
7
  6
CONTINUOUS
  0
LAYER
  2
89
 70
0
 62
7
  6
CONTINUOUS
  0
LAYER
  2
90
 70
0
 62
7
  6
CONTINUOUS
  0
LAYER
  2
91
 70
0
 62
7
  6
CONTINUOUS
  0
LAYER
  2
92
 70
0
 62
7
  6
CONTINUOUS
  0
LAYER
  2
93
 70
0
 62
7
  6
CONTINUOUS
  0
LAYER
  2
94
 70
0
 62
7
  6
CONTINUOUS
  0
LAYER
  2
95
 70
0
 62
7
  6
CONTINUOUS
  0
LAYER
  2
96
 70
0
 62
7
  6
CONTINUOUS
  0
LAYER
  2
97
 70
0
 62
7
  6
CONTINUOUS
  0
LAYER
  2
98
 70
0
 62
7
  6
CONTINUOUS
  0
LAYER
  2
99
 70
0
 62
7
  6
CONTINUOUS
  0
LAYER
  2
MED-0
 70
0
 62
230
  6
HIDDENNEW00
  0
LAYER
  2
101
 70
0
 62
7
  6
CONTINUOUS
  0
LAYER
  2
102
 70
0
 62
7
  6
CONTINUOUS
  0
LAYER
  2
103
 70
0
 62
7
  6
CONTINUOUS
  0
LAYER
  2
104
 70
0
 62
7
  6
CONTINUOUS
  0
LAYER
  2
105
 70
0
 62
7
  6
CONTINUOUS
  0
LAYER
  2
106
 70
0
 62
7
  6
CONTINUOUS
  0
LAYER
  2
Drafting_Hidden_Entities
 70
1
 62
7
  6
CONTINUOUS
  0
ENDTAB
  0
TABLE
  2
STYLE
 70
1
  0
STYLE
  2
STANDARD
 70
64
 40
0.0
 41
1.0
 50
0.0
 71
0
 42
1.0
  3
monotxt.shx
  4

  0
ENDTAB
  0
TABLE
  2
VIEW
 70
0
  0
ENDTAB
  0
TABLE
  2
DIMSTYLE
 70
1
  0
DIMSTYLE
  2
DSTYLE1
 70
0
  3

  4

  5

  6

  7

 40
1.0
 41
3.5
 42
1.0
 43
3.8E-001
 44
1.0
 45
0.0
 46
0.0
 47
1.0E-001
 48
1.0E-001
 71
0
 72
0
 73
0
 74
0
 75
0
 76
0
 77
1
 78
11
140
3.5
141
9.0E-002
142
0.0
143
1.0
144
1.0
145
0.0
146
1.0
147
1.1655
170
0
171
2
172
0
173
0
174
0
175
0
176
0
177
0
178
0
  0
ENDTAB
  0
ENDSEC
  0
SECTION
  2
BLOCKS
  0
BLOCK
  2
*AH13
  3
*AH
 10
0.0
 20
0.0
 70
65
  0
LINE
  8
MED-1
  6
CONTINUOUS
 62
0
 10
0.0
 20
0.0
 11
1.0
 21
-1.666679E-001
  0
LINE
  8
MED-1
  6
CONTINUOUS
 62
0
 10
1.0
 20
-1.666679E-001
 11
1.0
 21
1.66668E-001
  0
LINE
  8
MED-1
  6
CONTINUOUS
 62
0
 10
1.0
 20
1.66668E-001
 11
0.0
 21
0.0
  0
ENDBLK
  0
BLOCK
  2
*D44
  3
*D
 10
0.0
 20
0.0
 70
65
  0
LINE
  8
MED-0
  6
CONTINUOUS
 62
4
 10
1.5129189E+002
 20
2.6647377E+002
 11
1.3666827E+002
 21
2.6647377E+002
  0
LINE
  8
MED-0
  6
CONTINUOUS
 62
4
 10
1.7278689E+002
 20
2.7447377E+002
 11
1.3666827E+002
 21
2.7447377E+002
  0
SOLID
  8
MED-1
  6
CONTINUOUS
 62
0
 10
1.3766827E+002
 20
2.6647377E+002
 11
1.3708494E+002
 21
2.6297377E+002
 12
1.3825161E+002
 22
2.6297377E+002
 13
1.3825161E+002
 23
2.6297377E+002
  0
SOLID
  8
MED-1
  6
CONTINUOUS
 62
0
 10
1.3766827E+002
 20
2.7447377E+002
 11
1.3825161E+002
 21
2.7797377E+002
 12
1.3708494E+002
 22
2.7797377E+002
 13
1.3708494E+002
 23
2.7797377E+002
  0
LINE
  8
MED-0
  6
CONTINUOUS
 62
4
 10
1.3766827E+002
 20
2.6047377E+002
 11
1.3766827E+002
 21
2.6647377E+002
  0
LINE
  8
MED-0
  6
CONTINUOUS
 62
4
 10
1.3766827E+002
 20
2.7447377E+002
 11
1.3766827E+002
 21
2.861712E+002
  0
TEXT
  8
MED-0
  6
CONTINUOUS
 62
4
 10
1.3650177E+002
 20
2.8233787E+002
 40
3.5
  1
8
 41
6.6666667E-001
 50
9.0E+001
  0
ENDBLK
  0
BLOCK
  2
*D117
  3
*D
 10
0.0
 20
0.0
 70
65
  0
LINE
  8
MED-0
  6
CONTINUOUS
 62
4
 10
5.4230596E+002
 20
2.6647375E+002
 11
5.6022749E+002
 21
2.6647375E+002
  0
LINE
  8
MED-0
  6
CONTINUOUS
 62
4
 10
5.314102E+002
 20
2.7347375E+002
 11
5.6022749E+002
 21
2.7347375E+002
  0
SOLID
  8
MED-1
  6
CONTINUOUS
 62
0
 10
5.5922749E+002
 20
2.6647375E+002
 11
5.5864416E+002
 21
2.6297375E+002
 12
5.5981083E+002
 22
2.6297375E+002
 13
5.5981083E+002
 23
2.6297375E+002
  0
SOLID
  8
MED-1
  6
CONTINUOUS
 62
0
 10
5.5922749E+002
 20
2.7347375E+002
 11
5.5981083E+002
 21
2.7697375E+002
 12
5.5864416E+002
 22
2.7697375E+002
 13
5.5864416E+002
 23
2.7697375E+002
  0
LINE
  8
MED-0
  6
CONTINUOUS
 62
4
 10
5.5922749E+002
 20
2.7347375E+002
 11
5.5922749E+002
 21
2.6047375E+002
  0
LINE
  8
MED-0
  6
CONTINUOUS
 62
4
 10
5.5922749E+002
 20
2.9657626E+002
 11
5.5922749E+002
 21
2.7347375E+002
  0
TEXT
  8
MED-0
  6
CONTINUOUS
 62
4
 10
5.5806199E+002
 20
2.8141076E+002
 40
3.5
  1
7
 41
6.6666667E-001
 50
9.0E+001
  0
TEXT
  8
MED-0
  6
CONTINUOUS
 62
4
 10
5.5806199E+002
 20
2.837441E+002
 40
3.5
  1
 - 57
 41
6.6666667E-001
 50
9.0E+001
  0
ENDBLK
  0
BLOCK
  2
*D162
  3
*D
 10
0.0
 20
0.0
 70
65
  0
LINE
  8
MED-0
  6
CONTINUOUS
 62
4
 10
3.6908508E+002
 20
2.7347377E+002
 11
4.0318994E+002
 21
2.7347377E+002
  0
LINE
  8
MED-0
  6
CONTINUOUS
 62
4
 10
3.8295078E+002
 20
2.6647377E+002
 11
4.0318994E+002
 21
2.6647377E+002
  0
SOLID
  8
MED-1
  6
CONTINUOUS
 62
0
 10
4.0218994E+002
 20
2.7347377E+002
 11
4.0277328E+002
 21
2.7697377E+002
 12
4.0160661E+002
 22
2.7697377E+002
 13
4.0160661E+002
 23
2.7697377E+002
  0
SOLID
  8
MED-1
  6
CONTINUOUS
 62
0
 10
4.0218994E+002
 20
2.6647377E+002
 11
4.0160661E+002
 21
2.6297377E+002
 12
4.0277328E+002
 22
2.6297377E+002
 13
4.0277328E+002
 23
2.6297377E+002
  0
LINE
  8
MED-0
  6
CONTINUOUS
 62
4
 10
4.0218994E+002
 20
2.8542321E+002
 11
4.0218994E+002
 21
2.7347377E+002
  0
LINE
  8
MED-0
  6
CONTINUOUS
 62
4
 10
4.0218994E+002
 20
2.7347377E+002
 11
4.0218994E+002
 21
2.6047377E+002
  0
TEXT
  8
MED-0
  6
CONTINUOUS
 62
4
 10
4.0102444E+002
 20
2.8192438E+002
 40
3.5
  1
7
 41
6.6666667E-001
 50
9.0E+001
  0
ENDBLK
  0
BLOCK
  2
*D339
  3
*D
 10
0.0
 20
0.0
 70
65
  0
LINE
  8
MED-0
  6
CONTINUOUS
 62
4
 10
5.1448454E+001
 20
2.7457377E+002
 11
1.9634481E+001
 21
2.7457377E+002
  0
LINE
  8
MED-0
  6
CONTINUOUS
 62
4
 10
3.1416111E+001
 20
2.6647377E+002
 11
1.9634481E+001
 21
2.6647377E+002
  0
SOLID
  8
MED-1
  6
CONTINUOUS
 62
0
 10
2.0634481E+001
 20
2.7457377E+002
 11
2.1217819E+001
 21
2.7807377E+002
 12
2.0051144E+001
 22
2.7807377E+002
 13
2.0051144E+001
 23
2.7807377E+002
  0
SOLID
  8
MED-1
  6
CONTINUOUS
 62
0
 10
2.0634481E+001
 20
2.6647377E+002
 11
2.0051144E+001
 21
2.6297377E+002
 12
2.1217819E+001
 22
2.6297377E+002
 13
2.1217819E+001
 23
2.6297377E+002
  0
LINE
  8
MED-0
  6
CONTINUOUS
 62
4
 10
2.0634481E+001
 20
2.8057377E+002
 11
2.0634481E+001
 21
2.7457377E+002
  0
LINE
  8
MED-0
  6
CONTINUOUS
 62
4
 10
2.0634481E+001
 20
2.6047377E+002
 11
2.0634481E+001
 21
2.7457377E+002
  0
TEXT
  8
MED-0
  6
CONTINUOUS
 62
4
 10
1.9467981E+001
 20
2.6352377E+002
 40
3.5
  1
8
 41
6.6666667E-001
 50
9.0E+001
  0
TEXT
  8
MED-0
  6
CONTINUOUS
 62
4
 10
1.9467981E+001
 20
2.658571E+002
 40
3.5
  1
 - 58
 41
6.6666667E-001
 50
9.0E+001
  0
ENDBLK
  0
ENDSEC
  0
SECTION
  2
ENTITIES
  0
TEXT
  8
103
  6
CONTINUOUS
 62
40
 10
5.762021E+002
 20
2.4207071E+001
 40
7.0
  1
BTS-Zubehör Bodenlager
 41
6.525E-001
 72
1
 11
5.259596E+002
 21
2.0707071E+001
 73
2
  0
TEXT
  8
103
  6
CONTINUOUS
 62
40
 10
2.9317991E+001
 20
4.0617878E+002
 40
5.0
  1
M 1:1
 41
6.3E-001
 72
1
 11
2.1442991E+001
 21
4.0367878E+002
 73
2
  0
DIMENSION
  8
MED-0
  6
CONTINUOUS
 62
4
  2
*D44
  3
DSTYLE1
 10
1.3766827E+002
 20
2.7447377E+002
 11
1.3475177E+002
 21
2.8350453E+002
 70
128
 13
1.5229189E+002
 23
2.6647377E+002
 14
1.7378689E+002
 24
2.7447377E+002
 40
3.0
 50
9.0E+001
  0
TEXT
  8
103
  6
CONTINUOUS
 62
40
 10
1.0229768E+002
 20
3.1972414E+002
 40
7.0
  1
Drehlager 7471K
 41
6.6E-001
 72
1
 11
6.7647677E+001
 21
3.1622414E+002
 73
2
  0
TEXT
  8
103
  6
CONTINUOUS
 62
40
 10
2.2453596E+002
 20
3.1972414E+002
 40
7.0
  1
Drehlager 7471AX
 41
6.609375E-001
 72
1
 11
1.8752346E+002
 21
3.1622414E+002
 73
2
  0
LINE
  8
106
  6
CENTERLINE
 62
1
 10
2.0349981E+002
 20
1.6543348E+002
 11
2.2180047E+002
 21
1.6543348E+002
  0
LINE
  8
106
  6
CENTERLINE
 62
1
 10
2.1229189E+002
 20
1.5641545E+002
 11
2.1229189E+002
 21
1.7363047E+002
  0
LINE
  8
106
  6
CENTERLINE
 62
1
 10
1.6429189E+002
 20
2.2310429E+002
 11
1.6429189E+002
 21
2.0433836E+002
  0
LINE
  8
106
  6
CENTERLINE
 62
1
 10
1.5511162E+002
 20
2.1343348E+002
 11
1.7325719E+002
 21
2.1343348E+002
  0
CIRCLE
  8
104
  6
CONTINUOUS
 62
40
 10
1.6429189E+002
 20
2.1343348E+002
 40
3.300004
  0
CIRCLE
  8
104
  6
CONTINUOUS
 62
40
 10
2.1229189E+002
 20
1.6543348E+002
 40
3.300004
  0
CIRCLE
  8
104
  6
CONTINUOUS
 62
40
 10
2.1229189E+002
 20
1.6543348E+002
 40
6.199997
  0
CIRCLE
  8
104
  6
CONTINUOUS
 62
40
 10
1.6429189E+002
 20
2.1343348E+002
 40
6.199997
  0
LINE
  8
104
  6
CONTINUOUS
 62
40
 10
2.2429189E+002
 20
2.2543348E+002
 11
1.5229189E+002
 21
2.2543348E+002
  0
LINE
  8
104
  6
CONTINUOUS
 62
40
 10
1.5229189E+002
 20
2.2543348E+002
 11
1.5229189E+002
 21
1.5343348E+002
  0
LINE
  8
104
  6
CONTINUOUS
 62
40
 10
1.5229189E+002
 20
1.5343348E+002
 11
2.2429189E+002
 21
1.5343348E+002
  0
LINE
  8
104
  6
CONTINUOUS
 62
40
 10
2.2429189E+002
 20
1.5343348E+002
 11
2.2429189E+002
 21
2.2543348E+002
  0
LINE
  8
106
  6
CENTERLINE
 62
1
 10
1.472997E+002
 20
1.8943348E+002
 11
2.3005751E+002
 21
1.8943348E+002
  0
LINE
  8
106
  6
CENTERLINE
 62
1
 10
1.8829188E+002
 20
1.5126725E+002
 11
1.8829188E+002
 21
2.3077723E+002
  0
CIRCLE
  8
104
  6
CONTINUOUS
 62
40
 10
1.8829188E+002
 20
1.8943348E+002
 40
1.15E+001
  0
CIRCLE
  8
104
  6
CONTINUOUS
 62
40
 10
1.8829189E+002
 20
1.8943348E+002
 40
2.055001E+001
  0
CIRCLE
  8
104
  6
CONTINUOUS
 62
40
 10
1.8829188E+002
 20
1.8943347E+002
 40
4.0
  0
ARC
  8
104
  6
CONTINUOUS
 62
40
 10
1.8829188E+002
 20
1.8943348E+002
 40
1.1250002E+001
 50
1.4655673E+002
 51
2.1344327E+002
  0
LINE
  8
104
  6
CONTINUOUS
 62
40
 10
1.7890452E+002
 20
1.9563348E+002
 11
1.9767924E+002
 21
1.9563348E+002
  0
ARC
  8
104
  6
CONTINUOUS
 62
40
 10
1.8829188E+002
 20
1.8943348E+002
 40
1.1250001E+001
 50
3.2655673E+002
 51
3.9344327E+002
  0
LINE
  8
104
  6
CONTINUOUS
 62
40
 10
1.9767924E+002
 20
1.8323348E+002
 11
1.7890452E+002
 21
1.8323348E+002
  0
ARC
  8
104
  6
CONTINUOUS
 62
40
 10
1.8829189E+002
 20
1.8943348E+002
 40
1.0699999E+001
 50
1.5307432E+002
 51
2.0692568E+002
  0
LINE
  8
104
  6
CONTINUOUS
 62
40
 10
1.7875183E+002
 20
1.9427881E+002
 11
1.9783195E+002
 21
1.9427881E+002
  0
ARC
  8
104
  6
CONTINUOUS
 62
40
 10
1.8829189E+002
 20
1.8943348E+002
 40
1.07E+001
 50
3.3307432E+002
 51
3.8692568E+002
  0
LINE
  8
104
  6
CONTINUOUS
 62
40
 10
1.9783195E+002
 20
1.8458815E+002
 11
1.7875183E+002
 21
1.8458815E+002
  0
LINE
  8
104
  6
CONTINUOUS
 62
40
 10
1.7875183E+002
 20
1.8458815E+002
 11
1.7853471E+002
 21
1.8383348E+002
  0
LINE
  8
104
  6
CONTINUOUS
 62
40
 10
1.7853471E+002
 20
1.8383348E+002
 11
1.9804907E+002
 21
1.8383348E+002
  0
LINE
  8
104
  6
CONTINUOUS
 62
40
 10
1.9804907E+002
 20
1.8383348E+002
 11
1.9783195E+002
 21
1.8458815E+002
  0
LINE
  8
104
  6
CONTINUOUS
 62
40
 10
1.9783195E+002
 20
1.9427881E+002
 11
1.9804907E+002
 21
1.9503348E+002
  0
LINE
  8
104
  6
CONTINUOUS
 62
40
 10
1.9804907E+002
 20
1.9503348E+002
 11
1.7853471E+002
 21
1.9503348E+002
  0
LINE
  8
104
  6
CONTINUOUS
 62
40
 10
1.7853471E+002
 20
1.9503348E+002
 11
1.7875183E+002
 21
1.9427881E+002
  0
ARC
  8
99
  6
CONTINUOUS
 62
1
 10
1.8829189E+002
 20
1.8943348E+002
 40
2.5000003
 50
3.4596397E+002
 51
6.4443599E+002
  0
CIRCLE
  8
104
  6
CONTINUOUS
 62
40
 10
1.8829189E+002
 20
1.8943348E+002
 40
2.0
  0
LINE
  8
104
  6
CONTINUOUS
 62
40
 10
1.9979189E+002
 20
2.7034194E+002
 11
1.9979189E+002
 21
2.7397377E+002
  0
LINE
  8
104
  6
CONTINUOUS
 62
40
 10
1.9979189E+002
 20
2.7397377E+002
 11
1.7679189E+002
 21
2.7397377E+002
  0
LINE
  8
104
  6
CONTINUOUS
 62
40
 10
1.7679189E+002
 20
2.7397377E+002
 11
1.7679189E+002
 21
2.7030444E+002
  0
LINE
  8
104
  6
CONTINUOUS
 62
40
 10
1.7802521E+002
 20
2.8197377E+002
 11
1.7722503E+002
 21
2.8197377E+002
  0
LINE
  8
104
  6
CONTINUOUS
 62
40
 10
1.7704189E+002
 20
2.7397377E+002
 11
1.7722503E+002
 21
2.8197377E+002
  0
LINE
  8
104
  6
CONTINUOUS
 62
40
 10
1.7722503E+002
 20
2.8197377E+002
 11
1.7759189E+002
 21
2.8897377E+002
  0
LINE
  8
104
  6
CONTINUOUS
 62
40
 10
1.7759189E+002
 20
2.8897377E+002
 11
1.9899189E+002
 21
2.8897377E+002
  0
LINE
  8
104
  6
CONTINUOUS
 62
40
 10
1.9899189E+002
 20
2.8897377E+002
 11
1.9935846E+002
 21
2.819861E+002
  0
LINE
  8
104
  6
CONTINUOUS
 62
40
 10
1.9935846E+002
 20
2.819861E+002
 11
1.9954189E+002
 21
2.7397377E+002
  0
LINE
  8
104
  6
CONTINUOUS
 62
40
 10
1.9812877E+002
 20
2.7397377E+002
 11
1.9872878E+002
 21
2.7457377E+002
  0
LINE
  8
104
  6
CONTINUOUS
 62
40
 10
1.9872878E+002
 20
2.7457377E+002
 11
1.9855919E+002
 21
2.8194421E+002
  0
LINE
  8
104
  6
CONTINUOUS
 62
40
 10
1.9855919E+002
 20
2.8194421E+002
 11
1.9819079E+002
 21
2.8897377E+002
  0
LINE
  8
104
  6
CONTINUOUS
 62
40
 10
1.9855919E+002
 20
2.8194421E+002
 11
1.9935846E+002
 21
2.819861E+002
  0
LINE
  8
104
  6
CONTINUOUS
 62
40
 10
1.9872878E+002
 20
2.7457377E+002
 11
1.77855E+002
 21
2.7457377E+002
  0
LINE
  8
104
  6
CONTINUOUS
 62
40
 10
1.7845501E+002
 20
2.7397377E+002
 11
1.77855E+002
 21
2.7457377E+002
  0
LINE
  8
104
  6
CONTINUOUS
 62
40
 10
1.77855E+002
 20
2.7457377E+002
 11
1.7802521E+002
 21
2.8197377E+002
  0
LINE
  8
104
  6
CONTINUOUS
 62
40
 10
1.7802521E+002
 20
2.8197377E+002
 11
1.7839311E+002
 21
2.8897377E+002
  0
DIMENSION
  8
MED-0
  6
CONTINUOUS
 62
4
  1
<> - 57
  2
*D117
  3
DSTYLE1
 10
5.5922749E+002
 20
2.7347375E+002
 11
5.5631199E+002
 21
2.8841076E+002
 70
128
 13
5.4130596E+002
 23
2.6647375E+002
 14
5.304102E+002
 24
2.7347375E+002
 40
3.0
 50
9.0E+001
  0
TEXT
  8
103
  6
CONTINUOUS
 62
40
 10
5.3930688E+002
 20
3.1883911E+002
 40
7.0
  1
Bodenlager 8560G
 41
6.609375E-001
 72
1
 11
5.0229438E+002
 21
3.1533911E+002
 73
2
  0
LINE
  8
104
  6
CONTINUOUS
 62
40
 10
4.9503931E+002
 20
2.8097377E+002
 11
4.9423911E+002
 21
2.8097377E+002
  0
LINE
  8
104
  6
CONTINUOUS
 62
40
 10
4.9405478E+002
 20
2.7368545E+002
 11
4.9423911E+002
 21
2.8097377E+002
  0
LINE
  8
104
  6
CONTINUOUS
 62
40
 10
4.9423911E+002
 20
2.8097377E+002
 11
4.9460599E+002
 21
2.8797377E+002
  0
LINE
  8
104
  6
CONTINUOUS
 62
40
 10
4.9460599E+002
 20
2.8797377E+002
 11
5.1600595E+002
 21
2.8797377E+002
  0
LINE
  8
104
  6
CONTINUOUS
 62
40
 10
5.1600595E+002
 20
2.8797377E+002
 11
5.1637253E+002
 21
2.8098609E+002
  0
LINE
  8
104
  6
CONTINUOUS
 62
40
 10
5.1637253E+002
 20
2.8098609E+002
 11
5.1653882E+002
 21
2.737221E+002
  0
LINE
  8
104
  6
CONTINUOUS
 62
40
 10
5.1574262E+002
 20
2.737208E+002
 11
5.1557327E+002
 21
2.8094421E+002
  0
LINE
  8
104
  6
CONTINUOUS
 62
40
 10
5.1557327E+002
 20
2.8094421E+002
 11
5.1520487E+002
 21
2.8797377E+002
  0
LINE
  8
104
  6
CONTINUOUS
 62
40
 10
5.1557327E+002
 20
2.8094421E+002
 11
5.1637253E+002
 21
2.8098609E+002
  0
LINE
  8
104
  6
CONTINUOUS
 62
40
 10
4.9486887E+002
 20
2.7368678E+002
 11
4.9503931E+002
 21
2.8097377E+002
  0
LINE
  8
104
  6
CONTINUOUS
 62
40
 10
4.9503931E+002
 20
2.8097377E+002
 11
4.954072E+002
 21
2.8797377E+002
  0
LINE
  8
106
  6
CENTERLINE
 62
1
 10
5.0530595E+002
 20
2.5337001E+002
 11
5.0530595E+002
 21
2.9218141E+002
  0
LINE
  8
104
  6
CONTINUOUS
 62
40
 10
5.2080596E+002
 20
2.6447377E+002
 11
4.8980599E+002
 21
2.6447377E+002
  0
LINE
  8
104
  6
CONTINUOUS
 62
40
 10
4.8635597E+002
 20
2.6547377E+002
 11
4.8635597E+002
 21
2.6647375E+002
  0
LINE
  8
104
  6
CONTINUOUS
 62
40
 10
4.8635597E+002
 20
2.6647375E+002
 11
4.8635597E+002
 21
2.6447377E+002
  0
LINE
  8
104
  6
CONTINUOUS
 62
40
 10
4.8635597E+002
 20
2.6447377E+002
 11
4.8980599E+002
 21
2.6447377E+002
  0
LINE
  8
104
  6
CONTINUOUS
 62
40
 10
4.8980599E+002
 20
2.6447377E+002
 11
4.8980599E+002
 21
2.6397377E+002
  0
LINE
  8
104
  6
CONTINUOUS
 62
40
 10
4.8980599E+002
 20
2.6397377E+002
 11
4.8980599E+002
 21
2.5747377E+002
  0
LINE
  8
104
  6
CONTINUOUS
 62
40
 10
4.8980599E+002
 20
2.5747377E+002
 11
5.2080596E+002
 21
2.5747377E+002
  0
LINE
  8
104
  6
CONTINUOUS
 62
40
 10
5.2080596E+002
 20
2.5747377E+002
 11
5.2080596E+002
 21
2.6447377E+002
  0
LINE
  8
104
  6
CONTINUOUS
 62
40
 10
5.2080596E+002
 20
2.6447377E+002
 11
5.2425597E+002
 21
2.6447377E+002
  0
LINE
  8
104
  6
CONTINUOUS
 62
40
 10
5.2425597E+002
 20
2.6447377E+002
 11
5.2425597E+002
 21
2.6547377E+002
  0
LINE
  8
104
  6
CONTINUOUS
 62
40
 10
5.2425597E+002
 20
2.6547377E+002
 11
5.2425597E+002
 21
2.6647375E+002
  0
LINE
  8
104
  6
CONTINUOUS
 62
40
 10
5.2325597E+002
 20
2.7047377E+002
 11
4.8735597E+002
 21
2.7047377E+002
  0
LINE
  8
104
  6
CONTINUOUS
 62
40
 10
5.1755596E+002
 20
2.7372377E+002
 11
5.2403594E+002
 21
2.7313822E+002
  0
ARC
  8
104
  6
CONTINUOUS
 62
40
 10
5.2385591E+002
 20
2.7114634E+002
 40
2.0000021
 50
9.5702E-006
 51
8.4835677E+001
  0
LINE
  8
104
  6
CONTINUOUS
 62
40
 10
5.2585591E+002
 20
2.7114634E+002
 11
5.2585591E+002
 21
2.7047377E+002
  0
LINE
  8
104
  6
CONTINUOUS
 62
40
 10
5.2585591E+002
 20
2.7047377E+002
 11
4.8475597E+002
 21
2.7047377E+002
  0
LINE
  8
104
  6
CONTINUOUS
 62
40
 10
4.8475597E+002
 20
2.7047377E+002
 11
4.8475597E+002
 21
2.7114634E+002
  0
ARC
  8
104
  6
CONTINUOUS
 62
40
 10
4.8675596E+002
 20
2.7114635E+002
 40
1.9999927
 50
9.5163215E+001
 51
1.8000016E+002
  0
LINE
  8
104
  6
CONTINUOUS
 62
40
 10
4.8657598E+002
 20
2.7313822E+002
 11
4.9155696E+002
 21
2.7358831E+002
  0
LINE
  8
104
  6
CONTINUOUS
 62
40
 10
4.9155696E+002
 20
2.7358831E+002
 11
4.9260594E+002
 21
2.7368309E+002
  0
LINE
  8
104
  6
CONTINUOUS
 62
40
 10
4.9260594E+002
 20
2.7368309E+002
 11
5.1755596E+002
 21
2.7372377E+002
  0
DIMENSION
  8
MED-0
  6
CONTINUOUS
 62
4
  2
*D162
  3
DSTYLE1
 10
4.0218994E+002
 20
2.6647377E+002
 11
3.9927444E+002
 21
2.8309105E+002
 70
128
 13
3.6808508E+002
 23
2.7347377E+002
 14
3.8195078E+002
 24
2.6647377E+002
 40
3.0
 50
-9.0E+001
  0
TEXT
  8
103
  6
CONTINUOUS
 62
40
 10
3.7601683E+002
 20
3.1943074E+002
 40
7.0
  1
Drehlager 7475AX
 41
6.609375E-001
 72
1
 11
3.3900433E+002
 21
3.1593074E+002
 73
2
  0
LINE
  8
104
  6
CONTINUOUS
 62
40
 10
3.3568408E+002
 20
2.8097377E+002
 11
3.348839E+002
 21
2.8097377E+002
  0
LINE
  8
104
  6
CONTINUOUS
 62
40
 10
3.3470076E+002
 20
2.7297377E+002
 11
3.348839E+002
 21
2.8097377E+002
  0
LINE
  8
104
  6
CONTINUOUS
 62
40
 10
3.348839E+002
 20
2.8097377E+002
 11
3.3525076E+002
 21
2.8797377E+002
  0
LINE
  8
104
  6
CONTINUOUS
 62
40
 10
3.3525076E+002
 20
2.8797377E+002
 11
3.5665076E+002
 21
2.8797377E+002
  0
LINE
  8
104
  6
CONTINUOUS
 62
40
 10
3.5665076E+002
 20
2.8797377E+002
 11
3.5701732E+002
 21
2.8098609E+002
  0
LINE
  8
104
  6
CONTINUOUS
 62
40
 10
3.5701732E+002
 20
2.8098609E+002
 11
3.5719954E+002
 21
2.7372213E+002
  0
LINE
  8
104
  6
CONTINUOUS
 62
40
 10
3.5638741E+002
 20
2.737208E+002
 11
3.5621807E+002
 21
2.8094421E+002
  0
LINE
  8
104
  6
CONTINUOUS
 62
40
 10
3.5621807E+002
 20
2.8094421E+002
 11
3.5584966E+002
 21
2.8797377E+002
  0
LINE
  8
104
  6
CONTINUOUS
 62
40
 10
3.5621807E+002
 20
2.8094421E+002
 11
3.5701732E+002
 21
2.8098609E+002
  0
LINE
  8
104
  6
CONTINUOUS
 62
40
 10
3.3551367E+002
 20
2.7368676E+002
 11
3.3568408E+002
 21
2.8097377E+002
  0
LINE
  8
104
  6
CONTINUOUS
 62
40
 10
3.3568408E+002
 20
2.8097377E+002
 11
3.3605199E+002
 21
2.8797377E+002
  0
LINE
  8
104
  6
CONTINUOUS
 62
40
 10
3.5820076E+002
 20
2.7372377E+002
 11
3.6468076E+002
 21
2.7313822E+002
  0
ARC
  8
104
  6
CONTINUOUS
 62
40
 10
3.6450079E+002
 20
2.7114636E+002
 40
1.9999777
 50
3.5999945E+002
 51
4.4483718E+002
  0
LINE
  8
104
  6
CONTINUOUS
 62
40
 10
3.6650076E+002
 20
2.7114634E+002
 11
3.6650076E+002
 21
2.7047377E+002
  0
LINE
  8
104
  6
CONTINUOUS
 62
40
 10
3.6650076E+002
 20
2.7047377E+002
 11
3.2540076E+002
 21
2.7047377E+002
  0
LINE
  8
104
  6
CONTINUOUS
 62
40
 10
3.2540076E+002
 20
2.7047377E+002
 11
3.2540076E+002
 21
2.7114634E+002
  0
ARC
  8
104
  6
CONTINUOUS
 62
40
 10
3.2740073E+002
 20
2.7114636E+002
 40
1.9999751
 50
9.5162726E+001
 51
1.8000062E+002
  0
LINE
  8
104
  6
CONTINUOUS
 62
40
 10
3.2722077E+002
 20
2.7313822E+002
 11
3.3220177E+002
 21
2.7358831E+002
  0
LINE
  8
104
  6
CONTINUOUS
 62
40
 10
3.3220177E+002
 20
2.7358831E+002
 11
3.3325073E+002
 21
2.7368309E+002
  0
LINE
  8
104
  6
CONTINUOUS
 62
40
 10
3.3325073E+002
 20
2.7368309E+002
 11
3.5820076E+002
 21
2.7372377E+002
  0
LINE
  8
104
  6
CONTINUOUS
 62
40
 10
3.6395075E+002
 20
2.6547377E+002
 11
3.6395075E+002
 21
2.6647377E+002
  0
LINE
  8
104
  6
CONTINUOUS
 62
40
 10
3.6395075E+002
 20
2.6647377E+002
 11
3.6395075E+002
 21
2.5747377E+002
  0
LINE
  8
104
  6
CONTINUOUS
 62
40
 10
3.6395075E+002
 20
2.5747377E+002
 11
3.2795076E+002
 21
2.5747377E+002
  0
LINE
  8
104
  6
CONTINUOUS
 62
40
 10
3.2795076E+002
 20
2.5747377E+002
 11
3.2795076E+002
 21
2.6547377E+002
  0
LINE
  8
104
  6
CONTINUOUS
 62
40
 10
3.2795076E+002
 20
2.6547377E+002
 11
3.2795076E+002
 21
2.6647377E+002
  0
LINE
  8
106
  6
CENTERLINE
 62
1
 10
3.4595078E+002
 20
2.9671403E+002
 11
3.4595078E+002
 21
2.5636512E+002
  0
LINE
  8
105
  6
HIDDEN
 62
1
 10
3.6675076E+002
 20
2.7047377E+002
 11
3.6965076E+002
 21
2.6757377E+002
  0
LINE
  8
105
  6
HIDDEN
 62
1
 10
3.6965076E+002
 20
2.6757377E+002
 11
3.7625076E+002
 21
2.6757377E+002
  0
LINE
  8
105
  6
HIDDEN
 62
1
 10
3.7625076E+002
 20
2.6757377E+002
 11
3.7915076E+002
 21
2.7047377E+002
  0
LINE
  8
105
  6
HIDDEN
 62
1
 10
3.7625076E+002
 20
2.6757377E+002
 11
3.7625076E+002
 21
2.6647377E+002
  0
LINE
  8
105
  6
HIDDEN
 62
1
 10
3.6965076E+002
 20
2.6647377E+002
 11
3.6965076E+002
 21
2.6757377E+002
  0
LINE
  8
105
  6
HIDDEN
 62
1
 10
3.0325076E+002
 20
2.7047377E+002
 11
3.0615076E+002
 21
2.6757377E+002
  0
LINE
  8
105
  6
HIDDEN
 62
1
 10
3.0615076E+002
 20
2.6757377E+002
 11
3.1275076E+002
 21
2.6757377E+002
  0
LINE
  8
105
  6
HIDDEN
 62
1
 10
3.1275076E+002
 20
2.6757377E+002
 11
3.1565076E+002
 21
2.7047377E+002
  0
LINE
  8
105
  6
HIDDEN
 62
1
 10
3.1275076E+002
 20
2.6757377E+002
 11
3.1275076E+002
 21
2.6647377E+002
  0
LINE
  8
105
  6
HIDDEN
 62
1
 10
3.0615076E+002
 20
2.6647377E+002
 11
3.0615076E+002
 21
2.6757377E+002
  0
LINE
  8
104
  6
CONTINUOUS
 62
40
 10
3.8195076E+002
 20
2.7047377E+002
 11
3.0995076E+002
 21
2.7047377E+002
  0
LINE
  8
104
  6
CONTINUOUS
 62
40
 10
3.0995076E+002
 20
2.7047377E+002
 11
2.8095078E+002
 21
2.7047377E+002
  0
LINE
  8
104
  6
CONTINUOUS
 62
40
 10
2.8095078E+002
 20
2.7047377E+002
 11
2.8095078E+002
 21
2.6647377E+002
  0
LINE
  8
104
  6
CONTINUOUS
 62
40
 10
2.8095078E+002
 20
2.6647377E+002
 11
3.8195078E+002
 21
2.6647377E+002
  0
LINE
  8
104
  6
CONTINUOUS
 62
40
 10
3.8195078E+002
 20
2.6647377E+002
 11
3.8195076E+002
 21
2.7047377E+002
  0
LINE
  8
105
  6
HIDDEN
 62
1
 10
3.7295078E+002
 20
2.7256387E+002
 11
3.7295078E+002
 21
2.6311142E+002
  0
LINE
  8
105
  6
HIDDEN
 62
1
 10
3.0945078E+002
 20
2.7256387E+002
 11
3.0945078E+002
 21
2.6286267E+002
  0
LINE
  8
105
  6
HIDDEN
 62
1
 10
5.2610594E+002
 20
2.7047375E+002
 11
5.2900594E+002
 21
2.6757376E+002
  0
LINE
  8
105
  6
HIDDEN
 62
1
 10
5.2900594E+002
 20
2.6757376E+002
 11
5.3560594E+002
 21
2.6757376E+002
  0
LINE
  8
105
  6
HIDDEN
 62
1
 10
5.3560594E+002
 20
2.6757376E+002
 11
5.3850594E+002
 21
2.7047375E+002
  0
LINE
  8
105
  6
HIDDEN
 62
1
 10
5.3560594E+002
 20
2.6757376E+002
 11
5.3560594E+002
 21
2.6647375E+002
  0
LINE
  8
105
  6
HIDDEN
 62
1
 10
5.2900594E+002
 20
2.6647375E+002
 11
5.2900594E+002
 21
2.6757376E+002
  0
LINE
  8
105
  6
HIDDEN
 62
1
 10
4.6260594E+002
 20
2.7047375E+002
 11
4.6550594E+002
 21
2.6757376E+002
  0
LINE
  8
105
  6
HIDDEN
 62
1
 10
4.6550594E+002
 20
2.6757376E+002
 11
4.7210594E+002
 21
2.6757376E+002
  0
LINE
  8
105
  6
HIDDEN
 62
1
 10
4.7210594E+002
 20
2.6757376E+002
 11
4.7500594E+002
 21
2.7047375E+002
  0
LINE
  8
105
  6
HIDDEN
 62
1
 10
4.7210594E+002
 20
2.6757376E+002
 11
4.7210594E+002
 21
2.6647375E+002
  0
LINE
  8
105
  6
HIDDEN
 62
1
 10
4.6550594E+002
 20
2.6647375E+002
 11
4.6550594E+002
 21
2.6757376E+002
  0
LINE
  8
104
  6
CONTINUOUS
 62
40
 10
5.4130593E+002
 20
2.7047375E+002
 11
4.6930594E+002
 21
2.7047375E+002
  0
LINE
  8
104
  6
CONTINUOUS
 62
40
 10
4.6930594E+002
 20
2.7047375E+002
 11
4.4030595E+002
 21
2.7047375E+002
  0
LINE
  8
104
  6
CONTINUOUS
 62
40
 10
4.4030595E+002
 20
2.7047375E+002
 11
4.4030595E+002
 21
2.6647375E+002
  0
LINE
  8
104
  6
CONTINUOUS
 62
40
 10
4.4030595E+002
 20
2.6647375E+002
 11
5.4130596E+002
 21
2.6647375E+002
  0
LINE
  8
104
  6
CONTINUOUS
 62
40
 10
5.4130596E+002
 20
2.6647375E+002
 11
5.4130593E+002
 21
2.7047375E+002
  0
LINE
  8
105
  6
HIDDEN
 62
1
 10
5.3230596E+002
 20
2.7256385E+002
 11
5.3230596E+002
 21
2.631114E+002
  0
LINE
  8
105
  6
HIDDEN
 62
1
 10
4.6880595E+002
 20
2.7256385E+002
 11
4.6880595E+002
 21
2.6286265E+002
  0
LINE
  8
106
  6
CENTERLINE
 62
1
 10
2.7534042E+002
 20
1.8943348E+002
 11
3.9019589E+002
 21
1.8943348E+002
  0
LINE
  8
106
  6
CENTERLINE
 62
1
 10
3.4595078E+002
 20
2.1756727E+002
 11
3.4595078E+002
 21
1.9610438E+002
  0
LINE
  8
106
  6
CENTERLINE
 62
1
 10
3.4595078E+002
 20
1.9610438E+002
 11
3.4595078E+002
 21
1.5994618E+002
  0
LINE
  8
106
  6
CENTERLINE
 62
1
 10
3.0945079E+002
 20
2.0828602E+002
 11
3.0945079E+002
 21
1.707743E+002
  0
LINE
  8
106
  6
CENTERLINE
 62
1
 10
2.9970372E+002
 20
1.7993348E+002
 11
3.1961974E+002
 21
1.7993348E+002
  0
LINE
  8
106
  6
CENTERLINE
 62
1
 10
3.1961974E+002
 20
1.9893348E+002
 11
2.9796349E+002
 21
1.9893348E+002
  0
LINE
  8
106
  6
CENTERLINE
 62
1
 10
3.7295079E+002
 20
1.9893348E+002
 11
3.7295079E+002
 21
1.7993348E+002
  0
CIRCLE
  8
104
  6
CONTINUOUS
 62
40
 10
3.0945079E+002
 20
1.7993348E+002
 40
6.25
  0
CIRCLE
  8
104
  6
CONTINUOUS
 62
40
 10
3.0945079E+002
 20
1.9893348E+002
 40
3.25
  0
CIRCLE
  8
104
  6
CONTINUOUS
 62
40
 10
3.0945079E+002
 20
1.7993348E+002
 40
3.25
  0
CIRCLE
  8
104
  6
CONTINUOUS
 62
40
 10
3.0945079E+002
 20
1.9893348E+002
 40
6.25
  0
LINE
  8
104
  6
CONTINUOUS
 62
40
 10
2.8095079E+002
 20
1.6693348E+002
 11
3.8195079E+002
 21
1.6693348E+002
  0
LINE
  8
104
  6
CONTINUOUS
 62
40
 10
3.8195079E+002
 20
1.6693348E+002
 11
3.8195079E+002
 21
2.1193348E+002
  0
LINE
  8
104
  6
CONTINUOUS
 62
40
 10
3.8195079E+002
 20
2.1193348E+002
 11
2.8095079E+002
 21
2.1193348E+002
  0
LINE
  8
104
  6
CONTINUOUS
 62
40
 10
2.8095079E+002
 20
2.1193348E+002
 11
2.8095079E+002
 21
1.6693348E+002
  0
CIRCLE
  8
104
  6
CONTINUOUS
 62
40
 10
3.7295079E+002
 20
1.8943348E+002
 40
3.25
  0
CIRCLE
  8
104
  6
CONTINUOUS
 62
40
 10
3.7295079E+002
 20
1.8943348E+002
 40
6.25
  0
LINE
  8
106
  6
CENTERLINE
 62
1
 10
4.346956E+002
 20
1.8943348E+002
 11
5.4955107E+002
 21
1.8943348E+002
  0
LINE
  8
106
  6
CENTERLINE
 62
1
 10
5.0530595E+002
 20
2.1756727E+002
 11
5.0530595E+002
 21
1.9610438E+002
  0
LINE
  8
106
  6
CENTERLINE
 62
1
 10
5.0530595E+002
 20
1.9610438E+002
 11
5.0530595E+002
 21
1.5994618E+002
  0
LINE
  8
106
  6
CENTERLINE
 62
1
 10
4.6880597E+002
 20
2.0828602E+002
 11
4.6880597E+002
 21
1.707743E+002
  0
LINE
  8
106
  6
CENTERLINE
 62
1
 10
4.590589E+002
 20
1.7993348E+002
 11
4.7897492E+002
 21
1.7993348E+002
  0
LINE
  8
106
  6
CENTERLINE
 62
1
 10
4.7897492E+002
 20
1.9893348E+002
 11
4.5731867E+002
 21
1.9893348E+002
  0
LINE
  8
106
  6
CENTERLINE
 62
1
 10
5.3230596E+002
 20
1.9893348E+002
 11
5.3230596E+002
 21
1.7993348E+002
  0
CIRCLE
  8
104
  6
CONTINUOUS
 62
40
 10
4.6880597E+002
 20
1.7993348E+002
 40
6.25
  0
CIRCLE
  8
104
  6
CONTINUOUS
 62
40
 10
4.6880597E+002
 20
1.9893348E+002
 40
3.25
  0
CIRCLE
  8
104
  6
CONTINUOUS
 62
40
 10
4.6880597E+002
 20
1.7993348E+002
 40
3.25
  0
CIRCLE
  8
104
  6
CONTINUOUS
 62
40
 10
4.6880597E+002
 20
1.9893348E+002
 40
6.25
  0
LINE
  8
104
  6
CONTINUOUS
 62
40
 10
4.4030597E+002
 20
1.6693348E+002
 11
5.4130596E+002
 21
1.6693348E+002
  0
LINE
  8
104
  6
CONTINUOUS
 62
40
 10
5.4130596E+002
 20
1.6693348E+002
 11
5.4130596E+002
 21
2.1193348E+002
  0
LINE
  8
104
  6
CONTINUOUS
 62
40
 10
5.4130596E+002
 20
2.1193348E+002
 11
4.4030597E+002
 21
2.1193348E+002
  0
LINE
  8
104
  6
CONTINUOUS
 62
40
 10
4.4030597E+002
 20
2.1193348E+002
 11
4.4030597E+002
 21
1.6693348E+002
  0
CIRCLE
  8
104
  6
CONTINUOUS
 62
40
 10
5.3230596E+002
 20
1.8943348E+002
 40
3.25
  0
CIRCLE
  8
104
  6
CONTINUOUS
 62
40
 10
5.3230596E+002
 20
1.8943348E+002
 40
6.25
  0
CIRCLE
  8
104
  6
CONTINUOUS
 62
40
 10
3.4602744E+002
 20
1.8946931E+002
 40
1.15E+001
  0
CIRCLE
  8
104
  6
CONTINUOUS
 62
40
 10
3.4602744E+002
 20
1.8946931E+002
 40
2.0550018E+001
  0
CIRCLE
  8
104
  6
CONTINUOUS
 62
40
 10
3.4602744E+002
 20
1.8946929E+002
 40
4.0
  0
ARC
  8
104
  6
CONTINUOUS
 62
40
 10
3.4602744E+002
 20
1.894693E+002
 40
1.1250004E+001
 50
1.4655671E+002
 51
2.1344329E+002
  0
LINE
  8
104
  6
CONTINUOUS
 62
40
 10
3.3664008E+002
 20
1.956693E+002
 11
3.554148E+002
 21
1.956693E+002
  0
ARC
  8
104
  6
CONTINUOUS
 62
40
 10
3.4602744E+002
 20
1.894693E+002
 40
1.1250003E+001
 50
3.2655671E+002
 51
3.9344329E+002
  0
LINE
  8
104
  6
CONTINUOUS
 62
40
 10
3.554148E+002
 20
1.8326929E+002
 11
3.3664008E+002
 21
1.8326929E+002
  0
ARC
  8
104
  6
CONTINUOUS
 62
40
 10
3.4602744E+002
 20
1.8946931E+002
 40
1.069999E+001
 50
1.5307433E+002
 51
2.0692567E+002
  0
LINE
  8
104
  6
CONTINUOUS
 62
40
 10
3.3648738E+002
 20
1.9431463E+002
 11
3.5556751E+002
 21
1.9431463E+002
  0
ARC
  8
104
  6
CONTINUOUS
 62
40
 10
3.4602744E+002
 20
1.8946931E+002
 40
1.0700002E+001
 50
3.3307436E+002
 51
3.8692563E+002
  0
LINE
  8
104
  6
CONTINUOUS
 62
40
 10
3.5556751E+002
 20
1.8462399E+002
 11
3.3648738E+002
 21
1.8462399E+002
  0
LINE
  8
104
  6
CONTINUOUS
 62
40
 10
3.3648738E+002
 20
1.8462399E+002
 11
3.3627026E+002
 21
1.838693E+002
  0
LINE
  8
104
  6
CONTINUOUS
 62
40
 10
3.3627026E+002
 20
1.838693E+002
 11
3.5578462E+002
 21
1.838693E+002
  0
LINE
  8
104
  6
CONTINUOUS
 62
40
 10
3.5578462E+002
 20
1.838693E+002
 11
3.5556751E+002
 21
1.8462399E+002
  0
LINE
  8
104
  6
CONTINUOUS
 62
40
 10
3.5556751E+002
 20
1.9431463E+002
 11
3.5578462E+002
 21
1.9506931E+002
  0
LINE
  8
104
  6
CONTINUOUS
 62
40
 10
3.5578462E+002
 20
1.9506931E+002
 11
3.3627026E+002
 21
1.9506931E+002
  0
LINE
  8
104
  6
CONTINUOUS
 62
40
 10
3.3627026E+002
 20
1.9506931E+002
 11
3.3648738E+002
 21
1.9431463E+002
  0
ARC
  8
99
  6
CONTINUOUS
 62
1
 10
3.4602744E+002
 20
1.8946931E+002
 40
2.4999989
 50
3.4596379E+002
 51
6.4443602E+002
  0
CIRCLE
  8
104
  6
CONTINUOUS
 62
40
 10
3.4602744E+002
 20
1.8946931E+002
 40
2.0
  0
CIRCLE
  8
104
  6
CONTINUOUS
 62
40
 10
5.0530595E+002
 20
1.8943348E+002
 40
2.0550019E+001
  0
CIRCLE
  8
104
  6
CONTINUOUS
 62
40
 10
5.0530597E+002
 20
1.8943348E+002
 40
4.0
  0
CIRCLE
  8
104
  6
CONTINUOUS
 62
40
 10
5.0530597E+002
 20
1.8943348E+002
 40
1.2199997E+001
  0
ARC
  8
104
  6
CONTINUOUS
 62
40
 10
5.0530597E+002
 20
1.8943348E+002
 40
1.125E+001
 50
1.4655674E+002
 51
2.1344326E+002
  0
LINE
  8
104
  6
CONTINUOUS
 62
40
 10
4.9591861E+002
 20
1.9563348E+002
 11
5.1469331E+002
 21
1.9563348E+002
  0
ARC
  8
104
  6
CONTINUOUS
 62
40
 10
5.0530597E+002
 20
1.8943348E+002
 40
1.1249986E+001
 50
3.265567E+002
 51
3.934433E+002
  0
LINE
  8
104
  6
CONTINUOUS
 62
40
 10
5.1469331E+002
 20
1.8323348E+002
 11
4.9591861E+002
 21
1.8323348E+002
  0
ARC
  8
104
  6
CONTINUOUS
 62
40
 10
5.0530597E+002
 20
1.8943347E+002
 40
1.0700007E+001
 50
1.5307433E+002
 51
2.0692567E+002
  0
LINE
  8
104
  6
CONTINUOUS
 62
40
 10
4.957659E+002
 20
1.942788E+002
 11
5.1484603E+002
 21
1.942788E+002
  0
ARC
  8
104
  6
CONTINUOUS
 62
40
 10
5.0530597E+002
 20
1.8943347E+002
 40
1.0699993E+001
 50
3.3307429E+002
 51
3.8692571E+002
  0
LINE
  8
104
  6
CONTINUOUS
 62
40
 10
5.1484603E+002
 20
1.8458814E+002
 11
4.957659E+002
 21
1.8458814E+002
  0
LINE
  8
104
  6
CONTINUOUS
 62
40
 10
4.957659E+002
 20
1.8458814E+002
 11
4.9554878E+002
 21
1.8383347E+002
  0
LINE
  8
104
  6
CONTINUOUS
 62
40
 10
4.9554878E+002
 20
1.8383347E+002
 11
5.1506314E+002
 21
1.8383347E+002
  0
LINE
  8
104
  6
CONTINUOUS
 62
40
 10
5.1506314E+002
 20
1.8383347E+002
 11
5.1484603E+002
 21
1.8458814E+002
  0
LINE
  8
104
  6
CONTINUOUS
 62
40
 10
5.1484603E+002
 20
1.942788E+002
 11
5.1506314E+002
 21
1.9503347E+002
  0
LINE
  8
104
  6
CONTINUOUS
 62
40
 10
5.1506314E+002
 20
1.9503347E+002
 11
4.9554878E+002
 21
1.9503347E+002
  0
LINE
  8
104
  6
CONTINUOUS
 62
40
 10
4.9554878E+002
 20
1.9503347E+002
 11
4.957659E+002
 21
1.942788E+002
  0
ARC
  8
99
  6
CONTINUOUS
 62
1
 10
5.0530597E+002
 20
1.8943348E+002
 40
2.4999984
 50
3.4596377E+002
 51
6.44436E+002
  0
CIRCLE
  8
104
  6
CONTINUOUS
 62
40
 10
5.0530595E+002
 20
1.8943348E+002
 40
1.2699997E+001
  0
CIRCLE
  8
104
  6
CONTINUOUS
 62
40
 10
5.0530597E+002
 20
1.8943348E+002
 40
2.0
  0
LINE
  8
104
  6
CONTINUOUS
 62
40
 10
2.0779189E+002
 20
2.6709316E+002
 11
2.0779189E+002
 21
2.6647376E+002
  0
LINE
  8
104
  6
CONTINUOUS
 62
40
 10
2.0779189E+002
 20
2.6647376E+002
 11
1.6879189E+002
 21
2.6647376E+002
  0
LINE
  8
104
  6
CONTINUOUS
 62
40
 10
1.6879189E+002
 20
2.6647376E+002
 11
1.6879189E+002
 21
2.6709316E+002
  0
LINE
  8
104
  6
CONTINUOUS
 62
40
 10
2.0054189E+002
 20
2.7034316E+002
 11
2.0702189E+002
 21
2.6975762E+002
  0
ARC
  8
104
  6
CONTINUOUS
 62
40
 10
2.068419E+002
 20
2.6776574E+002
 40
2.0000003
 50
7.89121E-005
 51
8.4836703E+001
  0
LINE
  8
104
  6
CONTINUOUS
 62
40
 10
2.088419E+002
 20
2.6776574E+002
 11
2.088419E+002
 21
2.6709316E+002
  0
LINE
  8
104
  6
CONTINUOUS
 62
40
 10
2.088419E+002
 20
2.6709316E+002
 11
1.6774189E+002
 21
2.6709316E+002
  0
LINE
  8
104
  6
CONTINUOUS
 62
40
 10
1.6774189E+002
 20
2.6709316E+002
 11
1.6774189E+002
 21
2.6776574E+002
  0
ARC
  8
104
  6
CONTINUOUS
 62
40
 10
1.6974189E+002
 20
2.6776574E+002
 40
1.9999994
 50
9.5163275E+001
 51
1.7999994E+002
  0
LINE
  8
104
  6
CONTINUOUS
 62
40
 10
1.695619E+002
 20
2.6975762E+002
 11
1.745429E+002
 21
2.7020771E+002
  0
LINE
  8
104
  6
CONTINUOUS
 62
40
 10
1.745429E+002
 20
2.7020771E+002
 11
1.7559187E+002
 21
2.7030249E+002
  0
LINE
  8
104
  6
CONTINUOUS
 62
40
 10
1.7559187E+002
 20
2.7030249E+002
 11
2.0054189E+002
 21
2.7034316E+002
  0
LINE
  8
104
  6
CONTINUOUS
 62
40
 10
2.0629188E+002
 20
2.6147377E+002
 11
2.0629188E+002
 21
2.5347376E+002
  0
LINE
  8
104
  6
CONTINUOUS
 62
40
 10
2.0629188E+002
 20
2.5347376E+002
 11
1.7029189E+002
 21
2.5347376E+002
  0
LINE
  8
104
  6
CONTINUOUS
 62
40
 10
1.7029189E+002
 20
2.5347376E+002
 11
1.7029189E+002
 21
2.6147377E+002
  0
LINE
  8
106
  6
CENTERLINE
 62
1
 10
1.8829189E+002
 20
2.9271404E+002
 11
1.8829189E+002
 21
2.5236512E+002
  0
LINE
  8
105
  6
HIDDEN
 62
1
 10
2.0609189E+002
 20
2.6647377E+002
 11
2.0899189E+002
 21
2.6357377E+002
  0
LINE
  8
105
  6
HIDDEN
 62
1
 10
2.0899189E+002
 20
2.6357377E+002
 11
2.1559189E+002
 21
2.6357377E+002
  0
LINE
  8
105
  6
HIDDEN
 62
1
 10
2.1559189E+002
 20
2.6357377E+002
 11
2.1849189E+002
 21
2.6647377E+002
  0
LINE
  8
105
  6
HIDDEN
 62
1
 10
2.1559189E+002
 20
2.6357377E+002
 11
2.1559189E+002
 21
2.6147377E+002
  0
LINE
  8
105
  6
HIDDEN
 62
1
 10
2.0899189E+002
 20
2.6147377E+002
 11
2.0899189E+002
 21
2.6357377E+002
  0
LINE
  8
105
  6
HIDDEN
 62
1
 10
1.5809189E+002
 20
2.6647377E+002
 11
1.6099189E+002
 21
2.6357377E+002
  0
LINE
  8
105
  6
HIDDEN
 62
1
 10
1.6099189E+002
 20
2.6357377E+002
 11
1.6759189E+002
 21
2.6357377E+002
  0
LINE
  8
105
  6
HIDDEN
 62
1
 10
1.6759189E+002
 20
2.6357377E+002
 11
1.7049189E+002
 21
2.6647377E+002
  0
LINE
  8
105
  6
HIDDEN
 62
1
 10
1.6759189E+002
 20
2.6357377E+002
 11
1.6759189E+002
 21
2.6147377E+002
  0
LINE
  8
105
  6
HIDDEN
 62
1
 10
1.6099189E+002
 20
2.6147377E+002
 11
1.6099189E+002
 21
2.6357377E+002
  0
LINE
  8
104
  6
CONTINUOUS
 62
40
 10
2.2429189E+002
 20
2.6647377E+002
 11
1.5229189E+002
 21
2.6647377E+002
  0
LINE
  8
104
  6
CONTINUOUS
 62
40
 10
1.5229189E+002
 20
2.6647377E+002
 11
1.5229189E+002
 21
2.6147377E+002
  0
LINE
  8
104
  6
CONTINUOUS
 62
40
 10
1.5229189E+002
 20
2.6147377E+002
 11
2.2429189E+002
 21
2.6147377E+002
  0
LINE
  8
104
  6
CONTINUOUS
 62
40
 10
2.2429189E+002
 20
2.6147377E+002
 11
2.2429189E+002
 21
2.6647377E+002
  0
LINE
  8
105
  6
HIDDEN
 62
1
 10
2.1229189E+002
 20
2.6856387E+002
 11
2.1229189E+002
 21
2.5911141E+002
  0
LINE
  8
105
  6
HIDDEN
 62
1
 10
1.6429189E+002
 20
2.6856387E+002
 11
1.6429189E+002
 21
2.5886266E+002
  0
DIMENSION
  8
MED-0
  6
CONTINUOUS
 62
4
  1
<> - 58
  2
*D339
  3
DSTYLE1
 10
2.0634481E+001
 20
2.6647377E+002
 11
1.7717981E+001
 21
2.7052377E+002
 70
128
 13
5.2448454E+001
 23
2.7457377E+002
 14
3.2416111E+001
 24
2.6647377E+002
 40
3.0
 50
9.0E+001
  0
LINE
  8
104
  6
CONTINUOUS
 62
40
 10
5.8149434E+001
 20
2.8197377E+002
 11
5.7349255E+001
 21
2.8197377E+002
  0
LINE
  8
104
  6
CONTINUOUS
 62
40
 10
5.7166112E+001
 20
2.7397377E+002
 11
5.7349255E+001
 21
2.8197377E+002
  0
LINE
  8
104
  6
CONTINUOUS
 62
40
 10
5.7349255E+001
 20
2.8197377E+002
 11
5.7716115E+001
 21
2.8897377E+002
  0
LINE
  8
104
  6
CONTINUOUS
 62
40
 10
5.7716115E+001
 20
2.8897377E+002
 11
7.9116108E+001
 21
2.8897377E+002
  0
LINE
  8
104
  6
CONTINUOUS
 62
40
 10
7.9116108E+001
 20
2.8897377E+002
 11
7.9482678E+001
 21
2.819861E+002
  0
LINE
  8
104
  6
CONTINUOUS
 62
40
 10
7.9482678E+001
 20
2.819861E+002
 11
7.9666112E+001
 21
2.7397377E+002
  0
LINE
  8
104
  6
CONTINUOUS
 62
40
 10
7.8252995E+001
 20
2.7397377E+002
 11
7.8853001E+001
 21
2.7457377E+002
  0
LINE
  8
104
  6
CONTINUOUS
 62
40
 10
7.8853001E+001
 20
2.7457377E+002
 11
7.8683415E+001
 21
2.8194421E+002
  0
LINE
  8
104
  6
CONTINUOUS
 62
40
 10
7.8683415E+001
 20
2.8194421E+002
 11
7.8315014E+001
 21
2.8897377E+002
  0
LINE
  8
104
  6
CONTINUOUS
 62
40
 10
7.8683415E+001
 20
2.8194421E+002
 11
7.9482678E+001
 21
2.819861E+002
  0
LINE
  8
104
  6
CONTINUOUS
 62
40
 10
7.8853001E+001
 20
2.7457377E+002
 11
5.7979222E+001
 21
2.7457377E+002
  0
LINE
  8
104
  6
CONTINUOUS
 62
40
 10
5.8579228E+001
 20
2.7397377E+002
 11
5.7979222E+001
 21
2.7457377E+002
  0
LINE
  8
104
  6
CONTINUOUS
 62
40
 10
5.7979222E+001
 20
2.7457377E+002
 11
5.8149434E+001
 21
2.8197377E+002
  0
LINE
  8
104
  6
CONTINUOUS
 62
40
 10
5.8149434E+001
 20
2.8197377E+002
 11
5.8517332E+001
 21
2.8897377E+002
  0
LINE
  8
106
  6
CENTERLINE
 62
1
 10
8.3624028E+001
 20
1.6543349E+002
 11
1.0192469E+002
 21
1.6543349E+002
  0
LINE
  8
106
  6
CENTERLINE
 62
1
 10
9.2416111E+001
 20
1.5641545E+002
 11
9.2416111E+001
 21
1.7363048E+002
  0
LINE
  8
106
  6
CENTERLINE
 62
1
 10
4.4416111E+001
 20
2.2310429E+002
 11
4.4416111E+001
 21
2.0433836E+002
  0
LINE
  8
106
  6
CENTERLINE
 62
1
 10
3.5235844E+001
 20
2.1343349E+002
 11
5.3381413E+001
 21
2.1343349E+002
  0
CIRCLE
  8
104
  6
CONTINUOUS
 62
40
 10
4.4416111E+001
 20
2.1343349E+002
 40
3.3000031
  0
CIRCLE
  8
104
  6
CONTINUOUS
 62
40
 10
9.2416111E+001
 20
1.6543349E+002
 40
3.3000031
  0
CIRCLE
  8
104
  6
CONTINUOUS
 62
40
 10
9.2416111E+001
 20
1.6543349E+002
 40
6.199997
  0
CIRCLE
  8
104
  6
CONTINUOUS
 62
40
 10
4.4416111E+001
 20
2.1343349E+002
 40
6.199997
  0
LINE
  8
104
  6
CONTINUOUS
 62
40
 10
1.0441611E+002
 20
2.2543349E+002
 11
3.2416111E+001
 21
2.2543349E+002
  0
LINE
  8
104
  6
CONTINUOUS
 62
40
 10
3.2416111E+001
 20
2.2543349E+002
 11
3.2416111E+001
 21
1.5343349E+002
  0
LINE
  8
104
  6
CONTINUOUS
 62
40
 10
3.2416111E+001
 20
1.5343349E+002
 11
1.0441611E+002
 21
1.5343349E+002
  0
LINE
  8
104
  6
CONTINUOUS
 62
40
 10
1.0441611E+002
 20
1.5343349E+002
 11
1.0441611E+002
 21
2.2543349E+002
  0
LINE
  8
106
  6
CENTERLINE
 62
1
 10
2.7423924E+001
 20
1.8943348E+002
 11
1.1018173E+002
 21
1.8943348E+002
  0
LINE
  8
106
  6
CENTERLINE
 62
1
 10
6.8416111E+001
 20
1.5126725E+002
 11
6.8416111E+001
 21
1.8415019E+002
  0
LINE
  8
106
  6
CENTERLINE
 62
1
 10
6.8416111E+001
 20
1.8415019E+002
 11
6.8416111E+001
 21
2.3077723E+002
  0
CIRCLE
  8
104
  6
CONTINUOUS
 62
40
 10
6.8416109E+001
 20
1.8943348E+002
 40
2.0550011E+001
  0
CIRCLE
  8
104
  6
CONTINUOUS
 62
40
 10
6.8416111E+001
 20
1.8943349E+002
 40
4.0
  0
CIRCLE
  8
104
  6
CONTINUOUS
 62
40
 10
6.8416111E+001
 20
1.8943349E+002
 40
1.22E+001
  0
ARC
  8
104
  6
CONTINUOUS
 62
40
 10
6.8416111E+001
 20
1.8943349E+002
 40
1.125E+001
 50
1.4655673E+002
 51
2.1344327E+002
  0
LINE
  8
104
  6
CONTINUOUS
 62
40
 10
5.9028753E+001
 20
1.9563349E+002
 11
7.780347E+001
 21
1.9563349E+002
  0
ARC
  8
104
  6
CONTINUOUS
 62
40
 10
6.8416111E+001
 20
1.8943349E+002
 40
1.125E+001
 50
3.2655673E+002
 51
3.9344327E+002
  0
LINE
  8
104
  6
CONTINUOUS
 62
40
 10
7.780347E+001
 20
1.8323349E+002
 11
5.9028753E+001
 21
1.8323349E+002
  0
ARC
  8
104
  6
CONTINUOUS
 62
40
 10
6.8416111E+001
 20
1.8943349E+002
 40
1.07E+001
 50
1.5307432E+002
 51
2.0692568E+002
  0
LINE
  8
104
  6
CONTINUOUS
 62
40
 10
5.8876049E+001
 20
1.9427881E+002
 11
7.7956174E+001
 21
1.9427881E+002
  0
ARC
  8
104
  6
CONTINUOUS
 62
40
 10
6.8416111E+001
 20
1.8943349E+002
 40
1.07E+001
 50
3.3307432E+002
 51
3.8692568E+002
  0
LINE
  8
104
  6
CONTINUOUS
 62
40
 10
7.7956174E+001
 20
1.8458816E+002
 11
5.8876049E+001
 21
1.8458816E+002
  0
LINE
  8
104
  6
CONTINUOUS
 62
40
 10
5.8876049E+001
 20
1.8458816E+002
 11
5.8658935E+001
 21
1.8383349E+002
  0
LINE
  8
104
  6
CONTINUOUS
 62
40
 10
5.8658935E+001
 20
1.8383349E+002
 11
7.8173288E+001
 21
1.8383349E+002
  0
LINE
  8
104
  6
CONTINUOUS
 62
40
 10
7.8173288E+001
 20
1.8383349E+002
 11
7.7956174E+001
 21
1.8458816E+002
  0
LINE
  8
104
  6
CONTINUOUS
 62
40
 10
7.7956174E+001
 20
1.9427881E+002
 11
7.8173288E+001
 21
1.9503349E+002
  0
LINE
  8
104
  6
CONTINUOUS
 62
40
 10
7.8173288E+001
 20
1.9503349E+002
 11
5.8658935E+001
 21
1.9503349E+002
  0
LINE
  8
104
  6
CONTINUOUS
 62
40
 10
5.8658935E+001
 20
1.9503349E+002
 11
5.8876049E+001
 21
1.9427881E+002
  0
ARC
  8
99
  6
CONTINUOUS
 62
1
 10
6.8416111E+001
 20
1.8943349E+002
 40
2.5000001
 50
3.4596397E+002
 51
6.4443599E+002
  0
CIRCLE
  8
104
  6
CONTINUOUS
 62
40
 10
6.8416109E+001
 20
1.8943348E+002
 40
1.2699997E+001
  0
CIRCLE
  8
104
  6
CONTINUOUS
 62
40
 10
6.8416111E+001
 20
1.8943349E+002
 40
2.0
  0
LINE
  8
104
  6
CONTINUOUS
 62
40
 10
8.7916109E+001
 20
2.6709317E+002
 11
8.7916109E+001
 21
2.6647377E+002
  0
LINE
  8
104
  6
CONTINUOUS
 62
40
 10
8.7916109E+001
 20
2.6647377E+002
 11
4.8916111E+001
 21
2.6647377E+002
  0
LINE
  8
104
  6
CONTINUOUS
 62
40
 10
4.8916111E+001
 20
2.6647377E+002
 11
4.8916111E+001
 21
2.6709317E+002
  0
LINE
  8
104
  6
CONTINUOUS
 62
40
 10
8.0666109E+001
 20
2.7034317E+002
 11
8.7146105E+001
 21
2.6975762E+002
  0
ARC
  8
104
  6
CONTINUOUS
 62
40
 10
8.6966115E+001
 20
2.6776574E+002
 40
2.0000014
 50
8.13858E-005
 51
8.4836678E+001
  0
LINE
  8
104
  6
CONTINUOUS
 62
40
 10
8.8966116E+001
 20
2.6776574E+002
 11
8.896612E+001
 21
2.6709317E+002
  0
LINE
  8
104
  6
CONTINUOUS
 62
40
 10
8.896612E+001
 20
2.6709317E+002
 11
4.7866112E+001
 21
2.6709317E+002
  0
LINE
  8
104
  6
CONTINUOUS
 62
40
 10
4.7866112E+001
 20
2.6709317E+002
 11
4.7866112E+001
 21
2.6776574E+002
  0
ARC
  8
104
  6
CONTINUOUS
 62
40
 10
4.9866113E+001
 20
2.6776574E+002
 40
2.0000005
 50
9.5163302E+001
 51
1.7999994E+002
  0
LINE
  8
104
  6
CONTINUOUS
 62
40
 10
4.9686123E+001
 20
2.6975762E+002
 11
5.466712E+001
 21
2.7020771E+002
  0
LINE
  8
104
  6
CONTINUOUS
 62
40
 10
5.466712E+001
 20
2.7020771E+002
 11
5.5716091E+001
 21
2.7030249E+002
  0
LINE
  8
104
  6
CONTINUOUS
 62
40
 10
5.5716091E+001
 20
2.7030249E+002
 11
8.0666109E+001
 21
2.7034317E+002
  0
LINE
  8
104
  6
CONTINUOUS
 62
40
 10
4.9629307E+001
 20
2.6147377E+002
 11
4.9629307E+001
 21
2.6047377E+002
  0
LINE
  8
104
  6
CONTINUOUS
 62
40
 10
4.9629307E+001
 20
2.6047377E+002
 11
8.7180493E+001
 21
2.6047377E+002
  0
LINE
  8
104
  6
CONTINUOUS
 62
40
 10
8.7180493E+001
 20
2.6047377E+002
 11
8.7180493E+001
 21
2.6147377E+002
  0
LINE
  8
104
  6
CONTINUOUS
 62
40
 10
8.3916112E+001
 20
2.6047377E+002
 11
8.3916112E+001
 21
2.5347376E+002
  0
LINE
  8
104
  6
CONTINUOUS
 62
40
 10
8.3916112E+001
 20
2.5347376E+002
 11
5.2916112E+001
 21
2.5347376E+002
  0
LINE
  8
104
  6
CONTINUOUS
 62
40
 10
5.2916112E+001
 20
2.5347376E+002
 11
5.2916112E+001
 21
2.6047377E+002
  0
LINE
  8
104
  6
CONTINUOUS
 62
40
 10
8.111611E+001
 20
2.7034317E+002
 11
5.5716111E+001
 21
2.703025E+002
  0
LINE
  8
104
  6
CONTINUOUS
 62
40
 10
5.5716111E+001
 20
2.703025E+002
 11
5.5716111E+001
 21
2.7147377E+002
  0
LINE
  8
104
  6
CONTINUOUS
 62
40
 10
5.5716111E+001
 20
2.7147377E+002
 11
5.5166111E+001
 21
2.7147377E+002
  0
LINE
  8
104
  6
CONTINUOUS
 62
40
 10
5.5166111E+001
 20
2.7147377E+002
 11
5.5166111E+001
 21
2.7347377E+002
  0
LINE
  8
104
  6
CONTINUOUS
 62
40
 10
5.5166111E+001
 20
2.7347377E+002
 11
5.5666111E+001
 21
2.7397377E+002
  0
LINE
  8
104
  6
CONTINUOUS
 62
40
 10
5.5666111E+001
 20
2.7397377E+002
 11
8.1166109E+001
 21
2.7397377E+002
  0
LINE
  8
104
  6
CONTINUOUS
 62
40
 10
8.1166109E+001
 20
2.7397377E+002
 11
8.1666109E+001
 21
2.7347377E+002
  0
LINE
  8
104
  6
CONTINUOUS
 62
40
 10
8.1666109E+001
 20
2.7347377E+002
 11
8.1666109E+001
 21
2.7147377E+002
  0
LINE
  8
104
  6
CONTINUOUS
 62
40
 10
8.1666109E+001
 20
2.7147377E+002
 11
8.111611E+001
 21
2.7147377E+002
  0
LINE
  8
104
  6
CONTINUOUS
 62
40
 10
8.111611E+001
 20
2.7147377E+002
 11
8.111611E+001
 21
2.7034317E+002
  0
LINE
  8
104
  6
CONTINUOUS
 62
40
 10
8.1666112E+001
 20
2.7347377E+002
 11
5.5166112E+001
 21
2.7347377E+002
  0
LINE
  8
104
  6
CONTINUOUS
 62
40
 10
8.1116112E+001
 20
2.7147377E+002
 11
5.5716112E+001
 21
2.7147377E+002
  0
LINE
  8
106
  6
CENTERLINE
 62
1
 10
6.8416111E+001
 20
2.9271404E+002
 11
6.8416111E+001
 21
2.5236512E+002
  0
LINE
  8
105
  6
HIDDEN
 62
1
 10
8.6216115E+001
 20
2.6647377E+002
 11
8.9116108E+001
 21
2.6357377E+002
  0
LINE
  8
105
  6
HIDDEN
 62
1
 10
8.9116108E+001
 20
2.6357377E+002
 11
9.5716115E+001
 21
2.6357377E+002
  0
LINE
  8
105
  6
HIDDEN
 62
1
 10
9.5716115E+001
 20
2.6357377E+002
 11
9.8616108E+001
 21
2.6647377E+002
  0
LINE
  8
105
  6
HIDDEN
 62
1
 10
9.5716115E+001
 20
2.6357377E+002
 11
9.5716115E+001
 21
2.6147377E+002
  0
LINE
  8
105
  6
HIDDEN
 62
1
 10
8.9116108E+001
 20
2.6147377E+002
 11
8.9116108E+001
 21
2.6357377E+002
  0
LINE
  8
105
  6
HIDDEN
 62
1
 10
3.8216115E+001
 20
2.6647377E+002
 11
4.1116109E+001
 21
2.6357377E+002
  0
LINE
  8
105
  6
HIDDEN
 62
1
 10
4.1116109E+001
 20
2.6357377E+002
 11
4.7716115E+001
 21
2.6357377E+002
  0
LINE
  8
105
  6
HIDDEN
 62
1
 10
4.7716115E+001
 20
2.6357377E+002
 11
5.0616109E+001
 21
2.6647377E+002
  0
LINE
  8
105
  6
HIDDEN
 62
1
 10
4.7716115E+001
 20
2.6357377E+002
 11
4.7716115E+001
 21
2.6147377E+002
  0
LINE
  8
105
  6
HIDDEN
 62
1
 10
4.1116109E+001
 20
2.6147377E+002
 11
4.1116109E+001
 21
2.6357377E+002
  0
LINE
  8
104
  6
CONTINUOUS
 62
40
 10
1.0441611E+002
 20
2.6647377E+002
 11
3.2416112E+001
 21
2.6647377E+002
  0
LINE
  8
104
  6
CONTINUOUS
 62
40
 10
3.2416112E+001
 20
2.6647377E+002
 11
3.2416112E+001
 21
2.6147377E+002
  0
LINE
  8
104
  6
CONTINUOUS
 62
40
 10
3.2416112E+001
 20
2.6147377E+002
 11
1.0441611E+002
 21
2.6147377E+002
  0
LINE
  8
104
  6
CONTINUOUS
 62
40
 10
1.0441611E+002
 20
2.6147377E+002
 11
1.0441611E+002
 21
2.6647377E+002
  0
LINE
  8
105
  6
HIDDEN
 62
1
 10
9.2416112E+001
 20
2.6856387E+002
 11
9.2416112E+001
 21
2.5911142E+002
  0
LINE
  8
105
  6
HIDDEN
 62
1
 10
4.4416112E+001
 20
2.6856387E+002
 11
4.4416112E+001
 21
2.5886267E+002
  0
LINE
  8
98
  6
CONTINUOUS
 62
1
 10
5.0
 20
5.0
 11
5.89E+002
 21
5.0
  0
LINE
  8
98
  6
CONTINUOUS
 62
1
 10
5.89E+002
 20
5.0
 11
5.89E+002
 21
4.15E+002
  0
LINE
  8
98
  6
CONTINUOUS
 62
1
 10
5.89E+002
 20
4.15E+002
 11
5.0
 21
4.15E+002
  0
LINE
  8
98
  6
CONTINUOUS
 62
1
 10
5.0
 20
4.15E+002
 11
5.0
 21
5.0
  0
LINE
  8
104
  6
CONTINUOUS
 62
6
 10
5.0
 20
2.6647377E+002
 11
5.7743147E+002
 21
2.6647377E+002
  0
TEXT
  8
103
  6
CONTINUOUS
 62
40
 10
2.4197691E+002
 20
2.7037518E+002
 40
5.0
  1
OKFF
 41
8.0E-001
  0
LINE
  8
104
  6
CONTINUOUS
 62
1
 10
2.553572E+002
 20
2.698454E+002
 11
2.4292963E+002
 21
2.698454E+002
  0
LINE
  8
104
  6
CONTINUOUS
 62
1
 10
2.553572E+002
 20
2.698454E+002
 11
2.5799928E+002
 21
2.6647377E+002
  0
LINE
  8
104
  6
CONTINUOUS
 62
1
 10
2.5799928E+002
 20
2.6647377E+002
 11
2.5976067E+002
 21
2.68769E+002
  0
ENDSEC
  0
EOF
