  0
SECTION
  2
HEADER
  9
$ACADVER
  1
AC1009
999
I-DEAS 8 Not Encoded
  9
$EXTMIN
 10
0.0
 20
0.0
  9
$EXTMAX
 10
4.2E+002
 20
2.97E+002
  9
$TEXTSIZE
 40
1.25E-001
  9
$LTSCALE
 40
1.0
  9
$CLAYER
  8
104
  9
$CECOLOR
 62
40
  9
$DIMASZ
 40
1.25E-001
  9
$DIMEXO
 40
6.25E-002
  9
$DIMDLI
 40
2.5E-001
  9
$DIMEXE
 40
1.25E-001
  9
$DIMTP
 40
5.0E-003
  9
$DIMTM
 40
-5.0E-003
  9
$DIMTXT
 40
3.0
  9
$DIMLIM
 70
0
  9
$DIMTIH
 70
1
  9
$DIMTOH
 70
1
  9
$DIMSE1
 70
0
  9
$DIMSE2
 70
0
  9
$DIMTAD
 70
0
  9
$DIMASO
 70
1
  9
$DIMALT
 70
0
  9
$DIMALTD
 70
0
  9
$DIMTOFL
 70
1
  9
$DIMTIX
 70
0
  9
$DIMSAH
 70
0
  9
$DIMTFAC
 40
1.0
  9
$DIMGAP
 40
6.25E-002
  9
$LUNITS
 70
2
  9
$LUPREC
 70
3
  9
$FILLETRAD
 40
2.0
  9
$AUNITS
 70
0
  9
$AUPREC
 70
1
  9
$CHAMFERA
 40
1.0E+001
  9
$CHAMFERB
 40
1.0E+001
  9
$ANGBASE
 50
0.0
  9
$ANGDIR
 70
0
  9
$PDMODE
 70
2
  9
$PDSIZE
 40
-1.0E-002
  9
$SPLINETYPE
 70
6
  0
ENDSEC
  0
SECTION
  2
TABLES
  0
TABLE
  2
LTYPE
 70
7
  0
LTYPE
  2
HIDDENNEW00
  3
_ 
 70
64
 72
65
 73
3
 40
4.5
 49
1.5
 49
-1.5
 49
1.5
  0
LTYPE
  2
HIDDENNEW01
  3
_ 
 70
64
 72
65
 73
3
 40
4.5
 49
1.5
 49
-1.5
 49
1.5
  0
LTYPE
  2
HIDDEN
  3
_ 
 70
64
 72
65
 73
3
 40
4.5
 49
1.5
 49
-1.5
 49
1.5
  0
LTYPE
  2
CENTERLINE
  3
_ 
 70
64
 72
65
 73
5
 40
3.0E+001
 49
1.2E+001
 49
-1.5
 49
3.0
 49
-1.5
 49
1.2E+001
  0
LTYPE
  2
PHANTOM
  3
_ 
 70
64
 72
65
 73
7
 40
2.95E+001
 49
9.5
 49
-1.5
 49
3.0
 49
-1.5
 49
3.0
 49
-1.5
 49
9.5
  0
LTYPE
  2
SHORT_DASH
  3
_ 
 70
64
 72
65
 73
3
 40
3.0
 49
7.5E-001
 49
-1.5
 49
7.5E-001
  0
LTYPE
  2
LONG_DASH
  3
_ 
 70
64
 72
65
 73
3
 40
9.0
 49
2.25
 49
-4.5
 49
2.25
  0
ENDTAB
  0
TABLE
  2
LAYER
 70
258
  0
LAYER
  2
1
 70
0
 62
7
  6
CONTINUOUS
  0
LAYER
  2
2
 70
0
 62
7
  6
CONTINUOUS
  0
LAYER
  2
3
 70
0
 62
7
  6
CONTINUOUS
  0
LAYER
  2
MED-4
 70
0
 62
2
  6
HIDDENNEW00
  0
LAYER
  2
MED-5
 70
0
 62
5
  6
HIDDENNEW00
  0
LAYER
  2
MED-6
 70
0
 62
6
  6
HIDDENNEW00
  0
LAYER
  2
7
 70
0
 62
7
  6
CONTINUOUS
  0
LAYER
  2
8
 70
0
 62
7
  6
CONTINUOUS
  0
LAYER
  2
9
 70
0
 62
7
  6
CONTINUOUS
  0
LAYER
  2
10
 70
0
 62
7
  6
CONTINUOUS
  0
LAYER
  2
MED-11
 70
0
 62
70
  6
HIDDENNEW00
  0
LAYER
  2
12
 70
0
 62
7
  6
CONTINUOUS
  0
LAYER
  2
13
 70
0
 62
7
  6
CONTINUOUS
  0
LAYER
  2
14
 70
0
 62
7
  6
CONTINUOUS
  0
LAYER
  2
15
 70
0
 62
7
  6
CONTINUOUS
  0
LAYER
  2
16
 70
0
 62
7
  6
CONTINUOUS
  0
LAYER
  2
17
 70
0
 62
7
  6
CONTINUOUS
  0
LAYER
  2
18
 70
0
 62
7
  6
CONTINUOUS
  0
LAYER
  2
19
 70
0
 62
7
  6
CONTINUOUS
  0
LAYER
  2
20
 70
0
 62
7
  6
CONTINUOUS
  0
LAYER
  2
21
 70
0
 62
7
  6
CONTINUOUS
  0
LAYER
  2
22
 70
0
 62
7
  6
CONTINUOUS
  0
LAYER
  2
23
 70
0
 62
7
  6
CONTINUOUS
  0
LAYER
  2
24
 70
0
 62
7
  6
CONTINUOUS
  0
LAYER
  2
25
 70
0
 62
7
  6
CONTINUOUS
  0
LAYER
  2
26
 70
0
 62
7
  6
CONTINUOUS
  0
LAYER
  2
MED-27
 70
0
 62
230
  6
HIDDENNEW00
  0
LAYER
  2
28
 70
0
 62
7
  6
CONTINUOUS
  0
LAYER
  2
29
 70
0
 62
7
  6
CONTINUOUS
  0
LAYER
  2
30
 70
0
 62
7
  6
CONTINUOUS
  0
LAYER
  2
31
 70
0
 62
7
  6
CONTINUOUS
  0
LAYER
  2
32
 70
0
 62
7
  6
CONTINUOUS
  0
LAYER
  2
33
 70
0
 62
7
  6
CONTINUOUS
  0
LAYER
  2
34
 70
0
 62
7
  6
CONTINUOUS
  0
LAYER
  2
35
 70
0
 62
7
  6
CONTINUOUS
  0
LAYER
  2
36
 70
0
 62
7
  6
CONTINUOUS
  0
LAYER
  2
37
 70
0
 62
7
  6
CONTINUOUS
  0
LAYER
  2
38
 70
0
 62
7
  6
CONTINUOUS
  0
LAYER
  2
39
 70
0
 62
7
  6
CONTINUOUS
  0
LAYER
  2
40
 70
0
 62
7
  6
CONTINUOUS
  0
LAYER
  2
41
 70
0
 62
7
  6
CONTINUOUS
  0
LAYER
  2
42
 70
0
 62
7
  6
CONTINUOUS
  0
LAYER
  2
43
 70
0
 62
7
  6
CONTINUOUS
  0
LAYER
  2
44
 70
0
 62
7
  6
CONTINUOUS
  0
LAYER
  2
45
 70
0
 62
7
  6
CONTINUOUS
  0
LAYER
  2
46
 70
0
 62
7
  6
CONTINUOUS
  0
LAYER
  2
47
 70
0
 62
7
  6
CONTINUOUS
  0
LAYER
  2
48
 70
0
 62
7
  6
CONTINUOUS
  0
LAYER
  2
49
 70
0
 62
7
  6
CONTINUOUS
  0
LAYER
  2
50
 70
0
 62
7
  6
CONTINUOUS
  0
LAYER
  2
51
 70
0
 62
7
  6
CONTINUOUS
  0
LAYER
  2
52
 70
0
 62
7
  6
CONTINUOUS
  0
LAYER
  2
53
 70
0
 62
7
  6
CONTINUOUS
  0
LAYER
  2
54
 70
0
 62
7
  6
CONTINUOUS
  0
LAYER
  2
55
 70
0
 62
7
  6
CONTINUOUS
  0
LAYER
  2
56
 70
0
 62
7
  6
CONTINUOUS
  0
LAYER
  2
57
 70
0
 62
7
  6
CONTINUOUS
  0
LAYER
  2
58
 70
0
 62
7
  6
CONTINUOUS
  0
LAYER
  2
59
 70
0
 62
7
  6
CONTINUOUS
  0
LAYER
  2
60
 70
0
 62
7
  6
CONTINUOUS
  0
LAYER
  2
61
 70
0
 62
7
  6
CONTINUOUS
  0
LAYER
  2
62
 70
0
 62
7
  6
CONTINUOUS
  0
LAYER
  2
63
 70
0
 62
7
  6
CONTINUOUS
  0
LAYER
  2
64
 70
0
 62
7
  6
CONTINUOUS
  0
LAYER
  2
65
 70
0
 62
7
  6
CONTINUOUS
  0
LAYER
  2
66
 70
0
 62
7
  6
CONTINUOUS
  0
LAYER
  2
67
 70
0
 62
7
  6
CONTINUOUS
  0
LAYER
  2
68
 70
0
 62
7
  6
CONTINUOUS
  0
LAYER
  2
69
 70
0
 62
7
  6
CONTINUOUS
  0
LAYER
  2
70
 70
0
 62
7
  6
CONTINUOUS
  0
LAYER
  2
71
 70
0
 62
7
  6
CONTINUOUS
  0
LAYER
  2
72
 70
0
 62
7
  6
CONTINUOUS
  0
LAYER
  2
73
 70
0
 62
7
  6
CONTINUOUS
  0
LAYER
  2
74
 70
0
 62
7
  6
CONTINUOUS
  0
LAYER
  2
75
 70
0
 62
7
  6
CONTINUOUS
  0
LAYER
  2
76
 70
0
 62
7
  6
CONTINUOUS
  0
LAYER
  2
77
 70
0
 62
7
  6
CONTINUOUS
  0
LAYER
  2
78
 70
0
 62
7
  6
CONTINUOUS
  0
LAYER
  2
79
 70
0
 62
7
  6
CONTINUOUS
  0
LAYER
  2
80
 70
0
 62
7
  6
CONTINUOUS
  0
LAYER
  2
81
 70
0
 62
7
  6
CONTINUOUS
  0
LAYER
  2
82
 70
0
 62
7
  6
CONTINUOUS
  0
LAYER
  2
83
 70
0
 62
7
  6
CONTINUOUS
  0
LAYER
  2
84
 70
0
 62
7
  6
CONTINUOUS
  0
LAYER
  2
85
 70
0
 62
7
  6
CONTINUOUS
  0
LAYER
  2
86
 70
0
 62
7
  6
CONTINUOUS
  0
LAYER
  2
87
 70
0
 62
7
  6
CONTINUOUS
  0
LAYER
  2
88
 70
0
 62
7
  6
CONTINUOUS
  0
LAYER
  2
89
 70
0
 62
7
  6
CONTINUOUS
  0
LAYER
  2
90
 70
0
 62
7
  6
CONTINUOUS
  0
LAYER
  2
91
 70
0
 62
7
  6
CONTINUOUS
  0
LAYER
  2
92
 70
0
 62
7
  6
CONTINUOUS
  0
LAYER
  2
93
 70
0
 62
7
  6
CONTINUOUS
  0
LAYER
  2
94
 70
0
 62
7
  6
CONTINUOUS
  0
LAYER
  2
95
 70
0
 62
7
  6
CONTINUOUS
  0
LAYER
  2
96
 70
0
 62
7
  6
CONTINUOUS
  0
LAYER
  2
97
 70
0
 62
7
  6
CONTINUOUS
  0
LAYER
  2
98
 70
0
 62
7
  6
CONTINUOUS
  0
LAYER
  2
99
 70
0
 62
7
  6
CONTINUOUS
  0
LAYER
  2
MED-0
 70
0
 62
230
  6
HIDDENNEW00
  0
LAYER
  2
M_ERR
 70
0
 62
1
  6
HIDDENNEW00
  0
LAYER
  2
102
 70
0
 62
7
  6
CONTINUOUS
  0
LAYER
  2
103
 70
0
 62
7
  6
CONTINUOUS
  0
LAYER
  2
104
 70
0
 62
7
  6
CONTINUOUS
  0
LAYER
  2
105
 70
0
 62
7
  6
CONTINUOUS
  0
LAYER
  2
106
 70
0
 62
7
  6
CONTINUOUS
  0
LAYER
  2
107
 70
0
 62
7
  6
CONTINUOUS
  0
LAYER
  2
108
 70
0
 62
7
  6
CONTINUOUS
  0
LAYER
  2
Drafting_Hidden_Entities
 70
1
 62
7
  6
CONTINUOUS
  0
ENDTAB
  0
TABLE
  2
STYLE
 70
1
  0
STYLE
  2
STANDARD
 70
64
 40
0.0
 41
1.0
 50
0.0
 71
0
 42
1.0
  3
monotxt.shx
  4

  0
ENDTAB
  0
TABLE
  2
VIEW
 70
0
  0
ENDTAB
  0
TABLE
  2
DIMSTYLE
 70
2
  0
DIMSTYLE
  2
DSTYLE1
 70
0
  3

  4

  5

  6

  7

 40
1.0
 41
3.5
 42
1.0
 43
3.8E-001
 44
1.0
 45
0.0
 46
0.0
 47
1.0E-001
 48
1.0E-001
 71
0
 72
0
 73
0
 74
0
 75
0
 76
0
 77
1
 78
11
140
3.5
141
9.0E-002
142
0.0
143
1.0
144
1.0
145
0.0
146
1.0
147
1.1655
170
0
171
2
172
0
173
0
174
0
175
0
176
0
177
0
178
0
  0
DIMSTYLE
  2
DSTYLE2
 70
0
  3

  4

  5

  6

  7

 40
1.0
 41
3.5
 42
1.0
 43
3.8E-001
 44
1.0
 45
0.0
 46
0.0
 47
1.0E-001
 48
1.0E-001
 71
0
 72
0
 73
0
 74
0
 75
0
 76
0
 77
1
 78
11
140
5.0000001
141
9.0E-002
142
0.0
143
1.0
144
1.0
145
0.0
146
1.0
147
1.6650001
170
0
171
2
172
0
173
0
174
0
175
0
176
0
177
0
178
0
  0
ENDTAB
  0
ENDSEC
  0
SECTION
  2
BLOCKS
  0
BLOCK
  2
*AH13
  3
*AH
 10
0.0
 20
0.0
 70
65
  0
LINE
  8
1
  6
CONTINUOUS
 62
0
 10
0.0
 20
0.0
 11
1.0
 21
-1.666679E-001
  0
LINE
  8
1
  6
CONTINUOUS
 62
0
 10
1.0
 20
-1.666679E-001
 11
1.0
 21
1.66668E-001
  0
LINE
  8
1
  6
CONTINUOUS
 62
0
 10
1.0
 20
1.66668E-001
 11
0.0
 21
0.0
  0
ENDBLK
  0
BLOCK
  2
M_PFN_7
 10
0.0
 20
0.0
 70
0
  0
ENDBLK
  0
BLOCK
  2
M_PFN_6
 10
0.0
 20
0.0
 70
0
  0
ENDBLK
  0
BLOCK
  2
*XH37
  3
*XH
 10
0.0
 20
0.0
 70
65
  0
LINE
  8
108
  6
CONTINUOUS
 62
1
 10
-2.5E+001
 20
-4.097653E+001
 11
-2.2E+001
 21
-4.097653E+001
  0
LINE
  8
108
  6
CONTINUOUS
 62
1
 10
2.2E+001
 20
-4.097653E+001
 11
2.5E+001
 21
-4.097653E+001
  0
LINE
  8
108
  6
CONTINUOUS
 62
1
 10
2.5E+001
 20
-4.0826536E+001
 11
2.2E+001
 21
-4.0826536E+001
  0
LINE
  8
108
  6
CONTINUOUS
 62
1
 10
-2.2E+001
 20
-4.0826536E+001
 11
-2.5E+001
 21
-4.0826536E+001
  0
LINE
  8
108
  6
CONTINUOUS
 62
1
 10
-2.5E+001
 20
-4.0676542E+001
 11
-2.2E+001
 21
-4.0676542E+001
  0
LINE
  8
108
  6
CONTINUOUS
 62
1
 10
2.2E+001
 20
-4.0676542E+001
 11
2.5E+001
 21
-4.0676542E+001
  0
LINE
  8
108
  6
CONTINUOUS
 62
1
 10
2.5E+001
 20
-4.0526548E+001
 11
2.2E+001
 21
-4.0526548E+001
  0
LINE
  8
108
  6
CONTINUOUS
 62
1
 10
-2.2E+001
 20
-4.0526548E+001
 11
-2.5E+001
 21
-4.0526548E+001
  0
LINE
  8
108
  6
CONTINUOUS
 62
1
 10
-2.5E+001
 20
-4.0376524E+001
 11
-2.2E+001
 21
-4.0376524E+001
  0
LINE
  8
108
  6
CONTINUOUS
 62
1
 10
2.2E+001
 20
-4.0376524E+001
 11
2.5E+001
 21
-4.0376524E+001
  0
LINE
  8
108
  6
CONTINUOUS
 62
1
 10
2.5E+001
 20
-4.022653E+001
 11
2.2E+001
 21
-4.022653E+001
  0
LINE
  8
108
  6
CONTINUOUS
 62
1
 10
-2.2E+001
 20
-4.022653E+001
 11
-2.5E+001
 21
-4.022653E+001
  0
LINE
  8
108
  6
CONTINUOUS
 62
1
 10
-2.5E+001
 20
-4.0076536E+001
 11
-2.2E+001
 21
-4.0076536E+001
  0
LINE
  8
108
  6
CONTINUOUS
 62
1
 10
2.2E+001
 20
-4.0076536E+001
 11
2.5E+001
 21
-4.0076536E+001
  0
LINE
  8
108
  6
CONTINUOUS
 62
1
 10
2.5E+001
 20
-3.9926542E+001
 11
2.2E+001
 21
-3.9926542E+001
  0
LINE
  8
108
  6
CONTINUOUS
 62
1
 10
-2.2E+001
 20
-3.9926542E+001
 11
-2.5E+001
 21
-3.9926542E+001
  0
LINE
  8
108
  6
CONTINUOUS
 62
1
 10
-2.5E+001
 20
-3.9776548E+001
 11
-2.2E+001
 21
-3.9776548E+001
  0
LINE
  8
108
  6
CONTINUOUS
 62
1
 10
2.2E+001
 20
-3.9776548E+001
 11
2.5E+001
 21
-3.9776548E+001
  0
LINE
  8
108
  6
CONTINUOUS
 62
1
 10
2.5E+001
 20
-3.9626524E+001
 11
2.2E+001
 21
-3.9626524E+001
  0
LINE
  8
108
  6
CONTINUOUS
 62
1
 10
-2.2E+001
 20
-3.9626524E+001
 11
-2.5E+001
 21
-3.9626524E+001
  0
LINE
  8
108
  6
CONTINUOUS
 62
1
 10
-2.5E+001
 20
-3.947653E+001
 11
-2.2E+001
 21
-3.947653E+001
  0
LINE
  8
108
  6
CONTINUOUS
 62
1
 10
2.2E+001
 20
-3.947653E+001
 11
2.5E+001
 21
-3.947653E+001
  0
LINE
  8
108
  6
CONTINUOUS
 62
1
 10
2.5E+001
 20
-3.9326536E+001
 11
2.2E+001
 21
-3.9326536E+001
  0
LINE
  8
108
  6
CONTINUOUS
 62
1
 10
-2.2E+001
 20
-3.9326536E+001
 11
-2.5E+001
 21
-3.9326536E+001
  0
LINE
  8
108
  6
CONTINUOUS
 62
1
 10
-2.5E+001
 20
-3.9176542E+001
 11
-2.2E+001
 21
-3.9176542E+001
  0
LINE
  8
108
  6
CONTINUOUS
 62
1
 10
2.2E+001
 20
-3.9176542E+001
 11
2.5E+001
 21
-3.9176542E+001
  0
LINE
  8
108
  6
CONTINUOUS
 62
1
 10
2.5E+001
 20
-3.9026548E+001
 11
2.2E+001
 21
-3.9026548E+001
  0
LINE
  8
108
  6
CONTINUOUS
 62
1
 10
-2.2E+001
 20
-3.9026548E+001
 11
-2.5E+001
 21
-3.9026548E+001
  0
LINE
  8
108
  6
CONTINUOUS
 62
1
 10
-2.5E+001
 20
-3.8876524E+001
 11
-2.2E+001
 21
-3.8876524E+001
  0
LINE
  8
108
  6
CONTINUOUS
 62
1
 10
2.2E+001
 20
-3.8876524E+001
 11
2.5E+001
 21
-3.8876524E+001
  0
LINE
  8
108
  6
CONTINUOUS
 62
1
 10
2.5E+001
 20
-3.872653E+001
 11
2.2E+001
 21
-3.872653E+001
  0
LINE
  8
108
  6
CONTINUOUS
 62
1
 10
-2.2E+001
 20
-3.872653E+001
 11
-2.5E+001
 21
-3.872653E+001
  0
LINE
  8
108
  6
CONTINUOUS
 62
1
 10
-2.5E+001
 20
-3.8576536E+001
 11
-2.2E+001
 21
-3.8576536E+001
  0
LINE
  8
108
  6
CONTINUOUS
 62
1
 10
2.2E+001
 20
-3.8576536E+001
 11
2.5E+001
 21
-3.8576536E+001
  0
LINE
  8
108
  6
CONTINUOUS
 62
1
 10
2.5E+001
 20
-3.8426542E+001
 11
2.2E+001
 21
-3.8426542E+001
  0
LINE
  8
108
  6
CONTINUOUS
 62
1
 10
-2.2E+001
 20
-3.8426542E+001
 11
-2.5E+001
 21
-3.8426542E+001
  0
LINE
  8
108
  6
CONTINUOUS
 62
1
 10
-2.5E+001
 20
-3.8276548E+001
 11
-2.2E+001
 21
-3.8276548E+001
  0
LINE
  8
108
  6
CONTINUOUS
 62
1
 10
2.2E+001
 20
-3.8276548E+001
 11
2.5E+001
 21
-3.8276548E+001
  0
LINE
  8
108
  6
CONTINUOUS
 62
1
 10
2.5E+001
 20
-3.8126524E+001
 11
2.2E+001
 21
-3.8126524E+001
  0
LINE
  8
108
  6
CONTINUOUS
 62
1
 10
-2.2E+001
 20
-3.8126524E+001
 11
-2.5E+001
 21
-3.8126524E+001
  0
LINE
  8
108
  6
CONTINUOUS
 62
1
 10
-2.5E+001
 20
-3.797653E+001
 11
-2.2E+001
 21
-3.797653E+001
  0
LINE
  8
108
  6
CONTINUOUS
 62
1
 10
2.2E+001
 20
-3.797653E+001
 11
2.5E+001
 21
-3.797653E+001
  0
LINE
  8
108
  6
CONTINUOUS
 62
1
 10
2.5E+001
 20
-3.7826536E+001
 11
2.2E+001
 21
-3.7826536E+001
  0
LINE
  8
108
  6
CONTINUOUS
 62
1
 10
-2.2E+001
 20
-3.7826536E+001
 11
-2.5E+001
 21
-3.7826536E+001
  0
LINE
  8
108
  6
CONTINUOUS
 62
1
 10
-2.5E+001
 20
-3.7676542E+001
 11
-2.2E+001
 21
-3.7676542E+001
  0
LINE
  8
108
  6
CONTINUOUS
 62
1
 10
2.2E+001
 20
-3.7676542E+001
 11
2.5E+001
 21
-3.7676542E+001
  0
LINE
  8
108
  6
CONTINUOUS
 62
1
 10
2.5E+001
 20
-3.7526548E+001
 11
2.2E+001
 21
-3.7526548E+001
  0
LINE
  8
108
  6
CONTINUOUS
 62
1
 10
-2.2E+001
 20
-3.7526548E+001
 11
-2.5E+001
 21
-3.7526548E+001
  0
LINE
  8
108
  6
CONTINUOUS
 62
1
 10
-2.5E+001
 20
-3.7376524E+001
 11
-2.2E+001
 21
-3.7376524E+001
  0
LINE
  8
108
  6
CONTINUOUS
 62
1
 10
2.2E+001
 20
-3.7376524E+001
 11
2.5E+001
 21
-3.7376524E+001
  0
LINE
  8
108
  6
CONTINUOUS
 62
1
 10
2.5E+001
 20
-3.722653E+001
 11
2.2E+001
 21
-3.722653E+001
  0
LINE
  8
108
  6
CONTINUOUS
 62
1
 10
-2.2E+001
 20
-3.722653E+001
 11
-2.5E+001
 21
-3.722653E+001
  0
LINE
  8
108
  6
CONTINUOUS
 62
1
 10
-2.5E+001
 20
-3.7076536E+001
 11
-2.2E+001
 21
-3.7076536E+001
  0
LINE
  8
108
  6
CONTINUOUS
 62
1
 10
2.2E+001
 20
-3.7076536E+001
 11
2.5E+001
 21
-3.7076536E+001
  0
LINE
  8
108
  6
CONTINUOUS
 62
1
 10
2.5E+001
 20
-3.6926542E+001
 11
2.2E+001
 21
-3.6926542E+001
  0
LINE
  8
108
  6
CONTINUOUS
 62
1
 10
-2.2E+001
 20
-3.6926542E+001
 11
-2.5E+001
 21
-3.6926542E+001
  0
LINE
  8
108
  6
CONTINUOUS
 62
1
 10
-2.5E+001
 20
-3.6776548E+001
 11
-2.2E+001
 21
-3.6776548E+001
  0
LINE
  8
108
  6
CONTINUOUS
 62
1
 10
2.2E+001
 20
-3.6776548E+001
 11
2.5E+001
 21
-3.6776548E+001
  0
LINE
  8
108
  6
CONTINUOUS
 62
1
 10
2.5E+001
 20
-3.6626524E+001
 11
2.2E+001
 21
-3.6626524E+001
  0
LINE
  8
108
  6
CONTINUOUS
 62
1
 10
-2.2E+001
 20
-3.6626524E+001
 11
-2.5E+001
 21
-3.6626524E+001
  0
LINE
  8
108
  6
CONTINUOUS
 62
1
 10
-2.5E+001
 20
-3.647653E+001
 11
-2.2E+001
 21
-3.647653E+001
  0
LINE
  8
108
  6
CONTINUOUS
 62
1
 10
2.2E+001
 20
-3.647653E+001
 11
2.5E+001
 21
-3.647653E+001
  0
LINE
  8
108
  6
CONTINUOUS
 62
1
 10
2.5E+001
 20
-3.6326536E+001
 11
2.2E+001
 21
-3.6326536E+001
  0
LINE
  8
108
  6
CONTINUOUS
 62
1
 10
-2.2E+001
 20
-3.6326536E+001
 11
-2.5E+001
 21
-3.6326536E+001
  0
LINE
  8
108
  6
CONTINUOUS
 62
1
 10
-2.5E+001
 20
-3.6176542E+001
 11
-2.2E+001
 21
-3.6176542E+001
  0
LINE
  8
108
  6
CONTINUOUS
 62
1
 10
2.2E+001
 20
-3.6176542E+001
 11
2.5E+001
 21
-3.6176542E+001
  0
LINE
  8
108
  6
CONTINUOUS
 62
1
 10
2.5E+001
 20
-3.6026548E+001
 11
2.2E+001
 21
-3.6026548E+001
  0
LINE
  8
108
  6
CONTINUOUS
 62
1
 10
-2.2E+001
 20
-3.6026548E+001
 11
-2.5E+001
 21
-3.6026548E+001
  0
LINE
  8
108
  6
CONTINUOUS
 62
1
 10
-2.5E+001
 20
-3.5876524E+001
 11
-2.2E+001
 21
-3.5876524E+001
  0
LINE
  8
108
  6
CONTINUOUS
 62
1
 10
2.2E+001
 20
-3.5876524E+001
 11
2.5E+001
 21
-3.5876524E+001
  0
LINE
  8
108
  6
CONTINUOUS
 62
1
 10
2.5E+001
 20
-3.572653E+001
 11
2.2E+001
 21
-3.572653E+001
  0
LINE
  8
108
  6
CONTINUOUS
 62
1
 10
-2.2E+001
 20
-3.572653E+001
 11
-2.5E+001
 21
-3.572653E+001
  0
LINE
  8
108
  6
CONTINUOUS
 62
1
 10
-2.5E+001
 20
-3.5576536E+001
 11
-2.2E+001
 21
-3.5576536E+001
  0
LINE
  8
108
  6
CONTINUOUS
 62
1
 10
2.2E+001
 20
-3.5576536E+001
 11
2.5E+001
 21
-3.5576536E+001
  0
LINE
  8
108
  6
CONTINUOUS
 62
1
 10
2.5E+001
 20
-3.5426542E+001
 11
2.2E+001
 21
-3.5426542E+001
  0
LINE
  8
108
  6
CONTINUOUS
 62
1
 10
-2.2E+001
 20
-3.5426542E+001
 11
-2.5E+001
 21
-3.5426542E+001
  0
LINE
  8
108
  6
CONTINUOUS
 62
1
 10
-2.5E+001
 20
-3.5276548E+001
 11
-2.2E+001
 21
-3.5276548E+001
  0
LINE
  8
108
  6
CONTINUOUS
 62
1
 10
2.2E+001
 20
-3.5276548E+001
 11
2.5E+001
 21
-3.5276548E+001
  0
LINE
  8
108
  6
CONTINUOUS
 62
1
 10
2.5E+001
 20
-3.5126524E+001
 11
2.2E+001
 21
-3.5126524E+001
  0
LINE
  8
108
  6
CONTINUOUS
 62
1
 10
-2.2E+001
 20
-3.5126524E+001
 11
-2.5E+001
 21
-3.5126524E+001
  0
LINE
  8
108
  6
CONTINUOUS
 62
1
 10
-2.5E+001
 20
-3.497653E+001
 11
-2.2E+001
 21
-3.497653E+001
  0
LINE
  8
108
  6
CONTINUOUS
 62
1
 10
2.2E+001
 20
-3.497653E+001
 11
2.5E+001
 21
-3.497653E+001
  0
LINE
  8
108
  6
CONTINUOUS
 62
1
 10
2.5E+001
 20
-3.4826536E+001
 11
2.2E+001
 21
-3.4826536E+001
  0
LINE
  8
108
  6
CONTINUOUS
 62
1
 10
-2.2E+001
 20
-3.4826536E+001
 11
-2.5E+001
 21
-3.4826536E+001
  0
LINE
  8
108
  6
CONTINUOUS
 62
1
 10
-2.5E+001
 20
-3.4676542E+001
 11
-2.2E+001
 21
-3.4676542E+001
  0
LINE
  8
108
  6
CONTINUOUS
 62
1
 10
2.2E+001
 20
-3.4676542E+001
 11
2.5E+001
 21
-3.4676542E+001
  0
LINE
  8
108
  6
CONTINUOUS
 62
1
 10
2.5E+001
 20
-3.4526548E+001
 11
2.2E+001
 21
-3.4526548E+001
  0
LINE
  8
108
  6
CONTINUOUS
 62
1
 10
-2.2E+001
 20
-3.4526548E+001
 11
-2.5E+001
 21
-3.4526548E+001
  0
LINE
  8
108
  6
CONTINUOUS
 62
1
 10
-2.5E+001
 20
-3.4376524E+001
 11
-2.2E+001
 21
-3.4376524E+001
  0
LINE
  8
108
  6
CONTINUOUS
 62
1
 10
2.2E+001
 20
-3.4376524E+001
 11
2.5E+001
 21
-3.4376524E+001
  0
LINE
  8
108
  6
CONTINUOUS
 62
1
 10
2.5E+001
 20
-3.422653E+001
 11
2.2E+001
 21
-3.422653E+001
  0
LINE
  8
108
  6
CONTINUOUS
 62
1
 10
-2.2E+001
 20
-3.422653E+001
 11
-2.5E+001
 21
-3.422653E+001
  0
LINE
  8
108
  6
CONTINUOUS
 62
1
 10
-2.5E+001
 20
-3.4076536E+001
 11
-2.2E+001
 21
-3.4076536E+001
  0
LINE
  8
108
  6
CONTINUOUS
 62
1
 10
2.2E+001
 20
-3.4076536E+001
 11
2.5E+001
 21
-3.4076536E+001
  0
LINE
  8
108
  6
CONTINUOUS
 62
1
 10
2.5E+001
 20
-3.3926542E+001
 11
2.2E+001
 21
-3.3926542E+001
  0
LINE
  8
108
  6
CONTINUOUS
 62
1
 10
-2.2E+001
 20
-3.3926542E+001
 11
-2.5E+001
 21
-3.3926542E+001
  0
LINE
  8
108
  6
CONTINUOUS
 62
1
 10
-2.5E+001
 20
-3.3776548E+001
 11
-2.2E+001
 21
-3.3776548E+001
  0
LINE
  8
108
  6
CONTINUOUS
 62
1
 10
2.2E+001
 20
-3.3776548E+001
 11
2.5E+001
 21
-3.3776548E+001
  0
LINE
  8
108
  6
CONTINUOUS
 62
1
 10
2.5E+001
 20
-3.3626524E+001
 11
2.2E+001
 21
-3.3626524E+001
  0
LINE
  8
108
  6
CONTINUOUS
 62
1
 10
-2.2E+001
 20
-3.3626524E+001
 11
-2.5E+001
 21
-3.3626524E+001
  0
LINE
  8
108
  6
CONTINUOUS
 62
1
 10
-2.5E+001
 20
-3.347653E+001
 11
-2.2E+001
 21
-3.347653E+001
  0
LINE
  8
108
  6
CONTINUOUS
 62
1
 10
2.2E+001
 20
-3.347653E+001
 11
2.5E+001
 21
-3.347653E+001
  0
LINE
  8
108
  6
CONTINUOUS
 62
1
 10
2.5E+001
 20
-3.3326536E+001
 11
2.2E+001
 21
-3.3326536E+001
  0
LINE
  8
108
  6
CONTINUOUS
 62
1
 10
-2.2E+001
 20
-3.3326536E+001
 11
-2.5E+001
 21
-3.3326536E+001
  0
LINE
  8
108
  6
CONTINUOUS
 62
1
 10
-2.5E+001
 20
-3.3176542E+001
 11
-2.2E+001
 21
-3.3176542E+001
  0
LINE
  8
108
  6
CONTINUOUS
 62
1
 10
2.2E+001
 20
-3.3176542E+001
 11
2.5E+001
 21
-3.3176542E+001
  0
LINE
  8
108
  6
CONTINUOUS
 62
1
 10
2.5E+001
 20
-3.3026548E+001
 11
2.2E+001
 21
-3.3026548E+001
  0
LINE
  8
108
  6
CONTINUOUS
 62
1
 10
-2.2E+001
 20
-3.3026548E+001
 11
-2.5E+001
 21
-3.3026548E+001
  0
LINE
  8
108
  6
CONTINUOUS
 62
1
 10
-2.5E+001
 20
-3.2876524E+001
 11
-2.2E+001
 21
-3.2876524E+001
  0
LINE
  8
108
  6
CONTINUOUS
 62
1
 10
2.2E+001
 20
-3.2876524E+001
 11
2.5E+001
 21
-3.2876524E+001
  0
LINE
  8
108
  6
CONTINUOUS
 62
1
 10
2.5E+001
 20
-3.272653E+001
 11
2.2E+001
 21
-3.272653E+001
  0
LINE
  8
108
  6
CONTINUOUS
 62
1
 10
-2.2E+001
 20
-3.272653E+001
 11
-2.5E+001
 21
-3.272653E+001
  0
LINE
  8
108
  6
CONTINUOUS
 62
1
 10
-2.5E+001
 20
-3.2576536E+001
 11
-2.2E+001
 21
-3.2576536E+001
  0
LINE
  8
108
  6
CONTINUOUS
 62
1
 10
2.2E+001
 20
-3.2576536E+001
 11
2.5E+001
 21
-3.2576536E+001
  0
LINE
  8
108
  6
CONTINUOUS
 62
1
 10
2.5E+001
 20
-3.2426542E+001
 11
2.2E+001
 21
-3.2426542E+001
  0
LINE
  8
108
  6
CONTINUOUS
 62
1
 10
-2.2E+001
 20
-3.2426542E+001
 11
-2.5E+001
 21
-3.2426542E+001
  0
LINE
  8
108
  6
CONTINUOUS
 62
1
 10
-2.5E+001
 20
-3.2276548E+001
 11
-2.2E+001
 21
-3.2276548E+001
  0
LINE
  8
108
  6
CONTINUOUS
 62
1
 10
2.2E+001
 20
-3.2276548E+001
 11
2.5E+001
 21
-3.2276548E+001
  0
LINE
  8
108
  6
CONTINUOUS
 62
1
 10
2.5E+001
 20
-3.2126524E+001
 11
2.2E+001
 21
-3.2126524E+001
  0
LINE
  8
108
  6
CONTINUOUS
 62
1
 10
-2.2E+001
 20
-3.2126524E+001
 11
-2.5E+001
 21
-3.2126524E+001
  0
LINE
  8
108
  6
CONTINUOUS
 62
1
 10
-2.5E+001
 20
-3.197653E+001
 11
-2.2E+001
 21
-3.197653E+001
  0
LINE
  8
108
  6
CONTINUOUS
 62
1
 10
2.2E+001
 20
-3.197653E+001
 11
2.5E+001
 21
-3.197653E+001
  0
LINE
  8
108
  6
CONTINUOUS
 62
1
 10
2.5E+001
 20
-3.1826536E+001
 11
2.2E+001
 21
-3.1826536E+001
  0
LINE
  8
108
  6
CONTINUOUS
 62
1
 10
-2.2E+001
 20
-3.1826536E+001
 11
-2.5E+001
 21
-3.1826536E+001
  0
LINE
  8
108
  6
CONTINUOUS
 62
1
 10
-2.5E+001
 20
-3.1676542E+001
 11
-2.2E+001
 21
-3.1676542E+001
  0
LINE
  8
108
  6
CONTINUOUS
 62
1
 10
2.2E+001
 20
-3.1676542E+001
 11
2.5E+001
 21
-3.1676542E+001
  0
LINE
  8
108
  6
CONTINUOUS
 62
1
 10
2.5E+001
 20
-3.1526548E+001
 11
2.2E+001
 21
-3.1526548E+001
  0
LINE
  8
108
  6
CONTINUOUS
 62
1
 10
-2.2E+001
 20
-3.1526548E+001
 11
-2.5E+001
 21
-3.1526548E+001
  0
LINE
  8
108
  6
CONTINUOUS
 62
1
 10
-2.5E+001
 20
-3.1376524E+001
 11
-2.2E+001
 21
-3.1376524E+001
  0
LINE
  8
108
  6
CONTINUOUS
 62
1
 10
2.2E+001
 20
-3.1376524E+001
 11
2.5E+001
 21
-3.1376524E+001
  0
LINE
  8
108
  6
CONTINUOUS
 62
1
 10
2.5E+001
 20
-3.122653E+001
 11
2.2E+001
 21
-3.122653E+001
  0
LINE
  8
108
  6
CONTINUOUS
 62
1
 10
-2.2E+001
 20
-3.122653E+001
 11
-2.5E+001
 21
-3.122653E+001
  0
LINE
  8
108
  6
CONTINUOUS
 62
1
 10
-2.5E+001
 20
-3.1076536E+001
 11
-2.2E+001
 21
-3.1076536E+001
  0
LINE
  8
108
  6
CONTINUOUS
 62
1
 10
2.2E+001
 20
-3.1076536E+001
 11
2.5E+001
 21
-3.1076536E+001
  0
LINE
  8
108
  6
CONTINUOUS
 62
1
 10
2.5E+001
 20
-3.0926542E+001
 11
2.2E+001
 21
-3.0926542E+001
  0
LINE
  8
108
  6
CONTINUOUS
 62
1
 10
-2.2E+001
 20
-3.0926542E+001
 11
-2.5E+001
 21
-3.0926542E+001
  0
LINE
  8
108
  6
CONTINUOUS
 62
1
 10
-2.5E+001
 20
-3.0776548E+001
 11
-2.2E+001
 21
-3.0776548E+001
  0
LINE
  8
108
  6
CONTINUOUS
 62
1
 10
2.2E+001
 20
-3.0776548E+001
 11
2.5E+001
 21
-3.0776548E+001
  0
LINE
  8
108
  6
CONTINUOUS
 62
1
 10
2.5E+001
 20
-3.0626524E+001
 11
2.2E+001
 21
-3.0626524E+001
  0
LINE
  8
108
  6
CONTINUOUS
 62
1
 10
-2.2E+001
 20
-3.0626524E+001
 11
-2.5E+001
 21
-3.0626524E+001
  0
LINE
  8
108
  6
CONTINUOUS
 62
1
 10
-2.5E+001
 20
-3.047653E+001
 11
-2.2E+001
 21
-3.047653E+001
  0
LINE
  8
108
  6
CONTINUOUS
 62
1
 10
2.2E+001
 20
-3.047653E+001
 11
2.5E+001
 21
-3.047653E+001
  0
LINE
  8
108
  6
CONTINUOUS
 62
1
 10
2.5E+001
 20
-3.0326536E+001
 11
2.2E+001
 21
-3.0326536E+001
  0
LINE
  8
108
  6
CONTINUOUS
 62
1
 10
-2.2E+001
 20
-3.0326536E+001
 11
-2.5E+001
 21
-3.0326536E+001
  0
LINE
  8
108
  6
CONTINUOUS
 62
1
 10
-2.5E+001
 20
-3.0176542E+001
 11
-2.2E+001
 21
-3.0176542E+001
  0
LINE
  8
108
  6
CONTINUOUS
 62
1
 10
2.2E+001
 20
-3.0176542E+001
 11
2.5E+001
 21
-3.0176542E+001
  0
LINE
  8
108
  6
CONTINUOUS
 62
1
 10
2.5E+001
 20
-3.0026548E+001
 11
2.2E+001
 21
-3.0026548E+001
  0
LINE
  8
108
  6
CONTINUOUS
 62
1
 10
-2.2E+001
 20
-3.0026548E+001
 11
-2.5E+001
 21
-3.0026548E+001
  0
LINE
  8
108
  6
CONTINUOUS
 62
1
 10
-2.5E+001
 20
-2.9876524E+001
 11
-2.2E+001
 21
-2.9876524E+001
  0
LINE
  8
108
  6
CONTINUOUS
 62
1
 10
2.2E+001
 20
-2.9876524E+001
 11
2.5E+001
 21
-2.9876524E+001
  0
LINE
  8
108
  6
CONTINUOUS
 62
1
 10
2.5E+001
 20
-2.972653E+001
 11
2.2E+001
 21
-2.972653E+001
  0
LINE
  8
108
  6
CONTINUOUS
 62
1
 10
-2.2E+001
 20
-2.972653E+001
 11
-2.5E+001
 21
-2.972653E+001
  0
LINE
  8
108
  6
CONTINUOUS
 62
1
 10
-2.5E+001
 20
-2.9576536E+001
 11
-2.2E+001
 21
-2.9576536E+001
  0
LINE
  8
108
  6
CONTINUOUS
 62
1
 10
2.2E+001
 20
-2.9576536E+001
 11
2.5E+001
 21
-2.9576536E+001
  0
LINE
  8
108
  6
CONTINUOUS
 62
1
 10
2.5E+001
 20
-2.9426542E+001
 11
2.2E+001
 21
-2.9426542E+001
  0
LINE
  8
108
  6
CONTINUOUS
 62
1
 10
-2.2E+001
 20
-2.9426542E+001
 11
-2.5E+001
 21
-2.9426542E+001
  0
LINE
  8
108
  6
CONTINUOUS
 62
1
 10
-2.5E+001
 20
-2.9276548E+001
 11
-2.2E+001
 21
-2.9276548E+001
  0
LINE
  8
108
  6
CONTINUOUS
 62
1
 10
2.2E+001
 20
-2.9276548E+001
 11
2.5E+001
 21
-2.9276548E+001
  0
LINE
  8
108
  6
CONTINUOUS
 62
1
 10
2.5E+001
 20
-2.9126524E+001
 11
2.2E+001
 21
-2.9126524E+001
  0
LINE
  8
108
  6
CONTINUOUS
 62
1
 10
-2.2E+001
 20
-2.9126524E+001
 11
-2.5E+001
 21
-2.9126524E+001
  0
LINE
  8
108
  6
CONTINUOUS
 62
1
 10
-2.5E+001
 20
-2.897653E+001
 11
-2.2E+001
 21
-2.897653E+001
  0
LINE
  8
108
  6
CONTINUOUS
 62
1
 10
2.2E+001
 20
-2.897653E+001
 11
2.5E+001
 21
-2.897653E+001
  0
LINE
  8
108
  6
CONTINUOUS
 62
1
 10
2.5E+001
 20
-2.8826536E+001
 11
2.2E+001
 21
-2.8826536E+001
  0
LINE
  8
108
  6
CONTINUOUS
 62
1
 10
-2.2E+001
 20
-2.8826536E+001
 11
-2.5E+001
 21
-2.8826536E+001
  0
LINE
  8
108
  6
CONTINUOUS
 62
1
 10
-2.5E+001
 20
-2.8676542E+001
 11
-2.2E+001
 21
-2.8676542E+001
  0
LINE
  8
108
  6
CONTINUOUS
 62
1
 10
2.2E+001
 20
-2.8676542E+001
 11
2.5E+001
 21
-2.8676542E+001
  0
LINE
  8
108
  6
CONTINUOUS
 62
1
 10
2.5E+001
 20
-2.8526548E+001
 11
2.2E+001
 21
-2.8526548E+001
  0
LINE
  8
108
  6
CONTINUOUS
 62
1
 10
-2.2E+001
 20
-2.8526548E+001
 11
-2.5E+001
 21
-2.8526548E+001
  0
LINE
  8
108
  6
CONTINUOUS
 62
1
 10
-2.5E+001
 20
-2.8376524E+001
 11
-2.2E+001
 21
-2.8376524E+001
  0
LINE
  8
108
  6
CONTINUOUS
 62
1
 10
2.2E+001
 20
-2.8376524E+001
 11
2.5E+001
 21
-2.8376524E+001
  0
LINE
  8
108
  6
CONTINUOUS
 62
1
 10
2.5E+001
 20
-2.822653E+001
 11
2.2E+001
 21
-2.822653E+001
  0
LINE
  8
108
  6
CONTINUOUS
 62
1
 10
-2.2E+001
 20
-2.822653E+001
 11
-2.5E+001
 21
-2.822653E+001
  0
LINE
  8
108
  6
CONTINUOUS
 62
1
 10
-2.5E+001
 20
-2.8076536E+001
 11
-2.2E+001
 21
-2.8076536E+001
  0
LINE
  8
108
  6
CONTINUOUS
 62
1
 10
2.2E+001
 20
-2.8076536E+001
 11
2.5E+001
 21
-2.8076536E+001
  0
LINE
  8
108
  6
CONTINUOUS
 62
1
 10
2.5E+001
 20
-2.7926542E+001
 11
2.2E+001
 21
-2.7926542E+001
  0
LINE
  8
108
  6
CONTINUOUS
 62
1
 10
-2.2E+001
 20
-2.7926542E+001
 11
-2.5E+001
 21
-2.7926542E+001
  0
LINE
  8
108
  6
CONTINUOUS
 62
1
 10
-2.5E+001
 20
-2.7776548E+001
 11
-2.2E+001
 21
-2.7776548E+001
  0
LINE
  8
108
  6
CONTINUOUS
 62
1
 10
2.2E+001
 20
-2.7776548E+001
 11
2.5E+001
 21
-2.7776548E+001
  0
LINE
  8
108
  6
CONTINUOUS
 62
1
 10
2.5E+001
 20
-2.7626524E+001
 11
2.2E+001
 21
-2.7626524E+001
  0
LINE
  8
108
  6
CONTINUOUS
 62
1
 10
-2.2E+001
 20
-2.7626524E+001
 11
-2.5E+001
 21
-2.7626524E+001
  0
LINE
  8
108
  6
CONTINUOUS
 62
1
 10
-2.5E+001
 20
-2.747653E+001
 11
-2.2E+001
 21
-2.747653E+001
  0
LINE
  8
108
  6
CONTINUOUS
 62
1
 10
2.2E+001
 20
-2.747653E+001
 11
2.5E+001
 21
-2.747653E+001
  0
LINE
  8
108
  6
CONTINUOUS
 62
1
 10
2.5E+001
 20
-2.7326536E+001
 11
2.2E+001
 21
-2.7326536E+001
  0
LINE
  8
108
  6
CONTINUOUS
 62
1
 10
-2.2E+001
 20
-2.7326536E+001
 11
-2.5E+001
 21
-2.7326536E+001
  0
LINE
  8
108
  6
CONTINUOUS
 62
1
 10
-2.5E+001
 20
-2.7176542E+001
 11
-2.2E+001
 21
-2.7176542E+001
  0
LINE
  8
108
  6
CONTINUOUS
 62
1
 10
2.2E+001
 20
-2.7176542E+001
 11
2.5E+001
 21
-2.7176542E+001
  0
LINE
  8
108
  6
CONTINUOUS
 62
1
 10
2.5E+001
 20
-2.7026548E+001
 11
2.2E+001
 21
-2.7026548E+001
  0
LINE
  8
108
  6
CONTINUOUS
 62
1
 10
-2.2E+001
 20
-2.7026548E+001
 11
-2.5E+001
 21
-2.7026548E+001
  0
LINE
  8
108
  6
CONTINUOUS
 62
1
 10
-2.5E+001
 20
-2.6876524E+001
 11
-2.2E+001
 21
-2.6876524E+001
  0
LINE
  8
108
  6
CONTINUOUS
 62
1
 10
2.2E+001
 20
-2.6876524E+001
 11
2.5E+001
 21
-2.6876524E+001
  0
LINE
  8
108
  6
CONTINUOUS
 62
1
 10
2.5E+001
 20
-2.672653E+001
 11
2.2E+001
 21
-2.672653E+001
  0
LINE
  8
108
  6
CONTINUOUS
 62
1
 10
-2.2E+001
 20
-2.672653E+001
 11
-2.5E+001
 21
-2.672653E+001
  0
LINE
  8
108
  6
CONTINUOUS
 62
1
 10
-2.5E+001
 20
-2.6576536E+001
 11
-2.2E+001
 21
-2.6576536E+001
  0
LINE
  8
108
  6
CONTINUOUS
 62
1
 10
2.2E+001
 20
-2.6576536E+001
 11
2.5E+001
 21
-2.6576536E+001
  0
LINE
  8
108
  6
CONTINUOUS
 62
1
 10
2.5E+001
 20
-2.6426542E+001
 11
2.2E+001
 21
-2.6426542E+001
  0
LINE
  8
108
  6
CONTINUOUS
 62
1
 10
-2.2E+001
 20
-2.6426542E+001
 11
-2.5E+001
 21
-2.6426542E+001
  0
LINE
  8
108
  6
CONTINUOUS
 62
1
 10
-2.5E+001
 20
-2.6276548E+001
 11
-2.2E+001
 21
-2.6276548E+001
  0
LINE
  8
108
  6
CONTINUOUS
 62
1
 10
2.2E+001
 20
-2.6276548E+001
 11
2.5E+001
 21
-2.6276548E+001
  0
LINE
  8
108
  6
CONTINUOUS
 62
1
 10
2.5E+001
 20
-2.6126524E+001
 11
2.2E+001
 21
-2.6126524E+001
  0
LINE
  8
108
  6
CONTINUOUS
 62
1
 10
-2.2E+001
 20
-2.6126524E+001
 11
-2.5E+001
 21
-2.6126524E+001
  0
LINE
  8
108
  6
CONTINUOUS
 62
1
 10
-2.5E+001
 20
-2.597653E+001
 11
-2.2E+001
 21
-2.597653E+001
  0
LINE
  8
108
  6
CONTINUOUS
 62
1
 10
2.2E+001
 20
-2.597653E+001
 11
2.5E+001
 21
-2.597653E+001
  0
LINE
  8
108
  6
CONTINUOUS
 62
1
 10
2.5E+001
 20
-2.5826536E+001
 11
2.2E+001
 21
-2.5826536E+001
  0
LINE
  8
108
  6
CONTINUOUS
 62
1
 10
-2.2E+001
 20
-2.5826536E+001
 11
-2.5E+001
 21
-2.5826536E+001
  0
LINE
  8
108
  6
CONTINUOUS
 62
1
 10
-2.5E+001
 20
-2.5676542E+001
 11
-2.2E+001
 21
-2.5676542E+001
  0
LINE
  8
108
  6
CONTINUOUS
 62
1
 10
2.2E+001
 20
-2.5676542E+001
 11
2.5E+001
 21
-2.5676542E+001
  0
LINE
  8
108
  6
CONTINUOUS
 62
1
 10
2.5E+001
 20
-2.5526548E+001
 11
2.2E+001
 21
-2.5526548E+001
  0
LINE
  8
108
  6
CONTINUOUS
 62
1
 10
-2.2E+001
 20
-2.5526548E+001
 11
-2.5E+001
 21
-2.5526548E+001
  0
LINE
  8
108
  6
CONTINUOUS
 62
1
 10
-2.5E+001
 20
-2.5376524E+001
 11
-2.2E+001
 21
-2.5376524E+001
  0
LINE
  8
108
  6
CONTINUOUS
 62
1
 10
2.2E+001
 20
-2.5376524E+001
 11
2.5E+001
 21
-2.5376524E+001
  0
LINE
  8
108
  6
CONTINUOUS
 62
1
 10
2.5E+001
 20
-2.522653E+001
 11
2.2E+001
 21
-2.522653E+001
  0
LINE
  8
108
  6
CONTINUOUS
 62
1
 10
-2.2E+001
 20
-2.522653E+001
 11
-2.5E+001
 21
-2.522653E+001
  0
LINE
  8
108
  6
CONTINUOUS
 62
1
 10
-2.5E+001
 20
-2.5076536E+001
 11
-2.2E+001
 21
-2.5076536E+001
  0
LINE
  8
108
  6
CONTINUOUS
 62
1
 10
2.2E+001
 20
-2.5076536E+001
 11
2.5E+001
 21
-2.5076536E+001
  0
LINE
  8
108
  6
CONTINUOUS
 62
1
 10
2.5E+001
 20
-2.4926542E+001
 11
2.2E+001
 21
-2.4926542E+001
  0
LINE
  8
108
  6
CONTINUOUS
 62
1
 10
-2.2E+001
 20
-2.4926542E+001
 11
-2.5E+001
 21
-2.4926542E+001
  0
LINE
  8
108
  6
CONTINUOUS
 62
1
 10
-2.5E+001
 20
-2.4776548E+001
 11
-2.2E+001
 21
-2.4776548E+001
  0
LINE
  8
108
  6
CONTINUOUS
 62
1
 10
2.2E+001
 20
-2.4776548E+001
 11
2.5E+001
 21
-2.4776548E+001
  0
LINE
  8
108
  6
CONTINUOUS
 62
1
 10
2.5E+001
 20
-2.4626524E+001
 11
2.2E+001
 21
-2.4626524E+001
  0
LINE
  8
108
  6
CONTINUOUS
 62
1
 10
-2.2E+001
 20
-2.4626524E+001
 11
-2.5E+001
 21
-2.4626524E+001
  0
LINE
  8
108
  6
CONTINUOUS
 62
1
 10
-2.5E+001
 20
-2.447653E+001
 11
-2.2E+001
 21
-2.447653E+001
  0
LINE
  8
108
  6
CONTINUOUS
 62
1
 10
2.2E+001
 20
-2.447653E+001
 11
2.5E+001
 21
-2.447653E+001
  0
LINE
  8
108
  6
CONTINUOUS
 62
1
 10
2.5E+001
 20
-2.4326536E+001
 11
2.2E+001
 21
-2.4326536E+001
  0
LINE
  8
108
  6
CONTINUOUS
 62
1
 10
-2.2E+001
 20
-2.4326536E+001
 11
-2.5E+001
 21
-2.4326536E+001
  0
LINE
  8
108
  6
CONTINUOUS
 62
1
 10
-2.5E+001
 20
-2.4176542E+001
 11
-2.2E+001
 21
-2.4176542E+001
  0
LINE
  8
108
  6
CONTINUOUS
 62
1
 10
2.2E+001
 20
-2.4176542E+001
 11
2.5E+001
 21
-2.4176542E+001
  0
LINE
  8
108
  6
CONTINUOUS
 62
1
 10
2.5E+001
 20
-2.4026548E+001
 11
2.2E+001
 21
-2.4026548E+001
  0
LINE
  8
108
  6
CONTINUOUS
 62
1
 10
-2.2E+001
 20
-2.4026548E+001
 11
-2.5E+001
 21
-2.4026548E+001
  0
LINE
  8
108
  6
CONTINUOUS
 62
1
 10
-2.5E+001
 20
-2.3876524E+001
 11
-2.2E+001
 21
-2.3876524E+001
  0
LINE
  8
108
  6
CONTINUOUS
 62
1
 10
2.2E+001
 20
-2.3876524E+001
 11
2.5E+001
 21
-2.3876524E+001
  0
LINE
  8
108
  6
CONTINUOUS
 62
1
 10
2.5E+001
 20
-2.372653E+001
 11
2.2E+001
 21
-2.372653E+001
  0
LINE
  8
108
  6
CONTINUOUS
 62
1
 10
-2.2E+001
 20
-2.372653E+001
 11
-2.5E+001
 21
-2.372653E+001
  0
LINE
  8
108
  6
CONTINUOUS
 62
1
 10
-2.5E+001
 20
-2.3576536E+001
 11
-2.2E+001
 21
-2.3576536E+001
  0
LINE
  8
108
  6
CONTINUOUS
 62
1
 10
2.2E+001
 20
-2.3576536E+001
 11
2.5E+001
 21
-2.3576536E+001
  0
LINE
  8
108
  6
CONTINUOUS
 62
1
 10
2.5E+001
 20
-2.3426542E+001
 11
2.2E+001
 21
-2.3426542E+001
  0
LINE
  8
108
  6
CONTINUOUS
 62
1
 10
-2.2E+001
 20
-2.3426542E+001
 11
-2.5E+001
 21
-2.3426542E+001
  0
LINE
  8
108
  6
CONTINUOUS
 62
1
 10
-2.5E+001
 20
-2.3276548E+001
 11
-2.2E+001
 21
-2.3276548E+001
  0
LINE
  8
108
  6
CONTINUOUS
 62
1
 10
2.2E+001
 20
-2.3276548E+001
 11
2.5E+001
 21
-2.3276548E+001
  0
LINE
  8
108
  6
CONTINUOUS
 62
1
 10
2.5E+001
 20
-2.3126524E+001
 11
2.2E+001
 21
-2.3126524E+001
  0
LINE
  8
108
  6
CONTINUOUS
 62
1
 10
-2.2E+001
 20
-2.3126524E+001
 11
-2.5E+001
 21
-2.3126524E+001
  0
LINE
  8
108
  6
CONTINUOUS
 62
1
 10
-2.5E+001
 20
-2.297653E+001
 11
-2.2E+001
 21
-2.297653E+001
  0
LINE
  8
108
  6
CONTINUOUS
 62
1
 10
2.2E+001
 20
-2.297653E+001
 11
2.5E+001
 21
-2.297653E+001
  0
LINE
  8
108
  6
CONTINUOUS
 62
1
 10
2.5E+001
 20
-2.2826536E+001
 11
2.2E+001
 21
-2.2826536E+001
  0
LINE
  8
108
  6
CONTINUOUS
 62
1
 10
-2.2E+001
 20
-2.2826536E+001
 11
-2.5E+001
 21
-2.2826536E+001
  0
LINE
  8
108
  6
CONTINUOUS
 62
1
 10
-2.5E+001
 20
-2.2676542E+001
 11
-2.2E+001
 21
-2.2676542E+001
  0
LINE
  8
108
  6
CONTINUOUS
 62
1
 10
2.2E+001
 20
-2.2676542E+001
 11
2.5E+001
 21
-2.2676542E+001
  0
LINE
  8
108
  6
CONTINUOUS
 62
1
 10
2.5E+001
 20
-2.2526548E+001
 11
2.2E+001
 21
-2.2526548E+001
  0
LINE
  8
108
  6
CONTINUOUS
 62
1
 10
-2.2E+001
 20
-2.2526548E+001
 11
-2.5E+001
 21
-2.2526548E+001
  0
LINE
  8
108
  6
CONTINUOUS
 62
1
 10
-2.5E+001
 20
-2.2376524E+001
 11
-2.2E+001
 21
-2.2376524E+001
  0
LINE
  8
108
  6
CONTINUOUS
 62
1
 10
2.2E+001
 20
-2.2376524E+001
 11
2.5E+001
 21
-2.2376524E+001
  0
LINE
  8
108
  6
CONTINUOUS
 62
1
 10
2.5E+001
 20
-2.222653E+001
 11
2.2E+001
 21
-2.222653E+001
  0
LINE
  8
108
  6
CONTINUOUS
 62
1
 10
-2.2E+001
 20
-2.222653E+001
 11
-2.5E+001
 21
-2.222653E+001
  0
LINE
  8
108
  6
CONTINUOUS
 62
1
 10
-2.5E+001
 20
-2.2076536E+001
 11
-2.2E+001
 21
-2.2076536E+001
  0
LINE
  8
108
  6
CONTINUOUS
 62
1
 10
2.2E+001
 20
-2.2076536E+001
 11
2.5E+001
 21
-2.2076536E+001
  0
LINE
  8
108
  6
CONTINUOUS
 62
1
 10
2.5E+001
 20
-2.1926542E+001
 11
2.2E+001
 21
-2.1926542E+001
  0
LINE
  8
108
  6
CONTINUOUS
 62
1
 10
-2.2E+001
 20
-2.1926542E+001
 11
-2.5E+001
 21
-2.1926542E+001
  0
LINE
  8
108
  6
CONTINUOUS
 62
1
 10
-2.5E+001
 20
-2.1776548E+001
 11
-2.2E+001
 21
-2.1776548E+001
  0
LINE
  8
108
  6
CONTINUOUS
 62
1
 10
2.2E+001
 20
-2.1776548E+001
 11
2.5E+001
 21
-2.1776548E+001
  0
LINE
  8
108
  6
CONTINUOUS
 62
1
 10
2.5E+001
 20
-2.1626524E+001
 11
2.2E+001
 21
-2.1626524E+001
  0
LINE
  8
108
  6
CONTINUOUS
 62
1
 10
-2.2E+001
 20
-2.1626524E+001
 11
-2.5E+001
 21
-2.1626524E+001
  0
LINE
  8
108
  6
CONTINUOUS
 62
1
 10
-2.5E+001
 20
-2.147653E+001
 11
-2.2E+001
 21
-2.147653E+001
  0
LINE
  8
108
  6
CONTINUOUS
 62
1
 10
2.2E+001
 20
-2.147653E+001
 11
2.5E+001
 21
-2.147653E+001
  0
LINE
  8
108
  6
CONTINUOUS
 62
1
 10
2.5E+001
 20
-2.1326536E+001
 11
2.2E+001
 21
-2.1326536E+001
  0
LINE
  8
108
  6
CONTINUOUS
 62
1
 10
-2.2E+001
 20
-2.1326536E+001
 11
-2.5E+001
 21
-2.1326536E+001
  0
LINE
  8
108
  6
CONTINUOUS
 62
1
 10
-2.5E+001
 20
-2.1176542E+001
 11
-2.2E+001
 21
-2.1176542E+001
  0
LINE
  8
108
  6
CONTINUOUS
 62
1
 10
2.2E+001
 20
-2.1176542E+001
 11
2.5E+001
 21
-2.1176542E+001
  0
LINE
  8
108
  6
CONTINUOUS
 62
1
 10
2.5E+001
 20
-2.1026548E+001
 11
2.2E+001
 21
-2.1026548E+001
  0
LINE
  8
108
  6
CONTINUOUS
 62
1
 10
-2.2E+001
 20
-2.1026548E+001
 11
-2.5E+001
 21
-2.1026548E+001
  0
LINE
  8
108
  6
CONTINUOUS
 62
1
 10
-2.5E+001
 20
-2.0876524E+001
 11
-2.2E+001
 21
-2.0876524E+001
  0
LINE
  8
108
  6
CONTINUOUS
 62
1
 10
2.2E+001
 20
-2.0876524E+001
 11
2.5E+001
 21
-2.0876524E+001
  0
LINE
  8
108
  6
CONTINUOUS
 62
1
 10
2.5E+001
 20
-2.072653E+001
 11
2.2E+001
 21
-2.072653E+001
  0
LINE
  8
108
  6
CONTINUOUS
 62
1
 10
-2.2E+001
 20
-2.072653E+001
 11
-2.5E+001
 21
-2.072653E+001
  0
LINE
  8
108
  6
CONTINUOUS
 62
1
 10
-2.5E+001
 20
-2.0576536E+001
 11
-2.2E+001
 21
-2.0576536E+001
  0
LINE
  8
108
  6
CONTINUOUS
 62
1
 10
2.2E+001
 20
-2.0576536E+001
 11
2.5E+001
 21
-2.0576536E+001
  0
LINE
  8
108
  6
CONTINUOUS
 62
1
 10
2.5E+001
 20
-2.0426542E+001
 11
2.2E+001
 21
-2.0426542E+001
  0
LINE
  8
108
  6
CONTINUOUS
 62
1
 10
-2.2E+001
 20
-2.0426542E+001
 11
-2.5E+001
 21
-2.0426542E+001
  0
LINE
  8
108
  6
CONTINUOUS
 62
1
 10
-2.5E+001
 20
-2.0276548E+001
 11
-2.2E+001
 21
-2.0276548E+001
  0
LINE
  8
108
  6
CONTINUOUS
 62
1
 10
2.2E+001
 20
-2.0276548E+001
 11
2.5E+001
 21
-2.0276548E+001
  0
LINE
  8
108
  6
CONTINUOUS
 62
1
 10
2.5E+001
 20
-2.0126524E+001
 11
2.2E+001
 21
-2.0126524E+001
  0
LINE
  8
108
  6
CONTINUOUS
 62
1
 10
-2.2E+001
 20
-2.0126524E+001
 11
-2.5E+001
 21
-2.0126524E+001
  0
LINE
  8
108
  6
CONTINUOUS
 62
1
 10
-2.5E+001
 20
-1.997653E+001
 11
-2.2E+001
 21
-1.997653E+001
  0
LINE
  8
108
  6
CONTINUOUS
 62
1
 10
2.2E+001
 20
-1.997653E+001
 11
2.5E+001
 21
-1.997653E+001
  0
LINE
  8
108
  6
CONTINUOUS
 62
1
 10
2.5E+001
 20
-1.9826536E+001
 11
2.2E+001
 21
-1.9826536E+001
  0
LINE
  8
108
  6
CONTINUOUS
 62
1
 10
-2.2E+001
 20
-1.9826536E+001
 11
-2.5E+001
 21
-1.9826536E+001
  0
LINE
  8
108
  6
CONTINUOUS
 62
1
 10
-2.5E+001
 20
-1.9676542E+001
 11
-2.2E+001
 21
-1.9676542E+001
  0
LINE
  8
108
  6
CONTINUOUS
 62
1
 10
2.2E+001
 20
-1.9676542E+001
 11
2.5E+001
 21
-1.9676542E+001
  0
LINE
  8
108
  6
CONTINUOUS
 62
1
 10
2.5E+001
 20
-1.9526548E+001
 11
2.2E+001
 21
-1.9526548E+001
  0
LINE
  8
108
  6
CONTINUOUS
 62
1
 10
-2.2E+001
 20
-1.9526548E+001
 11
-2.5E+001
 21
-1.9526548E+001
  0
LINE
  8
108
  6
CONTINUOUS
 62
1
 10
-2.5E+001
 20
-1.9376524E+001
 11
-2.2E+001
 21
-1.9376524E+001
  0
LINE
  8
108
  6
CONTINUOUS
 62
1
 10
2.2E+001
 20
-1.9376524E+001
 11
2.5E+001
 21
-1.9376524E+001
  0
LINE
  8
108
  6
CONTINUOUS
 62
1
 10
2.5E+001
 20
-1.922653E+001
 11
2.2E+001
 21
-1.922653E+001
  0
LINE
  8
108
  6
CONTINUOUS
 62
1
 10
-2.2E+001
 20
-1.922653E+001
 11
-2.5E+001
 21
-1.922653E+001
  0
LINE
  8
108
  6
CONTINUOUS
 62
1
 10
-2.5E+001
 20
-1.9076536E+001
 11
-2.2E+001
 21
-1.9076536E+001
  0
LINE
  8
108
  6
CONTINUOUS
 62
1
 10
2.2E+001
 20
-1.9076536E+001
 11
2.5E+001
 21
-1.9076536E+001
  0
LINE
  8
108
  6
CONTINUOUS
 62
1
 10
2.5E+001
 20
-1.8926542E+001
 11
2.2E+001
 21
-1.8926542E+001
  0
LINE
  8
108
  6
CONTINUOUS
 62
1
 10
-2.2E+001
 20
-1.8926542E+001
 11
-2.5E+001
 21
-1.8926542E+001
  0
LINE
  8
108
  6
CONTINUOUS
 62
1
 10
-2.5E+001
 20
-1.8776548E+001
 11
-2.2E+001
 21
-1.8776548E+001
  0
LINE
  8
108
  6
CONTINUOUS
 62
1
 10
2.2E+001
 20
-1.8776548E+001
 11
2.5E+001
 21
-1.8776548E+001
  0
LINE
  8
108
  6
CONTINUOUS
 62
1
 10
2.5E+001
 20
-1.8626524E+001
 11
2.2E+001
 21
-1.8626524E+001
  0
LINE
  8
108
  6
CONTINUOUS
 62
1
 10
-2.2E+001
 20
-1.8626524E+001
 11
-2.5E+001
 21
-1.8626524E+001
  0
LINE
  8
108
  6
CONTINUOUS
 62
1
 10
-2.5E+001
 20
-1.847653E+001
 11
-2.2E+001
 21
-1.847653E+001
  0
LINE
  8
108
  6
CONTINUOUS
 62
1
 10
2.2E+001
 20
-1.847653E+001
 11
2.5E+001
 21
-1.847653E+001
  0
LINE
  8
108
  6
CONTINUOUS
 62
1
 10
2.5E+001
 20
-1.8326536E+001
 11
2.2E+001
 21
-1.8326536E+001
  0
LINE
  8
108
  6
CONTINUOUS
 62
1
 10
-2.2E+001
 20
-1.8326536E+001
 11
-2.5E+001
 21
-1.8326536E+001
  0
LINE
  8
108
  6
CONTINUOUS
 62
1
 10
-2.5E+001
 20
-1.8176542E+001
 11
-2.2E+001
 21
-1.8176542E+001
  0
LINE
  8
108
  6
CONTINUOUS
 62
1
 10
2.2E+001
 20
-1.8176542E+001
 11
2.5E+001
 21
-1.8176542E+001
  0
LINE
  8
108
  6
CONTINUOUS
 62
1
 10
2.5E+001
 20
-1.8026548E+001
 11
2.2E+001
 21
-1.8026548E+001
  0
LINE
  8
108
  6
CONTINUOUS
 62
1
 10
-2.2E+001
 20
-1.8026548E+001
 11
-2.5E+001
 21
-1.8026548E+001
  0
LINE
  8
108
  6
CONTINUOUS
 62
1
 10
-2.5E+001
 20
-1.7876524E+001
 11
-2.2E+001
 21
-1.7876524E+001
  0
LINE
  8
108
  6
CONTINUOUS
 62
1
 10
2.2E+001
 20
-1.7876524E+001
 11
2.5E+001
 21
-1.7876524E+001
  0
LINE
  8
108
  6
CONTINUOUS
 62
1
 10
2.5E+001
 20
-1.772653E+001
 11
2.2E+001
 21
-1.772653E+001
  0
LINE
  8
108
  6
CONTINUOUS
 62
1
 10
-2.2E+001
 20
-1.772653E+001
 11
-2.5E+001
 21
-1.772653E+001
  0
LINE
  8
108
  6
CONTINUOUS
 62
1
 10
-2.5E+001
 20
-1.7576536E+001
 11
-2.2E+001
 21
-1.7576536E+001
  0
LINE
  8
108
  6
CONTINUOUS
 62
1
 10
2.2E+001
 20
-1.7576536E+001
 11
2.5E+001
 21
-1.7576536E+001
  0
LINE
  8
108
  6
CONTINUOUS
 62
1
 10
2.5E+001
 20
-1.7426542E+001
 11
2.2E+001
 21
-1.7426542E+001
  0
LINE
  8
108
  6
CONTINUOUS
 62
1
 10
-2.2E+001
 20
-1.7426542E+001
 11
-2.5E+001
 21
-1.7426542E+001
  0
LINE
  8
108
  6
CONTINUOUS
 62
1
 10
-2.5E+001
 20
-1.7276548E+001
 11
-2.2E+001
 21
-1.7276548E+001
  0
LINE
  8
108
  6
CONTINUOUS
 62
1
 10
2.2E+001
 20
-1.7276548E+001
 11
2.5E+001
 21
-1.7276548E+001
  0
LINE
  8
108
  6
CONTINUOUS
 62
1
 10
2.5E+001
 20
-1.7126524E+001
 11
2.2E+001
 21
-1.7126524E+001
  0
LINE
  8
108
  6
CONTINUOUS
 62
1
 10
-2.2E+001
 20
-1.7126524E+001
 11
-2.5E+001
 21
-1.7126524E+001
  0
LINE
  8
108
  6
CONTINUOUS
 62
1
 10
-2.5E+001
 20
-1.697653E+001
 11
-2.2E+001
 21
-1.697653E+001
  0
LINE
  8
108
  6
CONTINUOUS
 62
1
 10
2.2E+001
 20
-1.697653E+001
 11
2.5E+001
 21
-1.697653E+001
  0
LINE
  8
108
  6
CONTINUOUS
 62
1
 10
2.5E+001
 20
-1.6826536E+001
 11
2.2E+001
 21
-1.6826536E+001
  0
LINE
  8
108
  6
CONTINUOUS
 62
1
 10
-2.2E+001
 20
-1.6826536E+001
 11
-2.5E+001
 21
-1.6826536E+001
  0
LINE
  8
108
  6
CONTINUOUS
 62
1
 10
-2.5E+001
 20
-1.6676542E+001
 11
-2.2E+001
 21
-1.6676542E+001
  0
LINE
  8
108
  6
CONTINUOUS
 62
1
 10
2.2E+001
 20
-1.6676542E+001
 11
2.5E+001
 21
-1.6676542E+001
  0
LINE
  8
108
  6
CONTINUOUS
 62
1
 10
2.5E+001
 20
-1.6526548E+001
 11
2.2E+001
 21
-1.6526548E+001
  0
LINE
  8
108
  6
CONTINUOUS
 62
1
 10
-2.2E+001
 20
-1.6526548E+001
 11
-2.5E+001
 21
-1.6526548E+001
  0
LINE
  8
108
  6
CONTINUOUS
 62
1
 10
-2.5E+001
 20
-1.6376524E+001
 11
-2.2E+001
 21
-1.6376524E+001
  0
LINE
  8
108
  6
CONTINUOUS
 62
1
 10
2.2E+001
 20
-1.6376524E+001
 11
2.5E+001
 21
-1.6376524E+001
  0
LINE
  8
108
  6
CONTINUOUS
 62
1
 10
2.5E+001
 20
-1.622653E+001
 11
2.2E+001
 21
-1.622653E+001
  0
LINE
  8
108
  6
CONTINUOUS
 62
1
 10
-2.2E+001
 20
-1.622653E+001
 11
-2.5E+001
 21
-1.622653E+001
  0
LINE
  8
108
  6
CONTINUOUS
 62
1
 10
-2.5E+001
 20
-1.6076536E+001
 11
-2.2E+001
 21
-1.6076536E+001
  0
LINE
  8
108
  6
CONTINUOUS
 62
1
 10
2.2E+001
 20
-1.6076536E+001
 11
2.5E+001
 21
-1.6076536E+001
  0
LINE
  8
108
  6
CONTINUOUS
 62
1
 10
2.5E+001
 20
-1.5926542E+001
 11
2.2E+001
 21
-1.5926542E+001
  0
LINE
  8
108
  6
CONTINUOUS
 62
1
 10
-2.2E+001
 20
-1.5926542E+001
 11
-2.5E+001
 21
-1.5926542E+001
  0
LINE
  8
108
  6
CONTINUOUS
 62
1
 10
-2.5E+001
 20
-1.5776548E+001
 11
-2.2E+001
 21
-1.5776548E+001
  0
LINE
  8
108
  6
CONTINUOUS
 62
1
 10
2.2E+001
 20
-1.5776548E+001
 11
2.5E+001
 21
-1.5776548E+001
  0
LINE
  8
108
  6
CONTINUOUS
 62
1
 10
2.5E+001
 20
-1.5626524E+001
 11
2.2E+001
 21
-1.5626524E+001
  0
LINE
  8
108
  6
CONTINUOUS
 62
1
 10
-2.2E+001
 20
-1.5626524E+001
 11
-2.5E+001
 21
-1.5626524E+001
  0
LINE
  8
108
  6
CONTINUOUS
 62
1
 10
-2.5E+001
 20
-1.547653E+001
 11
-2.2E+001
 21
-1.547653E+001
  0
LINE
  8
108
  6
CONTINUOUS
 62
1
 10
2.2E+001
 20
-1.547653E+001
 11
2.5E+001
 21
-1.547653E+001
  0
LINE
  8
108
  6
CONTINUOUS
 62
1
 10
2.5E+001
 20
-1.5326536E+001
 11
2.2E+001
 21
-1.5326536E+001
  0
LINE
  8
108
  6
CONTINUOUS
 62
1
 10
-2.2E+001
 20
-1.5326536E+001
 11
-2.5E+001
 21
-1.5326536E+001
  0
LINE
  8
108
  6
CONTINUOUS
 62
1
 10
-2.5E+001
 20
-1.5176542E+001
 11
-2.2E+001
 21
-1.5176542E+001
  0
LINE
  8
108
  6
CONTINUOUS
 62
1
 10
2.2E+001
 20
-1.5176542E+001
 11
2.5E+001
 21
-1.5176542E+001
  0
LINE
  8
108
  6
CONTINUOUS
 62
1
 10
2.5E+001
 20
-1.5026548E+001
 11
2.2E+001
 21
-1.5026548E+001
  0
LINE
  8
108
  6
CONTINUOUS
 62
1
 10
-2.2E+001
 20
-1.5026548E+001
 11
-2.5E+001
 21
-1.5026548E+001
  0
LINE
  8
108
  6
CONTINUOUS
 62
1
 10
-2.5E+001
 20
-1.4876524E+001
 11
-2.2E+001
 21
-1.4876524E+001
  0
LINE
  8
108
  6
CONTINUOUS
 62
1
 10
2.2E+001
 20
-1.4876524E+001
 11
2.5E+001
 21
-1.4876524E+001
  0
LINE
  8
108
  6
CONTINUOUS
 62
1
 10
2.5E+001
 20
-1.472653E+001
 11
2.2E+001
 21
-1.472653E+001
  0
LINE
  8
108
  6
CONTINUOUS
 62
1
 10
-2.2E+001
 20
-1.472653E+001
 11
-2.5E+001
 21
-1.472653E+001
  0
LINE
  8
108
  6
CONTINUOUS
 62
1
 10
-2.5E+001
 20
-1.4576536E+001
 11
-2.2E+001
 21
-1.4576536E+001
  0
LINE
  8
108
  6
CONTINUOUS
 62
1
 10
2.2E+001
 20
-1.4576536E+001
 11
2.5E+001
 21
-1.4576536E+001
  0
LINE
  8
108
  6
CONTINUOUS
 62
1
 10
2.5E+001
 20
-1.4426542E+001
 11
2.2E+001
 21
-1.4426542E+001
  0
LINE
  8
108
  6
CONTINUOUS
 62
1
 10
-2.2E+001
 20
-1.4426542E+001
 11
-2.5E+001
 21
-1.4426542E+001
  0
LINE
  8
108
  6
CONTINUOUS
 62
1
 10
-2.5E+001
 20
-1.4276548E+001
 11
-2.2E+001
 21
-1.4276548E+001
  0
LINE
  8
108
  6
CONTINUOUS
 62
1
 10
2.2E+001
 20
-1.4276548E+001
 11
2.5E+001
 21
-1.4276548E+001
  0
LINE
  8
108
  6
CONTINUOUS
 62
1
 10
2.5E+001
 20
-1.4126524E+001
 11
2.2E+001
 21
-1.4126524E+001
  0
LINE
  8
108
  6
CONTINUOUS
 62
1
 10
-2.2E+001
 20
-1.4126524E+001
 11
-2.5E+001
 21
-1.4126524E+001
  0
LINE
  8
108
  6
CONTINUOUS
 62
1
 10
-2.5E+001
 20
-1.397653E+001
 11
-2.2E+001
 21
-1.397653E+001
  0
LINE
  8
108
  6
CONTINUOUS
 62
1
 10
2.2E+001
 20
-1.397653E+001
 11
2.5E+001
 21
-1.397653E+001
  0
LINE
  8
108
  6
CONTINUOUS
 62
1
 10
2.5E+001
 20
-1.3826536E+001
 11
2.2E+001
 21
-1.3826536E+001
  0
LINE
  8
108
  6
CONTINUOUS
 62
1
 10
-2.2E+001
 20
-1.3826536E+001
 11
-2.5E+001
 21
-1.3826536E+001
  0
LINE
  8
108
  6
CONTINUOUS
 62
1
 10
-2.5E+001
 20
-1.3676542E+001
 11
-2.2E+001
 21
-1.3676542E+001
  0
LINE
  8
108
  6
CONTINUOUS
 62
1
 10
2.2E+001
 20
-1.3676542E+001
 11
2.5E+001
 21
-1.3676542E+001
  0
LINE
  8
108
  6
CONTINUOUS
 62
1
 10
2.5E+001
 20
-1.3526548E+001
 11
2.2E+001
 21
-1.3526548E+001
  0
LINE
  8
108
  6
CONTINUOUS
 62
1
 10
-2.2E+001
 20
-1.3526548E+001
 11
-2.5E+001
 21
-1.3526548E+001
  0
LINE
  8
108
  6
CONTINUOUS
 62
1
 10
-2.5E+001
 20
-1.3376524E+001
 11
-2.2E+001
 21
-1.3376524E+001
  0
LINE
  8
108
  6
CONTINUOUS
 62
1
 10
2.2E+001
 20
-1.3376524E+001
 11
2.5E+001
 21
-1.3376524E+001
  0
LINE
  8
108
  6
CONTINUOUS
 62
1
 10
2.5E+001
 20
-1.322653E+001
 11
2.2E+001
 21
-1.322653E+001
  0
LINE
  8
108
  6
CONTINUOUS
 62
1
 10
-2.2E+001
 20
-1.322653E+001
 11
-2.5E+001
 21
-1.322653E+001
  0
LINE
  8
108
  6
CONTINUOUS
 62
1
 10
-2.5E+001
 20
-1.3076536E+001
 11
-2.2E+001
 21
-1.3076536E+001
  0
LINE
  8
108
  6
CONTINUOUS
 62
1
 10
2.2E+001
 20
-1.3076536E+001
 11
2.5E+001
 21
-1.3076536E+001
  0
LINE
  8
108
  6
CONTINUOUS
 62
1
 10
2.5E+001
 20
-1.2926542E+001
 11
2.2E+001
 21
-1.2926542E+001
  0
LINE
  8
108
  6
CONTINUOUS
 62
1
 10
-2.2E+001
 20
-1.2926542E+001
 11
-2.5E+001
 21
-1.2926542E+001
  0
LINE
  8
108
  6
CONTINUOUS
 62
1
 10
-2.5E+001
 20
-1.2776548E+001
 11
-2.2E+001
 21
-1.2776548E+001
  0
LINE
  8
108
  6
CONTINUOUS
 62
1
 10
2.2E+001
 20
-1.2776548E+001
 11
2.5E+001
 21
-1.2776548E+001
  0
LINE
  8
108
  6
CONTINUOUS
 62
1
 10
2.5E+001
 20
-1.2626524E+001
 11
2.2E+001
 21
-1.2626524E+001
  0
LINE
  8
108
  6
CONTINUOUS
 62
1
 10
-2.2E+001
 20
-1.2626524E+001
 11
-2.5E+001
 21
-1.2626524E+001
  0
LINE
  8
108
  6
CONTINUOUS
 62
1
 10
-2.5E+001
 20
-1.247653E+001
 11
-2.2E+001
 21
-1.247653E+001
  0
LINE
  8
108
  6
CONTINUOUS
 62
1
 10
2.2E+001
 20
-1.247653E+001
 11
2.5E+001
 21
-1.247653E+001
  0
LINE
  8
108
  6
CONTINUOUS
 62
1
 10
2.5E+001
 20
-1.2326536E+001
 11
2.2E+001
 21
-1.2326536E+001
  0
LINE
  8
108
  6
CONTINUOUS
 62
1
 10
-2.2E+001
 20
-1.2326536E+001
 11
-2.5E+001
 21
-1.2326536E+001
  0
LINE
  8
108
  6
CONTINUOUS
 62
1
 10
-2.5E+001
 20
-1.2176542E+001
 11
-2.2E+001
 21
-1.2176542E+001
  0
LINE
  8
108
  6
CONTINUOUS
 62
1
 10
2.2E+001
 20
-1.2176542E+001
 11
2.5E+001
 21
-1.2176542E+001
  0
LINE
  8
108
  6
CONTINUOUS
 62
1
 10
2.5E+001
 20
-1.2026548E+001
 11
2.2E+001
 21
-1.2026548E+001
  0
LINE
  8
108
  6
CONTINUOUS
 62
1
 10
-2.2E+001
 20
-1.2026548E+001
 11
-2.5E+001
 21
-1.2026548E+001
  0
LINE
  8
108
  6
CONTINUOUS
 62
1
 10
-2.5E+001
 20
-1.1876524E+001
 11
-2.2E+001
 21
-1.1876524E+001
  0
LINE
  8
108
  6
CONTINUOUS
 62
1
 10
2.2E+001
 20
-1.1876524E+001
 11
2.5E+001
 21
-1.1876524E+001
  0
LINE
  8
108
  6
CONTINUOUS
 62
1
 10
2.5E+001
 20
-1.172653E+001
 11
2.2E+001
 21
-1.172653E+001
  0
LINE
  8
108
  6
CONTINUOUS
 62
1
 10
-2.2E+001
 20
-1.172653E+001
 11
-2.5E+001
 21
-1.172653E+001
  0
LINE
  8
108
  6
CONTINUOUS
 62
1
 10
-2.5E+001
 20
-1.1576536E+001
 11
-2.2E+001
 21
-1.1576536E+001
  0
LINE
  8
108
  6
CONTINUOUS
 62
1
 10
2.2E+001
 20
-1.1576536E+001
 11
2.5E+001
 21
-1.1576536E+001
  0
LINE
  8
108
  6
CONTINUOUS
 62
1
 10
2.5E+001
 20
-1.1426542E+001
 11
2.2E+001
 21
-1.1426542E+001
  0
LINE
  8
108
  6
CONTINUOUS
 62
1
 10
-2.2E+001
 20
-1.1426542E+001
 11
-2.5E+001
 21
-1.1426542E+001
  0
LINE
  8
108
  6
CONTINUOUS
 62
1
 10
-2.5E+001
 20
-1.1276548E+001
 11
-2.2E+001
 21
-1.1276548E+001
  0
LINE
  8
108
  6
CONTINUOUS
 62
1
 10
2.2E+001
 20
-1.1276548E+001
 11
2.5E+001
 21
-1.1276548E+001
  0
LINE
  8
108
  6
CONTINUOUS
 62
1
 10
2.5E+001
 20
-1.1126524E+001
 11
2.2E+001
 21
-1.1126524E+001
  0
LINE
  8
108
  6
CONTINUOUS
 62
1
 10
-2.2E+001
 20
-1.1126524E+001
 11
-2.5E+001
 21
-1.1126524E+001
  0
LINE
  8
108
  6
CONTINUOUS
 62
1
 10
-2.5E+001
 20
-1.097653E+001
 11
-2.2E+001
 21
-1.097653E+001
  0
LINE
  8
108
  6
CONTINUOUS
 62
1
 10
2.2E+001
 20
-1.097653E+001
 11
2.5E+001
 21
-1.097653E+001
  0
LINE
  8
108
  6
CONTINUOUS
 62
1
 10
2.5E+001
 20
-1.0826536E+001
 11
2.2E+001
 21
-1.0826536E+001
  0
LINE
  8
108
  6
CONTINUOUS
 62
1
 10
-2.2E+001
 20
-1.0826536E+001
 11
-2.5E+001
 21
-1.0826536E+001
  0
LINE
  8
108
  6
CONTINUOUS
 62
1
 10
-2.5E+001
 20
-1.0676542E+001
 11
-2.2E+001
 21
-1.0676542E+001
  0
LINE
  8
108
  6
CONTINUOUS
 62
1
 10
2.2E+001
 20
-1.0676542E+001
 11
2.5E+001
 21
-1.0676542E+001
  0
LINE
  8
108
  6
CONTINUOUS
 62
1
 10
2.5E+001
 20
-1.0526548E+001
 11
2.2E+001
 21
-1.0526548E+001
  0
LINE
  8
108
  6
CONTINUOUS
 62
1
 10
-2.2E+001
 20
-1.0526548E+001
 11
-2.5E+001
 21
-1.0526548E+001
  0
LINE
  8
108
  6
CONTINUOUS
 62
1
 10
-2.5E+001
 20
-1.0376524E+001
 11
-2.2E+001
 21
-1.0376524E+001
  0
LINE
  8
108
  6
CONTINUOUS
 62
1
 10
2.2E+001
 20
-1.0376524E+001
 11
2.5E+001
 21
-1.0376524E+001
  0
LINE
  8
108
  6
CONTINUOUS
 62
1
 10
2.5E+001
 20
-1.022653E+001
 11
2.2E+001
 21
-1.022653E+001
  0
LINE
  8
108
  6
CONTINUOUS
 62
1
 10
-2.2E+001
 20
-1.022653E+001
 11
-2.5E+001
 21
-1.022653E+001
  0
LINE
  8
108
  6
CONTINUOUS
 62
1
 10
-2.5E+001
 20
-1.0076536E+001
 11
-2.2E+001
 21
-1.0076536E+001
  0
LINE
  8
108
  6
CONTINUOUS
 62
1
 10
2.2E+001
 20
-1.0076536E+001
 11
2.5E+001
 21
-1.0076536E+001
  0
LINE
  8
108
  6
CONTINUOUS
 62
1
 10
2.5E+001
 20
-9.9265423
 11
2.2E+001
 21
-9.9265423
  0
LINE
  8
108
  6
CONTINUOUS
 62
1
 10
-2.2E+001
 20
-9.9265423
 11
-2.5E+001
 21
-9.9265423
  0
LINE
  8
108
  6
CONTINUOUS
 62
1
 10
-2.5E+001
 20
-9.7765483
 11
-2.2E+001
 21
-9.7765483
  0
LINE
  8
108
  6
CONTINUOUS
 62
1
 10
2.2E+001
 20
-9.7765483
 11
2.5E+001
 21
-9.7765483
  0
LINE
  8
108
  6
CONTINUOUS
 62
1
 10
2.5E+001
 20
-9.6265243
 11
2.2E+001
 21
-9.6265243
  0
LINE
  8
108
  6
CONTINUOUS
 62
1
 10
-2.2E+001
 20
-9.6265243
 11
-2.5E+001
 21
-9.6265243
  0
LINE
  8
108
  6
CONTINUOUS
 62
1
 10
-2.5E+001
 20
-9.4765303
 11
-2.2E+001
 21
-9.4765303
  0
LINE
  8
108
  6
CONTINUOUS
 62
1
 10
2.2E+001
 20
-9.4765303
 11
2.5E+001
 21
-9.4765303
  0
LINE
  8
108
  6
CONTINUOUS
 62
1
 10
2.5E+001
 20
-9.3265363
 11
2.2E+001
 21
-9.3265363
  0
LINE
  8
108
  6
CONTINUOUS
 62
1
 10
-2.2E+001
 20
-9.3265363
 11
-2.5E+001
 21
-9.3265363
  0
LINE
  8
108
  6
CONTINUOUS
 62
1
 10
-2.5E+001
 20
-9.1765423
 11
-2.2E+001
 21
-9.1765423
  0
LINE
  8
108
  6
CONTINUOUS
 62
1
 10
2.2E+001
 20
-9.1765423
 11
2.5E+001
 21
-9.1765423
  0
LINE
  8
108
  6
CONTINUOUS
 62
1
 10
2.5E+001
 20
-9.0265483
 11
2.2E+001
 21
-9.0265483
  0
LINE
  8
108
  6
CONTINUOUS
 62
1
 10
-2.2E+001
 20
-9.0265483
 11
-2.5E+001
 21
-9.0265483
  0
LINE
  8
108
  6
CONTINUOUS
 62
1
 10
-2.5E+001
 20
-8.8765243
 11
-2.2E+001
 21
-8.8765243
  0
LINE
  8
108
  6
CONTINUOUS
 62
1
 10
2.2E+001
 20
-8.8765243
 11
2.5E+001
 21
-8.8765243
  0
LINE
  8
108
  6
CONTINUOUS
 62
1
 10
2.5E+001
 20
-8.7265303
 11
2.2E+001
 21
-8.7265303
  0
LINE
  8
108
  6
CONTINUOUS
 62
1
 10
-2.2E+001
 20
-8.7265303
 11
-2.5E+001
 21
-8.7265303
  0
LINE
  8
108
  6
CONTINUOUS
 62
1
 10
-2.5E+001
 20
-8.5765363
 11
-2.2E+001
 21
-8.5765363
  0
LINE
  8
108
  6
CONTINUOUS
 62
1
 10
2.2E+001
 20
-8.5765363
 11
2.5E+001
 21
-8.5765363
  0
LINE
  8
108
  6
CONTINUOUS
 62
1
 10
2.5E+001
 20
-8.4265423
 11
2.2E+001
 21
-8.4265423
  0
LINE
  8
108
  6
CONTINUOUS
 62
1
 10
-2.2E+001
 20
-8.4265423
 11
-2.5E+001
 21
-8.4265423
  0
LINE
  8
108
  6
CONTINUOUS
 62
1
 10
-2.5E+001
 20
-8.2765483
 11
-2.2E+001
 21
-8.2765483
  0
LINE
  8
108
  6
CONTINUOUS
 62
1
 10
2.2E+001
 20
-8.2765483
 11
2.5E+001
 21
-8.2765483
  0
LINE
  8
108
  6
CONTINUOUS
 62
1
 10
2.5E+001
 20
-8.1265243
 11
2.2E+001
 21
-8.1265243
  0
LINE
  8
108
  6
CONTINUOUS
 62
1
 10
-2.2E+001
 20
-8.1265243
 11
-2.5E+001
 21
-8.1265243
  0
LINE
  8
108
  6
CONTINUOUS
 62
1
 10
-2.5E+001
 20
-7.9765303
 11
-2.2E+001
 21
-7.9765303
  0
LINE
  8
108
  6
CONTINUOUS
 62
1
 10
2.2E+001
 20
-7.9765303
 11
2.5E+001
 21
-7.9765303
  0
LINE
  8
108
  6
CONTINUOUS
 62
1
 10
2.5E+001
 20
-7.8265363
 11
2.2E+001
 21
-7.8265363
  0
LINE
  8
108
  6
CONTINUOUS
 62
1
 10
-2.2E+001
 20
-7.8265363
 11
-2.5E+001
 21
-7.8265363
  0
LINE
  8
108
  6
CONTINUOUS
 62
1
 10
-2.5E+001
 20
-7.6765423
 11
-2.2E+001
 21
-7.6765423
  0
LINE
  8
108
  6
CONTINUOUS
 62
1
 10
2.2E+001
 20
-7.6765423
 11
2.5E+001
 21
-7.6765423
  0
LINE
  8
108
  6
CONTINUOUS
 62
1
 10
2.5E+001
 20
-7.5265483
 11
2.2E+001
 21
-7.5265483
  0
LINE
  8
108
  6
CONTINUOUS
 62
1
 10
-2.2E+001
 20
-7.5265483
 11
-2.5E+001
 21
-7.5265483
  0
LINE
  8
108
  6
CONTINUOUS
 62
1
 10
-2.5E+001
 20
-7.3765243
 11
-2.2E+001
 21
-7.3765243
  0
LINE
  8
108
  6
CONTINUOUS
 62
1
 10
2.2E+001
 20
-7.3765243
 11
2.5E+001
 21
-7.3765243
  0
LINE
  8
108
  6
CONTINUOUS
 62
1
 10
2.5E+001
 20
-7.2265303
 11
2.2E+001
 21
-7.2265303
  0
LINE
  8
108
  6
CONTINUOUS
 62
1
 10
-2.2E+001
 20
-7.2265303
 11
-2.5E+001
 21
-7.2265303
  0
LINE
  8
108
  6
CONTINUOUS
 62
1
 10
-2.5E+001
 20
-7.0765363
 11
-2.2E+001
 21
-7.0765363
  0
LINE
  8
108
  6
CONTINUOUS
 62
1
 10
2.2E+001
 20
-7.0765363
 11
2.5E+001
 21
-7.0765363
  0
LINE
  8
108
  6
CONTINUOUS
 62
1
 10
2.5E+001
 20
-6.9265423
 11
2.2E+001
 21
-6.9265423
  0
LINE
  8
108
  6
CONTINUOUS
 62
1
 10
-2.2E+001
 20
-6.9265423
 11
-2.5E+001
 21
-6.9265423
  0
LINE
  8
108
  6
CONTINUOUS
 62
1
 10
-2.5E+001
 20
-6.7765483
 11
-2.2E+001
 21
-6.7765483
  0
LINE
  8
108
  6
CONTINUOUS
 62
1
 10
2.2E+001
 20
-6.7765483
 11
2.5E+001
 21
-6.7765483
  0
LINE
  8
108
  6
CONTINUOUS
 62
1
 10
2.5E+001
 20
-6.6265243
 11
2.2E+001
 21
-6.6265243
  0
LINE
  8
108
  6
CONTINUOUS
 62
1
 10
-2.2E+001
 20
-6.6265243
 11
-2.5E+001
 21
-6.6265243
  0
LINE
  8
108
  6
CONTINUOUS
 62
1
 10
-2.5E+001
 20
-6.4765303
 11
-2.2E+001
 21
-6.4765303
  0
LINE
  8
108
  6
CONTINUOUS
 62
1
 10
2.2E+001
 20
-6.4765303
 11
2.5E+001
 21
-6.4765303
  0
LINE
  8
108
  6
CONTINUOUS
 62
1
 10
2.5E+001
 20
-6.3265363
 11
2.2E+001
 21
-6.3265363
  0
LINE
  8
108
  6
CONTINUOUS
 62
1
 10
-2.2E+001
 20
-6.3265363
 11
-2.5E+001
 21
-6.3265363
  0
LINE
  8
108
  6
CONTINUOUS
 62
1
 10
-2.5E+001
 20
-6.1765423
 11
-2.2E+001
 21
-6.1765423
  0
LINE
  8
108
  6
CONTINUOUS
 62
1
 10
2.2E+001
 20
-6.1765423
 11
2.5E+001
 21
-6.1765423
  0
LINE
  8
108
  6
CONTINUOUS
 62
1
 10
2.5E+001
 20
-6.0265483
 11
2.2E+001
 21
-6.0265483
  0
LINE
  8
108
  6
CONTINUOUS
 62
1
 10
-2.2E+001
 20
-6.0265483
 11
-2.5E+001
 21
-6.0265483
  0
LINE
  8
108
  6
CONTINUOUS
 62
1
 10
-2.5E+001
 20
-5.8765243
 11
-2.2E+001
 21
-5.8765243
  0
LINE
  8
108
  6
CONTINUOUS
 62
1
 10
2.2E+001
 20
-5.8765243
 11
2.5E+001
 21
-5.8765243
  0
LINE
  8
108
  6
CONTINUOUS
 62
1
 10
2.5E+001
 20
-5.7265303
 11
2.2E+001
 21
-5.7265303
  0
LINE
  8
108
  6
CONTINUOUS
 62
1
 10
-2.2E+001
 20
-5.7265303
 11
-2.5E+001
 21
-5.7265303
  0
LINE
  8
108
  6
CONTINUOUS
 62
1
 10
-2.5E+001
 20
-5.5765363
 11
-2.2E+001
 21
-5.5765363
  0
LINE
  8
108
  6
CONTINUOUS
 62
1
 10
2.2E+001
 20
-5.5765363
 11
2.5E+001
 21
-5.5765363
  0
LINE
  8
108
  6
CONTINUOUS
 62
1
 10
2.5E+001
 20
-5.4265423
 11
2.2E+001
 21
-5.4265423
  0
LINE
  8
108
  6
CONTINUOUS
 62
1
 10
-2.2E+001
 20
-5.4265423
 11
-2.5E+001
 21
-5.4265423
  0
LINE
  8
108
  6
CONTINUOUS
 62
1
 10
-2.5E+001
 20
-5.2765483
 11
-2.2E+001
 21
-5.2765483
  0
LINE
  8
108
  6
CONTINUOUS
 62
1
 10
2.2E+001
 20
-5.2765483
 11
2.5E+001
 21
-5.2765483
  0
LINE
  8
108
  6
CONTINUOUS
 62
1
 10
2.5E+001
 20
-5.1265243
 11
2.2E+001
 21
-5.1265243
  0
LINE
  8
108
  6
CONTINUOUS
 62
1
 10
-2.2E+001
 20
-5.1265243
 11
-2.5E+001
 21
-5.1265243
  0
LINE
  8
108
  6
CONTINUOUS
 62
1
 10
-2.5E+001
 20
-4.9765303
 11
-2.2E+001
 21
-4.9765303
  0
LINE
  8
108
  6
CONTINUOUS
 62
1
 10
2.2E+001
 20
-4.9765303
 11
2.5E+001
 21
-4.9765303
  0
LINE
  8
108
  6
CONTINUOUS
 62
1
 10
2.5E+001
 20
-4.8265363
 11
2.2E+001
 21
-4.8265363
  0
LINE
  8
108
  6
CONTINUOUS
 62
1
 10
-2.2E+001
 20
-4.8265363
 11
-2.5E+001
 21
-4.8265363
  0
LINE
  8
108
  6
CONTINUOUS
 62
1
 10
-2.5E+001
 20
-4.6765423
 11
-2.2E+001
 21
-4.6765423
  0
LINE
  8
108
  6
CONTINUOUS
 62
1
 10
2.2E+001
 20
-4.6765423
 11
2.5E+001
 21
-4.6765423
  0
LINE
  8
108
  6
CONTINUOUS
 62
1
 10
2.5E+001
 20
-4.5265483
 11
2.2E+001
 21
-4.5265483
  0
LINE
  8
108
  6
CONTINUOUS
 62
1
 10
-2.2E+001
 20
-4.5265483
 11
-2.5E+001
 21
-4.5265483
  0
LINE
  8
108
  6
CONTINUOUS
 62
1
 10
-2.5E+001
 20
-4.3765243
 11
-2.2E+001
 21
-4.3765243
  0
LINE
  8
108
  6
CONTINUOUS
 62
1
 10
2.2E+001
 20
-4.3765243
 11
2.5E+001
 21
-4.3765243
  0
LINE
  8
108
  6
CONTINUOUS
 62
1
 10
2.5E+001
 20
-4.2265303
 11
2.2E+001
 21
-4.2265303
  0
LINE
  8
108
  6
CONTINUOUS
 62
1
 10
-2.2E+001
 20
-4.2265303
 11
-2.5E+001
 21
-4.2265303
  0
LINE
  8
108
  6
CONTINUOUS
 62
1
 10
-2.5E+001
 20
-4.0765363
 11
-2.2E+001
 21
-4.0765363
  0
LINE
  8
108
  6
CONTINUOUS
 62
1
 10
2.2E+001
 20
-4.0765363
 11
2.5E+001
 21
-4.0765363
  0
LINE
  8
108
  6
CONTINUOUS
 62
1
 10
2.5E+001
 20
-3.9265423
 11
2.2E+001
 21
-3.9265423
  0
LINE
  8
108
  6
CONTINUOUS
 62
1
 10
-2.2E+001
 20
-3.9265423
 11
-2.5E+001
 21
-3.9265423
  0
LINE
  8
108
  6
CONTINUOUS
 62
1
 10
-2.5E+001
 20
-3.7765483
 11
-2.2E+001
 21
-3.7765483
  0
LINE
  8
108
  6
CONTINUOUS
 62
1
 10
2.2E+001
 20
-3.7765483
 11
2.5E+001
 21
-3.7765483
  0
LINE
  8
108
  6
CONTINUOUS
 62
1
 10
2.5E+001
 20
-3.6265243
 11
2.2E+001
 21
-3.6265243
  0
LINE
  8
108
  6
CONTINUOUS
 62
1
 10
-2.2E+001
 20
-3.6265243
 11
-2.5E+001
 21
-3.6265243
  0
LINE
  8
108
  6
CONTINUOUS
 62
1
 10
-2.5E+001
 20
-3.4765303
 11
-2.2E+001
 21
-3.4765303
  0
LINE
  8
108
  6
CONTINUOUS
 62
1
 10
2.2E+001
 20
-3.4765303
 11
2.5E+001
 21
-3.4765303
  0
LINE
  8
108
  6
CONTINUOUS
 62
1
 10
2.5E+001
 20
-3.3265363
 11
2.2E+001
 21
-3.3265363
  0
LINE
  8
108
  6
CONTINUOUS
 62
1
 10
-2.2E+001
 20
-3.3265363
 11
-2.5E+001
 21
-3.3265363
  0
LINE
  8
108
  6
CONTINUOUS
 62
1
 10
-2.5E+001
 20
-3.1765423
 11
-2.2E+001
 21
-3.1765423
  0
LINE
  8
108
  6
CONTINUOUS
 62
1
 10
2.2E+001
 20
-3.1765423
 11
2.5E+001
 21
-3.1765423
  0
LINE
  8
108
  6
CONTINUOUS
 62
1
 10
2.5E+001
 20
-3.0265483
 11
2.2E+001
 21
-3.0265483
  0
LINE
  8
108
  6
CONTINUOUS
 62
1
 10
-2.2E+001
 20
-3.0265483
 11
-2.5E+001
 21
-3.0265483
  0
LINE
  8
108
  6
CONTINUOUS
 62
1
 10
-2.5E+001
 20
-2.8765243
 11
2.5E+001
 21
-2.8765243
  0
LINE
  8
108
  6
CONTINUOUS
 62
1
 10
2.5E+001
 20
-2.7265303
 11
-2.5E+001
 21
-2.7265303
  0
LINE
  8
108
  6
CONTINUOUS
 62
1
 10
-2.5E+001
 20
-2.5765363
 11
2.5E+001
 21
-2.5765363
  0
LINE
  8
108
  6
CONTINUOUS
 62
1
 10
2.5E+001
 20
-2.4265423
 11
-2.5E+001
 21
-2.4265423
  0
LINE
  8
108
  6
CONTINUOUS
 62
1
 10
-2.5E+001
 20
-2.2765483
 11
2.5E+001
 21
-2.2765483
  0
LINE
  8
108
  6
CONTINUOUS
 62
1
 10
2.5E+001
 20
-2.1265243
 11
-2.5E+001
 21
-2.1265243
  0
LINE
  8
108
  6
CONTINUOUS
 62
1
 10
-2.5E+001
 20
-1.9765303
 11
2.5E+001
 21
-1.9765303
  0
LINE
  8
108
  6
CONTINUOUS
 62
1
 10
2.5E+001
 20
-1.8265363
 11
-2.5E+001
 21
-1.8265363
  0
LINE
  8
108
  6
CONTINUOUS
 62
1
 10
-2.5E+001
 20
-1.6765423
 11
2.5E+001
 21
-1.6765423
  0
LINE
  8
108
  6
CONTINUOUS
 62
1
 10
2.5E+001
 20
-1.5265483
 11
-2.5E+001
 21
-1.5265483
  0
LINE
  8
108
  6
CONTINUOUS
 62
1
 10
-2.5E+001
 20
-1.3765243
 11
2.5E+001
 21
-1.3765243
  0
LINE
  8
108
  6
CONTINUOUS
 62
1
 10
2.5E+001
 20
-1.2265303
 11
-2.5E+001
 21
-1.2265303
  0
LINE
  8
108
  6
CONTINUOUS
 62
1
 10
-2.5E+001
 20
-1.0765363
 11
2.5E+001
 21
-1.0765363
  0
LINE
  8
108
  6
CONTINUOUS
 62
1
 10
2.5E+001
 20
-9.2654232E-001
 11
-2.5E+001
 21
-9.2654232E-001
  0
LINE
  8
108
  6
CONTINUOUS
 62
1
 10
-2.5E+001
 20
-7.7654832E-001
 11
2.5E+001
 21
-7.7654832E-001
  0
LINE
  8
108
  6
CONTINUOUS
 62
1
 10
2.5E+001
 20
-6.2652432E-001
 11
-2.5E+001
 21
-6.2652432E-001
  0
LINE
  8
108
  6
CONTINUOUS
 62
1
 10
-2.5E+001
 20
-4.7653032E-001
 11
2.5E+001
 21
-4.7653032E-001
  0
LINE
  8
108
  6
CONTINUOUS
 62
1
 10
2.5E+001
 20
-3.2653632E-001
 11
-2.5E+001
 21
-3.2653632E-001
  0
LINE
  8
108
  6
CONTINUOUS
 62
1
 10
-2.5E+001
 20
-1.7654232E-001
 11
2.5E+001
 21
-1.7654232E-001
  0
LINE
  8
108
  6
CONTINUOUS
 62
1
 10
2.5E+001
 20
-2.6548324E-002
 11
-2.5E+001
 21
-2.6548324E-002
  0
LINE
  8
108
  6
CONTINUOUS
 62
1
 10
-2.5E+001
 20
1.2347568E-001
 11
-2.2E+001
 21
1.2347568E-001
  0
LINE
  8
108
  6
CONTINUOUS
 62
1
 10
2.2E+001
 20
1.2347568E-001
 11
2.5E+001
 21
1.2347568E-001
  0
LINE
  8
108
  6
CONTINUOUS
 62
1
 10
2.5E+001
 20
2.7346968E-001
 11
2.2E+001
 21
2.7346968E-001
  0
LINE
  8
108
  6
CONTINUOUS
 62
1
 10
-2.2E+001
 20
2.7346968E-001
 11
-2.5E+001
 21
2.7346968E-001
  0
LINE
  8
108
  6
CONTINUOUS
 62
1
 10
-2.5E+001
 20
4.2346368E-001
 11
-2.2E+001
 21
4.2346368E-001
  0
LINE
  8
108
  6
CONTINUOUS
 62
1
 10
2.2E+001
 20
4.2346368E-001
 11
2.5E+001
 21
4.2346368E-001
  0
LINE
  8
108
  6
CONTINUOUS
 62
1
 10
2.5E+001
 20
5.7345768E-001
 11
2.2E+001
 21
5.7345768E-001
  0
LINE
  8
108
  6
CONTINUOUS
 62
1
 10
-2.2E+001
 20
5.7345768E-001
 11
-2.5E+001
 21
5.7345768E-001
  0
LINE
  8
108
  6
CONTINUOUS
 62
1
 10
-2.5E+001
 20
7.2345168E-001
 11
-2.2E+001
 21
7.2345168E-001
  0
LINE
  8
108
  6
CONTINUOUS
 62
1
 10
2.2E+001
 20
7.2345168E-001
 11
2.5E+001
 21
7.2345168E-001
  0
LINE
  8
108
  6
CONTINUOUS
 62
1
 10
2.5E+001
 20
8.7347568E-001
 11
2.2E+001
 21
8.7347568E-001
  0
LINE
  8
108
  6
CONTINUOUS
 62
1
 10
-2.2E+001
 20
8.7347568E-001
 11
-2.5E+001
 21
8.7347568E-001
  0
LINE
  8
108
  6
CONTINUOUS
 62
1
 10
-2.5E+001
 20
1.0234697
 11
-2.2E+001
 21
1.0234697
  0
LINE
  8
108
  6
CONTINUOUS
 62
1
 10
2.2E+001
 20
1.0234697
 11
2.5E+001
 21
1.0234697
  0
LINE
  8
108
  6
CONTINUOUS
 62
1
 10
2.5E+001
 20
1.1734637
 11
2.2E+001
 21
1.1734637
  0
LINE
  8
108
  6
CONTINUOUS
 62
1
 10
-2.2E+001
 20
1.1734637
 11
-2.5E+001
 21
1.1734637
  0
LINE
  8
108
  6
CONTINUOUS
 62
1
 10
-2.5E+001
 20
1.3234577
 11
-2.2E+001
 21
1.3234577
  0
LINE
  8
108
  6
CONTINUOUS
 62
1
 10
2.2E+001
 20
1.3234577
 11
2.5E+001
 21
1.3234577
  0
LINE
  8
108
  6
CONTINUOUS
 62
1
 10
2.5E+001
 20
1.4734517
 11
2.2E+001
 21
1.4734517
  0
LINE
  8
108
  6
CONTINUOUS
 62
1
 10
-2.2E+001
 20
1.4734517
 11
-2.5E+001
 21
1.4734517
  0
LINE
  8
108
  6
CONTINUOUS
 62
1
 10
-2.5E+001
 20
1.6234757
 11
-2.2E+001
 21
1.6234757
  0
LINE
  8
108
  6
CONTINUOUS
 62
1
 10
2.2E+001
 20
1.6234757
 11
2.5E+001
 21
1.6234757
  0
LINE
  8
108
  6
CONTINUOUS
 62
1
 10
2.5E+001
 20
1.7734697
 11
2.2E+001
 21
1.7734697
  0
LINE
  8
108
  6
CONTINUOUS
 62
1
 10
-2.2E+001
 20
1.7734697
 11
-2.5E+001
 21
1.7734697
  0
LINE
  8
108
  6
CONTINUOUS
 62
1
 10
-2.5E+001
 20
1.9234637
 11
-2.2E+001
 21
1.9234637
  0
LINE
  8
108
  6
CONTINUOUS
 62
1
 10
2.2E+001
 20
1.9234637
 11
2.5E+001
 21
1.9234637
  0
LINE
  8
108
  6
CONTINUOUS
 62
1
 10
2.5E+001
 20
2.0734577
 11
2.2E+001
 21
2.0734577
  0
LINE
  8
108
  6
CONTINUOUS
 62
1
 10
-2.2E+001
 20
2.0734577
 11
-2.5E+001
 21
2.0734577
  0
LINE
  8
108
  6
CONTINUOUS
 62
1
 10
-2.5E+001
 20
2.2234517
 11
-2.2E+001
 21
2.2234517
  0
LINE
  8
108
  6
CONTINUOUS
 62
1
 10
2.2E+001
 20
2.2234517
 11
2.5E+001
 21
2.2234517
  0
LINE
  8
108
  6
CONTINUOUS
 62
1
 10
2.5E+001
 20
2.3734757
 11
2.2E+001
 21
2.3734757
  0
LINE
  8
108
  6
CONTINUOUS
 62
1
 10
-2.2E+001
 20
2.3734757
 11
-2.5E+001
 21
2.3734757
  0
LINE
  8
108
  6
CONTINUOUS
 62
1
 10
-2.5E+001
 20
2.5234697
 11
-2.2E+001
 21
2.5234697
  0
LINE
  8
108
  6
CONTINUOUS
 62
1
 10
2.2E+001
 20
2.5234697
 11
2.5E+001
 21
2.5234697
  0
LINE
  8
108
  6
CONTINUOUS
 62
1
 10
2.5E+001
 20
2.6734637
 11
2.2E+001
 21
2.6734637
  0
LINE
  8
108
  6
CONTINUOUS
 62
1
 10
-2.2E+001
 20
2.6734637
 11
-2.5E+001
 21
2.6734637
  0
LINE
  8
108
  6
CONTINUOUS
 62
1
 10
-2.5E+001
 20
2.8234577
 11
-2.2E+001
 21
2.8234577
  0
LINE
  8
108
  6
CONTINUOUS
 62
1
 10
2.2E+001
 20
2.8234577
 11
2.5E+001
 21
2.8234577
  0
LINE
  8
108
  6
CONTINUOUS
 62
1
 10
2.5E+001
 20
2.9734517
 11
2.2E+001
 21
2.9734517
  0
LINE
  8
108
  6
CONTINUOUS
 62
1
 10
-2.2E+001
 20
2.9734517
 11
-2.5E+001
 21
2.9734517
  0
LINE
  8
108
  6
CONTINUOUS
 62
1
 10
-2.5E+001
 20
3.1234757
 11
-2.2E+001
 21
3.1234757
  0
LINE
  8
108
  6
CONTINUOUS
 62
1
 10
2.2E+001
 20
3.1234757
 11
2.5E+001
 21
3.1234757
  0
LINE
  8
108
  6
CONTINUOUS
 62
1
 10
2.5E+001
 20
3.2734697
 11
2.2E+001
 21
3.2734697
  0
LINE
  8
108
  6
CONTINUOUS
 62
1
 10
-2.2E+001
 20
3.2734697
 11
-2.5E+001
 21
3.2734697
  0
LINE
  8
108
  6
CONTINUOUS
 62
1
 10
-2.5E+001
 20
3.4234637
 11
-2.2E+001
 21
3.4234637
  0
LINE
  8
108
  6
CONTINUOUS
 62
1
 10
2.2E+001
 20
3.4234637
 11
2.5E+001
 21
3.4234637
  0
LINE
  8
108
  6
CONTINUOUS
 62
1
 10
2.5E+001
 20
3.5734577
 11
2.2E+001
 21
3.5734577
  0
LINE
  8
108
  6
CONTINUOUS
 62
1
 10
-2.2E+001
 20
3.5734577
 11
-2.5E+001
 21
3.5734577
  0
LINE
  8
108
  6
CONTINUOUS
 62
1
 10
-2.5E+001
 20
3.7234517
 11
-2.2E+001
 21
3.7234517
  0
LINE
  8
108
  6
CONTINUOUS
 62
1
 10
2.2E+001
 20
3.7234517
 11
2.5E+001
 21
3.7234517
  0
LINE
  8
108
  6
CONTINUOUS
 62
1
 10
2.5E+001
 20
3.8734757
 11
2.2E+001
 21
3.8734757
  0
LINE
  8
108
  6
CONTINUOUS
 62
1
 10
-2.2E+001
 20
3.8734757
 11
-2.5E+001
 21
3.8734757
  0
LINE
  8
108
  6
CONTINUOUS
 62
1
 10
-2.5E+001
 20
4.0234697
 11
-2.2E+001
 21
4.0234697
  0
LINE
  8
108
  6
CONTINUOUS
 62
1
 10
2.2E+001
 20
4.0234697
 11
2.5E+001
 21
4.0234697
  0
LINE
  8
108
  6
CONTINUOUS
 62
1
 10
2.5E+001
 20
4.1734637
 11
2.2E+001
 21
4.1734637
  0
LINE
  8
108
  6
CONTINUOUS
 62
1
 10
-2.2E+001
 20
4.1734637
 11
-2.5E+001
 21
4.1734637
  0
LINE
  8
108
  6
CONTINUOUS
 62
1
 10
-2.5E+001
 20
4.3234577
 11
-2.2E+001
 21
4.3234577
  0
LINE
  8
108
  6
CONTINUOUS
 62
1
 10
2.2E+001
 20
4.3234577
 11
2.5E+001
 21
4.3234577
  0
LINE
  8
108
  6
CONTINUOUS
 62
1
 10
2.5E+001
 20
4.4734517
 11
2.2E+001
 21
4.4734517
  0
LINE
  8
108
  6
CONTINUOUS
 62
1
 10
-2.2E+001
 20
4.4734517
 11
-2.5E+001
 21
4.4734517
  0
LINE
  8
108
  6
CONTINUOUS
 62
1
 10
-2.5E+001
 20
4.6234757
 11
-2.2E+001
 21
4.6234757
  0
LINE
  8
108
  6
CONTINUOUS
 62
1
 10
2.2E+001
 20
4.6234757
 11
2.5E+001
 21
4.6234757
  0
LINE
  8
108
  6
CONTINUOUS
 62
1
 10
2.5E+001
 20
4.7734697
 11
2.2E+001
 21
4.7734697
  0
LINE
  8
108
  6
CONTINUOUS
 62
1
 10
-2.2E+001
 20
4.7734697
 11
-2.5E+001
 21
4.7734697
  0
LINE
  8
108
  6
CONTINUOUS
 62
1
 10
-2.5E+001
 20
4.9234637
 11
-2.2E+001
 21
4.9234637
  0
LINE
  8
108
  6
CONTINUOUS
 62
1
 10
2.2E+001
 20
4.9234637
 11
2.5E+001
 21
4.9234637
  0
LINE
  8
108
  6
CONTINUOUS
 62
1
 10
2.5E+001
 20
5.0734577
 11
2.2E+001
 21
5.0734577
  0
LINE
  8
108
  6
CONTINUOUS
 62
1
 10
-2.2E+001
 20
5.0734577
 11
-2.5E+001
 21
5.0734577
  0
LINE
  8
108
  6
CONTINUOUS
 62
1
 10
-2.5E+001
 20
5.2234517
 11
-2.2E+001
 21
5.2234517
  0
LINE
  8
108
  6
CONTINUOUS
 62
1
 10
2.2E+001
 20
5.2234517
 11
2.5E+001
 21
5.2234517
  0
LINE
  8
108
  6
CONTINUOUS
 62
1
 10
2.5E+001
 20
5.3734757
 11
2.2E+001
 21
5.3734757
  0
LINE
  8
108
  6
CONTINUOUS
 62
1
 10
-2.2E+001
 20
5.3734757
 11
-2.5E+001
 21
5.3734757
  0
LINE
  8
108
  6
CONTINUOUS
 62
1
 10
-2.5E+001
 20
5.5234697
 11
-2.2E+001
 21
5.5234697
  0
LINE
  8
108
  6
CONTINUOUS
 62
1
 10
2.2E+001
 20
5.5234697
 11
2.5E+001
 21
5.5234697
  0
LINE
  8
108
  6
CONTINUOUS
 62
1
 10
2.5E+001
 20
5.6734637
 11
2.2E+001
 21
5.6734637
  0
LINE
  8
108
  6
CONTINUOUS
 62
1
 10
-2.2E+001
 20
5.6734637
 11
-2.5E+001
 21
5.6734637
  0
LINE
  8
108
  6
CONTINUOUS
 62
1
 10
-2.5E+001
 20
5.8234577
 11
-2.2E+001
 21
5.8234577
  0
LINE
  8
108
  6
CONTINUOUS
 62
1
 10
2.2E+001
 20
5.8234577
 11
2.5E+001
 21
5.8234577
  0
LINE
  8
108
  6
CONTINUOUS
 62
1
 10
2.5E+001
 20
5.9734517
 11
2.2E+001
 21
5.9734517
  0
LINE
  8
108
  6
CONTINUOUS
 62
1
 10
-2.2E+001
 20
5.9734517
 11
-2.5E+001
 21
5.9734517
  0
LINE
  8
108
  6
CONTINUOUS
 62
1
 10
-2.5E+001
 20
6.1234757
 11
-2.2E+001
 21
6.1234757
  0
LINE
  8
108
  6
CONTINUOUS
 62
1
 10
2.2E+001
 20
6.1234757
 11
2.5E+001
 21
6.1234757
  0
LINE
  8
108
  6
CONTINUOUS
 62
1
 10
2.5E+001
 20
6.2734697
 11
2.2E+001
 21
6.2734697
  0
LINE
  8
108
  6
CONTINUOUS
 62
1
 10
-2.2E+001
 20
6.2734697
 11
-2.5E+001
 21
6.2734697
  0
LINE
  8
108
  6
CONTINUOUS
 62
1
 10
-2.5E+001
 20
6.4234637
 11
-2.2E+001
 21
6.4234637
  0
LINE
  8
108
  6
CONTINUOUS
 62
1
 10
2.2E+001
 20
6.4234637
 11
2.5E+001
 21
6.4234637
  0
LINE
  8
108
  6
CONTINUOUS
 62
1
 10
2.5E+001
 20
6.5734577
 11
2.2E+001
 21
6.5734577
  0
LINE
  8
108
  6
CONTINUOUS
 62
1
 10
-2.2E+001
 20
6.5734577
 11
-2.5E+001
 21
6.5734577
  0
LINE
  8
108
  6
CONTINUOUS
 62
1
 10
-2.5E+001
 20
6.7234517
 11
-2.2E+001
 21
6.7234517
  0
LINE
  8
108
  6
CONTINUOUS
 62
1
 10
2.2E+001
 20
6.7234517
 11
2.5E+001
 21
6.7234517
  0
LINE
  8
108
  6
CONTINUOUS
 62
1
 10
2.5E+001
 20
6.8734757
 11
2.2E+001
 21
6.8734757
  0
LINE
  8
108
  6
CONTINUOUS
 62
1
 10
-2.2E+001
 20
6.8734757
 11
-2.5E+001
 21
6.8734757
  0
LINE
  8
108
  6
CONTINUOUS
 62
1
 10
-2.5E+001
 20
7.0234697
 11
-2.2E+001
 21
7.0234697
  0
LINE
  8
108
  6
CONTINUOUS
 62
1
 10
2.2E+001
 20
7.0234697
 11
2.5E+001
 21
7.0234697
  0
LINE
  8
108
  6
CONTINUOUS
 62
1
 10
2.5E+001
 20
7.1734637
 11
2.2E+001
 21
7.1734637
  0
LINE
  8
108
  6
CONTINUOUS
 62
1
 10
-2.2E+001
 20
7.1734637
 11
-2.5E+001
 21
7.1734637
  0
LINE
  8
108
  6
CONTINUOUS
 62
1
 10
-2.5E+001
 20
7.3234577
 11
-2.2E+001
 21
7.3234577
  0
LINE
  8
108
  6
CONTINUOUS
 62
1
 10
2.2E+001
 20
7.3234577
 11
2.5E+001
 21
7.3234577
  0
LINE
  8
108
  6
CONTINUOUS
 62
1
 10
2.5E+001
 20
7.4734517
 11
2.2E+001
 21
7.4734517
  0
LINE
  8
108
  6
CONTINUOUS
 62
1
 10
-2.2E+001
 20
7.4734517
 11
-2.5E+001
 21
7.4734517
  0
LINE
  8
108
  6
CONTINUOUS
 62
1
 10
-2.5E+001
 20
7.6234757
 11
-2.2E+001
 21
7.6234757
  0
LINE
  8
108
  6
CONTINUOUS
 62
1
 10
2.2E+001
 20
7.6234757
 11
2.5E+001
 21
7.6234757
  0
LINE
  8
108
  6
CONTINUOUS
 62
1
 10
2.5E+001
 20
7.7734697
 11
2.2E+001
 21
7.7734697
  0
LINE
  8
108
  6
CONTINUOUS
 62
1
 10
-2.2E+001
 20
7.7734697
 11
-2.5E+001
 21
7.7734697
  0
LINE
  8
108
  6
CONTINUOUS
 62
1
 10
-2.5E+001
 20
7.9234637
 11
-2.2E+001
 21
7.9234637
  0
LINE
  8
108
  6
CONTINUOUS
 62
1
 10
2.2E+001
 20
7.9234637
 11
2.5E+001
 21
7.9234637
  0
LINE
  8
108
  6
CONTINUOUS
 62
1
 10
2.5E+001
 20
8.0734577
 11
2.2E+001
 21
8.0734577
  0
LINE
  8
108
  6
CONTINUOUS
 62
1
 10
-2.2E+001
 20
8.0734577
 11
-2.5E+001
 21
8.0734577
  0
LINE
  8
108
  6
CONTINUOUS
 62
1
 10
-2.5E+001
 20
8.2234517
 11
-2.2E+001
 21
8.2234517
  0
LINE
  8
108
  6
CONTINUOUS
 62
1
 10
2.2E+001
 20
8.2234517
 11
2.5E+001
 21
8.2234517
  0
LINE
  8
108
  6
CONTINUOUS
 62
1
 10
2.5E+001
 20
8.3734757
 11
2.2E+001
 21
8.3734757
  0
LINE
  8
108
  6
CONTINUOUS
 62
1
 10
-2.2E+001
 20
8.3734757
 11
-2.5E+001
 21
8.3734757
  0
LINE
  8
108
  6
CONTINUOUS
 62
1
 10
-2.5E+001
 20
8.5234697
 11
-2.2E+001
 21
8.5234697
  0
LINE
  8
108
  6
CONTINUOUS
 62
1
 10
2.2E+001
 20
8.5234697
 11
2.5E+001
 21
8.5234697
  0
LINE
  8
108
  6
CONTINUOUS
 62
1
 10
2.5E+001
 20
8.6734637
 11
2.2E+001
 21
8.6734637
  0
LINE
  8
108
  6
CONTINUOUS
 62
1
 10
-2.2E+001
 20
8.6734637
 11
-2.5E+001
 21
8.6734637
  0
LINE
  8
108
  6
CONTINUOUS
 62
1
 10
-2.5E+001
 20
8.8234577
 11
-2.2E+001
 21
8.8234577
  0
LINE
  8
108
  6
CONTINUOUS
 62
1
 10
2.2E+001
 20
8.8234577
 11
2.5E+001
 21
8.8234577
  0
LINE
  8
108
  6
CONTINUOUS
 62
1
 10
2.5E+001
 20
8.9734517
 11
2.2E+001
 21
8.9734517
  0
LINE
  8
108
  6
CONTINUOUS
 62
1
 10
-2.2E+001
 20
8.9734517
 11
-2.5E+001
 21
8.9734517
  0
LINE
  8
108
  6
CONTINUOUS
 62
1
 10
-2.5E+001
 20
9.1234757
 11
-2.2E+001
 21
9.1234757
  0
LINE
  8
108
  6
CONTINUOUS
 62
1
 10
2.2E+001
 20
9.1234757
 11
2.5E+001
 21
9.1234757
  0
LINE
  8
108
  6
CONTINUOUS
 62
1
 10
2.5E+001
 20
9.2734697
 11
2.2E+001
 21
9.2734697
  0
LINE
  8
108
  6
CONTINUOUS
 62
1
 10
-2.2E+001
 20
9.2734697
 11
-2.5E+001
 21
9.2734697
  0
LINE
  8
108
  6
CONTINUOUS
 62
1
 10
-2.5E+001
 20
9.4234637
 11
-2.2E+001
 21
9.4234637
  0
LINE
  8
108
  6
CONTINUOUS
 62
1
 10
2.2E+001
 20
9.4234637
 11
2.5E+001
 21
9.4234637
  0
LINE
  8
108
  6
CONTINUOUS
 62
1
 10
2.5E+001
 20
9.5734577
 11
2.2E+001
 21
9.5734577
  0
LINE
  8
108
  6
CONTINUOUS
 62
1
 10
-2.2E+001
 20
9.5734577
 11
-2.5E+001
 21
9.5734577
  0
LINE
  8
108
  6
CONTINUOUS
 62
1
 10
-2.5E+001
 20
9.7234517
 11
-2.2E+001
 21
9.7234517
  0
LINE
  8
108
  6
CONTINUOUS
 62
1
 10
2.2E+001
 20
9.7234517
 11
2.5E+001
 21
9.7234517
  0
LINE
  8
108
  6
CONTINUOUS
 62
1
 10
2.5E+001
 20
9.8734757
 11
2.2E+001
 21
9.8734757
  0
LINE
  8
108
  6
CONTINUOUS
 62
1
 10
-2.2E+001
 20
9.8734757
 11
-2.5E+001
 21
9.8734757
  0
LINE
  8
108
  6
CONTINUOUS
 62
1
 10
-2.5E+001
 20
1.002347E+001
 11
-2.2E+001
 21
1.002347E+001
  0
LINE
  8
108
  6
CONTINUOUS
 62
1
 10
2.2E+001
 20
1.002347E+001
 11
2.5E+001
 21
1.002347E+001
  0
LINE
  8
108
  6
CONTINUOUS
 62
1
 10
2.5E+001
 20
1.0173464E+001
 11
2.2E+001
 21
1.0173464E+001
  0
LINE
  8
108
  6
CONTINUOUS
 62
1
 10
-2.2E+001
 20
1.0173464E+001
 11
-2.5E+001
 21
1.0173464E+001
  0
LINE
  8
108
  6
CONTINUOUS
 62
1
 10
-2.5E+001
 20
1.0323458E+001
 11
-2.2E+001
 21
1.0323458E+001
  0
LINE
  8
108
  6
CONTINUOUS
 62
1
 10
2.2E+001
 20
1.0323458E+001
 11
2.5E+001
 21
1.0323458E+001
  0
LINE
  8
108
  6
CONTINUOUS
 62
1
 10
2.5E+001
 20
1.0473452E+001
 11
2.2E+001
 21
1.0473452E+001
  0
LINE
  8
108
  6
CONTINUOUS
 62
1
 10
-2.2E+001
 20
1.0473452E+001
 11
-2.5E+001
 21
1.0473452E+001
  0
LINE
  8
108
  6
CONTINUOUS
 62
1
 10
-2.5E+001
 20
1.0623476E+001
 11
-2.2E+001
 21
1.0623476E+001
  0
LINE
  8
108
  6
CONTINUOUS
 62
1
 10
2.2E+001
 20
1.0623476E+001
 11
2.5E+001
 21
1.0623476E+001
  0
LINE
  8
108
  6
CONTINUOUS
 62
1
 10
2.5E+001
 20
1.077347E+001
 11
2.2E+001
 21
1.077347E+001
  0
LINE
  8
108
  6
CONTINUOUS
 62
1
 10
-2.2E+001
 20
1.077347E+001
 11
-2.5E+001
 21
1.077347E+001
  0
LINE
  8
108
  6
CONTINUOUS
 62
1
 10
-2.5E+001
 20
1.0923464E+001
 11
-2.2E+001
 21
1.0923464E+001
  0
LINE
  8
108
  6
CONTINUOUS
 62
1
 10
2.2E+001
 20
1.0923464E+001
 11
2.5E+001
 21
1.0923464E+001
  0
LINE
  8
108
  6
CONTINUOUS
 62
1
 10
2.5E+001
 20
1.1073458E+001
 11
2.2E+001
 21
1.1073458E+001
  0
LINE
  8
108
  6
CONTINUOUS
 62
1
 10
-2.2E+001
 20
1.1073458E+001
 11
-2.5E+001
 21
1.1073458E+001
  0
LINE
  8
108
  6
CONTINUOUS
 62
1
 10
-2.5E+001
 20
1.1223452E+001
 11
-2.2E+001
 21
1.1223452E+001
  0
LINE
  8
108
  6
CONTINUOUS
 62
1
 10
2.2E+001
 20
1.1223452E+001
 11
2.5E+001
 21
1.1223452E+001
  0
LINE
  8
108
  6
CONTINUOUS
 62
1
 10
2.5E+001
 20
1.1373476E+001
 11
2.2E+001
 21
1.1373476E+001
  0
LINE
  8
108
  6
CONTINUOUS
 62
1
 10
-2.2E+001
 20
1.1373476E+001
 11
-2.5E+001
 21
1.1373476E+001
  0
LINE
  8
108
  6
CONTINUOUS
 62
1
 10
-2.5E+001
 20
1.152347E+001
 11
-2.2E+001
 21
1.152347E+001
  0
LINE
  8
108
  6
CONTINUOUS
 62
1
 10
2.2E+001
 20
1.152347E+001
 11
2.5E+001
 21
1.152347E+001
  0
LINE
  8
108
  6
CONTINUOUS
 62
1
 10
2.5E+001
 20
1.1673464E+001
 11
2.2E+001
 21
1.1673464E+001
  0
LINE
  8
108
  6
CONTINUOUS
 62
1
 10
-2.2E+001
 20
1.1673464E+001
 11
-2.5E+001
 21
1.1673464E+001
  0
LINE
  8
108
  6
CONTINUOUS
 62
1
 10
-2.5E+001
 20
1.1823458E+001
 11
-2.2E+001
 21
1.1823458E+001
  0
LINE
  8
108
  6
CONTINUOUS
 62
1
 10
2.2E+001
 20
1.1823458E+001
 11
2.5E+001
 21
1.1823458E+001
  0
LINE
  8
108
  6
CONTINUOUS
 62
1
 10
2.5E+001
 20
1.1973452E+001
 11
2.2E+001
 21
1.1973452E+001
  0
LINE
  8
108
  6
CONTINUOUS
 62
1
 10
-2.2E+001
 20
1.1973452E+001
 11
-2.5E+001
 21
1.1973452E+001
  0
LINE
  8
108
  6
CONTINUOUS
 62
1
 10
-2.5E+001
 20
1.2123476E+001
 11
-2.2E+001
 21
1.2123476E+001
  0
LINE
  8
108
  6
CONTINUOUS
 62
1
 10
2.2E+001
 20
1.2123476E+001
 11
2.5E+001
 21
1.2123476E+001
  0
LINE
  8
108
  6
CONTINUOUS
 62
1
 10
2.5E+001
 20
1.227347E+001
 11
2.2E+001
 21
1.227347E+001
  0
LINE
  8
108
  6
CONTINUOUS
 62
1
 10
-2.2E+001
 20
1.227347E+001
 11
-2.5E+001
 21
1.227347E+001
  0
LINE
  8
108
  6
CONTINUOUS
 62
1
 10
-2.5E+001
 20
1.2423464E+001
 11
-2.2E+001
 21
1.2423464E+001
  0
LINE
  8
108
  6
CONTINUOUS
 62
1
 10
2.2E+001
 20
1.2423464E+001
 11
2.5E+001
 21
1.2423464E+001
  0
LINE
  8
108
  6
CONTINUOUS
 62
1
 10
2.5E+001
 20
1.2573458E+001
 11
2.2E+001
 21
1.2573458E+001
  0
LINE
  8
108
  6
CONTINUOUS
 62
1
 10
-2.2E+001
 20
1.2573458E+001
 11
-2.5E+001
 21
1.2573458E+001
  0
LINE
  8
108
  6
CONTINUOUS
 62
1
 10
-2.5E+001
 20
1.2723452E+001
 11
-2.2E+001
 21
1.2723452E+001
  0
LINE
  8
108
  6
CONTINUOUS
 62
1
 10
2.2E+001
 20
1.2723452E+001
 11
2.5E+001
 21
1.2723452E+001
  0
LINE
  8
108
  6
CONTINUOUS
 62
1
 10
2.5E+001
 20
1.2873476E+001
 11
2.2E+001
 21
1.2873476E+001
  0
LINE
  8
108
  6
CONTINUOUS
 62
1
 10
-2.2E+001
 20
1.2873476E+001
 11
-2.5E+001
 21
1.2873476E+001
  0
LINE
  8
108
  6
CONTINUOUS
 62
1
 10
-2.5E+001
 20
1.302347E+001
 11
-2.2E+001
 21
1.302347E+001
  0
LINE
  8
108
  6
CONTINUOUS
 62
1
 10
2.2E+001
 20
1.302347E+001
 11
2.5E+001
 21
1.302347E+001
  0
LINE
  8
108
  6
CONTINUOUS
 62
1
 10
2.5E+001
 20
1.3173464E+001
 11
2.2E+001
 21
1.3173464E+001
  0
LINE
  8
108
  6
CONTINUOUS
 62
1
 10
-2.2E+001
 20
1.3173464E+001
 11
-2.5E+001
 21
1.3173464E+001
  0
LINE
  8
108
  6
CONTINUOUS
 62
1
 10
-2.5E+001
 20
1.3323458E+001
 11
-2.2E+001
 21
1.3323458E+001
  0
LINE
  8
108
  6
CONTINUOUS
 62
1
 10
2.2E+001
 20
1.3323458E+001
 11
2.5E+001
 21
1.3323458E+001
  0
LINE
  8
108
  6
CONTINUOUS
 62
1
 10
2.5E+001
 20
1.3473452E+001
 11
2.2E+001
 21
1.3473452E+001
  0
LINE
  8
108
  6
CONTINUOUS
 62
1
 10
-2.2E+001
 20
1.3473452E+001
 11
-2.5E+001
 21
1.3473452E+001
  0
LINE
  8
108
  6
CONTINUOUS
 62
1
 10
-2.5E+001
 20
1.3623476E+001
 11
-2.2E+001
 21
1.3623476E+001
  0
LINE
  8
108
  6
CONTINUOUS
 62
1
 10
2.2E+001
 20
1.3623476E+001
 11
2.5E+001
 21
1.3623476E+001
  0
LINE
  8
108
  6
CONTINUOUS
 62
1
 10
2.5E+001
 20
1.377347E+001
 11
2.2E+001
 21
1.377347E+001
  0
LINE
  8
108
  6
CONTINUOUS
 62
1
 10
-2.2E+001
 20
1.377347E+001
 11
-2.5E+001
 21
1.377347E+001
  0
LINE
  8
108
  6
CONTINUOUS
 62
1
 10
-2.5E+001
 20
1.3923464E+001
 11
-2.2E+001
 21
1.3923464E+001
  0
LINE
  8
108
  6
CONTINUOUS
 62
1
 10
2.2E+001
 20
1.3923464E+001
 11
2.5E+001
 21
1.3923464E+001
  0
LINE
  8
108
  6
CONTINUOUS
 62
1
 10
2.5E+001
 20
1.4073458E+001
 11
2.2E+001
 21
1.4073458E+001
  0
LINE
  8
108
  6
CONTINUOUS
 62
1
 10
-2.2E+001
 20
1.4073458E+001
 11
-2.5E+001
 21
1.4073458E+001
  0
LINE
  8
108
  6
CONTINUOUS
 62
1
 10
-2.5E+001
 20
1.4223452E+001
 11
-2.2E+001
 21
1.4223452E+001
  0
LINE
  8
108
  6
CONTINUOUS
 62
1
 10
2.2E+001
 20
1.4223452E+001
 11
2.5E+001
 21
1.4223452E+001
  0
LINE
  8
108
  6
CONTINUOUS
 62
1
 10
2.5E+001
 20
1.4373476E+001
 11
2.2E+001
 21
1.4373476E+001
  0
LINE
  8
108
  6
CONTINUOUS
 62
1
 10
-2.2E+001
 20
1.4373476E+001
 11
-2.5E+001
 21
1.4373476E+001
  0
LINE
  8
108
  6
CONTINUOUS
 62
1
 10
-2.5E+001
 20
1.452347E+001
 11
-2.2E+001
 21
1.452347E+001
  0
LINE
  8
108
  6
CONTINUOUS
 62
1
 10
2.2E+001
 20
1.452347E+001
 11
2.5E+001
 21
1.452347E+001
  0
LINE
  8
108
  6
CONTINUOUS
 62
1
 10
2.5E+001
 20
1.4673464E+001
 11
2.2E+001
 21
1.4673464E+001
  0
LINE
  8
108
  6
CONTINUOUS
 62
1
 10
-2.2E+001
 20
1.4673464E+001
 11
-2.5E+001
 21
1.4673464E+001
  0
LINE
  8
108
  6
CONTINUOUS
 62
1
 10
-2.5E+001
 20
1.4823458E+001
 11
-2.2E+001
 21
1.4823458E+001
  0
LINE
  8
108
  6
CONTINUOUS
 62
1
 10
2.2E+001
 20
1.4823458E+001
 11
2.5E+001
 21
1.4823458E+001
  0
LINE
  8
108
  6
CONTINUOUS
 62
1
 10
2.5E+001
 20
1.4973452E+001
 11
2.2E+001
 21
1.4973452E+001
  0
LINE
  8
108
  6
CONTINUOUS
 62
1
 10
-2.2E+001
 20
1.4973452E+001
 11
-2.5E+001
 21
1.4973452E+001
  0
LINE
  8
108
  6
CONTINUOUS
 62
1
 10
-2.5E+001
 20
1.5123476E+001
 11
-2.2E+001
 21
1.5123476E+001
  0
LINE
  8
108
  6
CONTINUOUS
 62
1
 10
2.2E+001
 20
1.5123476E+001
 11
2.5E+001
 21
1.5123476E+001
  0
LINE
  8
108
  6
CONTINUOUS
 62
1
 10
2.5E+001
 20
1.527347E+001
 11
2.2E+001
 21
1.527347E+001
  0
LINE
  8
108
  6
CONTINUOUS
 62
1
 10
-2.2E+001
 20
1.527347E+001
 11
-2.5E+001
 21
1.527347E+001
  0
LINE
  8
108
  6
CONTINUOUS
 62
1
 10
-2.5E+001
 20
1.5423464E+001
 11
-2.2E+001
 21
1.5423464E+001
  0
LINE
  8
108
  6
CONTINUOUS
 62
1
 10
2.2E+001
 20
1.5423464E+001
 11
2.5E+001
 21
1.5423464E+001
  0
LINE
  8
108
  6
CONTINUOUS
 62
1
 10
2.5E+001
 20
1.5573458E+001
 11
2.2E+001
 21
1.5573458E+001
  0
LINE
  8
108
  6
CONTINUOUS
 62
1
 10
-2.2E+001
 20
1.5573458E+001
 11
-2.5E+001
 21
1.5573458E+001
  0
LINE
  8
108
  6
CONTINUOUS
 62
1
 10
-2.5E+001
 20
1.5723452E+001
 11
-2.2E+001
 21
1.5723452E+001
  0
LINE
  8
108
  6
CONTINUOUS
 62
1
 10
2.2E+001
 20
1.5723452E+001
 11
2.5E+001
 21
1.5723452E+001
  0
LINE
  8
108
  6
CONTINUOUS
 62
1
 10
2.5E+001
 20
1.5873476E+001
 11
2.2E+001
 21
1.5873476E+001
  0
LINE
  8
108
  6
CONTINUOUS
 62
1
 10
-2.2E+001
 20
1.5873476E+001
 11
-2.5E+001
 21
1.5873476E+001
  0
LINE
  8
108
  6
CONTINUOUS
 62
1
 10
-2.5E+001
 20
1.602347E+001
 11
-2.2E+001
 21
1.602347E+001
  0
LINE
  8
108
  6
CONTINUOUS
 62
1
 10
2.2E+001
 20
1.602347E+001
 11
2.5E+001
 21
1.602347E+001
  0
LINE
  8
108
  6
CONTINUOUS
 62
1
 10
2.5E+001
 20
1.6173464E+001
 11
2.2E+001
 21
1.6173464E+001
  0
LINE
  8
108
  6
CONTINUOUS
 62
1
 10
-2.2E+001
 20
1.6173464E+001
 11
-2.5E+001
 21
1.6173464E+001
  0
LINE
  8
108
  6
CONTINUOUS
 62
1
 10
-2.5E+001
 20
1.6323458E+001
 11
-2.2E+001
 21
1.6323458E+001
  0
LINE
  8
108
  6
CONTINUOUS
 62
1
 10
2.2E+001
 20
1.6323458E+001
 11
2.5E+001
 21
1.6323458E+001
  0
LINE
  8
108
  6
CONTINUOUS
 62
1
 10
2.5E+001
 20
1.6473452E+001
 11
2.2E+001
 21
1.6473452E+001
  0
LINE
  8
108
  6
CONTINUOUS
 62
1
 10
-2.2E+001
 20
1.6473452E+001
 11
-2.5E+001
 21
1.6473452E+001
  0
LINE
  8
108
  6
CONTINUOUS
 62
1
 10
-2.5E+001
 20
1.6623476E+001
 11
-2.2E+001
 21
1.6623476E+001
  0
LINE
  8
108
  6
CONTINUOUS
 62
1
 10
2.2E+001
 20
1.6623476E+001
 11
2.5E+001
 21
1.6623476E+001
  0
LINE
  8
108
  6
CONTINUOUS
 62
1
 10
2.5E+001
 20
1.677347E+001
 11
2.2E+001
 21
1.677347E+001
  0
LINE
  8
108
  6
CONTINUOUS
 62
1
 10
-2.2E+001
 20
1.677347E+001
 11
-2.5E+001
 21
1.677347E+001
  0
LINE
  8
108
  6
CONTINUOUS
 62
1
 10
-2.5E+001
 20
1.6923464E+001
 11
-2.2E+001
 21
1.6923464E+001
  0
LINE
  8
108
  6
CONTINUOUS
 62
1
 10
2.2E+001
 20
1.6923464E+001
 11
2.5E+001
 21
1.6923464E+001
  0
LINE
  8
108
  6
CONTINUOUS
 62
1
 10
2.5E+001
 20
1.7073458E+001
 11
2.2E+001
 21
1.7073458E+001
  0
LINE
  8
108
  6
CONTINUOUS
 62
1
 10
-2.2E+001
 20
1.7073458E+001
 11
-2.5E+001
 21
1.7073458E+001
  0
LINE
  8
108
  6
CONTINUOUS
 62
1
 10
-2.5E+001
 20
1.7223452E+001
 11
-2.2E+001
 21
1.7223452E+001
  0
LINE
  8
108
  6
CONTINUOUS
 62
1
 10
2.2E+001
 20
1.7223452E+001
 11
2.5E+001
 21
1.7223452E+001
  0
LINE
  8
108
  6
CONTINUOUS
 62
1
 10
2.5E+001
 20
1.7373476E+001
 11
2.2E+001
 21
1.7373476E+001
  0
LINE
  8
108
  6
CONTINUOUS
 62
1
 10
-2.2E+001
 20
1.7373476E+001
 11
-2.5E+001
 21
1.7373476E+001
  0
LINE
  8
108
  6
CONTINUOUS
 62
1
 10
-2.5E+001
 20
1.752347E+001
 11
-2.2E+001
 21
1.752347E+001
  0
LINE
  8
108
  6
CONTINUOUS
 62
1
 10
2.2E+001
 20
1.752347E+001
 11
2.5E+001
 21
1.752347E+001
  0
LINE
  8
108
  6
CONTINUOUS
 62
1
 10
2.5E+001
 20
1.7673464E+001
 11
2.2E+001
 21
1.7673464E+001
  0
LINE
  8
108
  6
CONTINUOUS
 62
1
 10
-2.2E+001
 20
1.7673464E+001
 11
-2.5E+001
 21
1.7673464E+001
  0
LINE
  8
108
  6
CONTINUOUS
 62
1
 10
-2.5E+001
 20
1.7823458E+001
 11
-2.2E+001
 21
1.7823458E+001
  0
LINE
  8
108
  6
CONTINUOUS
 62
1
 10
2.2E+001
 20
1.7823458E+001
 11
2.5E+001
 21
1.7823458E+001
  0
LINE
  8
108
  6
CONTINUOUS
 62
1
 10
2.5E+001
 20
1.7973452E+001
 11
2.2E+001
 21
1.7973452E+001
  0
LINE
  8
108
  6
CONTINUOUS
 62
1
 10
-2.2E+001
 20
1.7973452E+001
 11
-2.5E+001
 21
1.7973452E+001
  0
LINE
  8
108
  6
CONTINUOUS
 62
1
 10
-2.5E+001
 20
1.8123476E+001
 11
-2.2E+001
 21
1.8123476E+001
  0
LINE
  8
108
  6
CONTINUOUS
 62
1
 10
2.2E+001
 20
1.8123476E+001
 11
2.5E+001
 21
1.8123476E+001
  0
LINE
  8
108
  6
CONTINUOUS
 62
1
 10
2.5E+001
 20
1.827347E+001
 11
2.2E+001
 21
1.827347E+001
  0
LINE
  8
108
  6
CONTINUOUS
 62
1
 10
-2.2E+001
 20
1.827347E+001
 11
-2.5E+001
 21
1.827347E+001
  0
LINE
  8
108
  6
CONTINUOUS
 62
1
 10
-2.5E+001
 20
1.8423464E+001
 11
-2.2E+001
 21
1.8423464E+001
  0
LINE
  8
108
  6
CONTINUOUS
 62
1
 10
2.2E+001
 20
1.8423464E+001
 11
2.5E+001
 21
1.8423464E+001
  0
LINE
  8
108
  6
CONTINUOUS
 62
1
 10
2.5E+001
 20
1.8573458E+001
 11
2.2E+001
 21
1.8573458E+001
  0
LINE
  8
108
  6
CONTINUOUS
 62
1
 10
-2.2E+001
 20
1.8573458E+001
 11
-2.5E+001
 21
1.8573458E+001
  0
LINE
  8
108
  6
CONTINUOUS
 62
1
 10
-2.5E+001
 20
1.8723452E+001
 11
-2.2E+001
 21
1.8723452E+001
  0
LINE
  8
108
  6
CONTINUOUS
 62
1
 10
2.2E+001
 20
1.8723452E+001
 11
2.5E+001
 21
1.8723452E+001
  0
LINE
  8
108
  6
CONTINUOUS
 62
1
 10
2.5E+001
 20
1.8873476E+001
 11
2.2E+001
 21
1.8873476E+001
  0
LINE
  8
108
  6
CONTINUOUS
 62
1
 10
-2.2E+001
 20
1.8873476E+001
 11
-2.5E+001
 21
1.8873476E+001
  0
LINE
  8
108
  6
CONTINUOUS
 62
1
 10
-2.5E+001
 20
1.902347E+001
 11
-2.2E+001
 21
1.902347E+001
  0
LINE
  8
108
  6
CONTINUOUS
 62
1
 10
2.2E+001
 20
1.902347E+001
 11
2.5E+001
 21
1.902347E+001
  0
LINE
  8
108
  6
CONTINUOUS
 62
1
 10
2.5E+001
 20
1.9173464E+001
 11
2.2E+001
 21
1.9173464E+001
  0
LINE
  8
108
  6
CONTINUOUS
 62
1
 10
-2.2E+001
 20
1.9173464E+001
 11
-2.5E+001
 21
1.9173464E+001
  0
LINE
  8
108
  6
CONTINUOUS
 62
1
 10
-2.5E+001
 20
1.9323458E+001
 11
-2.2E+001
 21
1.9323458E+001
  0
LINE
  8
108
  6
CONTINUOUS
 62
1
 10
2.2E+001
 20
1.9323458E+001
 11
2.5E+001
 21
1.9323458E+001
  0
LINE
  8
108
  6
CONTINUOUS
 62
1
 10
2.5E+001
 20
1.9473452E+001
 11
2.2E+001
 21
1.9473452E+001
  0
LINE
  8
108
  6
CONTINUOUS
 62
1
 10
-2.2E+001
 20
1.9473452E+001
 11
-2.5E+001
 21
1.9473452E+001
  0
LINE
  8
108
  6
CONTINUOUS
 62
1
 10
-2.5E+001
 20
1.9623476E+001
 11
-2.2E+001
 21
1.9623476E+001
  0
LINE
  8
108
  6
CONTINUOUS
 62
1
 10
2.2E+001
 20
1.9623476E+001
 11
2.5E+001
 21
1.9623476E+001
  0
LINE
  8
108
  6
CONTINUOUS
 62
1
 10
2.5E+001
 20
1.977347E+001
 11
2.2E+001
 21
1.977347E+001
  0
LINE
  8
108
  6
CONTINUOUS
 62
1
 10
-2.2E+001
 20
1.977347E+001
 11
-2.5E+001
 21
1.977347E+001
  0
LINE
  8
108
  6
CONTINUOUS
 62
1
 10
-2.5E+001
 20
1.9923464E+001
 11
-2.2E+001
 21
1.9923464E+001
  0
LINE
  8
108
  6
CONTINUOUS
 62
1
 10
2.2E+001
 20
1.9923464E+001
 11
2.5E+001
 21
1.9923464E+001
  0
LINE
  8
108
  6
CONTINUOUS
 62
1
 10
2.5E+001
 20
2.0073458E+001
 11
2.2E+001
 21
2.0073458E+001
  0
LINE
  8
108
  6
CONTINUOUS
 62
1
 10
-2.2E+001
 20
2.0073458E+001
 11
-2.5E+001
 21
2.0073458E+001
  0
LINE
  8
108
  6
CONTINUOUS
 62
1
 10
-2.5E+001
 20
2.0223452E+001
 11
-2.2E+001
 21
2.0223452E+001
  0
LINE
  8
108
  6
CONTINUOUS
 62
1
 10
2.2E+001
 20
2.0223452E+001
 11
2.5E+001
 21
2.0223452E+001
  0
LINE
  8
108
  6
CONTINUOUS
 62
1
 10
2.5E+001
 20
2.0373476E+001
 11
2.2E+001
 21
2.0373476E+001
  0
LINE
  8
108
  6
CONTINUOUS
 62
1
 10
-2.2E+001
 20
2.0373476E+001
 11
-2.5E+001
 21
2.0373476E+001
  0
LINE
  8
108
  6
CONTINUOUS
 62
1
 10
-2.5E+001
 20
2.052347E+001
 11
-2.2E+001
 21
2.052347E+001
  0
LINE
  8
108
  6
CONTINUOUS
 62
1
 10
2.2E+001
 20
2.052347E+001
 11
2.5E+001
 21
2.052347E+001
  0
LINE
  8
108
  6
CONTINUOUS
 62
1
 10
2.5E+001
 20
2.0673464E+001
 11
2.2E+001
 21
2.0673464E+001
  0
LINE
  8
108
  6
CONTINUOUS
 62
1
 10
-2.2E+001
 20
2.0673464E+001
 11
-2.5E+001
 21
2.0673464E+001
  0
LINE
  8
108
  6
CONTINUOUS
 62
1
 10
-2.5E+001
 20
2.0823458E+001
 11
-2.2E+001
 21
2.0823458E+001
  0
LINE
  8
108
  6
CONTINUOUS
 62
1
 10
2.2E+001
 20
2.0823458E+001
 11
2.5E+001
 21
2.0823458E+001
  0
LINE
  8
108
  6
CONTINUOUS
 62
1
 10
2.5E+001
 20
2.0973452E+001
 11
2.2E+001
 21
2.0973452E+001
  0
LINE
  8
108
  6
CONTINUOUS
 62
1
 10
-2.2E+001
 20
2.0973452E+001
 11
-2.5E+001
 21
2.0973452E+001
  0
LINE
  8
108
  6
CONTINUOUS
 62
1
 10
-2.5E+001
 20
2.1123476E+001
 11
-2.2E+001
 21
2.1123476E+001
  0
LINE
  8
108
  6
CONTINUOUS
 62
1
 10
2.2E+001
 20
2.1123476E+001
 11
2.5E+001
 21
2.1123476E+001
  0
LINE
  8
108
  6
CONTINUOUS
 62
1
 10
2.5E+001
 20
2.127347E+001
 11
2.2E+001
 21
2.127347E+001
  0
LINE
  8
108
  6
CONTINUOUS
 62
1
 10
-2.2E+001
 20
2.127347E+001
 11
-2.5E+001
 21
2.127347E+001
  0
LINE
  8
108
  6
CONTINUOUS
 62
1
 10
-2.5E+001
 20
2.1423464E+001
 11
-2.2E+001
 21
2.1423464E+001
  0
LINE
  8
108
  6
CONTINUOUS
 62
1
 10
2.2E+001
 20
2.1423464E+001
 11
2.5E+001
 21
2.1423464E+001
  0
LINE
  8
108
  6
CONTINUOUS
 62
1
 10
2.5E+001
 20
2.1573458E+001
 11
2.2E+001
 21
2.1573458E+001
  0
LINE
  8
108
  6
CONTINUOUS
 62
1
 10
-2.2E+001
 20
2.1573458E+001
 11
-2.5E+001
 21
2.1573458E+001
  0
LINE
  8
108
  6
CONTINUOUS
 62
1
 10
-2.5E+001
 20
2.1723452E+001
 11
-2.2E+001
 21
2.1723452E+001
  0
LINE
  8
108
  6
CONTINUOUS
 62
1
 10
2.2E+001
 20
2.1723452E+001
 11
2.5E+001
 21
2.1723452E+001
  0
LINE
  8
108
  6
CONTINUOUS
 62
1
 10
2.5E+001
 20
2.1873476E+001
 11
2.2E+001
 21
2.1873476E+001
  0
LINE
  8
108
  6
CONTINUOUS
 62
1
 10
-2.2E+001
 20
2.1873476E+001
 11
-2.5E+001
 21
2.1873476E+001
  0
LINE
  8
108
  6
CONTINUOUS
 62
1
 10
-2.5E+001
 20
2.202347E+001
 11
-2.2E+001
 21
2.202347E+001
  0
LINE
  8
108
  6
CONTINUOUS
 62
1
 10
2.2E+001
 20
2.202347E+001
 11
2.5E+001
 21
2.202347E+001
  0
LINE
  8
108
  6
CONTINUOUS
 62
1
 10
2.5E+001
 20
2.2173464E+001
 11
2.2E+001
 21
2.2173464E+001
  0
LINE
  8
108
  6
CONTINUOUS
 62
1
 10
-2.2E+001
 20
2.2173464E+001
 11
-2.5E+001
 21
2.2173464E+001
  0
LINE
  8
108
  6
CONTINUOUS
 62
1
 10
-2.5E+001
 20
2.2323458E+001
 11
-2.2E+001
 21
2.2323458E+001
  0
LINE
  8
108
  6
CONTINUOUS
 62
1
 10
2.2E+001
 20
2.2323458E+001
 11
2.5E+001
 21
2.2323458E+001
  0
LINE
  8
108
  6
CONTINUOUS
 62
1
 10
2.5E+001
 20
2.2473452E+001
 11
2.2E+001
 21
2.2473452E+001
  0
LINE
  8
108
  6
CONTINUOUS
 62
1
 10
-2.2E+001
 20
2.2473452E+001
 11
-2.5E+001
 21
2.2473452E+001
  0
LINE
  8
108
  6
CONTINUOUS
 62
1
 10
-2.5E+001
 20
2.2623476E+001
 11
-2.2E+001
 21
2.2623476E+001
  0
LINE
  8
108
  6
CONTINUOUS
 62
1
 10
2.2E+001
 20
2.2623476E+001
 11
2.5E+001
 21
2.2623476E+001
  0
LINE
  8
108
  6
CONTINUOUS
 62
1
 10
2.5E+001
 20
2.277347E+001
 11
2.2E+001
 21
2.277347E+001
  0
LINE
  8
108
  6
CONTINUOUS
 62
1
 10
-2.2E+001
 20
2.277347E+001
 11
-2.5E+001
 21
2.277347E+001
  0
LINE
  8
108
  6
CONTINUOUS
 62
1
 10
-2.5E+001
 20
2.2923464E+001
 11
-2.2E+001
 21
2.2923464E+001
  0
LINE
  8
108
  6
CONTINUOUS
 62
1
 10
2.2E+001
 20
2.2923464E+001
 11
2.5E+001
 21
2.2923464E+001
  0
LINE
  8
108
  6
CONTINUOUS
 62
1
 10
2.5E+001
 20
2.3073458E+001
 11
2.2E+001
 21
2.3073458E+001
  0
LINE
  8
108
  6
CONTINUOUS
 62
1
 10
-2.2E+001
 20
2.3073458E+001
 11
-2.5E+001
 21
2.3073458E+001
  0
LINE
  8
108
  6
CONTINUOUS
 62
1
 10
-2.5E+001
 20
2.3223452E+001
 11
-2.2E+001
 21
2.3223452E+001
  0
LINE
  8
108
  6
CONTINUOUS
 62
1
 10
2.2E+001
 20
2.3223452E+001
 11
2.5E+001
 21
2.3223452E+001
  0
LINE
  8
108
  6
CONTINUOUS
 62
1
 10
2.5E+001
 20
2.3373476E+001
 11
2.2E+001
 21
2.3373476E+001
  0
LINE
  8
108
  6
CONTINUOUS
 62
1
 10
-2.2E+001
 20
2.3373476E+001
 11
-2.5E+001
 21
2.3373476E+001
  0
LINE
  8
108
  6
CONTINUOUS
 62
1
 10
-2.5E+001
 20
2.352347E+001
 11
-2.2E+001
 21
2.352347E+001
  0
LINE
  8
108
  6
CONTINUOUS
 62
1
 10
2.2E+001
 20
2.352347E+001
 11
2.5E+001
 21
2.352347E+001
  0
LINE
  8
108
  6
CONTINUOUS
 62
1
 10
2.5E+001
 20
2.3673464E+001
 11
2.2E+001
 21
2.3673464E+001
  0
LINE
  8
108
  6
CONTINUOUS
 62
1
 10
-2.2E+001
 20
2.3673464E+001
 11
-2.5E+001
 21
2.3673464E+001
  0
LINE
  8
108
  6
CONTINUOUS
 62
1
 10
-2.5E+001
 20
2.3823458E+001
 11
-2.2E+001
 21
2.3823458E+001
  0
LINE
  8
108
  6
CONTINUOUS
 62
1
 10
2.2E+001
 20
2.3823458E+001
 11
2.5E+001
 21
2.3823458E+001
  0
LINE
  8
108
  6
CONTINUOUS
 62
1
 10
2.5E+001
 20
2.3973452E+001
 11
2.2E+001
 21
2.3973452E+001
  0
LINE
  8
108
  6
CONTINUOUS
 62
1
 10
-2.2E+001
 20
2.3973452E+001
 11
-2.5E+001
 21
2.3973452E+001
  0
LINE
  8
108
  6
CONTINUOUS
 62
1
 10
-2.5E+001
 20
2.4123476E+001
 11
-2.2E+001
 21
2.4123476E+001
  0
LINE
  8
108
  6
CONTINUOUS
 62
1
 10
2.2E+001
 20
2.4123476E+001
 11
2.5E+001
 21
2.4123476E+001
  0
LINE
  8
108
  6
CONTINUOUS
 62
1
 10
2.5E+001
 20
2.427347E+001
 11
2.2E+001
 21
2.427347E+001
  0
LINE
  8
108
  6
CONTINUOUS
 62
1
 10
-2.2E+001
 20
2.427347E+001
 11
-2.5E+001
 21
2.427347E+001
  0
LINE
  8
108
  6
CONTINUOUS
 62
1
 10
-2.5E+001
 20
2.4423464E+001
 11
-2.2E+001
 21
2.4423464E+001
  0
LINE
  8
108
  6
CONTINUOUS
 62
1
 10
2.2E+001
 20
2.4423464E+001
 11
2.5E+001
 21
2.4423464E+001
  0
LINE
  8
108
  6
CONTINUOUS
 62
1
 10
2.5E+001
 20
2.4573458E+001
 11
2.2E+001
 21
2.4573458E+001
  0
LINE
  8
108
  6
CONTINUOUS
 62
1
 10
-2.2E+001
 20
2.4573458E+001
 11
-2.5E+001
 21
2.4573458E+001
  0
LINE
  8
108
  6
CONTINUOUS
 62
1
 10
-2.5E+001
 20
2.4723452E+001
 11
-2.2E+001
 21
2.4723452E+001
  0
LINE
  8
108
  6
CONTINUOUS
 62
1
 10
2.2E+001
 20
2.4723452E+001
 11
2.5E+001
 21
2.4723452E+001
  0
LINE
  8
108
  6
CONTINUOUS
 62
1
 10
2.5E+001
 20
2.4873476E+001
 11
2.2E+001
 21
2.4873476E+001
  0
LINE
  8
108
  6
CONTINUOUS
 62
1
 10
-2.2E+001
 20
2.4873476E+001
 11
-2.5E+001
 21
2.4873476E+001
  0
LINE
  8
108
  6
CONTINUOUS
 62
1
 10
-2.5E+001
 20
2.502347E+001
 11
-2.2E+001
 21
2.502347E+001
  0
LINE
  8
108
  6
CONTINUOUS
 62
1
 10
2.2E+001
 20
2.502347E+001
 11
2.5E+001
 21
2.502347E+001
  0
LINE
  8
108
  6
CONTINUOUS
 62
1
 10
2.5E+001
 20
2.5173464E+001
 11
2.2E+001
 21
2.5173464E+001
  0
LINE
  8
108
  6
CONTINUOUS
 62
1
 10
-2.2E+001
 20
2.5173464E+001
 11
-2.5E+001
 21
2.5173464E+001
  0
LINE
  8
108
  6
CONTINUOUS
 62
1
 10
-2.5E+001
 20
2.5323458E+001
 11
-2.2E+001
 21
2.5323458E+001
  0
LINE
  8
108
  6
CONTINUOUS
 62
1
 10
2.2E+001
 20
2.5323458E+001
 11
2.5E+001
 21
2.5323458E+001
  0
LINE
  8
108
  6
CONTINUOUS
 62
1
 10
2.5E+001
 20
2.5473452E+001
 11
2.2E+001
 21
2.5473452E+001
  0
LINE
  8
108
  6
CONTINUOUS
 62
1
 10
-2.2E+001
 20
2.5473452E+001
 11
-2.5E+001
 21
2.5473452E+001
  0
LINE
  8
108
  6
CONTINUOUS
 62
1
 10
-2.5E+001
 20
2.5623476E+001
 11
-2.2E+001
 21
2.5623476E+001
  0
LINE
  8
108
  6
CONTINUOUS
 62
1
 10
2.2E+001
 20
2.5623476E+001
 11
2.5E+001
 21
2.5623476E+001
  0
LINE
  8
108
  6
CONTINUOUS
 62
1
 10
2.5E+001
 20
2.577347E+001
 11
2.2E+001
 21
2.577347E+001
  0
LINE
  8
108
  6
CONTINUOUS
 62
1
 10
-2.2E+001
 20
2.577347E+001
 11
-2.5E+001
 21
2.577347E+001
  0
LINE
  8
108
  6
CONTINUOUS
 62
1
 10
-2.5E+001
 20
2.5923464E+001
 11
-2.2E+001
 21
2.5923464E+001
  0
LINE
  8
108
  6
CONTINUOUS
 62
1
 10
2.2E+001
 20
2.5923464E+001
 11
2.5E+001
 21
2.5923464E+001
  0
LINE
  8
108
  6
CONTINUOUS
 62
1
 10
2.5E+001
 20
2.6073458E+001
 11
2.2E+001
 21
2.6073458E+001
  0
LINE
  8
108
  6
CONTINUOUS
 62
1
 10
-2.2E+001
 20
2.6073458E+001
 11
-2.5E+001
 21
2.6073458E+001
  0
LINE
  8
108
  6
CONTINUOUS
 62
1
 10
-2.5E+001
 20
2.6223452E+001
 11
-2.2E+001
 21
2.6223452E+001
  0
LINE
  8
108
  6
CONTINUOUS
 62
1
 10
2.2E+001
 20
2.6223452E+001
 11
2.5E+001
 21
2.6223452E+001
  0
LINE
  8
108
  6
CONTINUOUS
 62
1
 10
2.5E+001
 20
2.6373476E+001
 11
2.2E+001
 21
2.6373476E+001
  0
LINE
  8
108
  6
CONTINUOUS
 62
1
 10
-2.2E+001
 20
2.6373476E+001
 11
-2.5E+001
 21
2.6373476E+001
  0
LINE
  8
108
  6
CONTINUOUS
 62
1
 10
-2.5E+001
 20
2.652347E+001
 11
-2.2E+001
 21
2.652347E+001
  0
LINE
  8
108
  6
CONTINUOUS
 62
1
 10
2.2E+001
 20
2.652347E+001
 11
2.5E+001
 21
2.652347E+001
  0
LINE
  8
108
  6
CONTINUOUS
 62
1
 10
2.5E+001
 20
2.6673464E+001
 11
2.2E+001
 21
2.6673464E+001
  0
LINE
  8
108
  6
CONTINUOUS
 62
1
 10
-2.2E+001
 20
2.6673464E+001
 11
-2.5E+001
 21
2.6673464E+001
  0
LINE
  8
108
  6
CONTINUOUS
 62
1
 10
-2.5E+001
 20
2.6823458E+001
 11
-2.2E+001
 21
2.6823458E+001
  0
LINE
  8
108
  6
CONTINUOUS
 62
1
 10
2.2E+001
 20
2.6823458E+001
 11
2.5E+001
 21
2.6823458E+001
  0
LINE
  8
108
  6
CONTINUOUS
 62
1
 10
2.5E+001
 20
2.6973452E+001
 11
2.2E+001
 21
2.6973452E+001
  0
LINE
  8
108
  6
CONTINUOUS
 62
1
 10
-2.2E+001
 20
2.6973452E+001
 11
-2.5E+001
 21
2.6973452E+001
  0
LINE
  8
108
  6
CONTINUOUS
 62
1
 10
-2.5E+001
 20
2.7123476E+001
 11
-2.2E+001
 21
2.7123476E+001
  0
LINE
  8
108
  6
CONTINUOUS
 62
1
 10
2.2E+001
 20
2.7123476E+001
 11
2.5E+001
 21
2.7123476E+001
  0
LINE
  8
108
  6
CONTINUOUS
 62
1
 10
2.5E+001
 20
2.727347E+001
 11
2.2E+001
 21
2.727347E+001
  0
LINE
  8
108
  6
CONTINUOUS
 62
1
 10
-2.2E+001
 20
2.727347E+001
 11
-2.5E+001
 21
2.727347E+001
  0
LINE
  8
108
  6
CONTINUOUS
 62
1
 10
-2.5E+001
 20
2.7423464E+001
 11
-2.2E+001
 21
2.7423464E+001
  0
LINE
  8
108
  6
CONTINUOUS
 62
1
 10
2.2E+001
 20
2.7423464E+001
 11
2.5E+001
 21
2.7423464E+001
  0
LINE
  8
108
  6
CONTINUOUS
 62
1
 10
2.5E+001
 20
2.7573458E+001
 11
2.2E+001
 21
2.7573458E+001
  0
LINE
  8
108
  6
CONTINUOUS
 62
1
 10
-2.2E+001
 20
2.7573458E+001
 11
-2.5E+001
 21
2.7573458E+001
  0
LINE
  8
108
  6
CONTINUOUS
 62
1
 10
-2.5E+001
 20
2.7723452E+001
 11
-2.2E+001
 21
2.7723452E+001
  0
LINE
  8
108
  6
CONTINUOUS
 62
1
 10
2.2E+001
 20
2.7723452E+001
 11
2.5E+001
 21
2.7723452E+001
  0
LINE
  8
108
  6
CONTINUOUS
 62
1
 10
2.5E+001
 20
2.7873476E+001
 11
2.2E+001
 21
2.7873476E+001
  0
LINE
  8
108
  6
CONTINUOUS
 62
1
 10
-2.2E+001
 20
2.7873476E+001
 11
-2.5E+001
 21
2.7873476E+001
  0
LINE
  8
108
  6
CONTINUOUS
 62
1
 10
-2.5E+001
 20
2.802347E+001
 11
-2.2E+001
 21
2.802347E+001
  0
LINE
  8
108
  6
CONTINUOUS
 62
1
 10
2.2E+001
 20
2.802347E+001
 11
2.5E+001
 21
2.802347E+001
  0
LINE
  8
108
  6
CONTINUOUS
 62
1
 10
2.5E+001
 20
2.8173464E+001
 11
2.2E+001
 21
2.8173464E+001
  0
LINE
  8
108
  6
CONTINUOUS
 62
1
 10
-2.2E+001
 20
2.8173464E+001
 11
-2.5E+001
 21
2.8173464E+001
  0
LINE
  8
108
  6
CONTINUOUS
 62
1
 10
-2.5E+001
 20
2.8323458E+001
 11
-2.2E+001
 21
2.8323458E+001
  0
LINE
  8
108
  6
CONTINUOUS
 62
1
 10
2.2E+001
 20
2.8323458E+001
 11
2.5E+001
 21
2.8323458E+001
  0
LINE
  8
108
  6
CONTINUOUS
 62
1
 10
2.5E+001
 20
2.8473452E+001
 11
2.2E+001
 21
2.8473452E+001
  0
LINE
  8
108
  6
CONTINUOUS
 62
1
 10
-2.2E+001
 20
2.8473452E+001
 11
-2.5E+001
 21
2.8473452E+001
  0
LINE
  8
108
  6
CONTINUOUS
 62
1
 10
-2.5E+001
 20
2.8623476E+001
 11
-2.2E+001
 21
2.8623476E+001
  0
LINE
  8
108
  6
CONTINUOUS
 62
1
 10
2.2E+001
 20
2.8623476E+001
 11
2.5E+001
 21
2.8623476E+001
  0
LINE
  8
108
  6
CONTINUOUS
 62
1
 10
2.5E+001
 20
2.877347E+001
 11
2.2E+001
 21
2.877347E+001
  0
LINE
  8
108
  6
CONTINUOUS
 62
1
 10
-2.2E+001
 20
2.877347E+001
 11
-2.5E+001
 21
2.877347E+001
  0
LINE
  8
108
  6
CONTINUOUS
 62
1
 10
-2.5E+001
 20
2.8923464E+001
 11
-2.2E+001
 21
2.8923464E+001
  0
LINE
  8
108
  6
CONTINUOUS
 62
1
 10
2.2E+001
 20
2.8923464E+001
 11
2.5E+001
 21
2.8923464E+001
  0
LINE
  8
108
  6
CONTINUOUS
 62
1
 10
2.5E+001
 20
2.9073458E+001
 11
2.2E+001
 21
2.9073458E+001
  0
LINE
  8
108
  6
CONTINUOUS
 62
1
 10
-2.2E+001
 20
2.9073458E+001
 11
-2.5E+001
 21
2.9073458E+001
  0
LINE
  8
108
  6
CONTINUOUS
 62
1
 10
-2.5E+001
 20
2.9223452E+001
 11
-2.2E+001
 21
2.9223452E+001
  0
LINE
  8
108
  6
CONTINUOUS
 62
1
 10
2.2E+001
 20
2.9223452E+001
 11
2.5E+001
 21
2.9223452E+001
  0
LINE
  8
108
  6
CONTINUOUS
 62
1
 10
2.5E+001
 20
2.9373476E+001
 11
2.2E+001
 21
2.9373476E+001
  0
LINE
  8
108
  6
CONTINUOUS
 62
1
 10
-2.2E+001
 20
2.9373476E+001
 11
-2.5E+001
 21
2.9373476E+001
  0
LINE
  8
108
  6
CONTINUOUS
 62
1
 10
-2.5E+001
 20
2.952347E+001
 11
-2.2E+001
 21
2.952347E+001
  0
LINE
  8
108
  6
CONTINUOUS
 62
1
 10
2.2E+001
 20
2.952347E+001
 11
2.5E+001
 21
2.952347E+001
  0
LINE
  8
108
  6
CONTINUOUS
 62
1
 10
2.5E+001
 20
2.9673464E+001
 11
2.2E+001
 21
2.9673464E+001
  0
LINE
  8
108
  6
CONTINUOUS
 62
1
 10
-2.2E+001
 20
2.9673464E+001
 11
-2.5E+001
 21
2.9673464E+001
  0
LINE
  8
108
  6
CONTINUOUS
 62
1
 10
-2.5E+001
 20
2.9823458E+001
 11
-2.2E+001
 21
2.9823458E+001
  0
LINE
  8
108
  6
CONTINUOUS
 62
1
 10
2.2E+001
 20
2.9823458E+001
 11
2.5E+001
 21
2.9823458E+001
  0
LINE
  8
108
  6
CONTINUOUS
 62
1
 10
2.5E+001
 20
2.9973452E+001
 11
2.2E+001
 21
2.9973452E+001
  0
LINE
  8
108
  6
CONTINUOUS
 62
1
 10
-2.2E+001
 20
2.9973452E+001
 11
-2.5E+001
 21
2.9973452E+001
  0
LINE
  8
108
  6
CONTINUOUS
 62
1
 10
-2.5E+001
 20
3.0123476E+001
 11
-2.2E+001
 21
3.0123476E+001
  0
LINE
  8
108
  6
CONTINUOUS
 62
1
 10
2.2E+001
 20
3.0123476E+001
 11
2.5E+001
 21
3.0123476E+001
  0
LINE
  8
108
  6
CONTINUOUS
 62
1
 10
2.5E+001
 20
3.027347E+001
 11
2.2E+001
 21
3.027347E+001
  0
LINE
  8
108
  6
CONTINUOUS
 62
1
 10
-2.2E+001
 20
3.027347E+001
 11
-2.5E+001
 21
3.027347E+001
  0
LINE
  8
108
  6
CONTINUOUS
 62
1
 10
-2.5E+001
 20
3.0423464E+001
 11
-2.2E+001
 21
3.0423464E+001
  0
LINE
  8
108
  6
CONTINUOUS
 62
1
 10
2.2E+001
 20
3.0423464E+001
 11
2.5E+001
 21
3.0423464E+001
  0
LINE
  8
108
  6
CONTINUOUS
 62
1
 10
2.5E+001
 20
3.0573458E+001
 11
2.2E+001
 21
3.0573458E+001
  0
LINE
  8
108
  6
CONTINUOUS
 62
1
 10
-2.2E+001
 20
3.0573458E+001
 11
-2.5E+001
 21
3.0573458E+001
  0
LINE
  8
108
  6
CONTINUOUS
 62
1
 10
-2.5E+001
 20
3.0723452E+001
 11
-2.2E+001
 21
3.0723452E+001
  0
LINE
  8
108
  6
CONTINUOUS
 62
1
 10
2.2E+001
 20
3.0723452E+001
 11
2.5E+001
 21
3.0723452E+001
  0
LINE
  8
108
  6
CONTINUOUS
 62
1
 10
2.5E+001
 20
3.0873476E+001
 11
2.2E+001
 21
3.0873476E+001
  0
LINE
  8
108
  6
CONTINUOUS
 62
1
 10
-2.2E+001
 20
3.0873476E+001
 11
-2.5E+001
 21
3.0873476E+001
  0
LINE
  8
108
  6
CONTINUOUS
 62
1
 10
-2.5E+001
 20
3.102347E+001
 11
-2.2E+001
 21
3.102347E+001
  0
LINE
  8
108
  6
CONTINUOUS
 62
1
 10
2.2E+001
 20
3.102347E+001
 11
2.5E+001
 21
3.102347E+001
  0
LINE
  8
108
  6
CONTINUOUS
 62
1
 10
2.5E+001
 20
3.1173464E+001
 11
2.2E+001
 21
3.1173464E+001
  0
LINE
  8
108
  6
CONTINUOUS
 62
1
 10
-2.2E+001
 20
3.1173464E+001
 11
-2.5E+001
 21
3.1173464E+001
  0
LINE
  8
108
  6
CONTINUOUS
 62
1
 10
-2.5E+001
 20
3.1323458E+001
 11
-2.2E+001
 21
3.1323458E+001
  0
LINE
  8
108
  6
CONTINUOUS
 62
1
 10
2.2E+001
 20
3.1323458E+001
 11
2.5E+001
 21
3.1323458E+001
  0
LINE
  8
108
  6
CONTINUOUS
 62
1
 10
2.5E+001
 20
3.1473452E+001
 11
2.2E+001
 21
3.1473452E+001
  0
LINE
  8
108
  6
CONTINUOUS
 62
1
 10
-2.2E+001
 20
3.1473452E+001
 11
-2.5E+001
 21
3.1473452E+001
  0
LINE
  8
108
  6
CONTINUOUS
 62
1
 10
-2.5E+001
 20
3.1623476E+001
 11
-2.2E+001
 21
3.1623476E+001
  0
LINE
  8
108
  6
CONTINUOUS
 62
1
 10
2.2E+001
 20
3.1623476E+001
 11
2.5E+001
 21
3.1623476E+001
  0
LINE
  8
108
  6
CONTINUOUS
 62
1
 10
2.5E+001
 20
3.177347E+001
 11
2.2E+001
 21
3.177347E+001
  0
LINE
  8
108
  6
CONTINUOUS
 62
1
 10
-2.2E+001
 20
3.177347E+001
 11
-2.5E+001
 21
3.177347E+001
  0
LINE
  8
108
  6
CONTINUOUS
 62
1
 10
-2.5E+001
 20
3.1923464E+001
 11
-2.2E+001
 21
3.1923464E+001
  0
LINE
  8
108
  6
CONTINUOUS
 62
1
 10
2.2E+001
 20
3.1923464E+001
 11
2.5E+001
 21
3.1923464E+001
  0
LINE
  8
108
  6
CONTINUOUS
 62
1
 10
2.5E+001
 20
3.2073458E+001
 11
2.2E+001
 21
3.2073458E+001
  0
LINE
  8
108
  6
CONTINUOUS
 62
1
 10
-2.2E+001
 20
3.2073458E+001
 11
-2.5E+001
 21
3.2073458E+001
  0
LINE
  8
108
  6
CONTINUOUS
 62
1
 10
-2.5E+001
 20
3.2223452E+001
 11
-2.2E+001
 21
3.2223452E+001
  0
LINE
  8
108
  6
CONTINUOUS
 62
1
 10
2.2E+001
 20
3.2223452E+001
 11
2.5E+001
 21
3.2223452E+001
  0
LINE
  8
108
  6
CONTINUOUS
 62
1
 10
2.5E+001
 20
3.2373476E+001
 11
2.2E+001
 21
3.2373476E+001
  0
LINE
  8
108
  6
CONTINUOUS
 62
1
 10
-2.2E+001
 20
3.2373476E+001
 11
-2.5E+001
 21
3.2373476E+001
  0
LINE
  8
108
  6
CONTINUOUS
 62
1
 10
-2.5E+001
 20
3.252347E+001
 11
-2.2E+001
 21
3.252347E+001
  0
LINE
  8
108
  6
CONTINUOUS
 62
1
 10
2.2E+001
 20
3.252347E+001
 11
2.5E+001
 21
3.252347E+001
  0
LINE
  8
108
  6
CONTINUOUS
 62
1
 10
2.5E+001
 20
3.2673464E+001
 11
2.2E+001
 21
3.2673464E+001
  0
LINE
  8
108
  6
CONTINUOUS
 62
1
 10
-2.2E+001
 20
3.2673464E+001
 11
-2.5E+001
 21
3.2673464E+001
  0
LINE
  8
108
  6
CONTINUOUS
 62
1
 10
-2.5E+001
 20
3.2823458E+001
 11
-2.2E+001
 21
3.2823458E+001
  0
LINE
  8
108
  6
CONTINUOUS
 62
1
 10
2.2E+001
 20
3.2823458E+001
 11
2.5E+001
 21
3.2823458E+001
  0
LINE
  8
108
  6
CONTINUOUS
 62
1
 10
2.5E+001
 20
3.2973452E+001
 11
2.2E+001
 21
3.2973452E+001
  0
LINE
  8
108
  6
CONTINUOUS
 62
1
 10
-2.2E+001
 20
3.2973452E+001
 11
-2.5E+001
 21
3.2973452E+001
  0
LINE
  8
108
  6
CONTINUOUS
 62
1
 10
-2.5E+001
 20
3.3123476E+001
 11
-2.2E+001
 21
3.3123476E+001
  0
LINE
  8
108
  6
CONTINUOUS
 62
1
 10
2.2E+001
 20
3.3123476E+001
 11
2.5E+001
 21
3.3123476E+001
  0
LINE
  8
108
  6
CONTINUOUS
 62
1
 10
2.5E+001
 20
3.327347E+001
 11
2.2E+001
 21
3.327347E+001
  0
LINE
  8
108
  6
CONTINUOUS
 62
1
 10
-2.2E+001
 20
3.327347E+001
 11
-2.5E+001
 21
3.327347E+001
  0
LINE
  8
108
  6
CONTINUOUS
 62
1
 10
-2.5E+001
 20
3.3423464E+001
 11
-2.2E+001
 21
3.3423464E+001
  0
LINE
  8
108
  6
CONTINUOUS
 62
1
 10
2.2E+001
 20
3.3423464E+001
 11
2.5E+001
 21
3.3423464E+001
  0
LINE
  8
108
  6
CONTINUOUS
 62
1
 10
2.5E+001
 20
3.3573458E+001
 11
2.2E+001
 21
3.3573458E+001
  0
LINE
  8
108
  6
CONTINUOUS
 62
1
 10
-2.2E+001
 20
3.3573458E+001
 11
-2.5E+001
 21
3.3573458E+001
  0
LINE
  8
108
  6
CONTINUOUS
 62
1
 10
-2.5E+001
 20
3.3723452E+001
 11
-2.2E+001
 21
3.3723452E+001
  0
LINE
  8
108
  6
CONTINUOUS
 62
1
 10
2.2E+001
 20
3.3723452E+001
 11
2.5E+001
 21
3.3723452E+001
  0
LINE
  8
108
  6
CONTINUOUS
 62
1
 10
2.5E+001
 20
3.3873476E+001
 11
2.2E+001
 21
3.3873476E+001
  0
LINE
  8
108
  6
CONTINUOUS
 62
1
 10
-2.2E+001
 20
3.3873476E+001
 11
-2.5E+001
 21
3.3873476E+001
  0
LINE
  8
108
  6
CONTINUOUS
 62
1
 10
-2.5E+001
 20
3.402347E+001
 11
-2.2E+001
 21
3.402347E+001
  0
LINE
  8
108
  6
CONTINUOUS
 62
1
 10
2.2E+001
 20
3.402347E+001
 11
2.5E+001
 21
3.402347E+001
  0
LINE
  8
108
  6
CONTINUOUS
 62
1
 10
2.5E+001
 20
3.4173464E+001
 11
2.2E+001
 21
3.4173464E+001
  0
LINE
  8
108
  6
CONTINUOUS
 62
1
 10
-2.2E+001
 20
3.4173464E+001
 11
-2.5E+001
 21
3.4173464E+001
  0
LINE
  8
108
  6
CONTINUOUS
 62
1
 10
-2.5E+001
 20
3.4323458E+001
 11
-2.2E+001
 21
3.4323458E+001
  0
LINE
  8
108
  6
CONTINUOUS
 62
1
 10
2.2E+001
 20
3.4323458E+001
 11
2.5E+001
 21
3.4323458E+001
  0
LINE
  8
108
  6
CONTINUOUS
 62
1
 10
2.5E+001
 20
3.4473452E+001
 11
2.2E+001
 21
3.4473452E+001
  0
LINE
  8
108
  6
CONTINUOUS
 62
1
 10
-2.2E+001
 20
3.4473452E+001
 11
-2.5E+001
 21
3.4473452E+001
  0
LINE
  8
108
  6
CONTINUOUS
 62
1
 10
-2.5E+001
 20
3.4623476E+001
 11
-2.2E+001
 21
3.4623476E+001
  0
LINE
  8
108
  6
CONTINUOUS
 62
1
 10
2.2E+001
 20
3.4623476E+001
 11
2.5E+001
 21
3.4623476E+001
  0
LINE
  8
108
  6
CONTINUOUS
 62
1
 10
2.5E+001
 20
3.477347E+001
 11
2.2E+001
 21
3.477347E+001
  0
LINE
  8
108
  6
CONTINUOUS
 62
1
 10
-2.2E+001
 20
3.477347E+001
 11
-2.5E+001
 21
3.477347E+001
  0
LINE
  8
108
  6
CONTINUOUS
 62
1
 10
-2.5E+001
 20
3.4923464E+001
 11
-2.2E+001
 21
3.4923464E+001
  0
LINE
  8
108
  6
CONTINUOUS
 62
1
 10
2.2E+001
 20
3.4923464E+001
 11
2.5E+001
 21
3.4923464E+001
  0
LINE
  8
108
  6
CONTINUOUS
 62
1
 10
2.5E+001
 20
3.5073458E+001
 11
2.2E+001
 21
3.5073458E+001
  0
LINE
  8
108
  6
CONTINUOUS
 62
1
 10
-2.2E+001
 20
3.5073458E+001
 11
-2.5E+001
 21
3.5073458E+001
  0
LINE
  8
108
  6
CONTINUOUS
 62
1
 10
-2.5E+001
 20
3.5223452E+001
 11
-2.2E+001
 21
3.5223452E+001
  0
LINE
  8
108
  6
CONTINUOUS
 62
1
 10
2.2E+001
 20
3.5223452E+001
 11
2.5E+001
 21
3.5223452E+001
  0
LINE
  8
108
  6
CONTINUOUS
 62
1
 10
2.5E+001
 20
3.5373476E+001
 11
2.2E+001
 21
3.5373476E+001
  0
LINE
  8
108
  6
CONTINUOUS
 62
1
 10
-2.2E+001
 20
3.5373476E+001
 11
-2.5E+001
 21
3.5373476E+001
  0
LINE
  8
108
  6
CONTINUOUS
 62
1
 10
-2.5E+001
 20
3.552347E+001
 11
-2.2E+001
 21
3.552347E+001
  0
LINE
  8
108
  6
CONTINUOUS
 62
1
 10
2.2E+001
 20
3.552347E+001
 11
2.5E+001
 21
3.552347E+001
  0
LINE
  8
108
  6
CONTINUOUS
 62
1
 10
2.5E+001
 20
3.5673464E+001
 11
2.2E+001
 21
3.5673464E+001
  0
LINE
  8
108
  6
CONTINUOUS
 62
1
 10
-2.2E+001
 20
3.5673464E+001
 11
-2.5E+001
 21
3.5673464E+001
  0
LINE
  8
108
  6
CONTINUOUS
 62
1
 10
-2.5E+001
 20
3.5823458E+001
 11
-2.2E+001
 21
3.5823458E+001
  0
LINE
  8
108
  6
CONTINUOUS
 62
1
 10
2.2E+001
 20
3.5823458E+001
 11
2.5E+001
 21
3.5823458E+001
  0
LINE
  8
108
  6
CONTINUOUS
 62
1
 10
2.5E+001
 20
3.5973452E+001
 11
2.2E+001
 21
3.5973452E+001
  0
LINE
  8
108
  6
CONTINUOUS
 62
1
 10
-2.2E+001
 20
3.5973452E+001
 11
-2.5E+001
 21
3.5973452E+001
  0
LINE
  8
108
  6
CONTINUOUS
 62
1
 10
-2.5E+001
 20
3.6123476E+001
 11
-2.2E+001
 21
3.6123476E+001
  0
LINE
  8
108
  6
CONTINUOUS
 62
1
 10
2.2E+001
 20
3.6123476E+001
 11
2.5E+001
 21
3.6123476E+001
  0
LINE
  8
108
  6
CONTINUOUS
 62
1
 10
2.5E+001
 20
3.627347E+001
 11
2.2E+001
 21
3.627347E+001
  0
LINE
  8
108
  6
CONTINUOUS
 62
1
 10
-2.2E+001
 20
3.627347E+001
 11
-2.5E+001
 21
3.627347E+001
  0
LINE
  8
108
  6
CONTINUOUS
 62
1
 10
-2.5E+001
 20
3.6423464E+001
 11
-2.2E+001
 21
3.6423464E+001
  0
LINE
  8
108
  6
CONTINUOUS
 62
1
 10
2.2E+001
 20
3.6423464E+001
 11
2.5E+001
 21
3.6423464E+001
  0
LINE
  8
108
  6
CONTINUOUS
 62
1
 10
2.5E+001
 20
3.6573458E+001
 11
2.2E+001
 21
3.6573458E+001
  0
LINE
  8
108
  6
CONTINUOUS
 62
1
 10
-2.2E+001
 20
3.6573458E+001
 11
-2.5E+001
 21
3.6573458E+001
  0
LINE
  8
108
  6
CONTINUOUS
 62
1
 10
-2.5E+001
 20
3.6723452E+001
 11
-2.2E+001
 21
3.6723452E+001
  0
LINE
  8
108
  6
CONTINUOUS
 62
1
 10
2.2E+001
 20
3.6723452E+001
 11
2.5E+001
 21
3.6723452E+001
  0
LINE
  8
108
  6
CONTINUOUS
 62
1
 10
2.5E+001
 20
3.6873476E+001
 11
2.2E+001
 21
3.6873476E+001
  0
LINE
  8
108
  6
CONTINUOUS
 62
1
 10
-2.2E+001
 20
3.6873476E+001
 11
-2.5E+001
 21
3.6873476E+001
  0
LINE
  8
108
  6
CONTINUOUS
 62
1
 10
-2.5E+001
 20
3.702347E+001
 11
-2.2E+001
 21
3.702347E+001
  0
LINE
  8
108
  6
CONTINUOUS
 62
1
 10
2.2E+001
 20
3.702347E+001
 11
2.5E+001
 21
3.702347E+001
  0
LINE
  8
108
  6
CONTINUOUS
 62
1
 10
2.5E+001
 20
3.7173464E+001
 11
2.2E+001
 21
3.7173464E+001
  0
LINE
  8
108
  6
CONTINUOUS
 62
1
 10
-2.2E+001
 20
3.7173464E+001
 11
-2.5E+001
 21
3.7173464E+001
  0
LINE
  8
108
  6
CONTINUOUS
 62
1
 10
-2.5E+001
 20
3.7323458E+001
 11
-2.2E+001
 21
3.7323458E+001
  0
LINE
  8
108
  6
CONTINUOUS
 62
1
 10
2.2E+001
 20
3.7323458E+001
 11
2.5E+001
 21
3.7323458E+001
  0
LINE
  8
108
  6
CONTINUOUS
 62
1
 10
2.5E+001
 20
3.7473452E+001
 11
2.2E+001
 21
3.7473452E+001
  0
LINE
  8
108
  6
CONTINUOUS
 62
1
 10
-2.2E+001
 20
3.7473452E+001
 11
-2.5E+001
 21
3.7473452E+001
  0
LINE
  8
108
  6
CONTINUOUS
 62
1
 10
-2.5E+001
 20
3.7623476E+001
 11
-2.2E+001
 21
3.7623476E+001
  0
LINE
  8
108
  6
CONTINUOUS
 62
1
 10
2.2E+001
 20
3.7623476E+001
 11
2.5E+001
 21
3.7623476E+001
  0
LINE
  8
108
  6
CONTINUOUS
 62
1
 10
2.5E+001
 20
3.777347E+001
 11
2.2E+001
 21
3.777347E+001
  0
LINE
  8
108
  6
CONTINUOUS
 62
1
 10
-2.2E+001
 20
3.777347E+001
 11
-2.5E+001
 21
3.777347E+001
  0
LINE
  8
108
  6
CONTINUOUS
 62
1
 10
-2.5E+001
 20
3.7923464E+001
 11
-2.2E+001
 21
3.7923464E+001
  0
LINE
  8
108
  6
CONTINUOUS
 62
1
 10
2.2E+001
 20
3.7923464E+001
 11
2.5E+001
 21
3.7923464E+001
  0
LINE
  8
108
  6
CONTINUOUS
 62
1
 10
2.5E+001
 20
3.8073458E+001
 11
2.2E+001
 21
3.8073458E+001
  0
LINE
  8
108
  6
CONTINUOUS
 62
1
 10
-2.2E+001
 20
3.8073458E+001
 11
-2.5E+001
 21
3.8073458E+001
  0
LINE
  8
108
  6
CONTINUOUS
 62
1
 10
-2.5E+001
 20
3.8223452E+001
 11
-2.2E+001
 21
3.8223452E+001
  0
LINE
  8
108
  6
CONTINUOUS
 62
1
 10
2.2E+001
 20
3.8223452E+001
 11
2.5E+001
 21
3.8223452E+001
  0
LINE
  8
108
  6
CONTINUOUS
 62
1
 10
2.5E+001
 20
3.8373476E+001
 11
2.2E+001
 21
3.8373476E+001
  0
LINE
  8
108
  6
CONTINUOUS
 62
1
 10
-2.2E+001
 20
3.8373476E+001
 11
-2.5E+001
 21
3.8373476E+001
  0
LINE
  8
108
  6
CONTINUOUS
 62
1
 10
-2.5E+001
 20
3.852347E+001
 11
-2.2E+001
 21
3.852347E+001
  0
LINE
  8
108
  6
CONTINUOUS
 62
1
 10
2.2E+001
 20
3.852347E+001
 11
2.5E+001
 21
3.852347E+001
  0
LINE
  8
108
  6
CONTINUOUS
 62
1
 10
2.5E+001
 20
3.8673464E+001
 11
2.2E+001
 21
3.8673464E+001
  0
LINE
  8
108
  6
CONTINUOUS
 62
1
 10
-2.2E+001
 20
3.8673464E+001
 11
-2.5E+001
 21
3.8673464E+001
  0
LINE
  8
108
  6
CONTINUOUS
 62
1
 10
-2.5E+001
 20
3.8823458E+001
 11
-2.2E+001
 21
3.8823458E+001
  0
LINE
  8
108
  6
CONTINUOUS
 62
1
 10
2.2E+001
 20
3.8823458E+001
 11
2.5E+001
 21
3.8823458E+001
  0
LINE
  8
108
  6
CONTINUOUS
 62
1
 10
2.5E+001
 20
3.8973452E+001
 11
2.2E+001
 21
3.8973452E+001
  0
LINE
  8
108
  6
CONTINUOUS
 62
1
 10
-2.2E+001
 20
3.8973452E+001
 11
-2.5E+001
 21
3.8973452E+001
  0
LINE
  8
108
  6
CONTINUOUS
 62
1
 10
-2.5E+001
 20
3.9123476E+001
 11
-2.2E+001
 21
3.9123476E+001
  0
LINE
  8
108
  6
CONTINUOUS
 62
1
 10
2.2E+001
 20
3.9123476E+001
 11
2.5E+001
 21
3.9123476E+001
  0
LINE
  8
108
  6
CONTINUOUS
 62
1
 10
2.5E+001
 20
3.927347E+001
 11
2.2E+001
 21
3.927347E+001
  0
LINE
  8
108
  6
CONTINUOUS
 62
1
 10
-2.2E+001
 20
3.927347E+001
 11
-2.5E+001
 21
3.927347E+001
  0
LINE
  8
108
  6
CONTINUOUS
 62
1
 10
-2.5E+001
 20
3.9423464E+001
 11
-2.2E+001
 21
3.9423464E+001
  0
LINE
  8
108
  6
CONTINUOUS
 62
1
 10
2.2E+001
 20
3.9423464E+001
 11
2.5E+001
 21
3.9423464E+001
  0
LINE
  8
108
  6
CONTINUOUS
 62
1
 10
2.5E+001
 20
3.9573458E+001
 11
2.2E+001
 21
3.9573458E+001
  0
LINE
  8
108
  6
CONTINUOUS
 62
1
 10
-2.2E+001
 20
3.9573458E+001
 11
-2.5E+001
 21
3.9573458E+001
  0
LINE
  8
108
  6
CONTINUOUS
 62
1
 10
-2.5E+001
 20
3.9723452E+001
 11
-2.2E+001
 21
3.9723452E+001
  0
LINE
  8
108
  6
CONTINUOUS
 62
1
 10
2.2E+001
 20
3.9723452E+001
 11
2.5E+001
 21
3.9723452E+001
  0
LINE
  8
108
  6
CONTINUOUS
 62
1
 10
2.5E+001
 20
3.9873476E+001
 11
2.2E+001
 21
3.9873476E+001
  0
LINE
  8
108
  6
CONTINUOUS
 62
1
 10
-2.2E+001
 20
3.9873476E+001
 11
-2.5E+001
 21
3.9873476E+001
  0
LINE
  8
108
  6
CONTINUOUS
 62
1
 10
-2.5E+001
 20
4.002347E+001
 11
-2.2E+001
 21
4.002347E+001
  0
LINE
  8
108
  6
CONTINUOUS
 62
1
 10
2.2E+001
 20
4.002347E+001
 11
2.5E+001
 21
4.002347E+001
  0
LINE
  8
108
  6
CONTINUOUS
 62
1
 10
2.5E+001
 20
4.0173464E+001
 11
2.2E+001
 21
4.0173464E+001
  0
LINE
  8
108
  6
CONTINUOUS
 62
1
 10
-2.2E+001
 20
4.0173464E+001
 11
-2.5E+001
 21
4.0173464E+001
  0
LINE
  8
108
  6
CONTINUOUS
 62
1
 10
-2.5E+001
 20
4.0323458E+001
 11
-2.2E+001
 21
4.0323458E+001
  0
LINE
  8
108
  6
CONTINUOUS
 62
1
 10
2.2E+001
 20
4.0323458E+001
 11
2.5E+001
 21
4.0323458E+001
  0
LINE
  8
108
  6
CONTINUOUS
 62
1
 10
2.5E+001
 20
4.0473452E+001
 11
2.2E+001
 21
4.0473452E+001
  0
LINE
  8
108
  6
CONTINUOUS
 62
1
 10
-2.2E+001
 20
4.0473452E+001
 11
-2.5E+001
 21
4.0473452E+001
  0
LINE
  8
108
  6
CONTINUOUS
 62
1
 10
-2.5E+001
 20
4.0623476E+001
 11
-2.2E+001
 21
4.0623476E+001
  0
LINE
  8
108
  6
CONTINUOUS
 62
1
 10
2.2E+001
 20
4.0623476E+001
 11
2.5E+001
 21
4.0623476E+001
  0
LINE
  8
108
  6
CONTINUOUS
 62
1
 10
2.5E+001
 20
4.077347E+001
 11
2.2E+001
 21
4.077347E+001
  0
LINE
  8
108
  6
CONTINUOUS
 62
1
 10
-2.2E+001
 20
4.077347E+001
 11
-2.5E+001
 21
4.077347E+001
  0
LINE
  8
108
  6
CONTINUOUS
 62
1
 10
-2.5E+001
 20
4.0923464E+001
 11
-2.2E+001
 21
4.0923464E+001
  0
LINE
  8
108
  6
CONTINUOUS
 62
1
 10
2.2E+001
 20
4.0923464E+001
 11
2.5E+001
 21
4.0923464E+001
  0
ENDBLK
  0
BLOCK
  2
_D5
 10
0.0
 20
0.0
 70
0
  0
LINE
  8
MED-4
  6
CONTINUOUS
 62
2
 10
3.551327E+001
 20
2.006169E+002
 11
3.551327E+001
 21
2.2091692E+002
  0
INSERT
  2
M_PFN_6
  8
MED-4
 10
3.551327E+001
 20
2.006169E+002
 50
9.0E+001
  0
INSERT
  2
M_PFN_7
  8
MED-4
 10
3.551327E+001
 20
2.2091692E+002
 50
9.0E+001
  0
LINE
  8
MED-4
  6
CONTINUOUS
 62
2
 10
6.6368647E+001
 20
2.006169E+002
 11
3.551327E+001
 21
2.006169E+002
  0
LINE
  8
MED-4
  6
CONTINUOUS
 62
2
 10
3.551327E+001
 20
2.006169E+002
 11
3.451327E+001
 21
2.006169E+002
  0
LINE
  8
MED-4
  6
CONTINUOUS
 62
2
 10
6.6368647E+001
 20
2.2091692E+002
 11
3.551327E+001
 21
2.2091692E+002
  0
LINE
  8
MED-4
  6
CONTINUOUS
 62
2
 10
3.551327E+001
 20
2.2091692E+002
 11
3.451327E+001
 21
2.2091692E+002
  0
ENDBLK
  0
BLOCK
  2
*XH40
  3
*XH
 10
0.0
 20
0.0
 70
65
  0
LINE
  8
108
  6
CONTINUOUS
 62
1
 10
5.4233288E+001
 20
-3.0619532E+001
 11
4.8678845E+001
 21
-3.6173976E+001
  0
LINE
  8
108
  6
CONTINUOUS
 62
1
 10
2.7465634E+001
 20
-3.6173976E+001
 11
5.4233288E+001
 21
-9.4063209
  0
LINE
  8
108
  6
CONTINUOUS
 62
1
 10
7.1404385E+001
 20
2.8977971E+001
 11
6.6252438E+001
 21
2.3826024E+001
  0
LINE
  8
108
  6
CONTINUOUS
 62
1
 10
5.4233288E+001
 20
1.180689E+001
 11
3.4233288E+001
 21
-8.1931099
  0
LINE
  8
108
  6
CONTINUOUS
 62
1
 10
2.6252438E+001
 20
-1.6173976E+001
 11
6.2524382
 21
-3.6173976E+001
  0
LINE
  8
108
  6
CONTINUOUS
 62
1
 10
-1.4960773E+001
 20
-3.6173976E+001
 11
5.0392272
 21
-1.6173976E+001
  0
LINE
  8
108
  6
CONTINUOUS
 62
1
 10
3.4233288E+001
 20
1.3020086E+001
 11
6.5039227E+001
 21
4.3826024E+001
  0
LINE
  8
108
  6
CONTINUOUS
 62
1
 10
4.3826031E+001
 20
4.3826024E+001
 11
3.4233288E+001
 21
3.4233281E+001
  0
LINE
  8
108
  6
CONTINUOUS
 62
1
 10
-1.6173984E+001
 20
-1.6173976E+001
 11
-3.6173984E+001
 21
-3.6173976E+001
  0
LINE
  8
108
  6
CONTINUOUS
 62
1
 10
-5.738718E+001
 20
-3.6173976E+001
 11
-3.738718E+001
 21
-1.6173976E+001
  0
LINE
  8
108
  6
CONTINUOUS
 62
1
 10
-4.3766711E+001
 20
-1.3402969
 11
-6.3766711E+001
 21
-2.1340297E+001
  0
LINE
  8
108
  6
CONTINUOUS
 62
1
 10
-6.3766711E+001
 20
-1.2710093E-001
 11
-4.3766711E+001
 21
1.9872899E+001
  0
LINE
  8
108
  6
CONTINUOUS
 62
1
 10
-4.3766711E+001
 20
4.1086095E+001
 11
-6.3766711E+001
 21
2.1086095E+001
  0
LINE
  8
108
  6
CONTINUOUS
 62
1
 10
-7.868703E+001
 20
2.7379003E+001
 11
-6.2239993E+001
 21
4.3826024E+001
  0
ENDBLK
  0
BLOCK
  2
_D7
 10
0.0
 20
0.0
 70
0
  0
LINE
  8
MED-4
  6
CONTINUOUS
 62
2
 10
2.4223202E+002
 20
2.006169E+002
 11
2.4223202E+002
 21
2.2091692E+002
  0
INSERT
  2
M_PFN_6
  8
MED-4
 10
2.4223202E+002
 20
2.006169E+002
 50
9.0E+001
  0
INSERT
  2
M_PFN_7
  8
MED-4
 10
2.4223202E+002
 20
2.2091692E+002
 50
9.0E+001
  0
LINE
  8
MED-4
  6
CONTINUOUS
 62
2
 10
2.730874E+002
 20
2.006169E+002
 11
2.4223202E+002
 21
2.006169E+002
  0
LINE
  8
MED-4
  6
CONTINUOUS
 62
2
 10
2.4223202E+002
 20
2.006169E+002
 11
2.4123202E+002
 21
2.006169E+002
  0
LINE
  8
MED-4
  6
CONTINUOUS
 62
2
 10
2.730874E+002
 20
2.2091692E+002
 11
2.4223202E+002
 21
2.2091692E+002
  0
LINE
  8
MED-4
  6
CONTINUOUS
 62
2
 10
2.4223202E+002
 20
2.2091692E+002
 11
2.4123202E+002
 21
2.2091692E+002
  0
ENDBLK
  0
BLOCK
  2
*XH43
  3
*XH
 10
0.0
 20
0.0
 70
65
  0
LINE
  8
108
  6
CONTINUOUS
 62
1
 10
3.7213202E+001
 20
-4.3896105E+001
 11
3.6552894E+001
 21
-4.4556414E+001
  0
LINE
  8
108
  6
CONTINUOUS
 62
1
 10
1.5339698E+001
 20
-4.4556414E+001
 11
3.7213202E+001
 21
-2.2682909E+001
  0
LINE
  8
108
  6
CONTINUOUS
 62
1
 10
8.3759223E+001
 20
2.3863142E+001
 11
9.0041755E+001
 21
3.0145643E+001
  0
LINE
  8
108
  6
CONTINUOUS
 62
1
 10
9.0041755E+001
 20
5.1358839E+001
 11
6.2546027E+001
 21
2.3863142E+001
  0
LINE
  8
108
  6
CONTINUOUS
 62
1
 10
3.7213202E+001
 20
-1.4696828
 11
1.7213202E+001
 21
-2.1469698E+001
  0
LINE
  8
108
  6
CONTINUOUS
 62
1
 10
1.4126502E+001
 20
-2.4556414E+001
 11
-5.8734982
 21
-4.4556414E+001
  0
LINE
  8
108
  6
CONTINUOUS
 62
1
 10
-2.7086724E+001
 20
-4.4556414E+001
 11
-7.0867242
 21
-2.4556414E+001
  0
LINE
  8
108
  6
CONTINUOUS
 62
1
 10
1.7213202E+001
 20
-2.5648676E-001
 11
3.7213202E+001
 21
1.9743513E+001
  0
LINE
  8
108
  6
CONTINUOUS
 62
1
 10
4.1332831E+001
 20
2.3863142E+001
 11
7.5913276E+001
 21
5.8443586E+001
  0
LINE
  8
108
  6
CONTINUOUS
 62
1
 10
5.470008E+001
 20
5.8443586E+001
 11
1.7213202E+001
 21
2.0956709E+001
  0
LINE
  8
108
  6
CONTINUOUS
 62
1
 10
-2.829992E+001
 20
-2.4556414E+001
 11
-4.829992E+001
 21
-4.4556414E+001
  0
LINE
  8
108
  6
CONTINUOUS
 62
1
 10
-6.9513116E+001
 20
-4.4556414E+001
 11
-4.9513116E+001
 21
-2.4556414E+001
  0
LINE
  8
108
  6
CONTINUOUS
 62
1
 10
1.7213202E+001
 20
4.2169905E+001
 11
3.3486884E+001
 21
5.8443586E+001
  0
LINE
  8
108
  6
CONTINUOUS
 62
1
 10
-6.0786798E+001
 20
-1.4616884E+001
 11
-8.0786798E+001
 21
-3.4616884E+001
  0
LINE
  8
108
  6
CONTINUOUS
 62
1
 10
-8.0786798E+001
 20
-1.3403688E+001
 11
-6.0786798E+001
 21
6.5963272
  0
LINE
  8
108
  6
CONTINUOUS
 62
1
 10
-6.0786798E+001
 20
2.7809523E+001
 11
-8.0786798E+001
 21
7.8095232
  0
LINE
  8
108
  6
CONTINUOUS
 62
1
 10
-8.0786798E+001
 20
2.9022718E+001
 11
-7.436593E+001
 21
3.5443586E+001
  0
ENDBLK
  0
BLOCK
  2
*XH44
  3
*XH
 10
0.0
 20
0.0
 70
65
  0
LINE
  8
108
  6
CONTINUOUS
 62
1
 10
-8.2124845
 20
-1.4250062
 11
6.7874845
 21
-1.4250062
  0
LINE
  8
108
  6
CONTINUOUS
 62
1
 10
6.7874845
 20
-1.2750122
 11
-8.0624905
 21
-1.2750122
  0
LINE
  8
108
  6
CONTINUOUS
 62
1
 10
-7.9124965
 20
-1.1249872
 11
6.7874845
 21
-1.1249872
  0
LINE
  8
108
  6
CONTINUOUS
 62
1
 10
6.7874845
 20
-9.749942E-001
 11
-7.7624725
 21
-9.749942E-001
  0
LINE
  8
108
  6
CONTINUOUS
 62
1
 10
-7.6124785
 20
-8.250002E-001
 11
6.7874845
 21
-8.250002E-001
  0
LINE
  8
108
  6
CONTINUOUS
 62
1
 10
6.7874845
 20
-6.750062E-001
 11
-7.4624845
 21
-6.750062E-001
  0
LINE
  8
108
  6
CONTINUOUS
 62
1
 10
-7.3124905
 20
-5.250122E-001
 11
6.7874845
 21
-5.250122E-001
  0
LINE
  8
108
  6
CONTINUOUS
 62
1
 10
6.7874845
 20
-3.749872E-001
 11
-7.1624965
 21
-3.749872E-001
  0
LINE
  8
108
  6
CONTINUOUS
 62
1
 10
-7.0124725
 20
-2.249942E-001
 11
6.7874845
 21
-2.249942E-001
  0
LINE
  8
108
  6
CONTINUOUS
 62
1
 10
6.7874845
 20
-7.50002E-002
 11
-6.8624785
 21
-7.50002E-002
  0
LINE
  8
108
  6
CONTINUOUS
 62
1
 10
-6.7124845
 20
7.49938E-002
 11
6.7874845
 21
7.49938E-002
  0
LINE
  8
108
  6
CONTINUOUS
 62
1
 10
6.7874845
 20
2.249878E-001
 11
-6.5624905
 21
2.249878E-001
  0
LINE
  8
108
  6
CONTINUOUS
 62
1
 10
-6.4124965
 20
3.750128E-001
 11
6.7874845
 21
3.750128E-001
  0
LINE
  8
108
  6
CONTINUOUS
 62
1
 10
6.7874845
 20
5.250058E-001
 11
-6.2624725
 21
5.250058E-001
  0
LINE
  8
108
  6
CONTINUOUS
 62
1
 10
-6.1124785
 20
6.749998E-001
 11
6.7874845
 21
6.749998E-001
  0
LINE
  8
108
  6
CONTINUOUS
 62
1
 10
6.7874845
 20
8.249938E-001
 11
-5.9624845
 21
8.249938E-001
  0
LINE
  8
108
  6
CONTINUOUS
 62
1
 10
-5.8124905
 20
9.749878E-001
 11
6.7874845
 21
9.749878E-001
  0
LINE
  8
108
  6
CONTINUOUS
 62
1
 10
6.7874845
 20
1.1250128
 11
-5.6624965
 21
1.1250128
  0
LINE
  8
108
  6
CONTINUOUS
 62
1
 10
-5.5124725
 20
1.2750058
 11
6.7874845
 21
1.2750058
  0
LINE
  8
108
  6
CONTINUOUS
 62
1
 10
6.7874845
 20
1.4249998
 11
-5.3624785
 21
1.4249998
  0
ENDBLK
  0
BLOCK
  2
*XH45
  3
*XH
 10
0.0
 20
0.0
 70
65
  0
LINE
  8
108
  6
CONTINUOUS
 62
1
 10
-6.3942327
 20
-1.9285977
 11
-6.4659797
 21
-1.9285977
  0
LINE
  8
108
  6
CONTINUOUS
 62
1
 10
8.5339903
 20
-1.3285917
 11
-6.4659797
 21
-1.3285917
  0
LINE
  8
108
  6
CONTINUOUS
 62
1
 10
-6.4659797
 20
-1.1785667
 11
8.3839963
 21
-1.1785667
  0
LINE
  8
108
  6
CONTINUOUS
 62
1
 10
8.2340023
 20
-1.0285727
 11
-6.4659797
 21
-1.0285727
  0
LINE
  8
108
  6
CONTINUOUS
 62
1
 10
-6.4659797
 20
-8.7854871E-001
 11
8.0839783
 21
-8.7854871E-001
  0
LINE
  8
108
  6
CONTINUOUS
 62
1
 10
7.9339843
 20
-7.2858571E-001
 11
-6.4659797
 21
-7.2858571E-001
  0
LINE
  8
108
  6
CONTINUOUS
 62
1
 10
-6.4659797
 20
-5.7856071E-001
 11
7.7839903
 21
-5.7856071E-001
  0
LINE
  8
108
  6
CONTINUOUS
 62
1
 10
7.6339963
 20
-4.2859771E-001
 11
-6.4659797
 21
-4.2859771E-001
  0
LINE
  8
108
  6
CONTINUOUS
 62
1
 10
-6.4659797
 20
-2.7854271E-001
 11
7.4840023
 21
-2.7854271E-001
  0
LINE
  8
108
  6
CONTINUOUS
 62
1
 10
7.3339783
 20
-1.2857971E-001
 11
-6.4659797
 21
-1.2857971E-001
  0
LINE
  8
108
  6
CONTINUOUS
 62
1
 10
-6.4659797
 20
2.1445286E-002
 11
7.1839843
 21
2.1445286E-002
  0
LINE
  8
108
  6
CONTINUOUS
 62
1
 10
7.0339903
 20
1.7140829E-001
 11
-6.4659797
 21
1.7140829E-001
  0
LINE
  8
108
  6
CONTINUOUS
 62
1
 10
-6.4659797
 20
3.2143329E-001
 11
6.8839963
 21
3.2143329E-001
  0
LINE
  8
108
  6
CONTINUOUS
 62
1
 10
6.7340023
 20
4.7142729E-001
 11
-6.4659797
 21
4.7142729E-001
  0
LINE
  8
108
  6
CONTINUOUS
 62
1
 10
-6.4659797
 20
6.2145129E-001
 11
6.5839783
 21
6.2145129E-001
  0
LINE
  8
108
  6
CONTINUOUS
 62
1
 10
6.4339843
 20
7.7141429E-001
 11
-6.4659797
 21
7.7141429E-001
  0
LINE
  8
108
  6
CONTINUOUS
 62
1
 10
-6.4659797
 20
9.2143929E-001
 11
6.2839903
 21
9.2143929E-001
  0
LINE
  8
108
  6
CONTINUOUS
 62
1
 10
6.1339963
 20
1.0714023
 11
-6.4659797
 21
1.0714023
  0
LINE
  8
108
  6
CONTINUOUS
 62
1
 10
-6.4659797
 20
1.2214573
 11
5.9840023
 21
1.2214573
  0
LINE
  8
108
  6
CONTINUOUS
 62
1
 10
5.8339783
 20
1.3714203
 11
-6.4659797
 21
1.3714203
  0
LINE
  8
108
  6
CONTINUOUS
 62
1
 10
-6.4659797
 20
1.5214453
 11
5.6839843
 21
1.5214453
  0
ENDBLK
  0
BLOCK
  2
*XH46
  3
*XH
 10
0.0
 20
0.0
 70
65
  0
LINE
  8
108
  6
CONTINUOUS
 62
1
 10
3.6784568
 20
-1.0463669E+001
 11
5.4661768
 21
-8.6759492
  0
LINE
  8
108
  6
CONTINUOUS
 62
1
 10
6.3912248
 20
-2.0940702
 11
-1.9887802
 21
-1.0474045E+001
  0
LINE
  8
108
  6
CONTINUOUS
 62
1
 10
-5.2563272
 20
-8.0847622
 11
6.0934038
 21
3.2649688
  0
LINE
  8
108
  6
CONTINUOUS
 62
1
 10
5.3614708
 20
8.1898958
 11
-5.5380352
 21
-2.7096102
  0
LINE
  8
108
  6
CONTINUOUS
 62
1
 10
-5.4724532
 20
3.0128328
 11
1.0406388
 21
9.5259248
  0
LINE
  8
108
  6
CONTINUOUS
 62
1
 10
-4.6161902
 20
9.5259248
 11
-5.1595862
 21
8.9825588
  0
ENDBLK
  0
BLOCK
  2
*XH47
  3
*XH
 10
0.0
 20
0.0
 70
65
  0
LINE
  8
108
  6
CONTINUOUS
 62
1
 10
2.4489503
 20
-8.8647614
 11
4.9059203
 21
-6.4077914
  0
LINE
  8
108
  6
CONTINUOUS
 62
1
 10
5.2187863
 20
-4.380644E-001
 11
-3.2079097
 21
-8.8647614
  0
LINE
  8
108
  6
CONTINUOUS
 62
1
 10
-5.9737187
 20
-5.9737394
 11
5.0937863
 21
5.0937956
  0
LINE
  8
108
  6
CONTINUOUS
 62
1
 10
4.8120793
 20
1.0468949E+001
 11
-6.6708007
 21
-1.0139314
  0
LINE
  8
108
  6
CONTINUOUS
 62
1
 10
-6.4486327
 20
4.8650666
 11
-1.784607E-001
 21
1.1135239E+001
  0
ENDBLK
  0
BLOCK
  2
*XH48
  3
*XH
 10
0.0
 20
0.0
 70
65
  0
LINE
  8
108
  6
CONTINUOUS
 62
1
 10
-1.3016739
 20
-5.5443081
 11
3.8648601
 21
-3.7777312E-001
  0
LINE
  8
108
  6
CONTINUOUS
 62
1
 10
3.5673751
 20
2.1531719
 11
-2.6416089
 21
-4.0558431
  0
LINE
  8
108
  6
CONTINUOUS
 62
1
 10
-2.9901509
 20
-1.5759241
 11
2.1531601
 21
3.5673869
  0
LINE
  8
108
  6
CONTINUOUS
 62
1
 10
2.1306613E-001
 20
4.4556919
 11
-2.8650279
 21
1.3775979
  0
ENDBLK
  0
BLOCK
  2
*XH49
  3
*XH
 10
0.0
 20
0.0
 70
65
  0
LINE
  8
108
  6
CONTINUOUS
 62
1
 10
1.8421294
 20
-3.8147341
 11
2.1685454
 21
-3.4883181
  0
LINE
  8
108
  6
CONTINUOUS
 62
1
 10
2.7297644
 20
-9.86391E-002
 11
-1.1350736
 21
-3.9635071
  0
LINE
  8
108
  6
CONTINUOUS
 62
1
 10
-2.7370936
 20
-2.7370971
 11
2.6610074
 21
2.6610049
  0
LINE
  8
108
  6
CONTINUOUS
 62
1
 10
2.3124664
 20
5.1408939
 11
-4.1106906
 21
-1.2822631
  0
LINE
  8
108
  6
CONTINUOUS
 62
1
 10
-4.1106906
 20
1.5461669
 11
3.796354E-001
 21
6.0364929
  0
ENDBLK
  0
BLOCK
  2
*D45
  3
*D
 10
0.0
 20
0.0
 70
65
  0
LINE
  8
MED-0
  6
CONTINUOUS
 62
4
 10
9.9794006E+001
 20
7.0301744E+001
 11
7.6019394E+001
 21
7.0301744E+001
  0
LINE
  8
MED-0
  6
CONTINUOUS
 62
4
 10
9.9794006E+001
 20
7.3301744E+001
 11
7.6019394E+001
 21
7.3301744E+001
  0
SOLID
  8
1
  6
CONTINUOUS
 62
0
 10
7.7019394E+001
 20
7.0301744E+001
 11
7.7602731E+001
 21
7.3801744E+001
 12
7.6436056E+001
 22
7.3801744E+001
 13
7.6436056E+001
 23
7.3801744E+001
  0
SOLID
  8
1
  6
CONTINUOUS
 62
0
 10
7.7019394E+001
 20
7.3301744E+001
 11
7.6436056E+001
 21
6.9801744E+001
 12
7.7602731E+001
 22
6.9801744E+001
 13
7.7602731E+001
 23
6.9801744E+001
  0
LINE
  8
MED-0
  6
CONTINUOUS
 62
4
 10
7.7019394E+001
 20
7.0301744E+001
 11
7.7019394E+001
 21
7.2011512E+001
  0
LINE
  8
MED-0
  6
CONTINUOUS
 62
4
 10
7.7019394E+001
 20
7.2011512E+001
 11
7.7019394E+001
 21
7.3301744E+001
  0
TEXT
  8
MED-0
  6
CONTINUOUS
 62
4
 10
7.5853894E+001
 20
7.0844846E+001
 40
3.5
  1
3
 41
6.6666667E-001
 50
9.0E+001
  0
ENDBLK
  0
BLOCK
  2
*D126
  3
*D
 10
0.0
 20
0.0
 70
65
  0
LINE
  8
MED-0
  6
CONTINUOUS
 62
4
 10
2.1055963E+002
 20
9.9301744E+001
 11
2.1055963E+002
 21
1.3631557E+002
  0
LINE
  8
MED-0
  6
CONTINUOUS
 62
4
 10
1.8555963E+002
 20
9.9301744E+001
 11
1.8555963E+002
 21
1.3631557E+002
  0
SOLID
  8
1
  6
CONTINUOUS
 62
0
 10
2.1055963E+002
 20
1.3531557E+002
 11
2.0705963E+002
 21
1.3589891E+002
 12
2.0705963E+002
 22
1.3473223E+002
 13
2.0705963E+002
 23
1.3473223E+002
  0
SOLID
  8
1
  6
CONTINUOUS
 62
0
 10
1.8555963E+002
 20
1.3531557E+002
 11
1.8905963E+002
 21
1.3473223E+002
 12
1.8905963E+002
 22
1.3589891E+002
 13
1.8905963E+002
 23
1.3589891E+002
  0
LINE
  8
MED-0
  6
CONTINUOUS
 62
4
 10
1.9847169E+002
 20
1.3531557E+002
 11
2.1055963E+002
 21
1.3531557E+002
  0
LINE
  8
MED-0
  6
CONTINUOUS
 62
4
 10
1.8555963E+002
 20
1.3531557E+002
 11
1.9847169E+002
 21
1.3531557E+002
  0
TEXT
  8
MED-0
  6
CONTINUOUS
 62
4
 10
1.9380502E+002
 20
1.3648107E+002
 40
3.5
  1
%%c 25
 41
6.6666667E-001
  0
ENDBLK
  0
BLOCK
  2
*D165
  3
*D
 10
0.0
 20
0.0
 70
65
  0
LINE
  8
MED-0
  6
CONTINUOUS
 62
4
 10
1.8455963E+002
 20
9.8301744E+001
 11
1.6522263E+002
 21
9.8301744E+001
  0
LINE
  8
MED-0
  6
CONTINUOUS
 62
4
 10
1.8455963E+002
 20
7.0301744E+001
 11
1.6522263E+002
 21
7.0301744E+001
  0
SOLID
  8
1
  6
CONTINUOUS
 62
0
 10
1.6622263E+002
 20
9.8301744E+001
 11
1.6563929E+002
 21
9.4801744E+001
 12
1.6680596E+002
 22
9.4801744E+001
 13
1.6680596E+002
 23
9.4801744E+001
  0
SOLID
  8
1
  6
CONTINUOUS
 62
0
 10
1.6622263E+002
 20
7.0301744E+001
 11
1.6680596E+002
 21
7.3801744E+001
 12
1.6563929E+002
 22
7.3801744E+001
 13
1.6563929E+002
 23
7.3801744E+001
  0
LINE
  8
MED-0
  6
CONTINUOUS
 62
4
 10
1.6622263E+002
 20
8.4343558E+001
 11
1.6622263E+002
 21
9.8301744E+001
  0
LINE
  8
MED-0
  6
CONTINUOUS
 62
4
 10
1.6622263E+002
 20
7.0301744E+001
 11
1.6622263E+002
 21
8.4343558E+001
  0
TEXT
  8
MED-0
  6
CONTINUOUS
 62
4
 10
1.6455763E+002
 20
8.2676891E+001
 40
5.0000001
  1
Z
 41
6.6666667E-001
 50
9.0E+001
  0
ENDBLK
  0
BLOCK
  2
*D259
  3
*D
 10
0.0
 20
0.0
 70
65
  0
LINE
  8
MED-0
  6
CONTINUOUS
 62
4
 10
1.3833111E+002
 20
1.971169E+002
 11
1.4437237E+002
 21
1.971169E+002
  0
LINE
  8
MED-0
  6
CONTINUOUS
 62
4
 10
1.0093284E+002
 20
2.051169E+002
 11
1.4437237E+002
 21
2.051169E+002
  0
SOLID
  8
1
  6
CONTINUOUS
 62
0
 10
1.4337237E+002
 20
1.971169E+002
 11
1.4395571E+002
 21
2.006169E+002
 12
1.4278903E+002
 22
2.006169E+002
 13
1.4278903E+002
 23
2.006169E+002
  0
SOLID
  8
1
  6
CONTINUOUS
 62
0
 10
1.4337237E+002
 20
2.051169E+002
 11
1.4278903E+002
 21
2.016169E+002
 12
1.4395571E+002
 22
2.016169E+002
 13
1.4395571E+002
 23
2.016169E+002
  0
LINE
  8
MED-0
  6
CONTINUOUS
 62
4
 10
1.4337237E+002
 20
1.971169E+002
 11
1.4337237E+002
 21
2.0183855E+002
  0
LINE
  8
MED-0
  6
CONTINUOUS
 62
4
 10
1.4337237E+002
 20
2.0183855E+002
 11
1.4337237E+002
 21
2.051169E+002
  0
TEXT
  8
MED-0
  6
CONTINUOUS
 62
4
 10
1.4220687E+002
 20
2.0067188E+002
 40
3.5
  1
8
 41
6.6666667E-001
 50
9.0E+001
  0
ENDBLK
  0
BLOCK
  2
*D285
  3
*D
 10
0.0
 20
0.0
 70
65
  0
LINE
  8
MED-0
  6
CONTINUOUS
 62
4
 10
3.6382043E+002
 20
2.201169E+002
 11
3.6205163E+002
 21
2.201169E+002
  0
LINE
  8
MED-0
  6
CONTINUOUS
 62
4
 10
3.495874E+002
 20
2.281169E+002
 11
3.6405163E+002
 21
2.281169E+002
  0
SOLID
  8
1
  6
CONTINUOUS
 62
0
 10
3.6305163E+002
 20
2.201169E+002
 11
3.6363497E+002
 21
2.236169E+002
 12
3.6246829E+002
 22
2.236169E+002
 13
3.6246829E+002
 23
2.236169E+002
  0
SOLID
  8
1
  6
CONTINUOUS
 62
0
 10
3.6305163E+002
 20
2.281169E+002
 11
3.6246829E+002
 21
2.246169E+002
 12
3.6363497E+002
 22
2.246169E+002
 13
3.6363497E+002
 23
2.246169E+002
  0
LINE
  8
MED-0
  6
CONTINUOUS
 62
4
 10
3.6305163E+002
 20
2.201169E+002
 11
3.6305163E+002
 21
2.2418059E+002
  0
LINE
  8
MED-0
  6
CONTINUOUS
 62
4
 10
3.6305163E+002
 20
2.2418059E+002
 11
3.6305163E+002
 21
2.281169E+002
  0
TEXT
  8
MED-0
  6
CONTINUOUS
 62
4
 10
3.6188613E+002
 20
2.2301392E+002
 40
3.5
  1
8
 41
6.6666667E-001
 50
9.0E+001
  0
ENDBLK
  0
BLOCK
  2
*D1494
  3
*D
 10
0.0
 20
0.0
 70
65
  0
LINE
  8
MED-0
  6
CONTINUOUS
 62
4
 10
2.1499141E+001
 20
1.971169E+002
 11
1.5149165E+001
 21
1.971169E+002
  0
LINE
  8
MED-0
  6
CONTINUOUS
 62
4
 10
6.4512629E+001
 20
2.231169E+002
 11
1.5149165E+001
 21
2.231169E+002
  0
SOLID
  8
1
  6
CONTINUOUS
 62
0
 10
1.6149165E+001
 20
1.971169E+002
 11
1.6732503E+001
 21
2.006169E+002
 12
1.5565827E+001
 22
2.006169E+002
 13
1.5565827E+001
 23
2.006169E+002
  0
SOLID
  8
1
  6
CONTINUOUS
 62
0
 10
1.6149165E+001
 20
2.231169E+002
 11
1.5565827E+001
 21
2.196169E+002
 12
1.6732503E+001
 22
2.196169E+002
 13
1.6732503E+001
 23
2.196169E+002
  0
LINE
  8
MED-0
  6
CONTINUOUS
 62
4
 10
1.6149165E+001
 20
1.971169E+002
 11
1.6149165E+001
 21
2.1112038E+002
  0
LINE
  8
MED-0
  6
CONTINUOUS
 62
4
 10
1.6149165E+001
 20
2.1112038E+002
 11
1.6149165E+001
 21
2.231169E+002
  0
TEXT
  8
MED-0
  6
CONTINUOUS
 62
4
 10
1.4484165E+001
 20
2.0945372E+002
 40
5.0000001
  1
X
 41
6.6666667E-001
 50
9.0E+001
  0
ENDBLK
  0
BLOCK
  2
*D1636
  3
*D
 10
0.0
 20
0.0
 70
65
  0
LINE
  8
MED-0
  6
CONTINUOUS
 62
4
 10
2.2821789E+002
 20
1.971169E+002
 11
2.2321474E+002
 21
1.971169E+002
  0
LINE
  8
MED-0
  6
CONTINUOUS
 62
4
 10
2.7123138E+002
 20
2.231169E+002
 11
2.2321474E+002
 21
2.231169E+002
  0
SOLID
  8
1
  6
CONTINUOUS
 62
0
 10
2.2421474E+002
 20
1.971169E+002
 11
2.2479808E+002
 21
2.006169E+002
 12
2.236314E+002
 22
2.006169E+002
 13
2.236314E+002
 23
2.006169E+002
  0
SOLID
  8
1
  6
CONTINUOUS
 62
0
 10
2.2421474E+002
 20
2.231169E+002
 11
2.236314E+002
 21
2.196169E+002
 12
2.2479808E+002
 22
2.196169E+002
 13
2.2479808E+002
 23
2.196169E+002
  0
LINE
  8
MED-0
  6
CONTINUOUS
 62
4
 10
2.2421474E+002
 20
1.971169E+002
 11
2.2421474E+002
 21
2.1051156E+002
  0
LINE
  8
MED-0
  6
CONTINUOUS
 62
4
 10
2.2421474E+002
 20
2.231169E+002
 11
2.2421474E+002
 21
2.1051156E+002
  0
TEXT
  8
MED-0
  6
CONTINUOUS
 62
4
 10
2.2254874E+002
 20
2.0884489E+002
 40
5.0000001
  1
X
 41
6.6666667E-001
 50
9.0E+001
  0
ENDBLK
  0
ENDSEC
  0
SECTION
  2
ENTITIES
  0
TEXT
  8
103
  6
CONTINUOUS
 62
40
 10
4.0701704E+002
 20
1.4631415E+001
 40
5.0
  1
BTS-Zubehör Steckachsen
 41
6.5454545E-001
 72
1
 11
3.6938068E+002
 21
1.2131415E+001
 73
2
  0
TEXT
  8
103
  6
CONTINUOUS
 62
40
 10
2.7248716E+001
 20
2.8949737E+002
 40
5.0
  1
M 1:1
 41
6.3E-001
 72
1
 11
1.9373716E+001
 21
2.8699737E+002
 73
2
  0
TEXT
  8
103
  6
CONTINUOUS
 62
40
 10
1.4161496E+002
 20
5.1834061E+001
 40
5.0
  1
Normale Steckachse
 41
6.625E-001
 72
1
 11
1.1180246E+002
 21
4.9334061E+001
 73
2
  0
DIMENSION
  8
MED-0
  6
CONTINUOUS
 62
4
  2
*D45
  3
DSTYLE1
 10
7.7019394E+001
 20
7.3301744E+001
 11
7.4103894E+001
 21
7.2011512E+001
 70
128
 13
1.0079401E+002
 23
7.0301744E+001
 14
1.0079401E+002
 24
7.3301744E+001
 40
3.0
 50
9.0E+001
  0
LINE
  8
99
  6
CONTINUOUS
 62
1
 10
2.1055963E+002
 20
1.3030174E+002
 11
2.1055963E+002
 21
1.3530174E+002
  0
LINE
  8
99
  6
CONTINUOUS
 62
1
 10
2.1055963E+002
 20
1.3030174E+002
 11
2.1055963E+002
 21
1.2530174E+002
  0
LINE
  8
99
  6
CONTINUOUS
 62
1
 10
1.8555963E+002
 20
1.3030174E+002
 11
1.8555963E+002
 21
1.3530174E+002
  0
LINE
  8
99
  6
CONTINUOUS
 62
1
 10
1.8555963E+002
 20
1.3030174E+002
 11
1.8555963E+002
 21
1.2530174E+002
  0
DIMENSION
  8
MED-0
  6
CONTINUOUS
 62
4
  2
*D126
  3
DSTYLE1
 10
1.8555963E+002
 20
1.3531557E+002
 11
1.9847169E+002
 21
1.3823107E+002
 70
128
 13
2.1055963E+002
 23
9.8301744E+001
 14
1.8555963E+002
 24
9.8301744E+001
 40
3.0
 50
1.8E+002
  0
DIMENSION
  8
MED-0
  6
CONTINUOUS
 62
4
  1
Z
  2
*D165
  3
DSTYLE2
 10
1.6622263E+002
 20
7.0301744E+001
 11
1.6205763E+002
 21
8.4343558E+001
 70
128
 13
1.8555963E+002
 23
9.8301744E+001
 14
1.8555963E+002
 24
7.0301744E+001
 40
3.0
 50
-9.0E+001
  0
LINE
  8
104
  6
CONTINUOUS
 62
40
 10
2.0405963E+002
 20
1.7475423E+001
 11
2.0405963E+002
 21
3.7096849E+001
  0
ARC
  8
104
  6
CONTINUOUS
 62
40
 10
1.9810213E+002
 20
2.7435573E+001
 40
1.1350421E+001
 50
5.8340485E+001
 51
9.006398E+001
  0
ARC
  8
104
  6
CONTINUOUS
 62
40
 10
1.9810223E+002
 20
2.7133297E+001
 40
1.1652697E+001
 50
9.0062792E+001
 51
1.2123556E+002
  0
LINE
  8
104
  6
CONTINUOUS
 62
40
 10
1.9205963E+002
 20
3.7096849E+001
 11
1.9205963E+002
 21
1.7475423E+001
  0
ARC
  8
104
  6
CONTINUOUS
 62
40
 10
1.9810223E+002
 20
2.7438953E+001
 40
1.165268E+001
 50
2.3876437E+002
 51
2.699372E+002
  0
ARC
  8
104
  6
CONTINUOUS
 62
40
 10
1.9810214E+002
 20
2.7136652E+001
 40
1.1350378E+001
 50
2.6993601E+002
 51
3.0165963E+002
  0
CIRCLE
  8
104
  6
CONTINUOUS
 62
40
 10
1.9805963E+002
 20
2.7286119E+001
 40
4.0
  0
LINE
  8
106
  6
CENTERLINE
 62
1
 10
1.8363095E+002
 20
2.7286119E+001
 11
2.1228009E+002
 21
2.7286119E+001
  0
LINE
  8
106
  6
CENTERLINE
 62
1
 10
1.9805963E+002
 20
1.1888113E+001
 11
1.9805963E+002
 21
4.2439256E+001
  0
CIRCLE
  8
104
  6
CONTINUOUS
 62
40
 10
1.9805963E+002
 20
2.7286119E+001
 40
1.25E+001
  0
LINE
  8
104
  6
CONTINUOUS
 62
40
 10
1.9080963E+002
 20
7.0301775E+001
 11
1.9207452E+002
 21
6.1301744E+001
  0
LINE
  8
104
  6
CONTINUOUS
 62
40
 10
1.9207452E+002
 20
6.1301744E+001
 11
2.0404477E+002
 21
6.1301744E+001
  0
LINE
  8
104
  6
CONTINUOUS
 62
40
 10
2.0404477E+002
 20
6.1301744E+001
 11
2.0530963E+002
 21
7.0301775E+001
  0
LINE
  8
104
  6
CONTINUOUS
 62
40
 10
1.9205963E+002
 20
9.8301744E+001
 11
1.9279334E+002
 21
1.1230174E+002
  0
LINE
  8
104
  6
CONTINUOUS
 62
40
 10
1.9279334E+002
 20
1.1230174E+002
 11
2.0332593E+002
 21
1.1230174E+002
  0
LINE
  8
104
  6
CONTINUOUS
 62
40
 10
2.0332593E+002
 20
1.1230174E+002
 11
2.0405963E+002
 21
9.8301744E+001
  0
LINE
  8
104
  6
CONTINUOUS
 62
40
 10
2.1055963E+002
 20
7.0301744E+001
 11
1.8555963E+002
 21
7.0301744E+001
  0
LINE
  8
104
  6
CONTINUOUS
 62
40
 10
1.8555963E+002
 20
7.0301744E+001
 11
1.8555963E+002
 21
9.8301744E+001
  0
LINE
  8
104
  6
CONTINUOUS
 62
40
 10
1.8555963E+002
 20
9.8301744E+001
 11
2.1055963E+002
 21
9.8301744E+001
  0
LINE
  8
104
  6
CONTINUOUS
 62
40
 10
2.1055963E+002
 20
9.8301744E+001
 11
2.1055963E+002
 21
7.0301744E+001
  0
LINE
  8
106
  6
CENTERLINE
 62
1
 10
1.9805963E+002
 20
5.7787218E+001
 11
1.9805963E+002
 21
1.1497838E+002
  0
LINE
  8
104
  6
CONTINUOUS
 62
40
 10
1.0604401E+002
 20
7.0301775E+001
 11
1.073089E+002
 21
6.1301744E+001
  0
LINE
  8
104
  6
CONTINUOUS
 62
40
 10
1.073089E+002
 20
6.1301744E+001
 11
1.1927914E+002
 21
6.1301744E+001
  0
LINE
  8
104
  6
CONTINUOUS
 62
40
 10
1.1927914E+002
 20
6.1301744E+001
 11
1.2054401E+002
 21
7.0301775E+001
  0
LINE
  8
104
  6
CONTINUOUS
 62
40
 10
1.0729401E+002
 20
7.3301744E+001
 11
1.0802771E+002
 21
8.7301744E+001
  0
LINE
  8
104
  6
CONTINUOUS
 62
40
 10
1.0802771E+002
 20
8.7301744E+001
 11
1.185603E+002
 21
8.7301744E+001
  0
LINE
  8
104
  6
CONTINUOUS
 62
40
 10
1.185603E+002
 20
8.7301744E+001
 11
1.1929401E+002
 21
7.3301744E+001
  0
LINE
  8
104
  6
CONTINUOUS
 62
40
 10
1.2579401E+002
 20
7.0301744E+001
 11
1.0079401E+002
 21
7.0301744E+001
  0
LINE
  8
104
  6
CONTINUOUS
 62
40
 10
1.0079401E+002
 20
7.0301744E+001
 11
1.0079401E+002
 21
7.3301744E+001
  0
LINE
  8
104
  6
CONTINUOUS
 62
40
 10
1.0079401E+002
 20
7.3301744E+001
 11
1.2579401E+002
 21
7.3301744E+001
  0
LINE
  8
104
  6
CONTINUOUS
 62
40
 10
1.2579401E+002
 20
7.3301744E+001
 11
1.2579401E+002
 21
7.0301744E+001
  0
LINE
  8
106
  6
CENTERLINE
 62
1
 10
1.1329401E+002
 20
5.7787218E+001
 11
1.1329401E+002
 21
8.997838E+001
  0
TEXT
  8
103
  6
CONTINUOUS
 62
40
 10
7.4646365E+001
 20
1.7325902E+002
 40
5.0
  1
DORMA BTS
 41
6.5E-001
 72
1
 11
6.0021365E+001
 21
1.7075902E+002
 73
2
  0
TEXT
  8
103
  6
CONTINUOUS
 62
40
 10
2.8029403E+002
 20
1.7380307E+002
 40
5.0
  1
DORMA BTS
 41
6.5E-001
 72
1
 11
2.6566903E+002
 21
1.7130307E+002
 73
2
  0
LINE
  8
104
  6
CONTINUOUS
 62
40
 10
3.295874E+002
 20
2.3071691E+002
 11
3.2698739E+002
 21
2.2811687E+002
  0
LINE
  8
104
  6
CONTINUOUS
 62
40
 10
3.2698739E+002
 20
2.2811687E+002
 11
3.381874E+002
 21
2.2811687E+002
  0
LINE
  8
104
  6
CONTINUOUS
 62
40
 10
3.381874E+002
 20
2.2811687E+002
 11
3.355874E+002
 21
2.3079815E+002
  0
LINE
  8
MED-27
  6
CENTERLINE
 62
150
 10
3.355874E+002
 20
2.3071691E+002
 11
3.355874E+002
 21
2.5638677E+002
  0
LINE
  8
MED-27
  6
CENTERLINE
 62
150
 10
3.355874E+002
 20
2.5638677E+002
 11
3.325874E+002
 21
2.6071691E+002
  0
LINE
  8
MED-27
  6
CENTERLINE
 62
150
 10
3.325874E+002
 20
2.6071691E+002
 11
3.295874E+002
 21
2.5638677E+002
  0
LINE
  8
MED-27
  6
CENTERLINE
 62
150
 10
3.295874E+002
 20
2.5638677E+002
 11
3.295874E+002
 21
2.3071691E+002
  0
LINE
  8
MED-27
  6
CENTERLINE
 62
150
 10
3.295874E+002
 20
2.3071691E+002
 11
3.355874E+002
 21
2.3071691E+002
  0
LINE
  8
99
  6
CONTINUOUS
 62
1
 10
3.295874E+002
 20
2.3473613E+002
 11
3.365874E+002
 21
2.3634383E+002
  0
LINE
  8
99
  6
CONTINUOUS
 62
1
 10
3.365874E+002
 20
2.3634383E+002
 11
3.355874E+002
 21
2.3661177E+002
  0
LINE
  8
99
  6
CONTINUOUS
 62
1
 10
3.295874E+002
 20
2.3795153E+002
 11
3.285874E+002
 21
2.3821947E+002
  0
LINE
  8
99
  6
CONTINUOUS
 62
1
 10
3.285874E+002
 20
2.3821947E+002
 11
3.365874E+002
 21
2.4009511E+002
  0
LINE
  8
99
  6
CONTINUOUS
 62
1
 10
3.365874E+002
 20
2.4009511E+002
 11
3.355874E+002
 21
2.4036306E+002
  0
LINE
  8
99
  6
CONTINUOUS
 62
1
 10
3.295874E+002
 20
2.4170281E+002
 11
3.285874E+002
 21
2.4197075E+002
  0
LINE
  8
99
  6
CONTINUOUS
 62
1
 10
3.285874E+002
 20
2.4197075E+002
 11
3.365874E+002
 21
2.4384639E+002
  0
LINE
  8
99
  6
CONTINUOUS
 62
1
 10
3.365874E+002
 20
2.4384639E+002
 11
3.355874E+002
 21
2.4411434E+002
  0
LINE
  8
99
  6
CONTINUOUS
 62
1
 10
3.295874E+002
 20
2.4545409E+002
 11
3.285874E+002
 21
2.4572203E+002
  0
LINE
  8
99
  6
CONTINUOUS
 62
1
 10
3.285874E+002
 20
2.4572203E+002
 11
3.365874E+002
 21
2.4759768E+002
  0
LINE
  8
99
  6
CONTINUOUS
 62
1
 10
3.365874E+002
 20
2.4759768E+002
 11
3.355874E+002
 21
2.4786562E+002
  0
LINE
  8
99
  6
CONTINUOUS
 62
1
 10
3.295874E+002
 20
2.4920537E+002
 11
3.285874E+002
 21
2.4947332E+002
  0
LINE
  8
99
  6
CONTINUOUS
 62
1
 10
3.285874E+002
 20
2.4947332E+002
 11
3.365874E+002
 21
2.5134896E+002
  0
LINE
  8
99
  6
CONTINUOUS
 62
1
 10
3.365874E+002
 20
2.5134896E+002
 11
3.355874E+002
 21
2.516169E+002
  0
LINE
  8
99
  6
CONTINUOUS
 62
1
 10
3.295874E+002
 20
2.5295665E+002
 11
3.285874E+002
 21
2.532246E+002
  0
LINE
  8
99
  6
CONTINUOUS
 62
1
 10
3.285874E+002
 20
2.532246E+002
 11
3.365874E+002
 21
2.5510024E+002
  0
LINE
  8
99
  6
CONTINUOUS
 62
1
 10
3.365874E+002
 20
2.5510024E+002
 11
3.355874E+002
 21
2.5536818E+002
  0
LINE
  8
99
  6
CONTINUOUS
 62
1
 10
3.2974798E+002
 20
2.566649E+002
 11
3.2898706E+002
 21
2.5686879E+002
  0
LINE
  8
99
  6
CONTINUOUS
 62
1
 10
3.2898706E+002
 20
2.5686879E+002
 11
3.3518145E+002
 21
2.5826064E+002
  0
LINE
  8
99
  6
CONTINUOUS
 62
1
 10
3.3518145E+002
 20
2.5826064E+002
 11
3.3407461E+002
 21
2.5853179E+002
  0
LINE
  8
99
  6
CONTINUOUS
 62
1
 10
3.3143216E+002
 20
2.5902147E+002
 11
3.3046655E+002
 21
2.5925603E+002
  0
LINE
  8
99
  6
CONTINUOUS
 62
1
 10
3.3046655E+002
 20
2.5925603E+002
 11
3.3167321E+002
 21
2.5939739E+002
  0
LINE
  8
106
  6
CENTERLINE
 62
1
 10
3.325874E+002
 20
2.2955657E+002
 11
3.325874E+002
 21
2.6251616E+002
  0
LINE
  8
104
  6
CONTINUOUS
 62
40
 10
3.295874E+002
 20
2.3071691E+002
 11
3.295874E+002
 21
2.5638677E+002
  0
LINE
  8
104
  6
CONTINUOUS
 62
40
 10
3.295874E+002
 20
2.5638677E+002
 11
3.325874E+002
 21
2.6071691E+002
  0
LINE
  8
104
  6
CONTINUOUS
 62
40
 10
3.325874E+002
 20
2.6071691E+002
 11
3.355874E+002
 21
2.5638677E+002
  0
LINE
  8
104
  6
CONTINUOUS
 62
40
 10
3.355874E+002
 20
2.5638677E+002
 11
3.355874E+002
 21
2.3071691E+002
  0
LINE
  8
104
  6
CONTINUOUS
 62
40
 10
3.355874E+002
 20
2.3071691E+002
 11
3.295874E+002
 21
2.3071691E+002
  0
DIMENSION
  8
MED-0
  6
CONTINUOUS
 62
4
  2
*D259
  3
DSTYLE1
 10
1.4337237E+002
 20
2.051169E+002
 11
1.4045687E+002
 21
2.0183855E+002
 70
128
 13
1.3733111E+002
 23
1.971169E+002
 14
9.9932841E+001
 24
2.051169E+002
 40
3.0
 50
9.0E+001
  0
DIMENSION
  8
MED-0
  6
CONTINUOUS
 62
4
  2
*D285
  3
DSTYLE1
 10
3.6305163E+002
 20
2.281169E+002
 11
3.6013613E+002
 21
2.2418059E+002
 70
128
 13
3.6482043E+002
 23
2.201169E+002
 14
3.485874E+002
 24
2.281169E+002
 40
3.0
 50
9.0E+001
  0
LINE
  8
99
  6
CONTINUOUS
 62
1
 10
3.665874E+002
 20
2.201169E+002
 11
3.615874E+002
 21
2.201169E+002
  0
LINE
  8
99
  6
CONTINUOUS
 62
1
 10
9.4868647E+001
 20
2.388669E+002
 11
8.8692973E+001
 21
2.388669E+002
  0
LINE
  8
99
  6
CONTINUOUS
 62
1
 10
9.4868647E+001
 20
2.353669E+002
 11
8.8552394E+001
 21
2.353669E+002
  0
LINE
  8
99
  6
CONTINUOUS
 62
1
 10
6.5184901E+001
 20
2.353669E+002
 11
5.8868648E+001
 21
2.353669E+002
  0
LINE
  8
99
  6
CONTINUOUS
 62
1
 10
5.8868648E+001
 20
2.388669E+002
 11
6.5044322E+001
 21
2.388669E+002
  0
LINE
  8
104
  6
CONTINUOUS
 62
40
 10
8.8517299E+001
 20
2.401169E+002
 11
9.8868647E+001
 21
2.401169E+002
  0
LINE
  8
104
  6
CONTINUOUS
 62
40
 10
8.8376719E+001
 20
2.341169E+002
 11
9.8868647E+001
 21
2.341169E+002
  0
LINE
  8
104
  6
CONTINUOUS
 62
40
 10
9.8868647E+001
 20
2.311169E+002
 11
9.4868647E+001
 21
2.311169E+002
  0
LINE
  8
104
  6
CONTINUOUS
 62
40
 10
9.4868647E+001
 20
2.311169E+002
 11
9.4868647E+001
 21
2.431169E+002
  0
LINE
  8
104
  6
CONTINUOUS
 62
40
 10
5.8868648E+001
 20
2.431169E+002
 11
5.8868648E+001
 21
2.311169E+002
  0
LINE
  8
104
  6
CONTINUOUS
 62
40
 10
5.8868648E+001
 20
2.311169E+002
 11
5.4868648E+001
 21
2.311169E+002
  0
LINE
  8
104
  6
CONTINUOUS
 62
40
 10
5.8868648E+001
 20
2.431169E+002
 11
5.4868648E+001
 21
2.4300795E+002
  0
LINE
  8
104
  6
CONTINUOUS
 62
40
 10
5.4868648E+001
 20
2.401169E+002
 11
6.5219996E+001
 21
2.401169E+002
  0
LINE
  8
104
  6
CONTINUOUS
 62
40
 10
5.4868648E+001
 20
2.341169E+002
 11
6.5360576E+001
 21
2.341169E+002
  0
INSERT
  2
*XH37
  8
108
 10
7.6868647E+001
 20
2.4612313E+002
  0
LINE
  8
104
  6
CONTINUOUS
 62
40
 10
5.1868648E+001
 20
2.871169E+002
 11
5.1868648E+001
 21
2.051169E+002
  0
LINE
  8
104
  6
CONTINUOUS
 62
40
 10
5.1868648E+001
 20
2.051169E+002
 11
5.4868648E+001
 21
2.051169E+002
  0
LINE
  8
104
  6
CONTINUOUS
 62
40
 10
5.4868648E+001
 20
2.051169E+002
 11
5.4868648E+001
 21
2.431169E+002
  0
LINE
  8
104
  6
CONTINUOUS
 62
40
 10
5.4868648E+001
 20
2.431169E+002
 11
9.8868647E+001
 21
2.431169E+002
  0
LINE
  8
104
  6
CONTINUOUS
 62
40
 10
9.8868647E+001
 20
2.431169E+002
 11
9.8868647E+001
 21
2.051169E+002
  0
LINE
  8
104
  6
CONTINUOUS
 62
40
 10
9.8868647E+001
 20
2.051169E+002
 11
1.0186865E+002
 21
2.051169E+002
  0
LINE
  8
104
  6
CONTINUOUS
 62
40
 10
1.0186865E+002
 20
2.051169E+002
 11
1.0186865E+002
 21
2.871169E+002
  0
LINE
  8
104
  6
CONTINUOUS
 62
40
 10
5.4868648E+001
 20
2.871169E+002
 11
5.4868648E+001
 21
2.461169E+002
  0
LINE
  8
104
  6
CONTINUOUS
 62
40
 10
5.4868648E+001
 20
2.461169E+002
 11
9.8868647E+001
 21
2.461169E+002
  0
LINE
  8
104
  6
CONTINUOUS
 62
40
 10
9.8868647E+001
 20
2.461169E+002
 11
9.8868647E+001
 21
2.871169E+002
  0
LINE
  8
106
  6
CENTERLINE
 62
1
 10
1.0675315E+002
 20
2.8704659E+002
 11
4.6585414E+001
 21
2.8704659E+002
  0
LINE
  8
99
  6
CONTINUOUS
 62
1
 10
3.551327E+001
 20
2.006169E+002
 11
4.051327E+001
 21
2.006169E+002
  0
TEXT
  8
103
  6
CONTINUOUS
 62
40
 10
3.1940791E+001
 20
2.1361776E+002
 40
5.0
  1
Z
 50
9.0E+001
 72
1
 11
2.9440791E+001
 21
2.1111776E+002
 73
2
  0
LINE
  8
99
  6
CONTINUOUS
 62
1
 10
3.551327E+001
 20
2.2091692E+002
 11
4.051327E+001
 21
2.2091692E+002
  0
INSERT
  2
_D5
  8
MED-0
 10
0.0
 20
0.0
  0
DIMENSION
  8
MED-0
  6
CONTINUOUS
 62
4
  1
X
  2
*D1494
  3
DSTYLE2
 10
1.6149165E+001
 20
2.231169E+002
 11
1.1984165E+001
 21
2.1112038E+002
 70
128
 13
2.2499141E+001
 23
1.971169E+002
 14
6.5512629E+001
 24
2.231169E+002
 40
3.0
 50
9.0E+001
  0
LINE
  8
104
  6
CONTINUOUS
 62
40
 10
2.9483289
 20
1.971169E+002
 11
3.7868648E+001
 21
1.971169E+002
  0
LINE
  8
104
  6
CONTINUOUS
 62
40
 10
3.7868648E+001
 20
1.971169E+002
 11
3.7868648E+001
 21
1.371169E+002
  0
LINE
  8
104
  6
CONTINUOUS
 62
40
 10
3.7868648E+001
 20
1.371169E+002
 11
1.1586865E+002
 21
1.371169E+002
  0
LINE
  8
104
  6
CONTINUOUS
 62
40
 10
1.1586865E+002
 20
1.371169E+002
 11
1.1586865E+002
 21
1.971169E+002
  0
LINE
  8
104
  6
CONTINUOUS
 62
40
 10
1.1586865E+002
 20
1.971169E+002
 11
1.5300856E+002
 21
1.971169E+002
  0
LINE
  8
104
  6
CONTINUOUS
 62
40
 10
6.9618647E+001
 20
2.006169E+002
 11
6.9618647E+001
 21
1.991169E+002
  0
LINE
  8
104
  6
CONTINUOUS
 62
40
 10
8.4118647E+001
 20
2.006169E+002
 11
8.4118647E+001
 21
1.991169E+002
  0
LINE
  8
104
  6
CONTINUOUS
 62
40
 10
6.4368647E+001
 20
2.006169E+002
 11
6.4368647E+001
 21
2.2091692E+002
  0
LINE
  8
104
  6
CONTINUOUS
 62
40
 10
6.4368647E+001
 20
2.2091692E+002
 11
8.9368647E+001
 21
2.2091692E+002
  0
LINE
  8
104
  6
CONTINUOUS
 62
40
 10
8.9368647E+001
 20
2.2091692E+002
 11
8.9368647E+001
 21
2.006169E+002
  0
LINE
  8
104
  6
CONTINUOUS
 62
40
 10
8.9368647E+001
 20
2.006169E+002
 11
6.4368647E+001
 21
2.006169E+002
  0
LINE
  8
104
  6
CONTINUOUS
 62
40
 10
8.2733943E+001
 20
2.2091692E+002
 11
8.2618647E+001
 21
2.231169E+002
  0
LINE
  8
104
  6
CONTINUOUS
 62
40
 10
7.1118647E+001
 20
2.231169E+002
 11
7.1003352E+001
 21
2.2091692E+002
  0
INSERT
  2
*XH40
  8
108
 10
8.1635359E+001
 20
1.5329088E+002
  0
LINE
  8
104
  6
CONTINUOUS
 62
40
 10
7.6868647E+001
 20
1.991169E+002
 11
2.9451442E+001
 21
1.991169E+002
  0
LINE
  8
104
  6
CONTINUOUS
 62
40
 10
2.9451442E+001
 20
1.991169E+002
 11
2.2499141E+001
 21
1.971169E+002
  0
LINE
  8
104
  6
CONTINUOUS
 62
40
 10
7.6868647E+001
 20
1.991169E+002
 11
1.2428585E+002
 21
1.991169E+002
  0
LINE
  8
104
  6
CONTINUOUS
 62
40
 10
1.2428585E+002
 20
1.991169E+002
 11
1.3123815E+002
 21
1.971169E+002
  0
LINE
  8
104
  6
CONTINUOUS
 62
40
 10
1.1586865E+002
 20
1.971169E+002
 11
1.1586865E+002
 21
1.371169E+002
  0
LINE
  8
104
  6
CONTINUOUS
 62
40
 10
1.1586865E+002
 20
1.371169E+002
 11
3.7868648E+001
 21
1.371169E+002
  0
LINE
  8
104
  6
CONTINUOUS
 62
40
 10
3.7868648E+001
 20
1.371169E+002
 11
3.7868648E+001
 21
1.971169E+002
  0
LINE
  8
104
  6
CONTINUOUS
 62
40
 10
3.7868648E+001
 20
1.971169E+002
 11
1.1586865E+002
 21
1.971169E+002
  0
LINE
  8
104
  6
CONTINUOUS
 62
40
 10
1.1586865E+002
 20
1.971169E+002
 11
5.0285853E+001
 21
1.971169E+002
  0
LINE
  8
104
  6
CONTINUOUS
 62
40
 10
7.3868647E+001
 20
2.461169E+002
 11
7.3868647E+001
 21
2.5525264E+002
  0
LINE
  8
104
  6
CONTINUOUS
 62
40
 10
7.3868647E+001
 20
2.5525264E+002
 11
7.9868647E+001
 21
2.5525264E+002
  0
LINE
  8
104
  6
CONTINUOUS
 62
40
 10
7.9868647E+001
 20
2.5525264E+002
 11
7.9868647E+001
 21
2.461169E+002
  0
LINE
  8
99
  6
CONTINUOUS
 62
1
 10
7.5068644E+001
 20
2.5525264E+002
 11
7.5068644E+001
 21
2.461169E+002
  0
LINE
  8
99
  6
CONTINUOUS
 62
1
 10
7.866865E+001
 20
2.5525264E+002
 11
7.866865E+001
 21
2.461169E+002
  0
CIRCLE
  8
104
  6
CONTINUOUS
 62
40
 10
7.6868647E+001
 20
2.371169E+002
 40
3.0
  0
LINE
  8
106
  6
CENTERLINE
 62
1
 10
5.4868648E+001
 20
2.371169E+002
 11
9.8868647E+001
 21
2.371169E+002
  0
CIRCLE
  8
104
  6
CONTINUOUS
 62
40
 10
7.6868647E+001
 20
2.371169E+002
 40
6.0
  0
LINE
  8
104
  6
CONTINUOUS
 62
40
 10
7.3551997E+001
 20
2.321169E+002
 11
6.7380244E+001
 21
2.321169E+002
  0
ARC
  8
104
  6
CONTINUOUS
 62
40
 10
6.7380257E+001
 20
2.3411691E+002
 40
2.0000136
 50
1.8800134E+002
 51
2.6999962E+002
  0
LINE
  8
104
  6
CONTINUOUS
 62
40
 10
6.5399714E+001
 20
2.3383852E+002
 11
6.4907771E+001
 21
2.3733855E+002
  0
ARC
  8
104
  6
CONTINUOUS
 62
40
 10
6.6886523E+001
 20
2.3761692E+002
 40
1.9982357
 50
1.719923E+002
 51
1.880077E+002
  0
LINE
  8
104
  6
CONTINUOUS
 62
40
 10
6.4907771E+001
 20
2.3789528E+002
 11
6.5399653E+001
 21
2.4139522E+002
  0
ARC
  8
104
  6
CONTINUOUS
 62
40
 10
6.7380214E+001
 20
2.411169E+002
 40
2.0000217
 50
9.0000889E+001
 51
1.7200065E+002
  0
LINE
  8
104
  6
CONTINUOUS
 62
40
 10
6.7380183E+001
 20
2.4311692E+002
 11
8.6357112E+001
 21
2.4311692E+002
  0
ARC
  8
104
  6
CONTINUOUS
 62
40
 10
8.6357076E+001
 20
2.4111689E+002
 40
2.0000271
 50
7.9994834
 51
8.9998977E+001
  0
LINE
  8
104
  6
CONTINUOUS
 62
40
 10
8.8337642E+001
 20
2.4139522E+002
 11
8.8829524E+001
 21
2.3789528E+002
  0
ARC
  8
104
  6
CONTINUOUS
 62
40
 10
8.6849731E+001
 20
2.3761693E+002
 40
1.9992651
 50
3.519969E+002
 51
3.680031E+002
  0
LINE
  8
104
  6
CONTINUOUS
 62
40
 10
8.8829524E+001
 20
2.3733858E+002
 11
8.8337581E+001
 21
2.3383852E+002
  0
ARC
  8
104
  6
CONTINUOUS
 62
40
 10
8.635707E+001
 20
2.3411688E+002
 40
1.9999767
 50
2.6999946E+002
 51
3.5199957E+002
  0
LINE
  8
104
  6
CONTINUOUS
 62
40
 10
8.6357051E+001
 20
2.321169E+002
 11
8.0185298E+001
 21
2.321169E+002
  0
LINE
  8
106
  6
CENTERLINE
 62
1
 10
7.6868647E+001
 20
2.5673732E+002
 11
7.6868647E+001
 21
1.9092611E+002
  0
LINE
  8
104
  6
CONTINUOUS
 62
40
 10
6.5128108E+001
 20
2.3577099E+002
 11
6.6664546E+001
 21
2.2483858E+002
  0
ARC
  8
104
  6
CONTINUOUS
 62
40
 10
6.8645075E+001
 20
2.2511689E+002
 40
1.9999881
 50
1.8799894E+002
 51
2.7000001E+002
  0
LINE
  8
104
  6
CONTINUOUS
 62
40
 10
6.8645076E+001
 20
2.231169E+002
 11
8.5092219E+001
 21
2.231169E+002
  0
ARC
  8
104
  6
CONTINUOUS
 62
40
 10
8.5092218E+001
 20
2.251169E+002
 40
1.9999948
 50
2.7000003E+002
 51
3.5199999E+002
  0
LINE
  8
104
  6
CONTINUOUS
 62
40
 10
8.7072749E+001
 20
2.2483855E+002
 11
8.8654902E+001
 21
2.3609621E+002
  0
LINE
  8
99
  6
CONTINUOUS
 62
1
 10
2.4223202E+002
 20
2.006169E+002
 11
2.4223202E+002
 21
2.1336898E+002
  0
LINE
  8
99
  6
CONTINUOUS
 62
1
 10
2.4223202E+002
 20
2.006169E+002
 11
2.4723202E+002
 21
2.006169E+002
  0
TEXT
  8
103
  6
CONTINUOUS
 62
40
 10
2.3925234E+002
 20
2.1359249E+002
 40
5.0
  1
Z
 50
9.0E+001
 72
1
 11
2.3675234E+002
 21
2.1109249E+002
 73
2
  0
LINE
  8
99
  6
CONTINUOUS
 62
1
 10
2.2523202E+002
 20
1.971169E+002
 11
2.2023202E+002
 21
1.971169E+002
  0
LINE
  8
99
  6
CONTINUOUS
 62
1
 10
2.2523202E+002
 20
1.971169E+002
 11
2.3023202E+002
 21
1.971169E+002
  0
INSERT
  2
_D7
  8
MED-0
 10
0.0
 20
0.0
  0
DIMENSION
  8
MED-0
  6
CONTINUOUS
 62
4
  1
X
  2
*D1636
  3
DSTYLE2
 10
2.2421474E+002
 20
2.231169E+002
 11
2.2004874E+002
 21
2.1051156E+002
 70
128
 13
2.2921789E+002
 23
1.971169E+002
 14
2.7223138E+002
 24
2.231169E+002
 40
3.0
 50
9.0E+001
  0
INSERT
  2
*XH43
  8
108
 10
3.053742E+002
 20
1.6167331E+002
  0
LINE
  8
104
  6
CONTINUOUS
 62
40
 10
3.9251666E+002
 20
2.201169E+002
 11
3.225874E+002
 21
2.201169E+002
  0
LINE
  8
104
  6
CONTINUOUS
 62
40
 10
3.225874E+002
 20
2.201169E+002
 11
3.225874E+002
 21
1.371169E+002
  0
LINE
  8
104
  6
CONTINUOUS
 62
40
 10
3.225874E+002
 20
1.371169E+002
 11
2.445874E+002
 21
1.371169E+002
  0
LINE
  8
104
  6
CONTINUOUS
 62
40
 10
2.445874E+002
 20
1.371169E+002
 11
2.445874E+002
 21
1.971169E+002
  0
LINE
  8
104
  6
CONTINUOUS
 62
40
 10
2.445874E+002
 20
1.971169E+002
 11
2.1604052E+002
 21
1.971169E+002
  0
LINE
  8
104
  6
CONTINUOUS
 62
40
 10
3.085874E+002
 20
2.8733782E+002
 11
3.085874E+002
 21
2.081169E+002
  0
LINE
  8
104
  6
CONTINUOUS
 62
40
 10
3.085874E+002
 20
2.081169E+002
 11
3.115874E+002
 21
2.051169E+002
  0
LINE
  8
104
  6
CONTINUOUS
 62
40
 10
3.115874E+002
 20
2.051169E+002
 11
3.225874E+002
 21
2.051169E+002
  0
LINE
  8
104
  6
CONTINUOUS
 62
40
 10
3.225874E+002
 20
2.051169E+002
 11
3.225874E+002
 21
2.381169E+002
  0
LINE
  8
104
  6
CONTINUOUS
 62
40
 10
3.225874E+002
 20
2.381169E+002
 11
3.295874E+002
 21
2.381169E+002
  0
LINE
  8
104
  6
CONTINUOUS
 62
40
 10
3.355874E+002
 20
2.381169E+002
 11
3.425874E+002
 21
2.381169E+002
  0
LINE
  8
104
  6
CONTINUOUS
 62
40
 10
3.425874E+002
 20
2.381169E+002
 11
3.425874E+002
 21
2.281169E+002
  0
LINE
  8
104
  6
CONTINUOUS
 62
40
 10
3.425874E+002
 20
2.281169E+002
 11
3.485874E+002
 21
2.281169E+002
  0
LINE
  8
104
  6
CONTINUOUS
 62
40
 10
3.485874E+002
 20
2.281169E+002
 11
3.485874E+002
 21
2.8733782E+002
  0
LINE
  8
106
  6
CENTERLINE
 62
1
 10
3.040874E+002
 20
2.8733782E+002
 11
3.5381777E+002
 21
2.8733782E+002
  0
ARC
  8
99
  6
CONTINUOUS
 62
1
 10
3.1671553E+002
 20
1.9987591E+002
 40
5.5900777
 50
1.0255904E+002
 51
1.1035556E+002
  0
ARC
  8
99
  6
CONTINUOUS
 62
1
 10
3.1454469E+002
 20
2.0949525E+002
 40
4.271215
 50
2.8292413E+002
 51
3.0747814E+002
  0
ARC
  8
99
  6
CONTINUOUS
 62
1
 10
3.1454478E+002
 20
2.0949518E+002
 40
4.2711096
 50
3.0747766E+002
 51
3.4117377E+002
  0
ARC
  8
99
  6
CONTINUOUS
 62
1
 10
3.0874536E+002
 20
2.325999E+002
 40
4.4857817
 50
2.6798191E+002
 51
3.2922828E+002
  0
ARC
  8
99
  6
CONTINUOUS
 62
1
 10
3.0874535E+002
 20
2.3259996E+002
 40
4.4858252
 50
3.2922775E+002
 51
3.5785222E+002
  0
ARC
  8
99
  6
CONTINUOUS
 62
1
 10
3.1982817E+002
 20
2.3220925E+002
 40
6.6039011
 50
1.7198048E+002
 51
1.7806845E+002
  0
ARC
  8
99
  6
CONTINUOUS
 62
1
 10
3.1745704E+002
 20
2.3255121E+002
 40
4.2082583
 50
1.6386258E+002
 51
1.7208692E+002
  0
ARC
  8
99
  6
CONTINUOUS
 62
1
 10
3.1623705E+002
 20
2.3289264E+002
 40
2.9414611
 50
1.5843282E+002
 51
1.6364604E+002
  0
ARC
  8
99
  6
CONTINUOUS
 62
1
 10
3.1564729E+002
 20
2.3312647E+002
 40
2.3070365
 50
1.5231982E+002
 51
1.584495E+002
  0
ARC
  8
99
  6
CONTINUOUS
 62
1
 10
3.152227E+002
 20
2.3334959E+002
 40
1.8273967
 50
1.4517109E+002
 51
1.5233068E+002
  0
ARC
  8
99
  6
CONTINUOUS
 62
1
 10
3.1494076E+002
 20
2.3354565E+002
 40
1.4839889
 50
1.3694345E+002
 51
1.4516776E+002
  0
ARC
  8
99
  6
CONTINUOUS
 62
1
 10
3.1499001E+002
 20
2.3349104E+002
 40
1.5572693
 50
1.3016204E+002
 51
1.3671261E+002
  0
ARC
  8
99
  6
CONTINUOUS
 62
1
 10
3.1520767E+002
 20
2.3323326E+002
 40
1.8946494
 50
1.2441648E+002
 51
1.3016471E+002
  0
ARC
  8
99
  6
CONTINUOUS
 62
1
 10
3.1559939E+002
 20
2.3264238E+002
 40
2.6035176
 50
1.1486427E+002
 51
1.2417825E+002
  0
ARC
  8
99
  6
CONTINUOUS
 62
1
 10
3.1619781E+002
 20
2.3136593E+002
 40
4.0132781
 50
1.0797404E+002
 51
1.1495338E+002
  0
ARC
  8
99
  6
CONTINUOUS
 62
1
 10
3.1683894E+002
 20
2.2941449E+002
 40
6.0673249
 50
1.0274904E+002
 51
1.0804632E+002
  0
ARC
  8
99
  6
CONTINUOUS
 62
1
 10
3.1454472E+002
 20
2.3949519E+002
 40
4.2711589
 50
2.8292397E+002
 51
3.074783E+002
  0
ARC
  8
99
  6
CONTINUOUS
 62
1
 10
3.1454463E+002
 20
2.3949529E+002
 40
4.2712864
 50
3.0747838E+002
 51
3.4117306E+002
  0
ARC
  8
99
  6
CONTINUOUS
 62
1
 10
2.9853372E+002
 20
2.3394282E+002
 40
1.8749296E+001
 50
3.0242644E+002
 51
3.1685144E+002
  0
ARC
  8
99
  6
CONTINUOUS
 62
1
 10
2.9853307E+002
 20
2.3394291E+002
 40
1.874983E+001
 50
3.1685259E+002
 51
3.2611357E+002
  0
ARC
  8
99
  6
CONTINUOUS
 62
1
 10
3.308376E+002
 20
2.1231834E+002
 40
2.0124421E+001
 50
1.4165217E+002
 51
1.462839E+002
  0
ARC
  8
99
  6
CONTINUOUS
 62
1
 10
3.2522776E+002
 20
2.16773E+002
 40
1.2961046E+001
 50
1.3549934E+002
 51
1.4170995E+002
  0
ARC
  8
99
  6
CONTINUOUS
 62
1
 10
3.2592592E+002
 20
2.160096E+002
 40
1.3994192E+001
 50
1.1183629E+002
 51
1.3527359E+002
  0
ARC
  8
99
  6
CONTINUOUS
 62
1
 10
3.1523874E+002
 20
2.4273497E+002
 40
1.4788814E+001
 50
2.9175774E+002
 51
2.9979555E+002
  0
ARC
  8
99
  6
CONTINUOUS
 62
1
 10
3.0587009E+002
 20
2.204395E+002
 40
1.2618641E+001
 50
2.8243554E+002
 51
3.1582211E+002
  0
ARC
  8
99
  6
CONTINUOUS
 62
1
 10
3.0586891E+002
 20
2.2044056E+002
 40
1.2620226E+001
 50
3.1582239E+002
 51
3.3140892E+002
  0
ARC
  8
99
  6
CONTINUOUS
 62
1
 10
3.3350684E+002
 20
2.0542613E+002
 40
1.8832743E+001
 50
1.4825915E+002
 51
1.5153897E+002
  0
ARC
  8
99
  6
CONTINUOUS
 62
1
 10
3.2741517E+002
 20
2.0920726E+002
 40
1.1663007E+001
 50
1.4379797E+002
 51
1.4831279E+002
  0
ARC
  8
99
  6
CONTINUOUS
 62
1
 10
3.237808E+002
 20
2.1187866E+002
 40
7.1524827
 50
1.3761561E+002
 51
1.4387062E+002
  0
ARC
  8
99
  6
CONTINUOUS
 62
1
 10
3.2176578E+002
 20
2.1372607E+002
 40
4.4187688
 50
1.2907511E+002
 51
1.3769661E+002
  0
ARC
  8
99
  6
CONTINUOUS
 62
1
 10
3.2315205E+002
 20
2.1195712E+002
 40
6.6659695
 50
1.0057064E+002
 51
1.2874118E+002
  0
ARC
  8
99
  6
CONTINUOUS
 62
1
 10
3.2042356E+002
 20
2.2662484E+002
 40
8.2533681
 50
2.8051115E+002
 51
2.8519924E+002
  0
ARC
  8
99
  6
CONTINUOUS
 62
1
 10
3.123946E+002
 20
2.2293182E+002
 40
1.6057161E+001
 50
2.9268545E+002
 51
3.0940381E+002
  0
ARC
  8
99
  6
CONTINUOUS
 62
1
 10
3.3874518E+002
 20
2.3260001E+002
 40
4.4859995
 50
3.2922831E+002
 51
3.5785165E+002
  0
ARC
  8
99
  6
CONTINUOUS
 62
1
 10
3.498278E+002
 20
2.3220936E+002
 40
6.6035297
 50
1.7198095E+002
 51
1.7806925E+002
  0
ARC
  8
99
  6
CONTINUOUS
 62
1
 10
3.474568E+002
 20
2.3255128E+002
 40
4.2080235
 50
1.638626E+002
 51
1.7208739E+002
  0
ARC
  8
99
  6
CONTINUOUS
 62
1
 10
3.4623689E+002
 20
2.3289268E+002
 40
2.9413113
 50
1.5843255E+002
 51
1.6364605E+002
  0
ARC
  8
99
  6
CONTINUOUS
 62
1
 10
3.4564718E+002
 20
2.331265E+002
 40
2.3069366
 50
1.5231927E+002
 51
1.5844924E+002
  0
ARC
  8
99
  6
CONTINUOUS
 62
1
 10
3.4522263E+002
 20
2.333496E+002
 40
1.8273401
 50
1.4517025E+002
 51
1.5233012E+002
  0
ARC
  8
99
  6
CONTINUOUS
 62
1
 10
3.4494073E+002
 20
2.3354564E+002
 40
1.4839698
 50
1.3694239E+002
 51
1.4516692E+002
  0
ARC
  8
99
  6
CONTINUOUS
 62
1
 10
3.4499002E+002
 20
2.3349103E+002
 40
1.557288
 50
1.3016194E+002
 51
1.3671244E+002
  0
ARC
  8
99
  6
CONTINUOUS
 62
1
 10
3.4520768E+002
 20
2.3323325E+002
 40
1.8946684
 50
1.2441642E+002
 51
1.301646E+002
  0
ARC
  8
99
  6
CONTINUOUS
 62
1
 10
3.455994E+002
 20
2.3264237E+002
 40
2.6035354
 50
1.1486428E+002
 51
1.241782E+002
  0
ARC
  8
99
  6
CONTINUOUS
 62
1
 10
3.4619782E+002
 20
2.3136592E+002
 40
4.013289
 50
1.0797407E+002
 51
1.1495338E+002
  0
ARC
  8
99
  6
CONTINUOUS
 62
1
 10
3.4683894E+002
 20
2.294145E+002
 40
6.0673209
 50
1.0274907E+002
 51
1.0804635E+002
  0
ARC
  8
99
  6
CONTINUOUS
 62
1
 10
3.4454471E+002
 20
2.3949521E+002
 40
4.2711763
 50
2.8292402E+002
 51
3.0747825E+002
  0
ARC
  8
99
  6
CONTINUOUS
 62
1
 10
3.4454463E+002
 20
2.394953E+002
 40
4.271297
 50
3.0747842E+002
 51
3.4117301E+002
  0
ARC
  8
99
  6
CONTINUOUS
 62
1
 10
3.0874535E+002
 20
2.6259993E+002
 40
4.4858061
 50
2.6798209E+002
 51
3.292281E+002
  0
ARC
  8
99
  6
CONTINUOUS
 62
1
 10
3.0874527E+002
 20
2.6259998E+002
 40
4.4859043
 50
3.29228E+002
 51
3.5785196E+002
  0
ARC
  8
99
  6
CONTINUOUS
 62
1
 10
3.1982806E+002
 20
2.6220925E+002
 40
6.6037892
 50
1.7198041E+002
 51
1.7806841E+002
  0
ARC
  8
99
  6
CONTINUOUS
 62
1
 10
3.1745705E+002
 20
2.625512E+002
 40
4.208274
 50
1.6386256E+002
 51
1.7208684E+002
  0
ARC
  8
99
  6
CONTINUOUS
 62
1
 10
3.1623711E+002
 20
2.6289261E+002
 40
2.9415283
 50
1.5843292E+002
 51
1.6364603E+002
  0
ARC
  8
99
  6
CONTINUOUS
 62
1
 10
3.1564737E+002
 20
2.6312643E+002
 40
2.307123
 50
1.5232011E+002
 51
1.584496E+002
  0
ARC
  8
99
  6
CONTINUOUS
 62
1
 10
3.1522279E+002
 20
2.6334954E+002
 40
1.8274923
 50
1.4517165E+002
 51
1.5233096E+002
  0
ARC
  8
99
  6
CONTINUOUS
 62
1
 10
3.1494085E+002
 20
2.635456E+002
 40
1.484086
 50
1.3694442E+002
 51
1.4516833E+002
  0
ARC
  8
99
  6
CONTINUOUS
 62
1
 10
3.1499001E+002
 20
2.6349105E+002
 40
1.557265
 50
1.3016217E+002
 51
1.3671276E+002
  0
ARC
  8
99
  6
CONTINUOUS
 62
1
 10
3.1520767E+002
 20
2.6323328E+002
 40
1.8946387
 50
1.2441656E+002
 51
1.3016483E+002
  0
ARC
  8
99
  6
CONTINUOUS
 62
1
 10
3.1559938E+002
 20
2.626424E+002
 40
2.6034956
 50
1.1486427E+002
 51
1.2417834E+002
  0
ARC
  8
99
  6
CONTINUOUS
 62
1
 10
3.1619779E+002
 20
2.6136597E+002
 40
4.0132358
 50
1.0797397E+002
 51
1.1495337E+002
  0
ARC
  8
99
  6
CONTINUOUS
 62
1
 10
3.1683891E+002
 20
2.5941456E+002
 40
6.0672567
 50
1.0274891E+002
 51
1.0804625E+002
  0
ARC
  8
99
  6
CONTINUOUS
 62
1
 10
3.1454473E+002
 20
2.6949516E+002
 40
4.2711218
 50
2.8292386E+002
 51
3.0747841E+002
  0
ARC
  8
99
  6
CONTINUOUS
 62
1
 10
3.1454465E+002
 20
2.6949528E+002
 40
4.2712724
 50
3.0747832E+002
 51
3.4117311E+002
  0
ARC
  8
99
  6
CONTINUOUS
 62
1
 10
2.9853447E+002
 20
2.6394192E+002
 40
1.8748133E+001
 50
3.0242599E+002
 51
3.1685189E+002
  0
ARC
  8
99
  6
CONTINUOUS
 62
1
 10
2.9853374E+002
 20
2.6394238E+002
 40
1.8748979E+001
 50
3.1685238E+002
 51
3.2611378E+002
  0
ARC
  8
99
  6
CONTINUOUS
 62
1
 10
3.3083785E+002
 20
2.4231814E+002
 40
2.0124749E+001
 50
1.4165216E+002
 51
1.4628382E+002
  0
ARC
  8
99
  6
CONTINUOUS
 62
1
 10
3.2522799E+002
 20
2.4677281E+002
 40
1.2961344E+001
 50
1.3549947E+002
 51
1.4170994E+002
  0
ARC
  8
99
  6
CONTINUOUS
 62
1
 10
3.2592584E+002
 20
2.4600971E+002
 40
1.3994057E+001
 50
1.1183618E+002
 51
1.3527371E+002
  0
ARC
  8
99
  6
CONTINUOUS
 62
1
 10
3.1540026E+002
 20
2.7238984E+002
 40
1.4408418E+001
 50
2.9166994E+002
 51
3.0338869E+002
  0
ARC
  8
99
  6
CONTINUOUS
 62
1
 10
3.166597E+002
 20
2.7048685E+002
 40
1.2126413E+001
 50
3.0336821E+002
 51
3.1651451E+002
  0
ARC
  8
99
  6
CONTINUOUS
 62
1
 10
3.1636264E+002
 20
2.7071245E+002
 40
1.249726E+001
 50
3.1670131E+002
 51
3.4801304E+002
  0
ARC
  8
99
  6
CONTINUOUS
 62
1
 10
3.0587003E+002
 20
2.5043959E+002
 40
1.2618745E+001
 50
2.8243568E+002
 51
3.1582197E+002
  0
ARC
  8
99
  6
CONTINUOUS
 62
1
 10
3.0586837E+002
 20
2.5044095E+002
 40
1.2620887E+001
 50
3.158228E+002
 51
3.3140851E+002
  0
ARC
  8
99
  6
CONTINUOUS
 62
1
 10
3.3350684E+002
 20
2.3542613E+002
 40
1.8832745E+001
 50
1.4825915E+002
 51
1.5153897E+002
  0
ARC
  8
99
  6
CONTINUOUS
 62
1
 10
3.2741517E+002
 20
2.3920726E+002
 40
1.1663008E+001
 50
1.4379797E+002
 51
1.4831279E+002
  0
ARC
  8
99
  6
CONTINUOUS
 62
1
 10
3.2378081E+002
 20
2.4187865E+002
 40
7.1524843
 50
1.3761561E+002
 51
1.4387062E+002
  0
ARC
  8
99
  6
CONTINUOUS
 62
1
 10
3.2176579E+002
 20
2.4372607E+002
 40
4.4187701
 50
1.2907511E+002
 51
1.3769661E+002
  0
ARC
  8
99
  6
CONTINUOUS
 62
1
 10
3.231521E+002
 20
2.4195701E+002
 40
6.6660932
 50
1.0057091E+002
 51
1.2874091E+002
  0
ARC
  8
99
  6
CONTINUOUS
 62
1
 10
3.2047248E+002
 20
2.5640203E+002
 40
8.0253771
 50
2.8045789E+002
 51
2.8699066E+002
  0
ARC
  8
99
  6
CONTINUOUS
 62
1
 10
3.2093362E+002
 20
2.5490367E+002
 40
6.4576625
 50
2.8696262E+002
 51
2.9451447E+002
  0
ARC
  8
99
  6
CONTINUOUS
 62
1
 10
3.2147992E+002
 20
2.5371107E+002
 40
5.1459008
 50
2.9448973E+002
 51
3.0327591E+002
  0
ARC
  8
99
  6
CONTINUOUS
 62
1
 10
3.2203454E+002
 20
2.5286714E+002
 40
4.1360324
 50
3.0326703E+002
 51
3.1342989E+002
  0
ARC
  8
99
  6
CONTINUOUS
 62
1
 10
3.2298905E+002
 20
2.5183678E+002
 40
2.7316164
 50
3.1374777E+002
 51
3.2084237E+002
  0
ARC
  8
99
  6
CONTINUOUS
 62
1
 10
3.2236456E+002
 20
2.5234607E+002
 40
3.5374495
 50
3.2083304E+002
 51
3.2680528E+002
  0
ARC
  8
99
  6
CONTINUOUS
 62
1
 10
3.2141755E+002
 20
2.529674E+002
 40
4.6700953
 50
3.2678743E+002
 51
3.3175039E+002
  0
ARC
  8
99
  6
CONTINUOUS
 62
1
 10
3.2006416E+002
 20
2.5369698E+002
 40
6.2076123
 50
3.3173091E+002
 51
3.3583622E+002
  0
ARC
  8
99
  6
CONTINUOUS
 62
1
 10
3.1709736E+002
 20
2.5499366E+002
 40
9.4453
 50
3.3602661E+002
 51
3.4224632E+002
  0
ARC
  8
99
  6
CONTINUOUS
 62
1
 10
3.1063012E+002
 20
2.5709365E+002
 40
1.6244904E+001
 50
3.4214774E+002
 51
3.4647918E+002
  0
ARC
  8
99
  6
CONTINUOUS
 62
1
 10
3.3641145E+002
 20
2.5085924E+002
 40
1.0279545E+001
 50
1.4518763E+002
 51
1.6628979E+002
  0
ARC
  8
99
  6
CONTINUOUS
 62
1
 10
3.3048093E+002
 20
2.5496944E+002
 40
3.063982
 50
1.4033825E+002
 51
1.4497996E+002
  0
ARC
  8
99
  6
CONTINUOUS
 62
1
 10
3.3221235E+002
 20
2.5354123E+002
 40
5.3084324
 50
1.3718069E+002
 51
1.403989E+002
  0
ARC
  8
99
  6
CONTINUOUS
 62
1
 10
3.3716209E+002
 20
2.4889811E+002
 40
1.2095023E+001
 50
1.3323481E+002
 51
1.3698434E+002
  0
ARC
  8
99
  6
CONTINUOUS
 62
1
 10
3.7053289E+002
 20
2.1321774E+002
 40
6.0948844E+001
 50
1.3047656E+002
 51
1.3311419E+002
  0
ARC
  8
99
  6
CONTINUOUS
 62
1
 10
3.015001E+002
 20
2.9354759E+002
 40
4.4969012E+001
 50
3.1094316E+002
 51
3.1621632E+002
  0
ARC
  8
99
  6
CONTINUOUS
 62
1
 10
3.0150817E+002
 20
2.9353884E+002
 40
4.4957134E+001
 50
3.1621725E+002
 51
3.2556502E+002
  0
ARC
  8
99
  6
CONTINUOUS
 62
1
 10
3.1239411E+002
 20
2.5293271E+002
 40
1.6058173E+001
 50
2.9268585E+002
 51
3.1582429E+002
  0
ARC
  8
99
  6
CONTINUOUS
 62
1
 10
3.1239574E+002
 20
2.5293127E+002
 40
1.6055999E+001
 50
3.158239E+002
 51
3.2626427E+002
  0
ARC
  8
99
  6
CONTINUOUS
 62
1
 10
3.4119095E+002
 20
2.3385213E+002
 40
1.8486601E+001
 50
1.4143349E+002
 51
1.4665303E+002
  0
ARC
  8
99
  6
CONTINUOUS
 62
1
 10
3.3409449E+002
 20
2.3946073E+002
 40
9.4415293
 50
1.371362E+002
 51
1.4119792E+002
  0
ARC
  8
99
  6
CONTINUOUS
 62
1
 10
3.3158191E+002
 20
2.4179979E+002
 40
6.0087252
 50
1.3169705E+002
 51
1.3718638E+002
  0
ARC
  8
99
  6
CONTINUOUS
 62
1
 10
3.3341734E+002
 20
2.3969257E+002
 40
8.8030877
 50
1.1578961E+002
 51
1.3149374E+002
  0
ARC
  8
99
  6
CONTINUOUS
 62
1
 10
3.5577608E+002
 20
2.4347618E+002
 40
2.2578721E+001
 50
1.4732969E+002
 51
1.5339901E+002
  0
ARC
  8
99
  6
CONTINUOUS
 62
1
 10
3.5577842E+002
 20
2.4347507E+002
 40
2.2581286E+001
 50
1.3957849E+002
 51
1.4733051E+002
  0
ARC
  8
99
  6
CONTINUOUS
 62
1
 10
3.1982719E+002
 20
2.5685726E+002
 40
2.0686768E+001
 50
2.9505381E+002
 51
2.9815181E+002
  0
ARC
  8
99
  6
CONTINUOUS
 62
1
 10
3.1980647E+002
 20
2.568976E+002
 40
2.0732196E+001
 50
3.1956831E+002
 51
3.3494237E+002
  0
ARC
  8
99
  6
CONTINUOUS
 62
1
 10
3.3874536E+002
 20
2.6259991E+002
 40
4.4857928
 50
2.6798199E+002
 51
3.292282E+002
  0
ARC
  8
99
  6
CONTINUOUS
 62
1
 10
3.387451E+002
 20
2.6260003E+002
 40
4.4860786
 50
3.2922857E+002
 51
3.5785139E+002
  0
ARC
  8
99
  6
CONTINUOUS
 62
1
 10
3.4982769E+002
 20
2.6220936E+002
 40
6.6034178
 50
1.7198087E+002
 51
1.7806921E+002
  0
ARC
  8
99
  6
CONTINUOUS
 62
1
 10
3.4745682E+002
 20
2.6255126E+002
 40
4.2080392
 50
1.6386258E+002
 51
1.720873E+002
  0
ARC
  8
99
  6
CONTINUOUS
 62
1
 10
3.4623696E+002
 20
2.6289265E+002
 40
2.9413785
 50
1.5843265E+002
 51
1.6364604E+002
  0
ARC
  8
99
  6
CONTINUOUS
 62
1
 10
3.4564726E+002
 20
2.6312646E+002
 40
2.3070231
 50
1.5231955E+002
 51
1.5844933E+002
  0
ARC
  8
99
  6
CONTINUOUS
 62
1
 10
3.4522272E+002
 20
2.6334955E+002
 40
1.8274357
 50
1.4517082E+002
 51
1.523304E+002
  0
ARC
  8
99
  6
CONTINUOUS
 62
1
 10
3.4494082E+002
 20
2.6354559E+002
 40
1.4840668
 50
1.3694336E+002
 51
1.4516749E+002
  0
ARC
  8
99
  6
CONTINUOUS
 62
1
 10
3.4499002E+002
 20
2.6349103E+002
 40
1.5572837
 50
1.3016206E+002
 51
1.367126E+002
  0
ARC
  8
99
  6
CONTINUOUS
 62
1
 10
3.4520768E+002
 20
2.6323326E+002
 40
1.8946577
 50
1.2441651E+002
 51
1.3016473E+002
  0
ARC
  8
99
  6
CONTINUOUS
 62
1
 10
3.4559939E+002
 20
2.6264239E+002
 40
2.6035133
 50
1.1486428E+002
 51
1.2417828E+002
  0
ARC
  8
99
  6
CONTINUOUS
 62
1
 10
3.461978E+002
 20
2.6136596E+002
 40
4.0132468
 50
1.07974E+002
 51
1.1495338E+002
  0
ARC
  8
99
  6
CONTINUOUS
 62
1
 10
3.4683891E+002
 20
2.5941456E+002
 40
6.0672527
 50
1.0274894E+002
 51
1.0804627E+002
  0
ARC
  8
99
  6
CONTINUOUS
 62
1
 10
3.4454473E+002
 20
2.6949518E+002
 40
4.2711393
 50
2.8292391E+002
 51
3.0747836E+002
  0
ARC
  8
99
  6
CONTINUOUS
 62
1
 10
3.4454464E+002
 20
2.6949529E+002
 40
4.271283
 50
3.0747836E+002
 51
3.4117307E+002
  0
ARC
  8
99
  6
CONTINUOUS
 62
1
 10
3.2853464E+002
 20
2.6394171E+002
 40
1.8747862E+001
 50
3.0242588E+002
 51
3.16852E+002
  0
ARC
  8
99
  6
CONTINUOUS
 62
1
 10
3.2853571E+002
 20
2.6394081E+002
 40
1.8746471E+001
 50
3.1685176E+002
 51
3.2611441E+002
  0
ARC
  8
99
  6
CONTINUOUS
 62
1
 10
3.6083753E+002
 20
2.423184E+002
 40
2.0124334E+001
 50
1.4165217E+002
 51
1.4628391E+002
  0
ARC
  8
99
  6
CONTINUOUS
 62
1
 10
3.5522783E+002
 20
2.4677294E+002
 40
1.2961133E+001
 50
1.3549937E+002
 51
1.4170994E+002
  0
ARC
  8
99
  6
CONTINUOUS
 62
1
 10
3.5592643E+002
 20
2.4600896E+002
 40
1.3995004E+001
 50
1.216281E+002
 51
1.3527318E+002
  0
ARC
  8
99
  6
CONTINUOUS
 62
1
 10
3.3586998E+002
 20
2.5043969E+002
 40
1.261885E+001
 50
2.8243582E+002
 51
3.1582182E+002
  0
ARC
  8
99
  6
CONTINUOUS
 62
1
 10
3.358691E+002
 20
2.5044041E+002
 40
1.261999E+001
 50
3.1582224E+002
 51
3.3140907E+002
  0
ARC
  8
99
  6
CONTINUOUS
 62
1
 10
3.6128626E+002
 20
2.3670559E+002
 40
1.6270934E+001
 50
1.4599756E+002
 51
1.5177345E+002
  0
ARC
  8
99
  6
CONTINUOUS
 62
1
 10
3.5539903E+002
 20
2.406331E+002
 40
9.1940398
 50
1.4156224E+002
 51
1.4577103E+002
  0
ARC
  8
99
  6
CONTINUOUS
 62
1
 10
3.5307626E+002
 20
2.4248213E+002
 40
6.225179
 50
1.3614382E+002
 51
1.416021E+002
  0
ARC
  8
99
  6
CONTINUOUS
 62
1
 10
2.9853426E+002
 20
2.9394217E+002
 40
1.874846E+001
 50
3.0242611E+002
 51
3.1685177E+002
  0
ARC
  8
99
  6
CONTINUOUS
 62
1
 10
2.9853441E+002
 20
2.9394185E+002
 40
1.8748128E+001
 50
3.1685217E+002
 51
3.2611399E+002
  0
ARC
  8
99
  6
CONTINUOUS
 62
1
 10
3.3083805E+002
 20
2.7231798E+002
 40
2.0125002E+001
 50
1.4165216E+002
 51
1.4628375E+002
  0
ARC
  8
99
  6
CONTINUOUS
 62
1
 10
3.2522818E+002
 20
2.7677267E+002
 40
1.2961576E+001
 50
1.3549957E+002
 51
1.4170993E+002
  0
ARC
  8
99
  6
CONTINUOUS
 62
1
 10
3.2592433E+002
 20
2.7601152E+002
 40
1.3991712E+001
 50
1.2595285E+002
 51
1.352746E+002
  0
ARC
  8
99
  6
CONTINUOUS
 62
1
 10
3.0586998E+002
 20
2.8043968E+002
 40
1.2618848E+001
 50
2.8243582E+002
 51
3.1582183E+002
  0
ARC
  8
99
  6
CONTINUOUS
 62
1
 10
3.0586863E+002
 20
2.8044076E+002
 40
1.2620565E+001
 50
3.158226E+002
 51
3.3140871E+002
  0
ARC
  8
99
  6
CONTINUOUS
 62
1
 10
3.3350685E+002
 20
2.6542612E+002
 40
1.8832765E+001
 50
1.4825914E+002
 51
1.5153896E+002
  0
ARC
  8
99
  6
CONTINUOUS
 62
1
 10
3.2741519E+002
 20
2.6920725E+002
 40
1.1663028E+001
 50
1.4379797E+002
 51
1.4831278E+002
  0
ARC
  8
99
  6
CONTINUOUS
 62
1
 10
3.2378082E+002
 20
2.7187864E+002
 40
7.1525018
 50
1.3761562E+002
 51
1.4387062E+002
  0
ARC
  8
99
  6
CONTINUOUS
 62
1
 10
3.217658E+002
 20
2.7372606E+002
 40
4.4187847
 50
1.2907515E+002
 51
1.3769662E+002
  0
ARC
  8
99
  6
CONTINUOUS
 62
1
 10
3.2315197E+002
 20
2.719573E+002
 40
6.6657838
 50
1.0057024E+002
 51
1.2874158E+002
  0
ARC
  8
99
  6
CONTINUOUS
 62
1
 10
3.2047241E+002
 20
2.8640221E+002
 40
8.0255666
 50
2.804582E+002
 51
2.8699083E+002
  0
ARC
  8
99
  6
CONTINUOUS
 62
1
 10
3.2093356E+002
 20
2.849038E+002
 40
6.4578055
 50
2.8696279E+002
 51
2.9451447E+002
  0
ARC
  8
99
  6
CONTINUOUS
 62
1
 10
3.2147988E+002
 20
2.8371116E+002
 40
5.1459935
 50
2.9448973E+002
 51
3.0327574E+002
  0
ARC
  8
99
  6
CONTINUOUS
 62
1
 10
3.2203453E+002
 20
2.8286718E+002
 40
4.1360754
 50
3.0326686E+002
 51
3.1342958E+002
  0
ARC
  8
99
  6
CONTINUOUS
 62
1
 10
3.22989E+002
 20
2.8183681E+002
 40
2.7316797
 50
3.1374809E+002
 51
3.2084256E+002
  0
ARC
  8
99
  6
CONTINUOUS
 62
1
 10
3.223645E+002
 20
2.8234611E+002
 40
3.5375171
 50
3.2083323E+002
 51
3.2680538E+002
  0
ARC
  8
99
  6
CONTINUOUS
 62
1
 10
3.2141748E+002
 20
2.8296743E+002
 40
4.6701641
 50
3.2678753E+002
 51
3.3175042E+002
  0
ARC
  8
99
  6
CONTINUOUS
 62
1
 10
3.200641E+002
 20
2.8369702E+002
 40
6.2076779
 50
3.3173095E+002
 51
3.3583622E+002
  0
ARC
  8
99
  6
CONTINUOUS
 62
1
 10
3.1709731E+002
 20
2.8499369E+002
 40
9.4453502
 50
3.360266E+002
 51
3.4224628E+002
  0
ARC
  8
99
  6
CONTINUOUS
 62
1
 10
3.1063013E+002
 20
2.8709366E+002
 40
1.62449E+001
 50
3.4214769E+002
 51
3.4647913E+002
  0
ARC
  8
99
  6
CONTINUOUS
 62
1
 10
3.364115E+002
 20
2.8085922E+002
 40
1.0279605E+001
 50
1.451877E+002
 51
1.6628972E+002
  0
ARC
  8
99
  6
CONTINUOUS
 62
1
 10
3.3073358E+002
 20
2.847807E+002
 40
3.3792178
 50
1.3883879E+002
 51
1.4481757E+002
  0
ARC
  8
99
  6
CONTINUOUS
 62
1
 10
3.3362986E+002
 20
2.822724E+002
 40
7.2106495
 50
1.3537273E+002
 51
1.3898079E+002
  0
ARC
  8
99
  6
CONTINUOUS
 62
1
 10
3.1239413E+002
 20
2.8293267E+002
 40
1.605813E+001
 50
2.9268582E+002
 51
3.1582432E+002
  0
ARC
  8
99
  6
CONTINUOUS
 62
1
 10
3.1239634E+002
 20
2.8293079E+002
 40
1.6055241E+001
 50
3.1582365E+002
 51
3.2626452E+002
  0
ARC
  8
99
  6
CONTINUOUS
 62
1
 10
3.4119035E+002
 20
2.6385263E+002
 40
1.8485825E+001
 50
1.4143351E+002
 51
1.4665329E+002
  0
ARC
  8
99
  6
CONTINUOUS
 62
1
 10
3.3409406E+002
 20
2.6946109E+002
 40
9.4409825
 50
1.3713599E+002
 51
1.4119794E+002
  0
ARC
  8
99
  6
CONTINUOUS
 62
1
 10
3.3158158E+002
 20
2.7180007E+002
 40
6.0082951
 50
1.3169649E+002
 51
1.3718618E+002
  0
ARC
  8
99
  6
CONTINUOUS
 62
1
 10
3.3341773E+002
 20
2.6969193E+002
 40
8.8038342
 50
1.0878991E+002
 51
1.3149286E+002
  0
ARC
  8
99
  6
CONTINUOUS
 62
1
 10
3.2708985E+002
 20
2.8835387E+002
 40
1.0901764E+001
 50
2.8868297E+002
 51
2.9388145E+002
  0
ARC
  8
99
  6
CONTINUOUS
 62
1
 10
3.2807953E+002
 20
2.861281E+002
 40
8.4658863
 50
2.9385538E+002
 51
3.0000883E+002
  0
ARC
  8
99
  6
CONTINUOUS
 62
1
 10
3.2905331E+002
 20
2.8444805E+002
 40
6.5240273
 50
2.9998246E+002
 51
3.073033E+002
  0
ARC
  8
99
  6
CONTINUOUS
 62
1
 10
3.2994109E+002
 20
2.8328538E+002
 40
5.0611712
 50
3.0728566E+002
 51
3.1595603E+002
  0
ARC
  8
99
  6
CONTINUOUS
 62
1
 10
3.3199177E+002
 20
2.8128061E+002
 40
2.1934501
 50
3.1635805E+002
 51
3.2221304E+002
  0
ARC
  8
99
  6
CONTINUOUS
 62
1
 10
3.3094651E+002
 20
2.8209516E+002
 40
3.5186103
 50
3.2215985E+002
 51
3.2643327E+002
  0
ARC
  8
99
  6
CONTINUOUS
 62
1
 10
3.278397E+002
 20
2.8411768E+002
 40
7.225673
 50
3.2669119E+002
 51
3.3201666E+002
  0
ARC
  8
99
  6
CONTINUOUS
 62
1
 10
3.0794796E+002
 20
2.9455274E+002
 40
2.9688271E+001
 50
3.3224528E+002
 51
3.3650204E+002
  0
ARC
  8
99
  6
CONTINUOUS
 62
1
 10
3.5578162E+002
 20
2.7347319E+002
 40
2.2584994E+001
 50
1.4733088E+002
 51
1.5584383E+002
  0
ARC
  8
99
  6
CONTINUOUS
 62
1
 10
3.5577415E+002
 20
2.7347788E+002
 40
2.2576176E+001
 50
1.421266E+002
 51
1.4733068E+002
  0
ARC
  8
99
  6
CONTINUOUS
 62
1
 10
3.198072E+002
 20
2.8689704E+002
 40
2.0731266E+001
 50
2.9505729E+002
 51
3.1607655E+002
  0
ARC
  8
99
  6
CONTINUOUS
 62
1
 10
3.1980713E+002
 20
2.8689719E+002
 40
2.0731421E+001
 50
3.1607638E+002
 51
3.3494262E+002
  0
ARC
  8
99
  6
CONTINUOUS
 62
1
 10
3.2853443E+002
 20
2.9394196E+002
 40
1.8748189E+001
 50
3.0242601E+002
 51
3.1685187E+002
  0
ARC
  8
99
  6
CONTINUOUS
 62
1
 10
3.2853638E+002
 20
2.9394028E+002
 40
1.874562E+001
 50
3.1685154E+002
 51
3.2611462E+002
  0
ARC
  8
99
  6
CONTINUOUS
 62
1
 10
3.6083772E+002
 20
2.7231824E+002
 40
2.0124587E+001
 50
1.4165216E+002
 51
1.4628384E+002
  0
ARC
  8
99
  6
CONTINUOUS
 62
1
 10
3.5522801E+002
 20
2.767728E+002
 40
1.2961364E+001
 50
1.3549947E+002
 51
1.4170993E+002
  0
ARC
  8
99
  6
CONTINUOUS
 62
1
 10
3.5592299E+002
 20
2.7601309E+002
 40
1.3989655E+001
 50
1.2595216E+002
 51
1.3527529E+002
  0
ARC
  8
99
  6
CONTINUOUS
 62
1
 10
3.3586993E+002
 20
2.8043978E+002
 40
1.2618953E+001
 50
2.8243596E+002
 51
3.1582168E+002
  0
ARC
  8
99
  6
CONTINUOUS
 62
1
 10
3.3586936E+002
 20
2.8044022E+002
 40
1.2619669E+001
 50
3.1582204E+002
 51
3.3140927E+002
  0
ARC
  8
99
  6
CONTINUOUS
 62
1
 10
3.6128559E+002
 20
2.6670607E+002
 40
1.6270122E+001
 50
1.4599759E+002
 51
1.517738E+002
  0
ARC
  8
99
  6
CONTINUOUS
 62
1
 10
3.5539845E+002
 20
2.706335E+002
 40
9.193344
 50
1.4156195E+002
 51
1.4577105E+002
  0
ARC
  8
99
  6
CONTINUOUS
 62
1
 10
3.5307576E+002
 20
2.7248249E+002
 40
6.2245757
 50
1.3614306E+002
 51
1.4160182E+002
  0
LINE
  8
104
  6
CONTINUOUS
 62
40
 10
2.8467651E+002
 20
2.4611687E+002
 11
2.8467651E+002
 21
2.4424556E+002
  0
LINE
  8
104
  6
CONTINUOUS
 62
40
 10
2.8467651E+002
 20
2.4424556E+002
 11
2.8854254E+002
 21
2.4424556E+002
  0
LINE
  8
104
  6
CONTINUOUS
 62
40
 10
2.8854254E+002
 20
2.4424556E+002
 11
2.8854254E+002
 21
2.4611687E+002
  0
LINE
  8
104
  6
CONTINUOUS
 62
40
 10
2.890874E+002
 20
2.3491692E+002
 11
2.890874E+002
 21
2.4311687E+002
  0
LINE
  8
104
  6
CONTINUOUS
 62
40
 10
2.890874E+002
 20
2.4311687E+002
 11
2.920874E+002
 21
2.4611687E+002
  0
LINE
  8
104
  6
CONTINUOUS
 62
40
 10
2.920874E+002
 20
2.4611687E+002
 11
2.810874E+002
 21
2.4611687E+002
  0
LINE
  8
104
  6
CONTINUOUS
 62
40
 10
2.810874E+002
 20
2.4611687E+002
 11
2.840874E+002
 21
2.4311687E+002
  0
LINE
  8
104
  6
CONTINUOUS
 62
40
 10
2.840874E+002
 20
2.4311687E+002
 11
2.840874E+002
 21
2.3491692E+002
  0
LINE
  8
104
  6
CONTINUOUS
 62
40
 10
2.840874E+002
 20
2.3491692E+002
 11
2.890874E+002
 21
2.3491692E+002
  0
LINE
  8
104
  6
CONTINUOUS
 62
40
 10
2.840874E+002
 20
2.4311687E+002
 11
2.890874E+002
 21
2.4311687E+002
  0
LINE
  8
99
  6
CONTINUOUS
 62
1
 10
2.848374E+002
 20
2.4311687E+002
 11
2.848374E+002
 21
2.3491692E+002
  0
LINE
  8
99
  6
CONTINUOUS
 62
1
 10
2.883374E+002
 20
2.4311687E+002
 11
2.883374E+002
 21
2.3491692E+002
  0
LINE
  8
104
  6
CONTINUOUS
 62
40
 10
2.690874E+002
 20
2.461169E+002
 11
2.690874E+002
 21
2.4311693E+002
  0
LINE
  8
104
  6
CONTINUOUS
 62
40
 10
3.040874E+002
 20
2.4311687E+002
 11
3.040874E+002
 21
2.4611687E+002
  0
LINE
  8
104
  6
CONTINUOUS
 62
40
 10
3.040874E+002
 20
2.4311687E+002
 11
2.890874E+002
 21
2.4311687E+002
  0
LINE
  8
104
  6
CONTINUOUS
 62
40
 10
2.890874E+002
 20
2.4311687E+002
 11
2.920874E+002
 21
2.4611687E+002
  0
LINE
  8
104
  6
CONTINUOUS
 62
40
 10
2.920874E+002
 20
2.4611687E+002
 11
3.040874E+002
 21
2.4611687E+002
  0
INSERT
  2
*XH44
  8
108
 10
2.9729991E+002
 20
2.4454191E+002
  0
LINE
  8
104
  6
CONTINUOUS
 62
40
 10
2.840874E+002
 20
2.4311687E+002
 11
2.690874E+002
 21
2.4311687E+002
  0
LINE
  8
104
  6
CONTINUOUS
 62
40
 10
2.690874E+002
 20
2.4311687E+002
 11
2.690874E+002
 21
2.431169E+002
  0
LINE
  8
104
  6
CONTINUOUS
 62
40
 10
2.690874E+002
 20
2.461169E+002
 11
2.810874E+002
 21
2.461169E+002
  0
LINE
  8
104
  6
CONTINUOUS
 62
40
 10
2.810874E+002
 20
2.461169E+002
 11
2.840874E+002
 21
2.4311687E+002
  0
INSERT
  2
*XH45
  8
108
 10
2.7555338E+002
 20
2.4444549E+002
  0
LINE
  8
104
  6
CONTINUOUS
 62
40
 10
2.793374E+002
 20
2.006169E+002
 11
2.793374E+002
 21
1.991169E+002
  0
LINE
  8
104
  6
CONTINUOUS
 62
40
 10
2.938374E+002
 20
2.006169E+002
 11
2.938374E+002
 21
1.991169E+002
  0
LINE
  8
104
  6
CONTINUOUS
 62
40
 10
2.740874E+002
 20
2.006169E+002
 11
2.740874E+002
 21
2.2091692E+002
  0
LINE
  8
104
  6
CONTINUOUS
 62
40
 10
2.740874E+002
 20
2.2091692E+002
 11
2.990874E+002
 21
2.2091692E+002
  0
LINE
  8
104
  6
CONTINUOUS
 62
40
 10
2.990874E+002
 20
2.2091692E+002
 11
2.990874E+002
 21
2.006169E+002
  0
LINE
  8
104
  6
CONTINUOUS
 62
40
 10
2.990874E+002
 20
2.006169E+002
 11
2.740874E+002
 21
2.006169E+002
  0
LINE
  8
104
  6
CONTINUOUS
 62
40
 10
2.9245269E+002
 20
2.2091692E+002
 11
2.9171899E+002
 21
2.3491692E+002
  0
LINE
  8
104
  6
CONTINUOUS
 62
40
 10
2.9171899E+002
 20
2.3491692E+002
 11
2.8145581E+002
 21
2.3491692E+002
  0
LINE
  8
104
  6
CONTINUOUS
 62
40
 10
2.8145581E+002
 20
2.3491692E+002
 11
2.807221E+002
 21
2.2091692E+002
  0
LINE
  8
105
  6
HIDDEN
 62
1
 10
3.085874E+002
 20
2.381169E+002
 11
3.232901E+002
 21
2.381169E+002
  0
LINE
  8
105
  6
HIDDEN
 62
1
 10
3.085874E+002
 20
2.281169E+002
 11
3.2442086E+002
 21
2.281169E+002
  0
LINE
  8
99
  6
CONTINUOUS
 62
1
 10
3.3079339E+002
 20
2.281169E+002
 11
3.3451022E+002
 21
2.281169E+002
  0
LINE
  8
104
  6
CONTINUOUS
 62
40
 10
3.040874E+002
 20
2.331169E+002
 11
3.0292395E+002
 21
2.4139525E+002
  0
ARC
  8
104
  6
CONTINUOUS
 62
40
 10
3.0094343E+002
 20
2.4111688E+002
 40
1.9999797
 50
8.0009349
 51
9.0000502E+001
  0
LINE
  8
104
  6
CONTINUOUS
 62
40
 10
3.0094342E+002
 20
2.4311686E+002
 11
2.923374E+002
 21
2.4311686E+002
  0
LINE
  8
104
  6
CONTINUOUS
 62
40
 10
2.923374E+002
 20
2.4311686E+002
 11
2.9181332E+002
 21
2.331169E+002
  0
LINE
  8
104
  6
CONTINUOUS
 62
40
 10
2.9181332E+002
 20
2.331169E+002
 11
2.923374E+002
 21
2.231169E+002
  0
LINE
  8
104
  6
CONTINUOUS
 62
40
 10
2.923374E+002
 20
2.231169E+002
 11
3.0094342E+002
 21
2.231169E+002
  0
ARC
  8
104
  6
CONTINUOUS
 62
40
 10
3.009434E+002
 20
2.2511691E+002
 40
2.0000056
 50
2.7000033E+002
 51
3.5199972E+002
  0
LINE
  8
104
  6
CONTINUOUS
 62
40
 10
3.0292395E+002
 20
2.2483855E+002
 11
3.040874E+002
 21
2.331169E+002
  0
INSERT
  2
*XH46
  8
108
 10
2.9746851E+002
 20
2.3359095E+002
  0
LINE
  8
104
  6
CONTINUOUS
 62
40
 10
2.690874E+002
 20
2.331169E+002
 11
2.7025085E+002
 21
2.2483855E+002
  0
ARC
  8
104
  6
CONTINUOUS
 62
40
 10
2.7223139E+002
 20
2.2511689E+002
 40
2.0000085
 50
1.8799992E+002
 51
2.6999954E+002
  0
LINE
  8
104
  6
CONTINUOUS
 62
40
 10
2.7223138E+002
 20
2.2311689E+002
 11
2.808374E+002
 21
2.2311689E+002
  0
LINE
  8
104
  6
CONTINUOUS
 62
40
 10
2.808374E+002
 20
2.2311689E+002
 11
2.8136148E+002
 21
2.331169E+002
  0
LINE
  8
104
  6
CONTINUOUS
 62
40
 10
2.8136148E+002
 20
2.331169E+002
 11
2.808374E+002
 21
2.431169E+002
  0
LINE
  8
104
  6
CONTINUOUS
 62
40
 10
2.808374E+002
 20
2.431169E+002
 11
2.7223138E+002
 21
2.431169E+002
  0
ARC
  8
104
  6
CONTINUOUS
 62
40
 10
2.7223136E+002
 20
2.4111693E+002
 40
1.9999668
 50
8.9999358E+001
 51
1.7200069E+002
  0
LINE
  8
104
  6
CONTINUOUS
 62
40
 10
2.7025085E+002
 20
2.4139525E+002
 11
2.690874E+002
 21
2.331169E+002
  0
INSERT
  2
*XH47
  8
108
 10
2.7606023E+002
 20
2.3198166E+002
  0
LINE
  8
104
  6
CONTINUOUS
 62
40
 10
3.2415939E+002
 20
2.381169E+002
 11
3.225874E+002
 21
2.381169E+002
  0
LINE
  8
104
  6
CONTINUOUS
 62
40
 10
3.085874E+002
 20
2.381169E+002
 11
3.033847E+002
 21
2.381169E+002
  0
LINE
  8
104
  6
CONTINUOUS
 62
40
 10
3.2415939E+002
 20
2.281169E+002
 11
3.225874E+002
 21
2.281169E+002
  0
LINE
  8
104
  6
CONTINUOUS
 62
40
 10
3.085874E+002
 20
2.281169E+002
 11
3.033847E+002
 21
2.281169E+002
  0
LINE
  8
104
  6
CONTINUOUS
 62
40
 10
3.2698739E+002
 20
2.381169E+002
 11
3.2415939E+002
 21
2.381169E+002
  0
ARC
  8
104
  6
CONTINUOUS
 62
40
 10
3.2415938E+002
 20
2.3711691E+002
 40
9.999881E-001
 50
8.9999496E+001
 51
1.7199956E+002
  0
LINE
  8
104
  6
CONTINUOUS
 62
40
 10
3.2316912E+002
 20
2.3725609E+002
 11
3.225874E+002
 21
2.331169E+002
  0
LINE
  8
104
  6
CONTINUOUS
 62
40
 10
3.225874E+002
 20
2.331169E+002
 11
3.2316912E+002
 21
2.2897774E+002
  0
ARC
  8
104
  6
CONTINUOUS
 62
40
 10
3.2415942E+002
 20
2.291169E+002
 40
1.0000262
 50
1.8799881E+002
 51
2.6999811E+002
  0
LINE
  8
104
  6
CONTINUOUS
 62
40
 10
3.2415939E+002
 20
2.2811687E+002
 11
3.2698739E+002
 21
2.2811687E+002
  0
LINE
  8
104
  6
CONTINUOUS
 62
40
 10
3.2698739E+002
 20
2.2811687E+002
 11
3.295874E+002
 21
2.3071691E+002
  0
LINE
  8
104
  6
CONTINUOUS
 62
40
 10
3.295874E+002
 20
2.3071691E+002
 11
3.295874E+002
 21
2.355169E+002
  0
LINE
  8
104
  6
CONTINUOUS
 62
40
 10
3.295874E+002
 20
2.355169E+002
 11
3.2698739E+002
 21
2.381169E+002
  0
INSERT
  2
*XH48
  8
108
 10
3.2572254E+002
 20
2.3366121E+002
  0
LINE
  8
104
  6
CONTINUOUS
 62
40
 10
3.381874E+002
 20
2.381169E+002
 11
3.4101541E+002
 21
2.381169E+002
  0
ARC
  8
104
  6
CONTINUOUS
 62
40
 10
3.4101541E+002
 20
2.3711691E+002
 40
9.9999298E-001
 50
8.0006859
 51
9.0000318E+001
  0
LINE
  8
104
  6
CONTINUOUS
 62
40
 10
3.4200567E+002
 20
2.3725609E+002
 11
3.425874E+002
 21
2.331169E+002
  0
LINE
  8
104
  6
CONTINUOUS
 62
40
 10
3.425874E+002
 20
2.331169E+002
 11
3.4200567E+002
 21
2.2897774E+002
  0
ARC
  8
104
  6
CONTINUOUS
 62
40
 10
3.4101537E+002
 20
2.291169E+002
 40
1.0000311
 50
2.7000207E+002
 51
3.5200094E+002
  0
LINE
  8
104
  6
CONTINUOUS
 62
40
 10
3.4101541E+002
 20
2.2811687E+002
 11
3.381874E+002
 21
2.2811687E+002
  0
LINE
  8
104
  6
CONTINUOUS
 62
40
 10
3.381874E+002
 20
2.2811687E+002
 11
3.355874E+002
 21
2.3071691E+002
  0
LINE
  8
104
  6
CONTINUOUS
 62
40
 10
3.355874E+002
 20
2.3071691E+002
 11
3.355874E+002
 21
2.355169E+002
  0
LINE
  8
104
  6
CONTINUOUS
 62
40
 10
3.355874E+002
 20
2.355169E+002
 11
3.381874E+002
 21
2.381169E+002
  0
INSERT
  2
*XH49
  8
108
 10
3.3969809E+002
 20
2.3208041E+002
  0
LINE
  8
104
  6
CONTINUOUS
 62
40
 10
3.381874E+002
 20
2.381169E+002
 11
3.355874E+002
 21
2.355169E+002
  0
LINE
  8
104
  6
CONTINUOUS
 62
40
 10
3.295874E+002
 20
2.355169E+002
 11
3.2698739E+002
 21
2.381169E+002
  0
LINE
  8
104
  6
CONTINUOUS
 62
40
 10
3.295874E+002
 20
2.3071691E+002
 11
3.295874E+002
 21
2.355169E+002
  0
LINE
  8
104
  6
CONTINUOUS
 62
40
 10
3.355874E+002
 20
2.3071691E+002
 11
3.355874E+002
 21
2.355169E+002
  0
LINE
  8
106
  6
CENTERLINE
 62
1
 10
3.325874E+002
 20
2.2709679E+002
 11
3.325874E+002
 21
2.5487792E+002
  0
LINE
  8
104
  6
CONTINUOUS
 62
40
 10
3.2698739E+002
 20
2.381169E+002
 11
3.295874E+002
 21
2.381169E+002
  0
LINE
  8
104
  6
CONTINUOUS
 62
40
 10
3.381874E+002
 20
2.381169E+002
 11
3.355874E+002
 21
2.381169E+002
  0
LINE
  8
104
  6
CONTINUOUS
 62
40
 10
3.1617019E+002
 20
1.991169E+002
 11
2.3617019E+002
 21
1.991169E+002
  0
LINE
  8
104
  6
CONTINUOUS
 62
40
 10
2.3617019E+002
 20
1.991169E+002
 11
2.2921789E+002
 21
1.971169E+002
  0
LINE
  8
104
  6
CONTINUOUS
 62
40
 10
2.570046E+002
 20
1.991169E+002
 11
3.225874E+002
 21
1.991169E+002
  0
LINE
  8
104
  6
CONTINUOUS
 62
40
 10
3.225874E+002
 20
1.971169E+002
 11
3.225874E+002
 21
1.371169E+002
  0
LINE
  8
104
  6
CONTINUOUS
 62
40
 10
3.225874E+002
 20
1.371169E+002
 11
2.445874E+002
 21
1.371169E+002
  0
LINE
  8
104
  6
CONTINUOUS
 62
40
 10
2.445874E+002
 20
1.371169E+002
 11
2.445874E+002
 21
1.971169E+002
  0
LINE
  8
104
  6
CONTINUOUS
 62
40
 10
2.445874E+002
 20
1.971169E+002
 11
3.225874E+002
 21
1.971169E+002
  0
LINE
  8
104
  6
CONTINUOUS
 62
40
 10
3.225874E+002
 20
1.971169E+002
 11
2.570046E+002
 21
1.971169E+002
  0
LINE
  8
106
  6
CENTERLINE
 62
1
 10
2.865874E+002
 20
1.9164962E+002
 11
2.865874E+002
 21
2.5183419E+002
  0
LINE
  8
98
  6
CONTINUOUS
 62
1
 10
5.0
 20
5.0
 11
4.15E+002
 21
5.0
  0
LINE
  8
98
  6
CONTINUOUS
 62
1
 10
4.15E+002
 20
5.0
 11
4.15E+002
 21
2.92E+002
  0
LINE
  8
98
  6
CONTINUOUS
 62
1
 10
4.15E+002
 20
2.92E+002
 11
5.0
 21
2.92E+002
  0
LINE
  8
98
  6
CONTINUOUS
 62
1
 10
5.0
 20
2.92E+002
 11
5.0
 21
5.0
  0
TEXT
  8
103
  6
CONTINUOUS
 62
40
 10
2.3444397E+002
 20
5.3667076E+001
 40
5.0
  1
Steckachsen verlängert
 41
6.6477273E-001
 72
1
 11
1.9788147E+002
 21
5.1167076E+001
 73
2
  0
ENDSEC
  0
EOF
